osu file format v14

[General]
AudioFilename: audio.mp3
AudioLeadIn: 0
PreviewTime: 118839
Countdown: 0
SampleSet: Normal
StackLeniency: 0.7
Mode: 1
LetterboxInBreaks: 0
WidescreenStoryboard: 1

[Editor]
Bookmarks: 775,18194,25936,33678,41420,49162,64645,80129,95613,103355,111097,118839,136137,149807,167226,174968,185129,198678
DistanceSpacing: 0.5
BeatDivisor: 4
GridSize: 32
TimelineZoom: 4.299998

[Metadata]
Title:Ariadne
TitleUnicode:アリアドネ
Artist:Hana to Onyx
ArtistUnicode:はなとオニキス
Creator:gaston_2199
Version:Inner Oni
Source:
Tags:japanese j-rock rock jrock BLACK×WHITE BLACK × WHITE forest 黒うさP Kurousa P 倉内達矢 Kurauchi Tatsuya WhiteFlame vocaloid cover 初音ミク hatsune miku usa うさ 月岡月穂 月岡 マクー gram6design
BeatmapID:2610197
BeatmapSetID:1255970

[Difficulty]
HPDrainRate:6
CircleSize:2
OverallDifficulty:7
ApproachRate:10
SliderMultiplier:1.4
SliderTickRate:1

[Events]
//Background and Video events
0,0,"BG.jpg",0,80
Video,-1250,"TaikoVideo.mp4"
//Break Periods
//Storyboard Layer 0 (Background)
//Storyboard Layer 1 (Fail)
//Storyboard Layer 2 (Pass)
//Storyboard Layer 3 (Foreground)
//Storyboard Layer 4 (Overlay)
//Storyboard Sound Samples

[TimingPoints]
775,241.935483870968,4,1,0,90,1,0
775,-83.3333333333333,4,1,0,90,0,0
1857,-86.5231535959023,4,1,0,90,0,0
1978,-88.211347331298,4,1,0,90,0,0
2099,-89.9668112433323,4,1,0,90,0,0
2160,-90.8710076958656,4,1,0,90,0,0
2220,-91.7935636189062,4,1,0,90,0,0
2341,-93.6960369387256,4,1,0,90,0,0
2462,-95.6790389231898,4,1,0,90,0,0
2523,-96.702353058357,4,1,0,90,0,0
2583,-97.7477930992013,4,1,0,90,0,0
2704,-99.9078849300944,4,1,0,80,0,0
3672,-124.8561033409,4,1,0,80,0,0
9720,-121.231224314134,4,1,0,80,0,0
9841,-119.430650204346,4,1,0,80,0,0
9902,-118.550412970364,4,1,0,80,0,0
9962,-117.682917500744,4,1,0,80,0,0
10083,-115.985599228,4,1,0,80,0,0
10204,-114.336545046884,4,1,0,80,0,0
10325,-112.733598106977,4,1,0,80,0,0
10446,-111.175098556725,4,1,0,80,0,0
14317,-111.111111111111,4,1,0,80,0,0
14559,-109.58904109589,4,1,0,70,0,0
14801,-108.108108108108,4,1,0,70,0,0
15043,-106.666666666667,4,1,0,70,0,0
15285,-105.263157894737,4,1,0,70,0,0
15527,-103.896103896104,4,1,0,70,0,0
15769,-102.564102564103,4,1,0,70,0,0
16010,-101.26582278481,4,1,0,70,0,0
16252,-83.3333333333333,4,1,0,90,0,0
17220,-133.333333333333,4,1,0,70,0,0
18188,-100,4,1,0,90,0,0
25204,-90.9090909090909,4,1,0,90,0,0
25567,-111.111111111111,4,1,0,90,0,0
25627,-109.118129104206,4,1,0,90,0,0
25688,-107.195267972091,4,1,0,90,0,0
25809,-103.546144821709,4,1,0,90,0,0
25930,-100.137187947488,4,1,0,90,0,0
31736,-98.2209243964079,4,1,0,90,0,0
31857,-96.5040444845043,4,1,0,90,0,0
31978,-94.8460648367699,4,1,0,90,0,0
32099,-93.2441794652073,4,1,0,90,0,0
32220,-91.6955049029587,4,1,0,90,0,0
32341,-90.1974331614471,4,1,0,90,0,0
32462,-88.747523944082,4,1,0,90,0,0
32704,-85.9831180745972,4,1,0,90,0,0
32946,-83.3857968972145,4,1,0,90,0,0
33188,-90.9090909090909,4,1,0,90,0,0
33309,-95.2380952380952,4,1,0,90,0,0
33430,-100,4,1,0,90,0,0
33551,-105.263157894737,4,1,0,90,0,0
33672,-90.9090909090909,4,1,0,90,0,0
35002,-111.111111111111,4,1,0,90,0,0
35123,-90.9090909090909,4,1,0,90,0,0
35607,-110.856264875525,4,1,0,80,0,0
37543,-90.9090909090909,4,1,0,90,0,0
38873,-111.111111111111,4,1,0,90,0,0
38994,-90.9090909090909,4,1,0,90,0,0
39478,-111.111111111111,4,1,0,80,0,0
47341,-111.886108892037,4,1,0,80,0,0
47462,-112.671993798533,4,1,0,80,0,0
47523,-113.068963021926,4,1,0,80,0,0
47583,-113.468868114,4,1,0,80,0,0
47644,-113.871612034863,4,1,0,80,0,0
47704,-114.27722512042,4,1,0,80,0,0
47825,-115.09718230588,4,1,0,80,0,0
47946,-115.928991174326,4,1,0,80,0,0
48067,-116.772774194151,4,1,0,80,0,0
48127,-117.199357278725,4,1,0,80,0,0
48188,-117.629068495407,4,1,0,80,0,0
48430,-119.379893083368,4,1,0,80,0,0
48672,-121.183477844631,4,1,0,80,0,0
48914,-123.042546882286,4,1,0,80,0,0
49156,-125,4,1,0,70,0,0
56898,-111.111111111111,4,1,0,80,0,0
57381,-125,4,1,0,70,0,0
57744,-111.111111111111,4,1,0,80,0,0
57871,-117.64705882353,4,1,0,80,0,0
57992,-125,4,1,0,70,0,0
58833,-111.111111111111,4,1,0,80,0,0
59316,-125,4,1,0,70,0,0
59679,-111.111111111111,4,1,0,80,0,0
59807,-117.64705882353,4,1,0,80,0,0
59928,-125,4,1,0,70,0,0
60769,-111.111111111111,4,1,0,80,0,0
61010,-125,4,1,0,70,0,0
61252,-123.076923076923,4,1,0,70,0,0
61494,-121.212121212121,4,1,0,70,0,0
61736,-119.402985074627,4,1,0,70,0,0
61978,-117.647058823529,4,1,0,70,0,0
62220,-115.942028985507,4,1,0,70,0,0
62341,-114.285714285714,4,1,0,70,0,0
62462,-112.676056338028,4,1,0,70,0,0
62704,-83.3333333333333,4,1,0,90,0,0
63914,-111.111111111111,4,1,0,90,0,0
63995,-109.375,4,1,0,90,0,0
64076,-107.692307692308,4,1,0,90,0,0
64156,-106.060606060606,4,1,0,90,0,0
64277,-104.477611940299,4,1,0,90,0,0
64398,-102.941176470588,4,1,0,90,0,0
64519,-101.449275362319,4,1,0,90,0,0
64645,-100,4,1,0,100,0,1
71659,-90.9090909090909,4,1,0,100,0,1
71777,-92.1052631578947,4,1,0,100,0,1
71837,-93.3333333333333,4,1,0,100,0,1
71898,-94.5945945945946,4,1,0,100,0,1
72019,-95.8904109589041,4,1,0,100,0,1
72139,-97.2222222222222,4,1,0,100,0,1
72260,-98.5915492957747,4,1,0,100,0,1
72381,-100,4,1,0,100,0,1
76494,-98.5957014246093,4,1,0,100,0,1
76615,-97.9081914888409,4,1,0,100,0,1
76676,-97.5680195448257,4,1,0,100,0,1
76736,-97.2302032014017,4,1,0,100,0,1
76857,-96.5616333593406,4,1,0,100,0,1
76978,-95.9021031331217,4,1,0,100,0,1
77039,-95.5757050380821,4,1,0,100,0,1
77099,-95.251521166793,4,1,0,100,0,1
77160,-94.9296191803397,4,1,0,100,0,1
77220,-94.6097960875065,4,1,0,100,0,1
77341,-93.97657164069,4,1,0,100,0,1
77462,-93.3517671956289,4,1,0,100,0,1
77583,-92.7353019183224,4,1,0,100,0,1
77644,-92.4300697200016,4,1,0,100,0,1
77704,-92.1268402336337,4,1,0,100,0,1
77825,-91.5263110686429,4,1,0,100,0,1
77946,-90.9336429926989,4,1,0,100,0,1
78188,-83.3539634392846,4,1,0,100,0,1
79035,-100,4,1,0,100,0,1
79156,-101.694949727102,4,1,0,100,0,1
79277,-103.448240190262,4,1,0,100,0,1
79519,-107.142895408177,4,1,0,100,0,1
79760,-111.111111111111,4,1,0,100,0,1
80129,-100,4,1,0,90,0,0
85930,-98.2209243964079,4,1,0,90,0,0
86051,-96.5040444845043,4,1,0,90,0,0
86172,-94.8460648367699,4,1,0,90,0,0
86293,-93.2441794652073,4,1,0,90,0,0
86414,-91.6955049029587,4,1,0,90,0,0
86535,-90.1974331614471,4,1,0,90,0,0
86656,-88.747523944082,4,1,0,90,0,0
86898,-85.9831180745972,4,1,0,90,0,0
87140,-83.3857968972145,4,1,0,90,0,0
87865,-100,4,1,0,80,0,0
88591,-125,4,1,0,70,0,0
91736,-100,4,1,0,80,0,0
92704,-133.333333333333,4,1,0,70,0,0
93672,-100,4,1,0,80,0,0
93914,-100.77519379845,4,1,0,80,0,0
94156,-101.5625,4,1,0,80,0,0
94277,-102.362204724409,4,1,0,80,0,0
94398,-103.174603174603,4,1,0,80,0,0
94639,-104,4,1,0,80,0,0
94760,-104.838709677419,4,1,0,80,0,0
94881,-105.691056910569,4,1,0,80,0,0
95002,-106.55737704918,4,1,0,80,0,0
95063,-107.438016528926,4,1,0,80,0,0
95123,-108.333333333333,4,1,0,80,0,0
95244,-109.243697478992,4,1,0,80,0,0
95365,-110.169491525424,4,1,0,80,0,0
95607,-111.111111111111,4,1,0,80,0,0
101536,-111.888111888112,4,1,0,80,0,0
101657,-112.676056338028,4,1,0,80,0,0
101737,-113.207589889657,4,1,0,80,0,0
101818,-113.744032703684,4,1,0,80,0,0
101899,-114.285714285714,4,1,0,80,0,0
101979,-114.832579840222,4,1,0,80,0,0
102060,-115.384571005934,4,1,0,80,0,0
102140,-115.942028985507,4,1,0,80,0,0
102221,-116.504899613553,4,1,0,80,0,0
102302,-117.073125044634,4,1,0,80,0,0
102382,-117.647058823529,4,1,0,80,0,0
102544,-118.811834133927,4,1,0,80,0,0
102624,-119.402985074627,4,1,0,80,0,0
102786,-120.602966591772,4,1,0,80,0,0
102866,-121.212121212121,4,1,0,80,0,0
102947,-121.827460640593,4,1,0,80,0,0
103028,-122.448929612682,4,1,0,80,0,0
103108,-123.076923076923,4,1,0,80,0,0
103189,-123.711391221192,4,1,0,80,0,0
103270,-124.352280061231,4,1,0,80,0,0
103349,-125,4,1,0,70,0,0
110244,-120.499930110041,4,1,0,70,0,0
110305,-119.781279383845,4,1,0,70,0,0
110365,-119.071149774836,4,1,0,70,0,0
110486,-117.675716321504,4,1,0,70,0,0
110607,-116.312746364936,4,1,0,70,0,0
110668,-115.643033085472,4,1,0,70,0,0
110728,-114.980855687528,4,1,0,70,0,0
110849,-113.679251717693,4,1,0,70,0,0
110970,-112.406660319437,4,1,0,70,0,0
111091,-111.111111111111,4,1,0,80,0,0
111575,-125,4,1,0,70,0,0
111938,-111.111111111111,4,1,0,80,0,0
112065,-117.647058823529,4,1,0,80,0,0
112186,-125,4,1,0,70,0,0
113027,-111.111111111111,4,1,0,80,0,0
113510,-125,4,1,0,70,0,0
113873,-111.111111111111,4,1,0,80,0,0
114000,-117.647058823529,4,1,0,80,0,0
114121,-125,4,1,0,70,0,0
114962,-111.111111111111,4,1,0,80,0,0
115204,-125,4,1,0,70,0,0
115446,-123.076923076923,4,1,0,70,0,0
115688,-121.212121212121,4,1,0,70,0,0
115930,-119.402985074627,4,1,0,70,0,0
116172,-117.647058823529,4,1,0,70,0,0
116414,-115.942028985507,4,1,0,70,0,0
116535,-114.285714285714,4,1,0,70,0,0
116656,-112.676056338028,4,1,0,70,0,0
116898,-83.3333333333333,4,1,0,90,0,0
118107,-111.111111111111,4,1,0,90,0,0
118188,-109.375,4,1,0,90,0,0
118269,-107.692307692308,4,1,0,90,0,0
118349,-106.060606060606,4,1,0,90,0,0
118470,-104.477611940299,4,1,0,90,0,0
118591,-102.941176470588,4,1,0,90,0,0
118712,-101.449275362319,4,1,0,90,0,0
118839,-100,4,1,0,100,0,1
125849,-90.9090909090909,4,1,0,100,0,1
125970,-92.1052631578947,4,1,0,100,0,1
126030,-93.3333333333333,4,1,0,100,0,1
126091,-94.5945945945946,4,1,0,100,0,1
126212,-95.8904109589041,4,1,0,100,0,1
126332,-97.2222222222222,4,1,0,100,0,1
126453,-98.5915492957747,4,1,0,100,0,1
126574,-100,4,1,0,100,0,1
130688,-98.5957014246093,4,1,0,100,0,1
130809,-97.9081914888409,4,1,0,100,0,1
130870,-97.5680195448257,4,1,0,100,0,1
130930,-97.2302032014017,4,1,0,100,0,1
131051,-96.5616333593406,4,1,0,100,0,1
131172,-95.9021031331217,4,1,0,100,0,1
131233,-95.5757050380821,4,1,0,100,0,1
131293,-95.251521166793,4,1,0,100,0,1
131354,-94.9296191803397,4,1,0,100,0,1
131414,-94.6097960875065,4,1,0,100,0,1
131535,-93.97657164069,4,1,0,100,0,1
131656,-93.3517671956289,4,1,0,100,0,1
131777,-92.7353019183224,4,1,0,100,0,1
131838,-92.4300697200016,4,1,0,100,0,1
131898,-92.1268402336337,4,1,0,100,0,1
132019,-91.5263110686429,4,1,0,100,0,1
132140,-90.9336429926989,4,1,0,100,0,1
132381,-83.3539634392846,4,1,0,100,0,1
133228,-100,4,1,0,100,0,1
133349,-101.440557354998,4,1,0,100,0,1
133470,-102.923225449208,4,1,0,100,0,1
133712,-106.022614623699,4,1,0,100,0,1
133954,-109.314347617439,4,1,0,100,0,1
134075,-111.038072734379,4,1,0,100,0,1
134323,-100,4,1,0,90,0,0
135285,-125,4,1,0,90,0,0
135345,-122.641509433962,4,1,0,90,0,0
135406,-120.37037037037,4,1,0,90,0,0
135466,-118.181818181818,4,1,0,90,0,0
135527,-116.071428571429,4,1,0,90,0,0
135587,-114.035087719298,4,1,0,90,0,0
135648,-112.068965517241,4,1,0,90,0,0
135708,-110.169491525424,4,1,0,90,0,0
135769,-108.333333333333,4,1,0,90,0,0
135829,-106.55737704918,4,1,0,90,0,0
135889,-104.838709677419,4,1,0,90,0,0
135950,-103.174603174603,4,1,0,90,0,0
136010,-101.5625,4,1,0,90,0,0
136131,-100,4,1,0,90,0,0
136615,-111.111111111111,4,1,0,90,0,0
136736,-100,4,1,0,90,0,0
136978,-111.111111111111,4,1,0,90,0,0
138188,-100,4,1,0,90,0,0
138430,-111.111111111111,4,1,0,90,0,0
138672,-100,4,1,0,90,0,0
138914,-111.111111111111,4,1,0,90,0,0
139642,-100,4,1,0,90,0,0
139884,-111.111111111111,4,1,0,90,0,0
142059,-100,4,1,0,90,0,0
142301,-111.111111111111,4,1,0,90,0,0
142543,-100,4,1,0,90,0,0
142785,-111.111111111111,4,1,0,90,0,0
143513,-100,4,1,0,90,0,0
143755,-111.111111111111,4,1,0,90,0,0
145930,-100,4,1,0,90,0,0
146172,-111.111111111111,4,1,0,90,0,0
146414,-100,4,1,0,90,0,0
146656,-111.111111111111,4,1,0,90,0,0
147384,-100,4,1,0,90,0,0
147626,-111.111111111111,4,1,0,90,0,0
147865,-110.004103153048,4,1,0,90,0,0
147986,-108.919054626173,4,1,0,90,0,0
148107,-107.855085906576,4,1,0,90,0,0
148228,-106.811816804917,4,1,0,90,0,0
148349,-105.788425265238,4,1,0,90,0,0
148470,-104.784458369135,4,1,0,90,0,0
148591,-103.799476020245,4,1,0,90,0,0
148712,-102.832733304334,4,1,0,90,0,0
148833,-101.883935857949,4,1,0,90,0,0
149075,-100,4,1,0,90,0,0
149317,-102.040816326531,4,1,0,90,0,0
149438,-104.166666666667,4,1,0,90,0,0
149559,-106.382978723404,4,1,0,90,0,0
149680,-108.695652173913,4,1,0,90,0,0
149801,-111.111111111111,4,1,0,70,0,0
151736,-100,4,1,0,80,0,0
152704,-111.111111111111,4,1,0,70,0,0
155607,-100,4,1,0,80,0,0
156575,-111.111111111111,4,1,0,70,0,0
161656,-105.320252557966,4,1,0,70,0,0
161777,-102.645482007787,4,1,0,70,0,0
161898,-100.103206405804,4,1,0,90,0,0
162381,-111.111111111111,4,1,0,70,0,0
162623,-105.320252557966,4,1,0,70,0,0
162704,-103.521919213565,4,1,0,70,0,0
162785,-101.783864000472,4,1,0,70,0,0
162865,-100.103206405804,4,1,0,90,0,0
163352,-111.111111111111,4,1,0,70,0,0
165285,-83.3333333333333,4,1,0,90,0,0
166373,-86.5231535959023,4,1,0,90,0,0
166494,-88.211347331298,4,1,0,90,0,0
166615,-89.9668112433323,4,1,0,90,0,0
166676,-90.8710076958656,4,1,0,90,0,0
166736,-91.7935636189062,4,1,0,90,0,0
166857,-93.6960369387256,4,1,0,90,0,0
166978,-95.6790389231898,4,1,0,90,0,0
167039,-96.702353058357,4,1,0,90,0,0
167099,-97.7477930992013,4,1,0,90,0,0
167220,-99.9078849300944,4,1,0,80,0,0
168188,-124.8561033409,4,1,0,80,0,0
174236,-121.231224314134,4,1,0,80,0,0
174357,-119.430650204346,4,1,0,80,0,0
174418,-118.550412970364,4,1,0,80,0,0
174478,-117.682917500744,4,1,0,80,0,0
174599,-115.985599228,4,1,0,80,0,0
174720,-114.336545046884,4,1,0,80,0,0
174841,-112.733598106977,4,1,0,80,0,0
174962,-111.175098556725,4,1,0,80,0,0
181615,-111.111111111111,4,1,0,80,0,0
181742,241.935483870968,6,1,0,80,1,0
181742,-112.892428191949,4,1,0,80,0,0
181857,-114.731791491031,6,1,0,80,0,0
182099,-118.596528679606,6,1,0,80,0,0
182462,-124.907568399384,6,1,0,80,0,0
183193,241.935483870968,4,1,0,90,1,0
183193,-76.9537400287191,6,1,0,90,0,0
183672,-111.111111111111,4,1,0,90,0,0
184277,-108.695652173913,4,1,0,90,0,0
184337,-106.382978723404,4,1,0,90,0,0
184398,-104.166666666667,4,1,0,90,0,0
184519,-102.040816326531,4,1,0,90,0,0
184639,-100,4,1,0,90,0,0
184760,-98.0392156862745,4,1,0,90,0,0
184821,-96.1538461538461,4,1,0,90,0,0
184881,-94.3396226415094,4,1,0,90,0,0
185002,-92.5925925925926,4,1,0,90,0,0
185128,-90.9090909090909,4,1,0,100,0,1
190204,-83.3333333333333,4,1,0,100,0,1
190325,-84.3373493975904,4,1,0,100,0,1
190385,-85.3658536585366,4,1,0,100,0,1
190446,-86.4197530864197,4,1,0,100,0,1
190567,-87.5,4,1,0,100,0,1
190688,-88.6075949367089,4,1,0,100,0,1
190809,-89.7435897435897,4,1,0,100,0,1
190930,-90.9090909090909,4,1,0,100,0,1
195043,-89.7435667324188,4,1,0,100,0,1
195164,-89.1719404438444,4,1,0,100,0,1
195224,-88.8888888888889,4,1,0,100,0,1
195285,-88.6076285851754,4,1,0,100,0,1
195406,-88.0503366164369,4,1,0,100,0,1
195527,-87.5000109375014,4,1,0,100,0,1
195587,-87.2273817218511,4,1,0,100,0,1
195648,-86.9565217391304,4,1,0,100,0,1
195708,-86.6873387073704,4,1,0,100,0,1
195769,-86.4197424173157,4,1,0,100,0,1
195829,-86.153867360952,4,1,0,100,0,1
195889,-85.8895494749572,4,1,0,100,0,1
196010,-85.3658224271381,4,1,0,100,0,1
196131,-84.8485157024906,4,1,0,100,0,1
196192,-84.5921347924913,4,1,0,100,0,1
196252,-84.3373697198481,4,1,0,100,0,1
196373,-83.8323453691432,4,1,0,100,0,1
196494,-83.3333333333333,4,1,0,100,0,1
196736,-76.8822701796739,4,1,0,100,0,1
197583,-90.9090909090909,4,1,0,100,0,1
197704,-92.436974789916,4,1,0,100,0,1
197825,-94.017094017094,4,1,0,100,0,1
197949,-95.6521739130435,4,1,0,100,0,1
198027,-97.3451327433628,4,1,0,100,0,1
198107,-99.0990990990991,4,1,0,100,0,1
198188,-100.917431192661,4,1,0,100,0,1
198269,-102.803738317757,4,1,0,100,0,1
198349,-104.761904761905,4,1,0,100,0,1
198430,-106.796116504854,4,1,0,100,0,1
198510,-108.910891089109,4,1,0,100,0,1
198591,-111.111111111111,4,1,0,100,0,1
198676,-100,4,1,0,90,0,0
205688,-90.9090909090909,4,1,0,90,0,0
205930,-111.111111111111,4,1,0,90,0,0
206111,-109.118129104206,4,1,0,90,0,0
206172,-107.195267972091,4,1,0,90,0,0
206293,-103.546144821709,4,1,0,90,0,0
206414,-100,4,1,0,90,0,0
210466,-99.2063492063492,4,1,0,90,0,0
210527,-98.4251968503937,4,1,0,90,0,0
210648,-97.65625,4,1,0,90,0,0
210708,-96.8992248062015,4,1,0,90,0,0
210769,-96.1538461538461,4,1,0,90,0,0
210889,-95.4198473282443,4,1,0,90,0,0
210950,-94.6969696969697,4,1,0,90,0,0
211010,-93.984962406015,4,1,0,90,0,0
211071,-93.2835820895522,4,1,0,90,0,0
211131,-92.5925925925926,4,1,0,90,0,0
211192,-91.9117647058823,4,1,0,90,0,0
211252,-91.2408759124088,4,1,0,90,0,0
211373,-90.5797101449275,4,1,0,90,0,0
211434,-89.9280575539568,4,1,0,90,0,0
211494,-89.2857142857143,4,1,0,90,0,0
211615,-88.6524822695036,4,1,0,90,0,0
211676,-88.0281690140845,4,1,0,90,0,0
211736,-87.4125874125874,4,1,0,90,0,0
211797,-86.8055555555556,4,1,0,90,0,0
211857,-86.2068965517241,4,1,0,90,0,0
211918,-85.6164383561644,4,1,0,90,0,0
211978,-85.0340136054422,4,1,0,90,0,0
212039,-84.4594594594595,4,1,0,90,0,0
212099,-83.8926174496644,4,1,0,90,0,0
212220,-83.3333333333333,4,1,0,70,0,0
212341,-85.1000819513789,4,1,0,70,0,0
212583,-88.8683504256794,4,1,0,70,0,0
212704,-90.8805048593806,4,1,0,70,0,0
212946,-95.1910436650836,4,1,0,70,0,0
213067,-97.5033297387106,4,1,0,70,0,0
213309,-102.482221896556,4,1,0,70,0,0
213430,-105.167400209283,4,1,0,70,0,0
213672,-110.98311059023,4,1,0,70,0,0
214159,-100,4,1,0,90,0,0
214522,-90.9090909090909,4,1,0,90,0,0
214881,-83.3333333333333,4,1,0,90,0,0

[HitObjects]
256,192,775,5,12,0:0:0:0:
256,192,895,1,4,0:0:0:0:
256,192,1137,1,4,0:0:0:0:
256,192,1258,1,12,0:0:0:0:
256,192,1500,1,12,0:0:0:0:
256,192,1621,1,4,0:0:0:0:
256,192,1863,1,0,0:0:0:0:
256,192,1984,1,8,0:0:0:0:
256,192,2105,1,0,0:0:0:0:
256,192,2166,1,0,0:0:0:0:
256,192,2226,1,8,0:0:0:0:
256,192,2347,1,0,0:0:0:0:
256,192,2468,1,0,0:0:0:0:
256,192,2529,1,0,0:0:0:0:
256,192,2589,1,0,0:0:0:0:
256,192,2710,1,12,0:0:0:0:
416,32,3678,1,4,0:0:0:0:
256,192,4645,1,12,0:0:0:0:
256,128,5492,1,0,0:0:0:0:
384,64,5613,1,0,0:0:0:0:
352,96,5855,1,8,0:0:0:0:
320,96,5976,1,0,0:0:0:0:
320,96,6097,1,0,0:0:0:0:
320,96,6218,1,8,0:0:0:0:
320,96,6339,1,0,0:0:0:0:
320,96,6581,1,12,0:0:0:0:
96,96,7549,1,12,0:0:0:0:
128,192,8516,1,4,0:0:0:0:
352,160,9484,1,0,0:0:0:0:
352,160,9726,1,8,0:0:0:0:
352,160,9847,1,0,0:0:0:0:
352,160,9908,1,0,0:0:0:0:
352,160,9968,1,0,0:0:0:0:
352,160,10089,1,8,0:0:0:0:
352,160,10210,1,0,0:0:0:0:
352,160,10331,1,0,0:0:0:0:
352,160,10452,1,12,0:0:0:0:
352,160,10694,1,0,0:0:0:0:
352,160,10815,1,8,0:0:0:0:
352,160,10936,1,0,0:0:0:0:
352,160,11178,1,8,0:0:0:0:
352,160,11420,1,0,0:0:0:0:
352,160,11541,1,8,0:0:0:0:
320,128,11662,1,8,0:0:0:0:
352,160,11783,1,0,0:0:0:0:
352,160,11904,1,8,0:0:0:0:
320,128,12145,1,8,0:0:0:0:
288,96,12387,1,0,0:0:0:0:
288,96,12629,1,0,0:0:0:0:
288,96,12750,1,8,0:0:0:0:
288,96,12871,1,0,0:0:0:0:
183,50,12992,1,0,0:0:0:0:
288,96,13113,1,8,0:0:0:0:
288,96,13355,1,0,0:0:0:0:
174,120,13476,1,8,0:0:0:0:
288,96,13597,1,8,0:0:0:0:
193,23,13718,1,0,0:0:0:0:
288,96,13839,1,8,0:0:0:0:
288,96,13960,1,8,0:0:0:0:
262,105,14081,1,0,0:0:0:0:
288,96,14323,1,4,0:0:0:0:
288,96,14565,1,0,0:0:0:0:
288,96,14807,1,0,0:0:0:0:
288,96,15049,1,0,0:0:0:0:
288,96,15291,1,8,0:0:0:0:
288,96,15533,1,8,0:0:0:0:
288,96,15775,1,8,0:0:0:0:
288,96,16016,1,8,0:0:0:0:
288,96,16258,1,12,0:0:0:0:
288,96,16379,1,4,0:0:0:0:
288,96,16500,1,12,0:0:0:0:
288,96,16621,1,4,0:0:0:0:
288,96,16742,1,12,0:0:0:0:
256,192,17710,12,0,18073,0:0:0:0:
288,128,18194,5,4,0:0:0:0:
288,128,18375,1,0,0:0:0:0:
288,128,18436,1,8,0:0:0:0:
288,128,18557,1,0,0:0:0:0:
288,96,18678,1,12,0:0:0:0:
288,96,18920,1,8,0:0:0:0:
288,96,19041,1,0,0:0:0:0:
288,96,19101,1,0,0:0:0:0:
288,96,19162,1,8,0:0:0:0:
288,96,19283,1,0,0:0:0:0:
288,96,19404,1,8,0:0:0:0:
267,91,19464,1,0,0:0:0:0:
288,96,19525,1,8,0:0:0:0:
288,96,19645,1,8,0:0:0:0:
288,96,19706,1,0,0:0:0:0:
288,96,19766,1,0,0:0:0:0:
288,96,19827,1,0,0:0:0:0:
288,96,19887,1,8,0:0:0:0:
288,96,20008,1,8,0:0:0:0:
288,96,20129,1,0,0:0:0:0:
288,96,20250,1,0,0:0:0:0:
288,96,20311,1,0,0:0:0:0:
288,96,20371,1,8,0:0:0:0:
320,128,20492,1,0,0:0:0:0:
320,128,20613,1,8,0:0:0:0:
320,128,20674,1,0,0:0:0:0:
320,128,20734,1,8,0:0:0:0:
286,66,20855,1,8,0:0:0:0:
320,128,20976,1,0,0:0:0:0:
286,66,21037,1,0,0:0:0:0:
320,128,21097,1,8,0:0:0:0:
320,128,21218,1,0,0:0:0:0:
342,108,21339,1,8,0:0:0:0:
342,108,21400,1,0,0:0:0:0:
342,108,21460,1,8,0:0:0:0:
320,128,21520,1,8,0:0:0:0:
320,128,21581,1,0,0:0:0:0:
245,40,21641,1,8,0:0:0:0:
320,128,21702,1,0,0:0:0:0:
277,57,21823,1,8,0:0:0:0:
289,80,21944,1,8,0:0:0:0:
320,128,22065,1,4,0:0:0:0:
261,59,22246,1,0,0:0:0:0:
288,128,22307,1,8,0:0:0:0:
288,96,22428,1,0,0:0:0:0:
288,96,22549,1,8,0:0:0:0:
288,96,22609,1,8,0:0:0:0:
288,96,22670,1,0,0:0:0:0:
299,74,22730,1,0,0:0:0:0:
288,96,22791,1,8,0:0:0:0:
288,96,22912,1,0,0:0:0:0:
185,105,22972,1,0,0:0:0:0:
288,96,23033,1,8,0:0:0:0:
288,96,23154,1,0,0:0:0:0:
288,96,23275,1,8,0:0:0:0:
265,81,23395,1,0,0:0:0:0:
185,105,23456,1,0,0:0:0:0:
288,96,23516,1,8,0:0:0:0:
288,96,23577,1,8,0:0:0:0:
288,96,23637,1,8,0:0:0:0:
263,61,23758,1,8,0:0:0:0:
288,96,23879,1,0,0:0:0:0:
288,96,23940,1,0,0:0:0:0:
288,96,24000,1,8,0:0:0:0:
288,96,24121,1,0,0:0:0:0:
288,96,24242,1,8,0:0:0:0:
288,96,24363,1,0,0:0:0:0:
288,96,24424,1,0,0:0:0:0:
288,96,24484,1,8,0:0:0:0:
288,96,24545,1,0,0:0:0:0:
288,96,24605,1,8,0:0:0:0:
288,96,24726,1,8,0:0:0:0:
288,96,24847,1,0,0:0:0:0:
288,96,24968,1,8,0:0:0:0:
288,96,25210,1,12,0:0:0:0:
288,96,25573,1,0,0:0:0:0:
288,96,25633,1,0,0:0:0:0:
288,96,25694,1,8,0:0:0:0:
288,96,25815,1,8,0:0:0:0:
288,128,25936,1,4,0:0:0:0:
288,128,26117,1,0,0:0:0:0:
288,128,26178,1,8,0:0:0:0:
288,128,26299,1,0,0:0:0:0:
288,96,26420,1,12,0:0:0:0:
288,96,26662,1,8,0:0:0:0:
288,96,26783,1,0,0:0:0:0:
288,96,26843,1,0,0:0:0:0:
288,96,26904,1,8,0:0:0:0:
288,96,27025,1,0,0:0:0:0:
288,96,27145,1,8,0:0:0:0:
266,89,27206,1,0,0:0:0:0:
288,96,27266,1,8,0:0:0:0:
288,96,27387,1,8,0:0:0:0:
185,105,27448,1,8,0:0:0:0:
252,50,27508,1,0,0:0:0:0:
252,50,27569,1,0,0:0:0:0:
252,50,27629,1,8,0:0:0:0:
288,96,27750,1,8,0:0:0:0:
288,96,27871,1,0,0:0:0:0:
288,96,27992,1,0,0:0:0:0:
288,96,28053,1,0,0:0:0:0:
288,96,28113,1,8,0:0:0:0:
320,128,28234,1,0,0:0:0:0:
320,128,28355,1,8,0:0:0:0:
320,128,28416,1,8,0:0:0:0:
320,128,28476,1,8,0:0:0:0:
320,128,28597,1,8,0:0:0:0:
320,128,28718,1,0,0:0:0:0:
320,128,28779,1,0,0:0:0:0:
320,128,28839,1,8,0:0:0:0:
320,128,28960,1,0,0:0:0:0:
320,128,29081,1,8,0:0:0:0:
285,57,29141,1,0,0:0:0:0:
295,116,29202,1,8,0:0:0:0:
320,128,29262,1,8,0:0:0:0:
320,128,29323,1,0,0:0:0:0:
234,55,29383,1,8,0:0:0:0:
320,128,29444,1,0,0:0:0:0:
320,128,29565,1,8,0:0:0:0:
324,115,29686,1,8,0:0:0:0:
320,128,29807,1,4,0:0:0:0:
320,128,29988,1,0,0:0:0:0:
288,128,30049,1,8,0:0:0:0:
288,96,30170,1,0,0:0:0:0:
288,96,30291,1,8,0:0:0:0:
288,96,30351,1,8,0:0:0:0:
288,96,30412,1,0,0:0:0:0:
299,74,30472,1,0,0:0:0:0:
288,96,30533,1,8,0:0:0:0:
288,96,30654,1,0,0:0:0:0:
288,96,30714,1,0,0:0:0:0:
288,96,30775,1,8,0:0:0:0:
288,96,30895,1,0,0:0:0:0:
288,96,31016,1,8,0:0:0:0:
288,96,31137,1,0,0:0:0:0:
185,105,31198,1,0,0:0:0:0:
288,96,31258,1,8,0:0:0:0:
288,96,31319,1,0,0:0:0:0:
288,96,31379,1,8,0:0:0:0:
273,86,31440,1,0,0:0:0:0:
262,79,31500,1,8,0:0:0:0:
288,96,31621,1,0,0:0:0:0:
288,96,31742,1,12,0:0:0:0:
288,96,31863,1,0,0:0:0:0:
288,96,31984,1,12,0:0:0:0:
288,96,32105,1,0,0:0:0:0:
288,96,32226,1,12,0:0:0:0:
288,96,32347,1,0,0:0:0:0:
288,96,32468,1,12,0:0:0:0:
288,96,32710,1,4,0:0:0:0:
288,96,32952,1,12,0:0:0:0:
224,64,33194,1,8,0:0:0:0:
288,96,33315,1,8,0:0:0:0:
288,96,33436,1,0,0:0:0:0:
288,96,33557,1,8,0:0:0:0:
224,64,33678,1,4,0:0:0:0:
288,160,34162,1,4,0:0:0:0:
288,32,34645,1,4,0:0:0:0:
320,96,35008,1,0,0:0:0:0:
320,128,35129,1,12,0:0:0:0:
384,224,35613,1,0,0:0:0:0:
352,160,35855,1,8,0:0:0:0:
352,160,36097,1,8,0:0:0:0:
320,128,36218,1,0,0:0:0:0:
352,160,36339,1,8,0:0:0:0:
352,160,36581,1,8,0:0:0:0:
352,160,36702,1,8,0:0:0:0:
320,128,36823,1,0,0:0:0:0:
352,160,36944,1,0,0:0:0:0:
352,160,37065,1,8,0:0:0:0:
352,160,37307,1,0,0:0:0:0:
352,160,37549,1,4,0:0:0:0:
352,160,38033,1,4,0:0:0:0:
352,160,38516,1,4,0:0:0:0:
352,160,38879,1,0,0:0:0:0:
352,160,39000,1,12,0:0:0:0:
320,96,39484,1,8,0:0:0:0:
320,96,39605,1,0,0:0:0:0:
320,96,39726,1,8,0:0:0:0:
320,96,39968,1,8,0:0:0:0:
320,96,40210,1,0,0:0:0:0:
320,96,40452,1,0,0:0:0:0:
320,96,40573,1,8,0:0:0:0:
320,96,40694,1,0,0:0:0:0:
320,96,40815,1,0,0:0:0:0:
320,96,40936,1,8,0:0:0:0:
320,96,41057,1,0,0:0:0:0:
320,96,41178,1,0,0:0:0:0:
320,96,41299,1,0,0:0:0:0:
320,96,41420,1,12,0:0:0:0:
320,96,41662,1,0,0:0:0:0:
320,96,41904,1,8,0:0:0:0:
320,96,42145,1,0,0:0:0:0:
288,96,42266,1,0,0:0:0:0:
288,96,42327,1,0,0:0:0:0:
320,96,42387,1,8,0:0:0:0:
320,96,42508,1,0,0:0:0:0:
320,96,42750,1,0,0:0:0:0:
320,96,42871,1,8,0:0:0:0:
288,96,43113,1,8,0:0:0:0:
288,96,43355,1,0,0:0:0:0:
288,96,43597,1,8,0:0:0:0:
288,96,43839,1,8,0:0:0:0:
288,96,43960,1,0,0:0:0:0:
288,96,44081,1,8,0:0:0:0:
288,96,44323,1,8,0:0:0:0:
288,96,44444,1,8,0:0:0:0:
288,96,44565,1,0,0:0:0:0:
288,96,44686,1,0,0:0:0:0:
288,96,44807,1,8,0:0:0:0:
288,96,45049,1,0,0:0:0:0:
288,96,45170,1,0,0:0:0:0:
288,96,45291,1,12,0:0:0:0:
288,96,45533,1,0,0:0:0:0:
288,96,45775,1,8,0:0:0:0:
288,96,46016,1,0,0:0:0:0:
256,64,46137,1,0,0:0:0:0:
256,64,46198,1,0,0:0:0:0:
256,64,46258,1,8,0:0:0:0:
256,64,46379,1,0,0:0:0:0:
256,64,46621,1,0,0:0:0:0:
256,64,46742,1,8,0:0:0:0:
256,64,46984,1,0,0:0:0:0:
256,64,47226,1,0,0:0:0:0:
256,64,47347,1,8,0:0:0:0:
256,64,47468,1,0,0:0:0:0:
256,64,47529,1,0,0:0:0:0:
256,64,47589,1,0,0:0:0:0:
256,64,47650,1,0,0:0:0:0:
256,64,47710,1,8,0:0:0:0:
256,64,47831,1,8,0:0:0:0:
256,64,47952,1,0,0:0:0:0:
256,64,48073,1,0,0:0:0:0:
256,64,48133,1,0,0:0:0:0:
256,64,48194,1,8,0:0:0:0:
256,64,48436,1,0,0:0:0:0:
256,64,48678,1,8,0:0:0:0:
256,64,48920,1,8,0:0:0:0:
256,64,49162,1,4,0:0:0:0:
256,64,49645,1,8,0:0:0:0:
256,64,49766,1,0,0:0:0:0:
256,64,49887,1,0,0:0:0:0:
256,64,50008,1,8,0:0:0:0:
256,64,50371,1,0,0:0:0:0:
256,64,50613,1,8,0:0:0:0:
256,64,50855,1,8,0:0:0:0:
256,64,51097,1,0,0:0:0:0:
256,64,51339,1,0,0:0:0:0:
256,64,51581,1,8,0:0:0:0:
256,64,51823,1,4,0:0:0:0:
256,64,52307,1,0,0:0:0:0:
256,64,52549,1,8,0:0:0:0:
256,64,52670,1,0,0:0:0:0:
256,64,52791,1,8,0:0:0:0:
256,64,52912,1,8,0:0:0:0:
256,64,53033,1,4,0:0:0:0:
256,64,53275,1,0,0:0:0:0:
256,64,53516,1,8,0:0:0:0:
256,64,53758,1,0,0:0:0:0:
256,64,54000,1,8,0:0:0:0:
256,64,54484,1,8,0:0:0:0:
256,64,54726,1,0,0:0:0:0:
256,64,54968,1,0,0:0:0:0:
256,64,55210,1,8,0:0:0:0:
256,64,55331,1,0,0:0:0:0:
256,64,55452,1,8,0:0:0:0:
256,64,55694,1,4,0:0:0:0:
256,64,56178,1,0,0:0:0:0:
256,64,56420,1,8,0:0:0:0:
256,64,56541,1,0,0:0:0:0:
256,64,56662,1,8,0:0:0:0:
256,64,56904,1,4,0:0:0:0:
256,64,57387,1,8,0:0:0:0:
256,64,57508,1,0,0:0:0:0:
256,64,57629,1,0,0:0:0:0:
256,64,57750,1,12,0:0:0:0:
288,96,58113,1,0,0:0:0:0:
288,96,58355,1,8,0:0:0:0:
256,64,58476,1,0,0:0:0:0:
288,96,58597,1,8,0:0:0:0:
288,96,58718,1,8,0:0:0:0:
288,96,58839,1,4,0:0:0:0:
256,64,59323,1,8,0:0:0:0:
256,64,59444,1,0,0:0:0:0:
256,64,59504,1,0,0:0:0:0:
256,64,59565,1,8,0:0:0:0:
256,64,59686,1,12,0:0:0:0:
224,64,60049,1,0,0:0:0:0:
224,64,60291,1,8,0:0:0:0:
224,64,60412,1,8,0:0:0:0:
224,64,60533,1,8,0:0:0:0:
224,64,60654,1,8,0:0:0:0:
224,64,60775,1,4,0:0:0:0:
224,64,61016,1,0,0:0:0:0:
224,64,61258,1,0,0:0:0:0:
224,64,61500,1,0,0:0:0:0:
224,64,61742,1,8,0:0:0:0:
224,64,61984,1,8,0:0:0:0:
224,64,62226,1,8,0:0:0:0:
224,64,62347,1,0,0:0:0:0:
224,64,62468,1,8,0:0:0:0:
224,64,62710,1,12,0:0:0:0:
224,64,62952,1,4,0:0:0:0:
224,64,63194,1,12,0:0:0:0:
224,64,63315,1,4,0:0:0:0:
224,64,63557,1,12,0:0:0:0:
256,28,64000,1,0,0:0:0:0:
262,41,64081,1,0,0:0:0:0:
384,64,64162,1,8,0:0:0:0:
416,64,64283,1,8,0:0:0:0:
416,64,64404,1,8,0:0:0:0:
416,64,64525,1,8,0:0:0:0:
384,64,64645,1,0,0:0:0:0:
360,68,64766,1,0,0:0:0:0:
352,96,64827,1,0,0:0:0:0:
320,96,64887,1,8,0:0:0:0:
288,96,65008,1,0,0:0:0:0:
320,96,65129,1,12,0:0:0:0:
320,96,65371,1,8,0:0:0:0:
320,96,65492,1,0,0:0:0:0:
271,52,65553,1,0,0:0:0:0:
320,96,65613,1,8,0:0:0:0:
283,55,65734,1,8,0:0:0:0:
320,96,65855,1,0,0:0:0:0:
320,96,65976,1,8,0:0:0:0:
320,96,66037,1,8,0:0:0:0:
320,96,66097,1,8,0:0:0:0:
320,96,66158,1,8,0:0:0:0:
320,96,66218,1,0,0:0:0:0:
210,77,66279,1,0,0:0:0:0:
320,96,66339,1,8,0:0:0:0:
320,96,66460,1,0,0:0:0:0:
320,96,66520,1,0,0:0:0:0:
320,96,66581,1,8,0:0:0:0:
320,96,66702,1,0,0:0:0:0:
320,96,66823,1,8,0:0:0:0:
320,96,66944,1,0,0:0:0:0:
320,96,67004,1,0,0:0:0:0:
320,96,67065,1,8,0:0:0:0:
288,96,67125,1,8,0:0:0:0:
320,96,67186,1,0,0:0:0:0:
320,96,67307,1,8,0:0:0:0:
320,96,67428,1,8,0:0:0:0:
320,96,67488,1,8,0:0:0:0:
320,96,67549,1,0,0:0:0:0:
320,96,67670,1,8,0:0:0:0:
320,96,67791,1,0,0:0:0:0:
320,96,67851,1,0,0:0:0:0:
320,96,67912,1,0,0:0:0:0:
320,96,68033,1,8,0:0:0:0:
320,96,68154,1,0,0:0:0:0:
320,96,68214,1,0,0:0:0:0:
320,96,68275,1,8,0:0:0:0:
281,81,68335,1,0,0:0:0:0:
320,96,68395,1,8,0:0:0:0:
320,96,68516,1,4,0:0:0:0:
288,96,68758,1,8,0:0:0:0:
288,96,68879,1,0,0:0:0:0:
288,96,68940,1,0,0:0:0:0:
288,96,69000,1,8,0:0:0:0:
288,96,69121,1,0,0:0:0:0:
288,96,69242,1,8,0:0:0:0:
288,96,69363,1,8,0:0:0:0:
288,96,69424,1,8,0:0:0:0:
288,96,69484,1,0,0:0:0:0:
288,96,69545,1,8,0:0:0:0:
288,96,69605,1,0,0:0:0:0:
281,81,69666,1,0,0:0:0:0:
288,96,69726,1,8,0:0:0:0:
288,96,69847,1,0,0:0:0:0:
288,96,69908,1,0,0:0:0:0:
288,96,69968,1,8,0:0:0:0:
288,96,70089,1,0,0:0:0:0:
288,96,70210,1,8,0:0:0:0:
288,96,70331,1,8,0:0:0:0:
288,96,70391,1,8,0:0:0:0:
288,96,70452,1,0,0:0:0:0:
288,96,70573,1,0,0:0:0:0:
288,96,70694,1,8,0:0:0:0:
288,96,70815,1,0,0:0:0:0:
288,96,70875,1,0,0:0:0:0:
288,96,70936,1,8,0:0:0:0:
288,96,70996,1,0,0:0:0:0:
288,96,71057,1,8,0:0:0:0:
288,96,71178,1,0,0:0:0:0:
288,96,71299,1,8,0:0:0:0:
288,96,71662,1,12,0:0:0:0:
288,96,71783,1,8,0:0:0:0:
288,96,71843,1,8,0:0:0:0:
288,96,71904,1,8,0:0:0:0:
288,96,72025,1,8,0:0:0:0:
288,96,72145,1,0,0:0:0:0:
288,96,72266,1,0,0:0:0:0:
288,96,72387,1,8,0:0:0:0:
288,96,72508,1,0,0:0:0:0:
288,96,72569,1,0,0:0:0:0:
288,96,72629,1,8,0:0:0:0:
288,96,72750,1,0,0:0:0:0:
288,96,72871,1,12,0:0:0:0:
288,0,73113,1,8,0:0:0:0:
288,96,73234,1,0,0:0:0:0:
288,96,73295,1,0,0:0:0:0:
288,96,73355,1,8,0:0:0:0:
288,96,73476,1,8,0:0:0:0:
288,96,73597,1,0,0:0:0:0:
288,96,73718,1,8,0:0:0:0:
288,96,73779,1,8,0:0:0:0:
288,96,73839,1,8,0:0:0:0:
288,96,73900,1,8,0:0:0:0:
288,96,73960,1,0,0:0:0:0:
308,97,74020,1,0,0:0:0:0:
288,96,74081,1,8,0:0:0:0:
288,96,74202,1,0,0:0:0:0:
288,96,74262,1,0,0:0:0:0:
288,96,74323,1,8,0:0:0:0:
288,96,74444,1,0,0:0:0:0:
288,96,74565,1,8,0:0:0:0:
288,96,74686,1,0,0:0:0:0:
288,96,74746,1,0,0:0:0:0:
288,96,74807,1,8,0:0:0:0:
288,96,74867,1,0,0:0:0:0:
288,96,74928,1,0,0:0:0:0:
288,96,75049,1,8,0:0:0:0:
288,96,75170,1,0,0:0:0:0:
288,96,75230,1,0,0:0:0:0:
288,96,75291,1,8,0:0:0:0:
288,96,75412,1,8,0:0:0:0:
288,96,75533,1,0,0:0:0:0:
288,96,75654,1,0,0:0:0:0:
288,96,75714,1,0,0:0:0:0:
288,96,75775,1,8,0:0:0:0:
281,81,75835,1,0,0:0:0:0:
288,96,75895,1,8,0:0:0:0:
288,96,76016,1,0,0:0:0:0:
288,96,76137,1,8,0:0:0:0:
288,96,76258,1,4,0:0:0:0:
224,64,76500,1,8,0:0:0:0:
256,64,76621,1,0,0:0:0:0:
256,64,76682,1,0,0:0:0:0:
256,96,76742,1,0,0:0:0:0:
256,96,76863,1,8,0:0:0:0:
256,96,76984,1,8,0:0:0:0:
256,96,77045,1,8,0:0:0:0:
256,96,77105,1,0,0:0:0:0:
256,96,77166,1,0,0:0:0:0:
256,96,77226,1,8,0:0:0:0:
256,96,77347,1,8,0:0:0:0:
256,96,77468,1,0,0:0:0:0:
256,96,77589,1,8,0:0:0:0:
256,96,77650,1,8,0:0:0:0:
256,96,77710,1,8,0:0:0:0:
256,96,77831,1,0,0:0:0:0:
256,96,77952,1,8,0:0:0:0:
256,96,78194,1,12,0:0:0:0:
256,96,78315,1,4,0:0:0:0:
256,96,78436,1,12,0:0:0:0:
256,96,78557,1,4,0:0:0:0:
256,96,78678,1,12,0:0:0:0:
256,32,79041,1,0,0:0:0:0:
256,32,79162,1,8,0:0:0:0:
256,32,79283,1,8,0:0:0:0:
256,32,79525,1,8,0:0:0:0:
256,32,79766,1,0,0:0:0:0:
256,32,80129,1,4,0:0:0:0:
288,64,80371,1,0,0:0:0:0:
288,64,80613,1,8,0:0:0:0:
288,64,80855,1,0,0:0:0:0:
288,64,80976,1,8,0:0:0:0:
288,64,81097,1,0,0:0:0:0:
288,64,81218,1,8,0:0:0:0:
288,64,81339,1,8,0:0:0:0:
288,64,81460,1,8,0:0:0:0:
288,64,81581,1,0,0:0:0:0:
288,64,81702,1,8,0:0:0:0:
288,64,82065,1,4,0:0:0:0:
288,64,82307,1,0,0:0:0:0:
288,64,82549,1,8,0:0:0:0:
288,64,82791,1,0,0:0:0:0:
288,64,82912,1,8,0:0:0:0:
288,64,83033,1,0,0:0:0:0:
288,64,83154,1,0,0:0:0:0:
288,64,83275,1,8,0:0:0:0:
288,64,83395,1,0,0:0:0:0:
288,64,83516,1,8,0:0:0:0:
288,64,83637,1,8,0:0:0:0:
288,64,83758,1,0,0:0:0:0:
288,64,83879,1,8,0:0:0:0:
288,64,84000,1,4,0:0:0:0:
288,64,84242,1,0,0:0:0:0:
288,64,84484,1,8,0:0:0:0:
288,64,84726,1,0,0:0:0:0:
288,64,84847,1,8,0:0:0:0:
288,64,84968,1,0,0:0:0:0:
288,64,85089,1,8,0:0:0:0:
288,64,85210,1,8,0:0:0:0:
288,64,85331,1,0,0:0:0:0:
288,64,85452,1,8,0:0:0:0:
288,64,85573,1,8,0:0:0:0:
288,64,85633,1,8,0:0:0:0:
288,64,85694,1,8,0:0:0:0:
288,64,85815,1,0,0:0:0:0:
288,64,85936,1,12,0:0:0:0:
288,64,86057,1,0,0:0:0:0:
288,64,86178,1,12,0:0:0:0:
288,64,86299,1,0,0:0:0:0:
288,64,86420,1,12,0:0:0:0:
288,64,86541,1,0,0:0:0:0:
288,64,86662,1,12,0:0:0:0:
288,64,86904,1,4,0:0:0:0:
288,64,87145,1,12,0:0:0:0:
224,224,87871,1,4,0:0:0:0:
256,192,88113,1,4,0:0:0:0:
288,64,88597,1,0,0:0:0:0:
288,128,88839,1,8,0:0:0:0:
288,160,88960,1,0,0:0:0:0:
288,160,89081,1,0,0:0:0:0:
288,160,89202,1,8,0:0:0:0:
288,160,89323,1,8,0:0:0:0:
288,160,89565,1,8,0:0:0:0:
288,160,89807,1,0,0:0:0:0:
288,160,90049,1,0,0:0:0:0:
288,160,90170,1,8,0:0:0:0:
288,160,90291,1,0,0:0:0:0:
288,160,90533,1,8,0:0:0:0:
288,160,90775,1,0,0:0:0:0:
288,160,90895,1,0,0:0:0:0:
288,160,91137,1,0,0:0:0:0:
288,160,91258,1,8,0:0:0:0:
288,160,91500,1,0,0:0:0:0:
256,128,91621,1,0,0:0:0:0:
288,160,91742,1,12,0:0:0:0:
288,160,91984,1,12,0:0:0:0:
256,192,92952,12,0,93557,0:0:0:0:
288,128,93678,5,12,0:0:0:0:
288,128,93920,1,8,0:0:0:0:
288,128,94162,1,0,0:0:0:0:
288,128,94283,1,8,0:0:0:0:
288,128,94404,1,0,0:0:0:0:
288,128,94645,1,8,0:0:0:0:
320,96,94766,1,0,0:0:0:0:
320,96,94887,1,0,0:0:0:0:
320,96,95008,1,8,0:0:0:0:
320,96,95069,1,8,0:0:0:0:
320,96,95129,1,8,0:0:0:0:
320,96,95250,1,8,0:0:0:0:
320,96,95371,1,0,0:0:0:0:
320,96,95613,1,12,0:0:0:0:
320,96,95855,1,0,0:0:0:0:
320,96,96097,1,8,0:0:0:0:
320,96,96339,1,0,0:0:0:0:
288,96,96460,1,0,0:0:0:0:
288,96,96520,1,0,0:0:0:0:
320,96,96581,1,8,0:0:0:0:
320,96,96702,1,0,0:0:0:0:
320,96,96944,1,0,0:0:0:0:
320,96,97065,1,8,0:0:0:0:
288,96,97307,1,8,0:0:0:0:
288,96,97549,1,0,0:0:0:0:
288,96,97791,1,8,0:0:0:0:
288,96,98033,1,8,0:0:0:0:
288,96,98154,1,0,0:0:0:0:
288,96,98275,1,8,0:0:0:0:
288,96,98516,1,8,0:0:0:0:
288,96,98637,1,8,0:0:0:0:
288,96,98758,1,0,0:0:0:0:
288,96,98879,1,0,0:0:0:0:
288,96,99000,1,8,0:0:0:0:
288,96,99242,1,0,0:0:0:0:
288,96,99363,1,0,0:0:0:0:
288,96,99484,1,12,0:0:0:0:
288,96,99726,1,0,0:0:0:0:
288,96,99968,1,8,0:0:0:0:
288,96,100210,1,0,0:0:0:0:
256,64,100331,1,0,0:0:0:0:
256,64,100391,1,0,0:0:0:0:
256,64,100452,1,8,0:0:0:0:
256,64,100573,1,0,0:0:0:0:
256,64,100815,1,0,0:0:0:0:
256,64,100936,1,8,0:0:0:0:
256,64,101178,1,0,0:0:0:0:
256,64,101420,1,0,0:0:0:0:
256,64,101541,1,8,0:0:0:0:
256,64,101662,1,0,0:0:0:0:
256,64,101742,1,0,0:0:0:0:
256,64,101823,1,0,0:0:0:0:
256,64,101904,1,8,0:0:0:0:
256,64,101984,1,8,0:0:0:0:
243,56,102065,1,8,0:0:0:0:
256,64,102145,1,0,0:0:0:0:
256,64,102226,1,0,0:0:0:0:
256,64,102307,1,0,0:0:0:0:
256,64,102387,1,8,0:0:0:0:
256,64,102549,1,0,0:0:0:0:
230,40,102629,1,8,0:0:0:0:
220,157,102791,1,0,0:0:0:0:
256,64,102871,1,8,0:0:0:0:
256,64,102952,1,8,0:0:0:0:
256,64,103033,1,0,0:0:0:0:
256,64,103113,1,8,0:0:0:0:
256,64,103194,1,0,0:0:0:0:
256,64,103275,1,0,0:0:0:0:
256,64,103355,1,12,0:0:0:0:
256,160,103839,1,0,0:0:0:0:
256,96,103960,1,0,0:0:0:0:
256,96,104202,1,8,0:0:0:0:
256,96,104444,1,8,0:0:0:0:
256,96,104565,1,0,0:0:0:0:
256,96,104807,1,8,0:0:0:0:
256,96,105049,1,8,0:0:0:0:
256,96,105291,1,4,0:0:0:0:
221,41,105533,1,0,0:0:0:0:
256,96,105775,1,8,0:0:0:0:
256,96,106016,1,4,0:0:0:0:
256,96,106500,1,0,0:0:0:0:
320,64,106561,1,0,0:0:0:0:
256,96,106621,1,8,0:0:0:0:
256,96,106742,1,8,0:0:0:0:
256,96,106863,1,0,0:0:0:0:
256,96,106984,1,8,0:0:0:0:
256,96,107226,1,4,0:0:0:0:
206,58,107468,1,0,0:0:0:0:
256,96,107710,1,8,0:0:0:0:
256,96,107952,1,0,0:0:0:0:
256,96,108194,1,8,0:0:0:0:
288,64,108355,1,8,0:0:0:0:
288,64,108436,1,8,0:0:0:0:
288,64,108678,1,0,0:0:0:0:
288,64,108920,1,8,0:0:0:0:
288,64,109162,1,0,0:0:0:0:
288,64,109404,1,8,0:0:0:0:
288,64,109645,1,8,0:0:0:0:
288,64,109887,1,4,0:0:0:0:
384,64,110250,1,0,0:0:0:0:
384,64,110311,1,0,0:0:0:0:
416,64,110371,1,8,0:0:0:0:
416,64,110492,1,8,0:0:0:0:
416,64,110613,1,8,0:0:0:0:
416,64,110674,1,0,0:0:0:0:
416,64,110734,1,8,0:0:0:0:
416,64,110855,1,8,0:0:0:0:
416,64,110976,1,8,0:0:0:0:
256,64,111097,5,4,0:0:0:0:
256,64,111581,1,8,0:0:0:0:
256,64,111702,1,0,0:0:0:0:
256,64,111823,1,0,0:0:0:0:
256,64,111944,1,12,0:0:0:0:
288,96,112307,1,0,0:0:0:0:
288,96,112549,1,8,0:0:0:0:
320,96,112670,1,0,0:0:0:0:
288,96,112791,1,8,0:0:0:0:
288,96,112912,1,8,0:0:0:0:
288,96,113033,1,4,0:0:0:0:
256,64,113516,1,8,0:0:0:0:
256,64,113637,1,0,0:0:0:0:
256,64,113698,1,0,0:0:0:0:
256,64,113758,1,8,0:0:0:0:
256,64,113879,1,12,0:0:0:0:
224,64,114242,1,0,0:0:0:0:
224,64,114484,1,8,0:0:0:0:
224,64,114605,1,8,0:0:0:0:
224,64,114726,1,8,0:0:0:0:
224,64,114847,1,8,0:0:0:0:
224,64,114968,1,4,0:0:0:0:
224,64,115210,1,0,0:0:0:0:
224,64,115452,1,0,0:0:0:0:
224,64,115694,1,0,0:0:0:0:
224,64,115936,1,8,0:0:0:0:
224,64,116178,1,8,0:0:0:0:
224,64,116420,1,8,0:0:0:0:
224,64,116541,1,0,0:0:0:0:
224,64,116662,1,8,0:0:0:0:
224,64,116904,1,12,0:0:0:0:
224,64,117145,1,4,0:0:0:0:
224,64,117387,1,12,0:0:0:0:
224,64,117508,1,4,0:0:0:0:
224,64,117750,1,12,0:0:0:0:
320,64,118194,1,0,0:0:0:0:
224,64,118275,1,0,0:0:0:0:
384,64,118355,1,8,0:0:0:0:
416,64,118476,1,8,0:0:0:0:
416,64,118597,1,8,0:0:0:0:
416,64,118718,1,8,0:0:0:0:
384,64,118839,1,0,0:0:0:0:
364,62,118960,1,0,0:0:0:0:
352,96,119020,1,0,0:0:0:0:
320,96,119081,1,8,0:0:0:0:
288,96,119202,1,0,0:0:0:0:
320,96,119323,1,12,0:0:0:0:
320,96,119565,1,8,0:0:0:0:
320,96,119686,1,0,0:0:0:0:
320,96,119746,1,0,0:0:0:0:
320,96,119807,1,8,0:0:0:0:
320,96,119928,1,8,0:0:0:0:
320,96,120049,1,0,0:0:0:0:
320,96,120170,1,8,0:0:0:0:
320,96,120230,1,8,0:0:0:0:
320,96,120291,1,8,0:0:0:0:
320,96,120351,1,8,0:0:0:0:
320,96,120412,1,0,0:0:0:0:
308,97,120472,1,0,0:0:0:0:
320,96,120533,1,8,0:0:0:0:
320,96,120654,1,0,0:0:0:0:
320,96,120714,1,0,0:0:0:0:
320,96,120775,1,8,0:0:0:0:
320,96,120895,1,0,0:0:0:0:
320,96,121016,1,8,0:0:0:0:
320,96,121137,1,0,0:0:0:0:
320,96,121198,1,0,0:0:0:0:
320,96,121258,1,8,0:0:0:0:
288,96,121319,1,8,0:0:0:0:
320,96,121379,1,0,0:0:0:0:
320,96,121500,1,8,0:0:0:0:
320,96,121621,1,8,0:0:0:0:
320,96,121682,1,8,0:0:0:0:
320,96,121742,1,0,0:0:0:0:
320,96,121863,1,8,0:0:0:0:
320,96,121984,1,0,0:0:0:0:
320,96,122045,1,0,0:0:0:0:
320,96,122105,1,0,0:0:0:0:
320,96,122226,1,8,0:0:0:0:
320,96,122347,1,0,0:0:0:0:
320,96,122408,1,0,0:0:0:0:
320,96,122468,1,8,0:0:0:0:
263,77,122529,1,0,0:0:0:0:
320,96,122589,1,8,0:0:0:0:
320,96,122710,1,4,0:0:0:0:
288,96,122952,1,8,0:0:0:0:
288,96,123073,1,0,0:0:0:0:
288,96,123133,1,0,0:0:0:0:
288,96,123194,1,8,0:0:0:0:
288,96,123315,1,0,0:0:0:0:
288,96,123436,1,8,0:0:0:0:
288,96,123557,1,8,0:0:0:0:
288,96,123617,1,8,0:0:0:0:
288,96,123678,1,0,0:0:0:0:
288,96,123738,1,8,0:0:0:0:
288,96,123799,1,0,0:0:0:0:
263,77,123859,1,0,0:0:0:0:
288,96,123920,1,8,0:0:0:0:
288,96,124041,1,0,0:0:0:0:
288,96,124101,1,0,0:0:0:0:
288,96,124162,1,8,0:0:0:0:
288,96,124283,1,0,0:0:0:0:
288,96,124404,1,8,0:0:0:0:
288,96,124525,1,8,0:0:0:0:
288,96,124585,1,8,0:0:0:0:
288,96,124645,1,0,0:0:0:0:
288,96,124766,1,0,0:0:0:0:
288,96,124887,1,8,0:0:0:0:
288,96,125008,1,0,0:0:0:0:
288,96,125069,1,0,0:0:0:0:
288,96,125129,1,8,0:0:0:0:
288,96,125190,1,0,0:0:0:0:
288,96,125250,1,8,0:0:0:0:
288,96,125371,1,0,0:0:0:0:
288,96,125492,1,8,0:0:0:0:
288,96,125855,1,12,0:0:0:0:
288,96,125976,1,0,0:0:0:0:
288,96,126037,1,0,0:0:0:0:
288,96,126097,1,8,0:0:0:0:
288,96,126218,1,8,0:0:0:0:
288,96,126339,1,8,0:0:0:0:
288,96,126460,1,8,0:0:0:0:
288,96,126581,1,0,0:0:0:0:
288,96,126702,1,0,0:0:0:0:
288,96,126762,1,0,0:0:0:0:
288,96,126823,1,8,0:0:0:0:
288,96,126944,1,0,0:0:0:0:
288,96,127065,1,12,0:0:0:0:
288,0,127307,1,8,0:0:0:0:
288,96,127428,1,0,0:0:0:0:
288,96,127488,1,0,0:0:0:0:
288,96,127549,1,8,0:0:0:0:
288,96,127670,1,8,0:0:0:0:
288,96,127791,1,0,0:0:0:0:
288,96,127912,1,8,0:0:0:0:
288,96,127972,1,8,0:0:0:0:
288,96,128033,1,8,0:0:0:0:
288,96,128093,1,8,0:0:0:0:
288,96,128154,1,0,0:0:0:0:
308,97,128214,1,0,0:0:0:0:
288,96,128275,1,8,0:0:0:0:
288,96,128395,1,0,0:0:0:0:
288,96,128456,1,0,0:0:0:0:
288,96,128516,1,8,0:0:0:0:
288,96,128637,1,0,0:0:0:0:
288,96,128758,1,8,0:0:0:0:
288,96,128879,1,0,0:0:0:0:
288,96,128940,1,0,0:0:0:0:
288,96,129000,1,8,0:0:0:0:
288,96,129061,1,0,0:0:0:0:
288,96,129121,1,0,0:0:0:0:
288,96,129242,1,8,0:0:0:0:
288,96,129363,1,0,0:0:0:0:
288,96,129424,1,0,0:0:0:0:
288,96,129484,1,8,0:0:0:0:
288,96,129605,1,8,0:0:0:0:
288,96,129726,1,0,0:0:0:0:
288,96,129847,1,0,0:0:0:0:
288,96,129908,1,0,0:0:0:0:
288,96,129968,1,8,0:0:0:0:
263,77,130029,1,0,0:0:0:0:
288,96,130089,1,8,0:0:0:0:
288,96,130210,1,0,0:0:0:0:
288,96,130331,1,8,0:0:0:0:
288,96,130452,1,4,0:0:0:0:
224,64,130694,1,8,0:0:0:0:
256,64,130815,1,0,0:0:0:0:
256,64,130875,1,0,0:0:0:0:
256,96,130936,1,0,0:0:0:0:
256,96,131057,1,8,0:0:0:0:
256,96,131178,1,8,0:0:0:0:
256,96,131238,1,8,0:0:0:0:
256,96,131299,1,0,0:0:0:0:
256,96,131359,1,0,0:0:0:0:
256,96,131420,1,8,0:0:0:0:
256,96,131541,1,8,0:0:0:0:
256,96,131662,1,0,0:0:0:0:
256,96,131783,1,8,0:0:0:0:
256,96,131843,1,8,0:0:0:0:
256,96,131904,1,8,0:0:0:0:
256,96,132025,1,0,0:0:0:0:
256,96,132145,1,8,0:0:0:0:
256,96,132387,1,12,0:0:0:0:
256,96,132508,1,4,0:0:0:0:
256,96,132629,1,12,0:0:0:0:
256,96,132750,1,4,0:0:0:0:
256,96,132871,1,12,0:0:0:0:
256,32,133234,1,0,0:0:0:0:
256,32,133355,1,8,0:0:0:0:
256,32,133476,1,8,0:0:0:0:
256,32,133718,1,0,0:0:0:0:
256,32,133960,1,8,0:0:0:0:
288,32,134081,1,0,0:0:0:0:
256,32,134323,1,4,0:0:0:0:
256,32,135291,1,0,0:0:0:0:
256,32,135351,1,0,0:0:0:0:
256,32,135412,1,0,0:0:0:0:
256,32,135472,1,0,0:0:0:0:
256,32,135533,1,8,0:0:0:0:
256,32,135593,1,0,0:0:0:0:
256,32,135654,1,8,0:0:0:0:
256,32,135714,1,8,0:0:0:0:
256,32,135775,1,0,0:0:0:0:
256,32,135835,1,0,0:0:0:0:
256,32,135895,1,8,0:0:0:0:
256,32,135956,1,0,0:0:0:0:
256,32,136016,1,8,0:0:0:0:
256,32,136137,1,4,0:0:0:0:
256,32,136379,1,12,0:0:0:0:
256,32,136621,1,0,0:0:0:0:
256,32,136742,1,12,0:0:0:0:
256,32,136984,1,8,0:0:0:0:
256,32,137105,1,8,0:0:0:0:
256,32,137226,1,0,0:0:0:0:
256,32,137347,1,8,0:0:0:0:
256,32,137589,1,0,0:0:0:0:
256,32,137710,1,8,0:0:0:0:
256,32,137831,1,0,0:0:0:0:
256,32,137952,1,8,0:0:0:0:
256,61,138073,1,8,0:0:0:0:
256,32,138194,1,4,0:0:0:0:
256,32,138436,1,0,0:0:0:0:
256,32,138678,1,12,0:0:0:0:
256,32,138920,1,0,0:0:0:0:
256,32,139041,1,8,0:0:0:0:
266,275,139162,1,0,0:0:0:0:
256,32,139283,1,8,0:0:0:0:
256,32,139404,1,0,0:0:0:0:
256,32,139525,1,0,0:0:0:0:
256,32,139645,1,12,0:0:0:0:
256,32,139887,1,0,0:0:0:0:
256,32,140008,1,8,0:0:0:0:
256,32,140069,1,8,0:0:0:0:
256,32,140129,1,8,0:0:0:0:
256,32,140250,1,0,0:0:0:0:
256,32,140371,1,8,0:0:0:0:
256,32,140492,1,0,0:0:0:0:
256,32,140553,1,0,0:0:0:0:
256,32,140613,1,8,0:0:0:0:
256,32,140734,1,0,0:0:0:0:
256,32,140855,1,8,0:0:0:0:
256,32,140976,1,8,0:0:0:0:
256,32,141097,1,0,0:0:0:0:
256,32,141218,1,8,0:0:0:0:
256,32,141339,1,0,0:0:0:0:
256,32,141460,1,0,0:0:0:0:
256,32,141520,1,0,0:0:0:0:
256,32,141581,1,8,0:0:0:0:
256,32,141702,1,8,0:0:0:0:
256,32,141823,1,0,0:0:0:0:
256,32,141944,1,8,0:0:0:0:
256,32,142065,1,4,0:0:0:0:
256,32,142307,1,0,0:0:0:0:
256,32,142549,1,12,0:0:0:0:
256,32,142791,1,0,0:0:0:0:
256,32,142912,1,8,0:0:0:0:
273,35,143033,1,0,0:0:0:0:
256,32,143154,1,0,0:0:0:0:
256,32,143275,1,8,0:0:0:0:
256,32,143395,1,0,0:0:0:0:
256,32,143516,1,12,0:0:0:0:
256,32,143758,1,8,0:0:0:0:
256,32,144000,1,0,0:0:0:0:
256,96,144242,1,0,0:0:0:0:
256,96,144363,1,8,0:0:0:0:
256,96,144484,1,0,0:0:0:0:
256,96,144605,1,8,0:0:0:0:
256,96,144847,1,8,0:0:0:0:
256,96,144968,1,0,0:0:0:0:
256,96,145089,1,8,0:0:0:0:
256,96,145210,1,0,0:0:0:0:
161,268,145331,1,0,0:0:0:0:
256,96,145452,1,8,0:0:0:0:
256,96,145694,1,0,0:0:0:0:
256,96,145815,1,8,0:0:0:0:
256,96,145936,1,4,0:0:0:0:
256,96,146178,1,0,0:0:0:0:
256,96,146299,1,0,0:0:0:0:
256,96,146420,1,12,0:0:0:0:
256,32,146662,1,0,0:0:0:0:
256,64,146783,1,8,0:0:0:0:
273,35,146904,1,0,0:0:0:0:
256,64,147025,1,8,0:0:0:0:
256,64,147145,1,0,0:0:0:0:
256,64,147266,1,0,0:0:0:0:
256,64,147387,1,12,0:0:0:0:
256,64,147629,1,0,0:0:0:0:
256,64,147750,1,0,0:0:0:0:
256,64,147871,1,8,0:0:0:0:
256,64,147992,1,0,0:0:0:0:
256,64,148113,1,8,0:0:0:0:
256,64,148234,1,0,0:0:0:0:
256,64,148355,1,8,0:0:0:0:
256,64,148476,1,0,0:0:0:0:
256,64,148597,1,8,0:0:0:0:
256,64,148718,1,8,0:0:0:0:
256,64,148839,1,0,0:0:0:0:
256,64,149081,1,12,0:0:0:0:
256,64,149323,1,8,0:0:0:0:
256,64,149444,1,0,0:0:0:0:
256,64,149565,1,8,0:0:0:0:
256,64,149686,1,8,0:0:0:0:
256,64,149807,1,4,0:0:0:0:
288,128,150049,1,0,0:0:0:0:
256,64,150291,1,8,0:0:0:0:
256,96,150412,1,0,0:0:0:0:
256,96,150654,1,8,0:0:0:0:
256,96,150775,1,8,0:0:0:0:
256,96,151016,1,0,0:0:0:0:
256,96,151258,1,8,0:0:0:0:
256,96,151500,1,0,0:0:0:0:
256,96,151742,1,8,0:0:0:0:
256,96,151863,1,0,0:0:0:0:
256,96,151984,1,0,0:0:0:0:
256,96,152105,1,8,0:0:0:0:
256,96,152226,1,0,0:0:0:0:
256,96,152347,1,8,0:0:0:0:
256,96,152468,1,12,0:0:0:0:
256,96,152952,1,0,0:0:0:0:
256,96,153194,1,8,0:0:0:0:
256,96,153315,1,0,0:0:0:0:
256,96,153436,1,8,0:0:0:0:
256,96,153557,1,8,0:0:0:0:
256,96,153678,1,4,0:0:0:0:
224,32,153920,1,8,0:0:0:0:
256,96,154162,1,8,0:0:0:0:
256,64,154283,1,0,0:0:0:0:
256,64,154525,1,8,0:0:0:0:
256,64,154645,1,8,0:0:0:0:
256,64,154887,1,0,0:0:0:0:
256,64,155129,1,8,0:0:0:0:
256,64,155371,1,0,0:0:0:0:
256,64,155613,1,8,0:0:0:0:
256,64,155734,1,0,0:0:0:0:
256,64,155855,1,8,0:0:0:0:
256,64,155976,1,8,0:0:0:0:
256,64,156097,1,0,0:0:0:0:
256,64,156218,1,8,0:0:0:0:
256,64,156339,1,12,0:0:0:0:
256,64,156702,1,0,0:0:0:0:
256,64,156762,1,0,0:0:0:0:
256,64,156823,1,0,0:0:0:0:
256,64,156944,1,0,0:0:0:0:
256,64,157065,1,8,0:0:0:0:
256,64,157186,1,0,0:0:0:0:
256,64,157307,1,0,0:0:0:0:
256,64,157428,1,0,0:0:0:0:
256,64,157549,1,12,0:0:0:0:
128,64,158033,1,8,0:0:0:0:
160,64,158154,1,0,0:0:0:0:
224,64,158395,1,0,0:0:0:0:
224,64,158516,1,8,0:0:0:0:
224,64,158758,1,0,0:0:0:0:
224,64,158879,1,8,0:0:0:0:
224,64,159000,1,0,0:0:0:0:
224,64,159121,1,0,0:0:0:0:
224,64,159242,1,8,0:0:0:0:
224,64,159484,1,4,0:0:0:0:
224,64,159726,1,8,0:0:0:0:
224,64,159968,1,0,0:0:0:0:
224,64,160089,1,8,0:0:0:0:
224,64,160210,1,0,0:0:0:0:
224,64,160331,1,0,0:0:0:0:
224,64,160452,1,8,0:0:0:0:
224,64,160694,1,0,0:0:0:0:
224,64,160815,1,8,0:0:0:0:
224,64,160936,1,0,0:0:0:0:
224,64,161057,1,0,0:0:0:0:
224,64,161178,1,8,0:0:0:0:
224,64,161299,1,8,0:0:0:0:
224,64,161420,1,0,0:0:0:0:
224,64,161662,1,0,0:0:0:0:
224,64,161783,1,0,0:0:0:0:
224,64,161904,1,12,0:0:0:0:
224,64,162387,1,0,0:0:0:0:
224,64,162629,1,0,0:0:0:0:
224,64,162710,1,0,0:0:0:0:
224,64,162791,1,0,0:0:0:0:
224,64,162871,1,12,0:0:0:0:
224,64,163355,1,8,0:0:0:0:
224,64,163476,1,0,0:0:0:0:
480,128,164565,1,0,0:0:0:0:
448,128,164645,1,0,0:0:0:0:
416,128,164726,1,0,0:0:0:0:
384,128,164807,1,0,0:0:0:0:
256,192,165291,5,12,0:0:0:0:
256,192,165412,1,4,0:0:0:0:
256,192,165654,1,4,0:0:0:0:
256,192,165775,1,12,0:0:0:0:
256,192,166016,1,12,0:0:0:0:
256,192,166137,1,4,0:0:0:0:
256,192,166379,1,0,0:0:0:0:
256,192,166500,1,8,0:0:0:0:
256,192,166621,1,0,0:0:0:0:
256,192,166682,1,0,0:0:0:0:
256,192,166742,1,8,0:0:0:0:
256,192,166863,1,0,0:0:0:0:
256,192,166984,1,0,0:0:0:0:
256,192,167045,1,0,0:0:0:0:
256,192,167105,1,0,0:0:0:0:
256,192,167226,1,12,0:0:0:0:
256,192,168194,1,4,0:0:0:0:
416,32,169162,1,12,0:0:0:0:
256,160,170008,1,0,0:0:0:0:
256,160,170129,1,0,0:0:0:0:
256,160,170371,1,0,0:0:0:0:
256,160,170492,1,0,0:0:0:0:
256,160,170613,1,8,0:0:0:0:
256,160,170734,1,0,0:0:0:0:
256,160,170855,1,0,0:0:0:0:
256,160,171097,1,12,0:0:0:0:
192,64,172065,1,12,0:0:0:0:
352,224,173033,1,4,0:0:0:0:
192,64,174000,1,0,0:0:0:0:
224,96,174242,1,8,0:0:0:0:
256,128,174363,1,0,0:0:0:0:
256,128,174424,1,0,0:0:0:0:
256,128,174484,1,8,0:0:0:0:
256,128,174605,1,0,0:0:0:0:
256,128,174726,1,8,0:0:0:0:
256,128,174847,1,8,0:0:0:0:
256,128,174968,1,4,0:0:0:0:
203,122,175210,1,0,0:0:0:0:
224,64,175331,1,8,0:0:0:0:
224,96,175452,1,0,0:0:0:0:
224,96,175694,1,8,0:0:0:0:
224,96,175936,1,0,0:0:0:0:
224,96,176057,1,8,0:0:0:0:
224,96,176178,1,8,0:0:0:0:
224,96,176299,1,0,0:0:0:0:
224,96,176420,1,8,0:0:0:0:
224,96,176662,1,8,0:0:0:0:
224,96,176904,1,0,0:0:0:0:
174,117,177145,1,0,0:0:0:0:
224,96,177266,1,8,0:0:0:0:
224,96,177387,1,0,0:0:0:0:
224,96,177508,1,0,0:0:0:0:
224,96,177629,1,8,0:0:0:0:
224,96,177871,1,0,0:0:0:0:
269,74,177992,1,8,0:0:0:0:
224,96,178113,1,8,0:0:0:0:
247,40,178234,1,0,0:0:0:0:
224,96,178355,1,8,0:0:0:0:
224,96,178476,1,8,0:0:0:0:
224,96,178597,1,0,0:0:0:0:
224,96,178839,1,12,0:0:0:0:
224,96,179565,1,8,0:0:0:0:
224,96,179686,1,8,0:0:0:0:
224,96,179807,1,4,0:0:0:0:
224,96,180533,1,0,0:0:0:0:
224,96,180654,1,0,0:0:0:0:
224,96,180775,1,12,0:0:0:0:
224,96,181621,1,0,0:0:0:0:
224,96,181742,1,12,0:0:0:0:
224,96,181862,1,4,0:0:0:0:
224,96,182104,1,12,0:0:0:0:
224,96,182467,1,8,0:0:0:0:
224,96,183193,1,12,0:0:0:0:
256,64,184160,1,8,0:0:0:0:
256,64,184281,1,0,0:0:0:0:
256,64,184342,1,0,0:0:0:0:
256,64,184402,1,0,0:0:0:0:
256,64,184523,1,8,0:0:0:0:
256,64,184644,1,0,0:0:0:0:
256,64,184765,1,0,0:0:0:0:
256,64,184826,1,0,0:0:0:0:
256,64,184886,1,8,0:0:0:0:
256,64,185007,1,8,0:0:0:0:
320,96,185128,1,4,0:0:0:0:
320,96,185370,1,8,0:0:0:0:
320,96,185491,1,0,0:0:0:0:
320,96,185551,1,0,0:0:0:0:
320,96,185612,1,8,0:0:0:0:
288,96,185672,1,8,0:0:0:0:
320,96,185733,1,0,0:0:0:0:
320,96,185854,1,8,0:0:0:0:
320,96,185975,1,8,0:0:0:0:
320,96,186035,1,8,0:0:0:0:
320,96,186096,1,0,0:0:0:0:
320,96,186156,1,0,0:0:0:0:
320,96,186217,1,8,0:0:0:0:
320,96,186338,1,0,0:0:0:0:
320,96,186398,1,0,0:0:0:0:
320,96,186459,1,0,0:0:0:0:
320,96,186580,1,8,0:0:0:0:
320,96,186701,1,0,0:0:0:0:
320,96,186761,1,0,0:0:0:0:
320,96,186822,1,8,0:0:0:0:
320,96,186882,1,0,0:0:0:0:
320,96,186943,1,8,0:0:0:0:
320,96,187063,1,4,0:0:0:0:
288,96,187305,1,8,0:0:0:0:
288,96,187426,1,0,0:0:0:0:
288,96,187487,1,0,0:0:0:0:
288,96,187547,1,8,0:0:0:0:
311,66,187608,1,0,0:0:0:0:
288,96,187668,1,0,0:0:0:0:
288,96,187789,1,8,0:0:0:0:
288,96,187910,1,8,0:0:0:0:
288,96,187971,1,8,0:0:0:0:
288,96,188031,1,0,0:0:0:0:
288,96,188092,1,8,0:0:0:0:
288,96,188152,1,0,0:0:0:0:
288,96,188213,1,0,0:0:0:0:
288,96,188273,1,8,0:0:0:0:
288,96,188394,1,0,0:0:0:0:
288,96,188455,1,0,0:0:0:0:
288,96,188515,1,8,0:0:0:0:
288,96,188636,1,0,0:0:0:0:
288,96,188757,1,8,0:0:0:0:
288,96,188818,1,0,0:0:0:0:
288,96,188878,1,8,0:0:0:0:
288,96,188938,1,8,0:0:0:0:
288,96,188999,1,0,0:0:0:0:
288,96,189120,1,0,0:0:0:0:
288,96,189241,1,8,0:0:0:0:
288,96,189362,1,0,0:0:0:0:
288,96,189422,1,0,0:0:0:0:
288,96,189483,1,8,0:0:0:0:
288,96,189543,1,0,0:0:0:0:
288,96,189604,1,8,0:0:0:0:
288,96,189664,1,8,0:0:0:0:
288,96,189725,1,0,0:0:0:0:
288,96,189846,1,8,0:0:0:0:
288,96,190209,1,12,0:0:0:0:
288,96,190330,1,0,0:0:0:0:
288,96,190390,1,0,0:0:0:0:
288,96,190451,1,8,0:0:0:0:
288,96,190572,1,8,0:0:0:0:
288,96,190693,1,8,0:0:0:0:
288,96,190813,1,8,0:0:0:0:
288,96,190934,1,0,0:0:0:0:
288,96,191055,1,0,0:0:0:0:
288,96,191116,1,0,0:0:0:0:
288,96,191176,1,8,0:0:0:0:
288,96,191297,1,0,0:0:0:0:
288,96,191418,1,12,0:0:0:0:
288,0,191660,1,8,0:0:0:0:
288,96,191781,1,0,0:0:0:0:
288,96,191842,1,0,0:0:0:0:
288,96,191902,1,8,0:0:0:0:
311,66,191963,1,0,0:0:0:0:
288,96,192023,1,8,0:0:0:0:
288,96,192144,1,0,0:0:0:0:
288,96,192265,1,8,0:0:0:0:
288,96,192326,1,8,0:0:0:0:
288,96,192386,1,8,0:0:0:0:
288,96,192447,1,8,0:0:0:0:
288,96,192507,1,0,0:0:0:0:
288,96,192568,1,0,0:0:0:0:
288,96,192628,1,8,0:0:0:0:
288,96,192749,1,0,0:0:0:0:
288,96,192809,1,0,0:0:0:0:
288,96,192870,1,8,0:0:0:0:
288,96,192991,1,0,0:0:0:0:
288,96,193112,1,8,0:0:0:0:
288,96,193233,1,0,0:0:0:0:
288,96,193293,1,0,0:0:0:0:
288,96,193354,1,8,0:0:0:0:
288,96,193414,1,0,0:0:0:0:
288,96,193475,1,0,0:0:0:0:
288,96,193596,1,8,0:0:0:0:
288,96,193717,1,0,0:0:0:0:
288,96,193777,1,0,0:0:0:0:
288,96,193838,1,8,0:0:0:0:
277,88,193898,1,0,0:0:0:0:
288,96,193959,1,8,0:0:0:0:
288,96,194080,1,0,0:0:0:0:
288,96,194201,1,0,0:0:0:0:
288,96,194261,1,0,0:0:0:0:
288,96,194322,1,8,0:0:0:0:
288,96,194382,1,0,0:0:0:0:
288,96,194443,1,8,0:0:0:0:
288,96,194503,1,8,0:0:0:0:
288,96,194563,1,0,0:0:0:0:
288,96,194684,1,8,0:0:0:0:
288,96,194805,1,4,0:0:0:0:
224,64,195047,1,8,0:0:0:0:
256,64,195168,1,0,0:0:0:0:
256,64,195229,1,0,0:0:0:0:
256,96,195289,1,0,0:0:0:0:
256,96,195410,1,8,0:0:0:0:
256,96,195531,1,8,0:0:0:0:
256,96,195592,1,8,0:0:0:0:
256,96,195652,1,0,0:0:0:0:
256,96,195713,1,0,0:0:0:0:
256,96,195773,1,8,0:0:0:0:
256,96,195834,1,0,0:0:0:0:
256,96,195894,1,8,0:0:0:0:
256,96,196015,1,0,0:0:0:0:
256,96,196136,1,8,0:0:0:0:
256,96,196197,1,8,0:0:0:0:
256,96,196257,1,8,0:0:0:0:
256,96,196378,1,0,0:0:0:0:
256,96,196499,1,8,0:0:0:0:
256,96,196741,1,12,0:0:0:0:
256,96,196862,1,4,0:0:0:0:
256,96,196983,1,12,0:0:0:0:
256,96,197104,1,4,0:0:0:0:
256,96,197225,1,12,0:0:0:0:
256,32,197588,1,0,0:0:0:0:
256,32,197709,1,8,0:0:0:0:
256,32,197830,1,8,0:0:0:0:
328,85,197951,1,0,0:0:0:0:
254,132,198031,1,8,0:0:0:0:
244,177,198112,1,0,0:0:0:0:
254,132,198193,1,0,0:0:0:0:
254,132,198273,1,8,0:0:0:0:
254,132,198354,1,8,0:0:0:0:
254,132,198434,1,8,0:0:0:0:
254,132,198515,1,8,0:0:0:0:
254,132,198596,1,8,0:0:0:0:
256,32,198676,1,4,0:0:0:0:
288,128,198858,1,0,0:0:0:0:
288,128,198918,1,8,0:0:0:0:
288,128,199039,1,0,0:0:0:0:
288,96,199160,1,12,0:0:0:0:
288,96,199402,1,8,0:0:0:0:
288,96,199523,1,0,0:0:0:0:
288,96,199584,1,0,0:0:0:0:
288,96,199644,1,8,0:0:0:0:
247,83,199705,1,8,0:0:0:0:
288,96,199765,1,0,0:0:0:0:
288,96,199886,1,8,0:0:0:0:
288,96,200007,1,0,0:0:0:0:
288,96,200068,1,8,0:0:0:0:
288,96,200128,1,0,0:0:0:0:
288,96,200249,1,0,0:0:0:0:
288,96,200370,1,8,0:0:0:0:
161,268,200491,1,0,0:0:0:0:
161,268,200551,1,0,0:0:0:0:
161,268,200612,1,8,0:0:0:0:
246,40,200733,1,0,0:0:0:0:
288,96,200854,1,8,0:0:0:0:
253,45,200914,1,0,0:0:0:0:
320,128,200975,1,8,0:0:0:0:
320,96,201035,1,8,0:0:0:0:
320,128,201096,1,0,0:0:0:0:
320,128,201217,1,0,0:0:0:0:
320,128,201338,1,8,0:0:0:0:
320,128,201459,1,0,0:0:0:0:
320,128,201519,1,0,0:0:0:0:
320,128,201580,1,8,0:0:0:0:
288,96,201640,1,0,0:0:0:0:
320,128,201701,1,0,0:0:0:0:
267,84,201761,1,0,0:0:0:0:
320,128,201822,1,8,0:0:0:0:
320,96,201943,1,0,0:0:0:0:
320,128,202063,1,8,0:0:0:0:
310,93,202184,1,0,0:0:0:0:
310,93,202245,1,0,0:0:0:0:
320,128,202305,1,8,0:0:0:0:
320,96,202426,1,8,0:0:0:0:
320,128,202547,1,4,0:0:0:0:
320,128,202729,1,0,0:0:0:0:
288,128,202789,1,8,0:0:0:0:
288,96,202910,1,8,0:0:0:0:
245,90,202971,1,0,0:0:0:0:
288,96,203031,1,0,0:0:0:0:
288,96,203092,1,0,0:0:0:0:
288,96,203152,1,8,0:0:0:0:
288,96,203273,1,8,0:0:0:0:
288,96,203394,1,0,0:0:0:0:
288,96,203455,1,0,0:0:0:0:
288,96,203515,1,8,0:0:0:0:
288,96,203636,1,0,0:0:0:0:
288,96,203757,1,8,0:0:0:0:
288,96,203818,1,8,0:0:0:0:
288,96,203878,1,0,0:0:0:0:
288,96,203938,1,0,0:0:0:0:
288,96,203999,1,8,0:0:0:0:
288,96,204059,1,0,0:0:0:0:
288,96,204120,1,0,0:0:0:0:
288,96,204241,1,8,0:0:0:0:
288,96,204362,1,8,0:0:0:0:
288,96,204422,1,0,0:0:0:0:
288,96,204483,1,8,0:0:0:0:
288,96,204604,1,0,0:0:0:0:
288,96,204725,1,8,0:0:0:0:
288,96,204846,1,0,0:0:0:0:
288,96,204906,1,0,0:0:0:0:
288,96,204967,1,8,0:0:0:0:
288,96,205027,1,0,0:0:0:0:
288,96,205088,1,8,0:0:0:0:
288,96,205209,1,8,0:0:0:0:
288,96,205330,1,0,0:0:0:0:
288,96,205451,1,8,0:0:0:0:
288,96,205693,1,12,0:0:0:0:
288,96,206055,1,0,0:0:0:0:
288,96,206116,1,0,0:0:0:0:
288,96,206176,1,8,0:0:0:0:
288,96,206297,1,8,0:0:0:0:
288,128,206418,1,0,0:0:0:0:
261,73,206539,1,0,0:0:0:0:
288,128,206600,1,0,0:0:0:0:
288,128,206660,1,8,0:0:0:0:
288,128,206781,1,0,0:0:0:0:
288,96,206902,1,12,0:0:0:0:
288,96,207144,1,8,0:0:0:0:
288,96,207265,1,0,0:0:0:0:
288,96,207326,1,0,0:0:0:0:
288,96,207386,1,8,0:0:0:0:
278,94,207447,1,0,0:0:0:0:
288,96,207507,1,0,0:0:0:0:
288,96,207628,1,8,0:0:0:0:
288,96,207749,1,0,0:0:0:0:
288,96,207870,1,8,0:0:0:0:
286,60,207930,1,0,0:0:0:0:
288,96,207991,1,0,0:0:0:0:
288,96,208051,1,0,0:0:0:0:
288,96,208112,1,8,0:0:0:0:
288,96,208233,1,0,0:0:0:0:
288,96,208354,1,8,0:0:0:0:
288,96,208475,1,0,0:0:0:0:
288,96,208535,1,0,0:0:0:0:
288,96,208596,1,8,0:0:0:0:
320,128,208717,1,0,0:0:0:0:
320,128,208838,1,8,0:0:0:0:
320,128,208898,1,8,0:0:0:0:
286,60,208959,1,0,0:0:0:0:
320,128,209019,1,0,0:0:0:0:
320,128,209080,1,8,0:0:0:0:
320,128,209201,1,0,0:0:0:0:
320,128,209261,1,0,0:0:0:0:
320,128,209322,1,8,0:0:0:0:
320,128,209443,1,0,0:0:0:0:
320,128,209563,1,8,0:0:0:0:
320,96,209684,1,8,0:0:0:0:
320,128,209745,1,8,0:0:0:0:
320,128,209805,1,0,0:0:0:0:
320,128,209866,1,0,0:0:0:0:
320,128,209926,1,0,0:0:0:0:
320,128,210047,1,8,0:0:0:0:
267,84,210168,1,8,0:0:0:0:
320,128,210289,1,4,0:0:0:0:
283,80,210471,1,0,0:0:0:0:
288,128,210531,1,8,0:0:0:0:
288,96,210652,1,8,0:0:0:0:
288,96,210713,1,0,0:0:0:0:
288,96,210773,1,8,0:0:0:0:
288,96,210894,1,0,0:0:0:0:
268,60,210955,1,0,0:0:0:0:
288,96,211015,1,8,0:0:0:0:
288,96,211076,1,0,0:0:0:0:
268,80,211136,1,8,0:0:0:0:
182,5,211197,1,8,0:0:0:0:
288,96,211257,1,0,0:0:0:0:
288,96,211378,1,8,0:0:0:0:
288,96,211438,1,0,0:0:0:0:
288,96,211499,1,8,0:0:0:0:
288,96,211620,1,0,0:0:0:0:
296,79,211680,1,0,0:0:0:0:
288,96,211741,1,8,0:0:0:0:
288,96,211801,1,0,0:0:0:0:
288,96,211862,1,8,0:0:0:0:
288,96,211922,1,8,0:0:0:0:
288,96,211983,1,0,0:0:0:0:
288,96,212043,1,0,0:0:0:0:
288,96,212104,1,8,0:0:0:0:
288,96,212225,1,0,0:0:0:0:
288,96,212346,1,8,0:0:0:0:
288,96,212588,1,0,0:0:0:0:
288,96,212709,1,8,0:0:0:0:
288,96,212951,1,0,0:0:0:0:
288,96,213072,1,8,0:0:0:0:
288,96,213313,1,0,0:0:0:0:
288,96,213434,1,8,0:0:0:0:
288,96,213676,1,8,0:0:0:0:
288,96,214160,1,0,0:0:0:0:
288,96,214281,1,12,0:0:0:0:
288,96,214523,1,0,0:0:0:0:
288,96,214644,1,12,0:0:0:0:
288,96,214886,1,0,0:0:0:0:
288,96,215007,1,12,0:0:0:0:
