osu file format v14

[General]
AudioFilename: audio.mp3
AudioLeadIn: 0
PreviewTime: 118839
Countdown: 0
SampleSet: Normal
StackLeniency: 0.7
Mode: 1
LetterboxInBreaks: 0
WidescreenStoryboard: 1

[Editor]
Bookmarks: 775,18194,25936,33678,49162,64645,80129,95613,103355,111097,118839,136137,149807,167226,174968,185129,198678
DistanceSpacing: 0.5
BeatDivisor: 4
GridSize: 32
TimelineZoom: 1.1

[Metadata]
Title:Ariadne
TitleUnicode:アリアドネ
Artist:Hana to Onyx
ArtistUnicode:はなとオニキス
Creator:gaston_2199
Version:Futsuu
Source:
Tags:japanese j-rock rock jrock BLACK×WHITE BLACK × WHITE forest 黒うさP Kurousa P 倉内達矢 Kurauchi Tatsuya WhiteFlame vocaloid cover 初音ミク hatsune miku usa うさ 月岡月穂 月岡 マクー gram6design
BeatmapID:2722764
BeatmapSetID:1255970

[Difficulty]
HPDrainRate:7
CircleSize:2
OverallDifficulty:4
ApproachRate:10
SliderMultiplier:1.4
SliderTickRate:1

[Events]
//Background and Video events
0,0,"BG.jpg",0,80
Video,-1250,"TaikoVideo.mp4"
//Break Periods
//Storyboard Layer 0 (Background)
//Storyboard Layer 1 (Fail)
//Storyboard Layer 2 (Pass)
//Storyboard Layer 3 (Foreground)
//Storyboard Layer 4 (Overlay)
//Storyboard Sound Samples

[TimingPoints]
775,241.935483870968,4,1,0,90,1,0
775,-111.111111111111,4,1,0,90,0,0
2704,-125,4,1,0,80,0,0
10446,-111.175098556725,4,1,0,80,0,0
14317,-111.111111111111,4,1,0,80,0,0
14801,-111.111111111111,4,1,0,70,0,0
16252,-100,4,1,0,90,0,0
17220,-133.333333333333,4,1,0,70,0,0
18188,-100,4,1,0,90,0,0
35610,-111.111111111111,4,1,0,80,0,0
37546,-100,4,1,0,80,0,0
39481,-111.111111111111,4,1,0,80,0,0
47462,-112.671993798533,4,1,0,80,0,0
47704,-114.27722512042,4,1,0,80,0,0
47946,-115.928991174326,4,1,0,80,0,0
48430,-119.379893083368,4,1,0,80,0,0
48672,-121.183477844631,4,1,0,80,0,0
49156,-125,4,1,0,70,0,0
62704,-100,4,1,0,90,0,0
64645,-100,4,1,0,100,0,1
80129,-100,4,1,0,90,0,0
87865,-100,4,1,0,80,0,0
88591,-125,4,1,0,70,0,0
91736,-100,4,1,0,80,0,0
92704,-133.333333333333,4,1,0,70,0,0
93672,-111.111111111111,4,1,0,80,0,0
101659,-113.04347826087,4,1,0,80,0,0
101898,-115.044247787611,4,1,0,80,0,0
102139,-117.117117117117,4,1,0,80,0,0
102865,-120.37037037037,4,1,0,80,0,0
103110,-123.076923076923,4,1,0,80,0,0
103352,-125,4,1,0,80,0,0
116898,-100,4,1,0,90,0,0
118839,-100,4,1,0,100,0,1
134323,-100,4,1,0,90,0,0
136500,-111.111111111111,4,1,0,90,0,0
149801,-111.111111111111,4,1,0,70,0,0
151739,-100,4,1,0,80,0,0
152710,-111.111111111111,4,1,0,70,0,0
155126,-100,4,1,0,80,0,0
156578,-111.111111111111,4,1,0,70,0,0
161898,-100,4,1,0,90,0,0
162381,-111.111111111111,4,1,0,70,0,0
162865,-100,4,1,0,90,0,0
163352,-111.111111111111,4,1,0,70,0,0
165288,-111.111111111111,4,1,0,90,0,0
167220,-125,4,1,0,80,0,0
174962,-111.175098556725,4,1,0,80,0,0
181742,241.935483870968,6,1,0,80,1,0
181742,-111.111111111111,4,1,0,80,0,0
183193,241.935483870968,4,1,0,90,1,0
185128,-100,4,1,0,100,0,1
198676,-100,4,1,0,90,0,0
212225,-100,4,1,0,70,0,0
214157,-100,4,1,0,80,0,0

[HitObjects]
256,192,775,5,12,0:0:0:0:
235,163,1258,1,12,0:0:0:0:
245,165,1621,1,4,0:0:0:0:
256,192,2226,1,12,0:0:0:0:
256,192,2710,1,8,0:0:0:0:
256,192,3678,1,0,0:0:0:0:
416,32,4645,1,8,0:0:0:0:
159,126,5613,1,0,0:0:0:0:
250,19,5855,1,8,0:0:0:0:
320,96,6581,1,0,0:0:0:0:
96,96,7549,1,8,0:0:0:0:
128,192,8516,1,0,0:0:0:0:
153,126,9484,1,0,0:0:0:0:
352,160,9726,1,8,0:0:0:0:
352,160,10452,1,12,0:0:0:0:
352,160,10936,1,0,0:0:0:0:
352,160,11420,1,0,0:0:0:0:
343,140,11662,1,8,0:0:0:0:
352,160,11904,1,0,0:0:0:0:
288,96,12387,1,8,0:0:0:0:
288,96,12871,1,0,0:0:0:0:
288,96,13355,1,0,0:0:0:0:
206,18,13597,1,8,0:0:0:0:
288,96,13839,1,0,0:0:0:0:
288,96,14323,1,0,0:0:0:0:
288,96,14807,1,0,0:0:0:0:
288,96,15049,1,0,0:0:0:0:
288,96,15291,1,8,0:0:0:0:
170,111,15533,1,0,0:0:0:0:
288,96,15775,1,8,0:0:0:0:
288,96,16258,1,4,0:0:0:0:
288,96,16742,1,12,0:0:0:0:
288,128,18194,5,0,0:0:0:0:
288,96,18678,1,12,0:0:0:0:
288,96,19162,1,0,0:0:0:0:
288,96,19404,1,8,0:0:0:0:
288,96,19645,1,0,0:0:0:0:
288,96,20129,1,0,0:0:0:0:
288,96,20371,1,0,0:0:0:0:
320,128,20613,1,8,0:0:0:0:
320,128,21097,1,0,0:0:0:0:
276,98,21339,1,8,0:0:0:0:
178,64,21460,1,8,0:0:0:0:
320,128,21581,1,0,0:0:0:0:
280,82,21823,1,8,0:0:0:0:
320,128,22065,1,0,0:0:0:0:
288,96,22549,1,8,0:0:0:0:
288,96,23033,1,8,0:0:0:0:
238,53,23275,1,0,0:0:0:0:
288,96,23516,1,8,0:0:0:0:
288,96,24000,1,0,0:0:0:0:
288,96,24242,1,8,0:0:0:0:
288,96,24484,1,8,0:0:0:0:
165,126,24968,1,0,0:0:0:0:
288,96,25210,1,12,0:0:0:0:
288,128,25936,1,0,0:0:0:0:
288,96,26420,1,12,0:0:0:0:
288,96,26904,1,0,0:0:0:0:
288,96,27145,1,8,0:0:0:0:
288,96,27387,1,8,0:0:0:0:
288,96,27871,1,0,0:0:0:0:
288,96,28113,1,0,0:0:0:0:
320,128,28355,1,8,0:0:0:0:
320,128,28839,1,0,0:0:0:0:
320,128,29081,1,8,0:0:0:0:
142,109,29202,1,8,0:0:0:0:
320,128,29323,1,0,0:0:0:0:
320,128,29565,1,8,0:0:0:0:
320,128,29807,1,0,0:0:0:0:
288,96,30291,1,8,0:0:0:0:
288,96,30775,1,8,0:0:0:0:
288,96,31016,1,0,0:0:0:0:
288,96,31258,1,8,0:0:0:0:
288,96,31742,1,4,0:0:0:0:
288,96,32226,1,4,0:0:0:0:
288,96,32710,1,4,0:0:0:0:
288,96,32952,1,12,0:0:0:0:
224,64,33678,1,4,0:0:0:0:
288,32,34645,1,4,0:0:0:0:
384,224,35613,1,0,0:0:0:0:
352,160,36097,1,8,0:0:0:0:
197,23,36581,1,0,0:0:0:0:
197,23,37065,1,8,0:0:0:0:
352,160,37549,1,4,0:0:0:0:
352,160,38516,1,4,0:0:0:0:
320,96,39484,1,8,0:0:0:0:
320,96,39968,1,8,0:0:0:0:
320,96,40452,1,0,0:0:0:0:
320,96,40936,1,0,0:0:0:0:
320,96,41420,1,12,0:0:0:0:
320,96,42387,1,4,0:0:0:0:
288,96,43355,1,0,0:0:0:0:
177,36,43839,1,8,0:0:0:0:
288,96,44323,1,0,0:0:0:0:
172,114,44565,1,8,0:0:0:0:
155,92,44807,1,0,0:0:0:0:
288,96,45291,1,12,0:0:0:0:
256,64,46258,1,4,0:0:0:0:
256,64,47226,1,0,0:0:0:0:
256,64,47468,1,0,0:0:0:0:
256,64,47710,1,8,0:0:0:0:
256,64,47952,1,0,0:0:0:0:
256,64,48436,1,0,0:0:0:0:
256,64,48678,1,8,0:0:0:0:
256,64,49162,1,4,0:0:0:0:
193,77,50008,1,8,0:0:0:0:
256,64,51097,1,0,0:0:0:0:
256,64,51823,1,0,0:0:0:0:
103,134,52549,1,8,0:0:0:0:
256,64,53033,1,0,0:0:0:0:
256,64,54000,1,8,0:0:0:0:
256,64,54968,1,0,0:0:0:0:
256,64,55452,1,8,0:0:0:0:
256,64,55694,1,0,0:0:0:0:
256,64,56420,1,0,0:0:0:0:
256,64,56662,1,8,0:0:0:0:
256,64,56904,1,4,0:0:0:0:
256,64,57750,1,12,0:0:0:0:
288,96,58355,1,8,0:0:0:0:
288,96,58839,1,4,0:0:0:0:
256,64,59686,1,12,0:0:0:0:
224,64,60291,1,8,0:0:0:0:
224,64,60775,1,4,0:0:0:0:
224,64,61258,1,0,0:0:0:0:
224,64,61742,1,8,0:0:0:0:
224,64,61984,1,0,0:0:0:0:
224,64,62226,1,8,0:0:0:0:
224,64,62710,1,12,0:0:0:0:
224,64,63194,1,4,0:0:0:0:
224,64,63557,1,12,0:0:0:0:
384,64,64162,1,8,0:0:0:0:
416,64,64404,1,8,0:0:0:0:
384,64,64645,1,0,0:0:0:0:
320,96,65129,1,12,0:0:0:0:
320,96,65613,1,0,0:0:0:0:
320,96,65976,1,8,0:0:0:0:
320,96,66097,1,0,0:0:0:0:
320,96,66339,1,8,0:0:0:0:
320,96,66581,1,0,0:0:0:0:
320,96,67065,1,8,0:0:0:0:
287,90,67307,1,0,0:0:0:0:
320,96,67549,1,8,0:0:0:0:
154,90,67670,1,8,0:0:0:0:
206,70,67791,1,0,0:0:0:0:
320,96,68033,1,8,0:0:0:0:
320,96,68275,1,8,0:0:0:0:
320,96,68516,1,4,0:0:0:0:
288,96,69000,1,8,0:0:0:0:
288,96,69242,1,0,0:0:0:0:
288,96,69484,1,8,0:0:0:0:
288,96,69968,1,0,0:0:0:0:
215,75,70210,1,8,0:0:0:0:
288,96,70452,1,0,0:0:0:0:
288,96,70694,1,8,0:0:0:0:
288,96,70936,1,0,0:0:0:0:
190,35,71057,1,0,0:0:0:0:
186,9,71299,1,8,0:0:0:0:
288,96,71662,1,8,0:0:0:0:
288,96,72387,1,0,0:0:0:0:
288,96,72871,1,12,0:0:0:0:
288,96,73355,1,0,0:0:0:0:
288,96,73718,1,8,0:0:0:0:
288,96,73839,1,0,0:0:0:0:
288,96,74081,1,8,0:0:0:0:
288,96,74323,1,0,0:0:0:0:
288,96,74807,1,8,0:0:0:0:
288,96,75049,1,8,0:0:0:0:
261,69,75291,1,0,0:0:0:0:
206,40,75533,1,0,0:0:0:0:
288,96,75775,1,8,0:0:0:0:
288,96,76258,1,0,0:0:0:0:
256,96,76984,1,8,0:0:0:0:
256,96,77226,1,8,0:0:0:0:
256,96,77468,1,0,0:0:0:0:
215,38,77710,1,8,0:0:0:0:
256,96,78194,1,4,0:0:0:0:
256,96,78678,1,12,0:0:0:0:
256,32,80129,1,4,0:0:0:0:
288,64,80613,1,8,0:0:0:0:
288,64,81097,1,0,0:0:0:0:
288,64,81339,1,8,0:0:0:0:
288,64,81581,1,8,0:0:0:0:
288,64,82065,1,0,0:0:0:0:
288,64,82549,1,8,0:0:0:0:
288,64,83033,1,0,0:0:0:0:
288,64,83275,1,8,0:0:0:0:
288,64,83516,1,0,0:0:0:0:
288,64,84000,1,0,0:0:0:0:
288,64,84484,1,8,0:0:0:0:
288,64,84968,1,0,0:0:0:0:
288,64,85210,1,8,0:0:0:0:
288,64,85452,1,0,0:0:0:0:
288,64,85936,1,4,0:0:0:0:
288,64,86420,1,4,0:0:0:0:
288,64,86904,1,4,0:0:0:0:
288,64,87145,1,12,0:0:0:0:
224,224,87871,1,4,0:0:0:0:
256,192,88113,1,4,0:0:0:0:
288,160,89323,1,8,0:0:0:0:
288,160,89807,1,0,0:0:0:0:
189,8,90049,1,0,0:0:0:0:
186,74,90291,1,8,0:0:0:0:
288,160,90775,1,0,0:0:0:0:
288,160,91258,1,8,0:0:0:0:
288,160,91742,1,12,0:0:0:0:
288,160,91984,1,12,0:0:0:0:
288,128,93678,5,12,0:0:0:0:
288,128,94162,1,0,0:0:0:0:
202,2,94887,1,0,0:0:0:0:
320,96,95129,1,8,0:0:0:0:
320,96,95613,1,12,0:0:0:0:
320,96,96581,1,4,0:0:0:0:
288,96,97549,1,0,0:0:0:0:
168,98,98033,1,8,0:0:0:0:
288,96,98516,1,0,0:0:0:0:
220,56,98758,1,8,0:0:0:0:
163,69,99000,1,0,0:0:0:0:
288,96,99484,1,12,0:0:0:0:
256,64,100452,1,4,0:0:0:0:
256,64,101420,1,0,0:0:0:0:
256,64,101662,1,8,0:0:0:0:
256,64,101904,1,0,0:0:0:0:
256,64,102145,1,0,0:0:0:0:
256,64,102871,1,8,0:0:0:0:
262,269,103113,1,0,0:0:0:0:
256,64,103355,1,12,0:0:0:0:
175,88,104202,1,8,0:0:0:0:
256,96,105291,1,0,0:0:0:0:
256,96,106016,1,0,0:0:0:0:
181,133,106742,1,8,0:0:0:0:
256,96,107226,1,0,0:0:0:0:
256,96,108194,1,8,0:0:0:0:
288,64,109162,1,0,0:0:0:0:
288,64,109645,1,8,0:0:0:0:
288,64,109887,1,0,0:0:0:0:
416,64,110371,1,0,0:0:0:0:
416,64,110613,1,8,0:0:0:0:
256,64,111097,5,4,0:0:0:0:
256,64,111944,1,12,0:0:0:0:
288,96,112549,1,8,0:0:0:0:
288,96,113033,1,4,0:0:0:0:
256,64,113879,1,12,0:0:0:0:
224,64,114484,1,8,0:0:0:0:
224,64,114968,1,4,0:0:0:0:
224,64,115452,1,0,0:0:0:0:
224,64,115936,1,8,0:0:0:0:
224,64,116178,1,0,0:0:0:0:
224,64,116420,1,8,0:0:0:0:
224,64,116904,1,12,0:0:0:0:
224,64,117387,1,4,0:0:0:0:
224,64,117750,1,12,0:0:0:0:
384,64,118355,1,0,0:0:0:0:
416,64,118597,1,8,0:0:0:0:
384,64,118839,1,0,0:0:0:0:
320,96,119323,1,12,0:0:0:0:
320,96,119807,1,0,0:0:0:0:
320,96,120170,1,8,0:0:0:0:
320,96,120291,1,0,0:0:0:0:
320,96,120533,1,8,0:0:0:0:
320,96,120775,1,0,0:0:0:0:
320,96,121258,1,8,0:0:0:0:
320,96,121500,1,0,0:0:0:0:
244,60,121742,1,8,0:0:0:0:
185,9,121863,1,8,0:0:0:0:
155,64,121984,1,0,0:0:0:0:
320,96,122226,1,8,0:0:0:0:
320,96,122468,1,8,0:0:0:0:
320,96,122710,1,4,0:0:0:0:
288,96,123194,1,8,0:0:0:0:
288,96,123436,1,0,0:0:0:0:
288,96,123678,1,8,0:0:0:0:
288,96,124162,1,0,0:0:0:0:
288,96,124404,1,8,0:0:0:0:
288,96,124645,1,0,0:0:0:0:
288,96,124887,1,8,0:0:0:0:
288,96,125129,1,0,0:0:0:0:
288,96,125250,1,0,0:0:0:0:
153,46,125492,1,8,0:0:0:0:
288,96,125855,1,8,0:0:0:0:
288,96,126581,1,0,0:0:0:0:
288,96,127065,1,12,0:0:0:0:
288,96,127549,1,0,0:0:0:0:
288,96,127912,1,8,0:0:0:0:
288,96,128033,1,0,0:0:0:0:
288,96,128275,1,8,0:0:0:0:
288,96,128516,1,0,0:0:0:0:
288,96,129000,1,8,0:0:0:0:
288,96,129242,1,8,0:0:0:0:
261,69,129484,1,0,0:0:0:0:
257,78,129726,1,0,0:0:0:0:
288,96,129968,1,8,0:0:0:0:
288,96,130452,1,0,0:0:0:0:
256,96,131178,1,8,0:0:0:0:
256,96,131420,1,0,0:0:0:0:
170,78,131662,1,8,0:0:0:0:
256,96,131904,1,0,0:0:0:0:
256,96,132387,1,4,0:0:0:0:
256,96,132871,1,12,0:0:0:0:
256,32,134323,1,4,0:0:0:0:
256,32,135291,5,0,0:0:0:0:
256,32,135533,1,8,0:0:0:0:
256,32,135654,1,0,0:0:0:0:
256,32,135895,1,8,0:0:0:0:
256,32,136137,1,4,0:0:0:0:
256,32,136742,1,8,0:0:0:0:
256,32,137226,1,0,0:0:0:0:
256,32,137710,1,0,0:0:0:0:
256,32,138194,1,8,0:0:0:0:
150,91,138678,1,8,0:0:0:0:
256,32,139645,1,8,0:0:0:0:
256,32,140129,1,0,0:0:0:0:
256,32,140613,1,8,0:0:0:0:
256,32,141097,1,0,0:0:0:0:
256,32,141339,1,0,0:0:0:0:
256,32,141581,1,8,0:0:0:0:
256,32,142065,1,8,0:0:0:0:
195,62,142549,1,8,0:0:0:0:
256,32,143516,1,8,0:0:0:0:
256,32,144000,1,0,0:0:0:0:
256,96,144968,1,0,0:0:0:0:
256,96,145452,1,8,0:0:0:0:
256,96,145936,1,0,0:0:0:0:
256,64,146420,1,8,0:0:0:0:
256,64,147387,1,8,0:0:0:0:
256,64,147871,1,8,0:0:0:0:
256,64,148355,1,8,0:0:0:0:
256,64,148839,1,0,0:0:0:0:
256,64,149081,1,12,0:0:0:0:
256,64,149807,1,0,0:0:0:0:
256,64,150291,1,8,0:0:0:0:
256,96,150775,1,0,0:0:0:0:
256,96,151742,1,8,0:0:0:0:
256,96,152105,1,0,0:0:0:0:
256,96,152468,1,12,0:0:0:0:
180,123,153194,1,8,0:0:0:0:
256,96,153678,1,0,0:0:0:0:
256,96,154162,1,8,0:0:0:0:
256,64,154645,1,0,0:0:0:0:
256,64,155613,1,8,0:0:0:0:
256,64,155976,1,8,0:0:0:0:
256,64,156339,1,12,0:0:0:0:
256,64,156823,1,0,0:0:0:0:
256,64,157065,1,8,0:0:0:0:
256,64,157549,1,12,0:0:0:0:
224,64,158516,1,8,0:0:0:0:
224,64,158879,1,8,0:0:0:0:
224,64,159242,1,8,0:0:0:0:
224,64,159484,1,0,0:0:0:0:
224,64,159968,1,0,0:0:0:0:
224,64,160452,1,8,0:0:0:0:
224,64,160936,1,8,0:0:0:0:
224,64,161420,1,0,0:0:0:0:
224,64,161904,1,12,0:0:0:0:
224,64,162387,1,0,0:0:0:0:
224,64,162871,1,12,0:0:0:0:
224,64,163355,1,0,0:0:0:0:
256,192,165291,5,12,0:0:0:0:
256,192,165775,1,4,0:0:0:0:
256,192,166137,1,4,0:0:0:0:
256,192,166742,1,12,0:0:0:0:
256,192,167226,1,8,0:0:0:0:
416,32,168194,1,0,0:0:0:0:
256,192,169162,1,8,0:0:0:0:
101,38,170129,1,0,0:0:0:0:
256,160,170371,1,0,0:0:0:0:
246,128,170613,1,8,0:0:0:0:
256,160,171097,1,0,0:0:0:0:
192,64,172065,1,8,0:0:0:0:
352,224,173033,1,0,0:0:0:0:
270,176,174000,1,0,0:0:0:0:
224,96,174242,1,8,0:0:0:0:
256,128,174726,1,8,0:0:0:0:
256,128,174968,1,4,0:0:0:0:
224,96,175452,1,8,0:0:0:0:
224,96,175936,1,0,0:0:0:0:
200,69,176178,1,8,0:0:0:0:
224,96,176420,1,0,0:0:0:0:
224,96,176904,1,0,0:0:0:0:
224,96,177387,1,8,0:0:0:0:
224,96,177871,1,0,0:0:0:0:
224,96,178113,1,8,0:0:0:0:
224,96,178355,1,0,0:0:0:0:
224,96,178839,1,8,0:0:0:0:
224,96,179807,1,0,0:0:0:0:
224,96,180775,1,8,0:0:0:0:
224,96,181742,1,8,0:0:0:0:
224,96,182104,1,0,0:0:0:0:
224,96,183193,1,12,0:0:0:0:
256,64,184160,1,8,0:0:0:0:
256,64,184523,1,8,0:0:0:0:
256,64,184765,1,0,0:0:0:0:
256,64,184886,1,8,0:0:0:0:
320,96,185128,1,4,0:0:0:0:
320,96,185612,1,8,0:0:0:0:
269,70,185854,1,0,0:0:0:0:
287,86,186096,1,8,0:0:0:0:
337,140,186217,1,8,0:0:0:0:
288,83,186338,1,0,0:0:0:0:
320,96,186580,1,8,0:0:0:0:
320,96,186822,1,8,0:0:0:0:
320,96,187063,1,4,0:0:0:0:
288,96,187547,1,8,0:0:0:0:
239,52,187789,1,0,0:0:0:0:
288,96,188031,1,8,0:0:0:0:
288,96,188515,1,0,0:0:0:0:
288,96,188757,1,8,0:0:0:0:
288,96,188999,1,0,0:0:0:0:
288,96,189241,1,8,0:0:0:0:
288,96,189483,1,0,0:0:0:0:
288,96,189604,1,0,0:0:0:0:
186,24,189846,1,8,0:0:0:0:
288,96,190209,1,8,0:0:0:0:
288,96,190934,1,0,0:0:0:0:
288,96,191418,1,12,0:0:0:0:
288,96,191902,1,0,0:0:0:0:
288,96,192265,1,8,0:0:0:0:
288,96,192386,1,0,0:0:0:0:
288,96,192628,1,8,0:0:0:0:
288,96,192870,1,0,0:0:0:0:
288,96,193354,1,8,0:0:0:0:
260,92,193475,1,0,0:0:0:0:
288,96,193596,1,8,0:0:0:0:
261,69,193838,1,0,0:0:0:0:
288,96,194080,1,0,0:0:0:0:
288,96,194322,1,8,0:0:0:0:
288,96,194805,1,0,0:0:0:0:
256,96,195531,1,8,0:0:0:0:
256,96,195773,1,0,0:0:0:0:
229,104,195894,1,0,0:0:0:0:
256,64,196015,1,8,0:0:0:0:
256,96,196257,1,0,0:0:0:0:
256,96,196741,1,4,0:0:0:0:
256,96,197225,1,12,0:0:0:0:
204,47,198193,1,0,0:0:0:0:
267,47,198434,1,8,0:0:0:0:
236,24,198676,1,0,0:0:0:0:
288,96,199160,1,12,0:0:0:0:
288,96,199644,1,0,0:0:0:0:
224,105,199886,1,8,0:0:0:0:
235,53,200128,1,0,0:0:0:0:
288,96,200612,1,0,0:0:0:0:
213,42,200854,1,8,0:0:0:0:
258,88,200975,1,8,0:0:0:0:
265,85,201338,1,8,0:0:0:0:
320,128,201580,1,0,0:0:0:0:
171,114,201822,1,8,0:0:0:0:
320,128,202305,1,8,0:0:0:0:
320,128,202547,1,0,0:0:0:0:
288,96,203031,1,8,0:0:0:0:
240,64,203273,1,0,0:0:0:0:
288,96,203515,1,8,0:0:0:0:
178,70,203636,1,0,0:0:0:0:
288,96,203757,1,8,0:0:0:0:
288,96,203999,1,0,0:0:0:0:
288,96,204483,1,0,0:0:0:0:
288,96,204725,1,8,0:0:0:0:
288,96,204967,1,8,0:0:0:0:
184,11,205451,1,0,0:0:0:0:
288,96,205693,1,12,0:0:0:0:
288,128,206418,1,0,0:0:0:0:
288,96,206902,1,12,0:0:0:0:
288,96,207386,1,8,0:0:0:0:
288,96,207628,1,0,0:0:0:0:
288,96,207870,1,8,0:0:0:0:
288,96,208354,1,0,0:0:0:0:
203,29,208596,1,8,0:0:0:0:
320,128,208838,1,8,0:0:0:0:
320,128,209080,1,8,0:0:0:0:
320,128,209322,1,0,0:0:0:0:
288,76,209805,1,8,0:0:0:0:
320,128,210289,1,0,0:0:0:0:
288,96,210652,1,8,0:0:0:0:
288,96,211015,1,8,0:0:0:0:
288,96,211257,1,0,0:0:0:0:
288,96,211378,1,8,0:0:0:0:
288,96,211741,1,8,0:0:0:0:
187,50,211862,1,0,0:0:0:0:
288,96,211983,1,8,0:0:0:0:
288,96,212225,1,0,0:0:0:0:
187,75,212709,1,8,0:0:0:0:
197,13,213072,1,0,0:0:0:0:
288,96,213676,1,8,0:0:0:0:
185,24,214160,1,0,0:0:0:0:
288,96,214281,1,12,0:0:0:0:
288,96,214644,1,12,0:0:0:0:
288,96,215007,1,12,0:0:0:0:
