osu file format v14

[General]
AudioFilename: audio.mp3
AudioLeadIn: 0
PreviewTime: 56964
Countdown: 0
SampleSet: Soft
StackLeniency: 0.7
Mode: 0
LetterboxInBreaks: 0
WidescreenStoryboard: 1

[Editor]
Bookmarks: 26195,38503,50810,56964,81580,91003,93310
DistanceSpacing: 1
BeatDivisor: 4
GridSize: 32
TimelineZoom: 1.5

[Metadata]
Title:i o Tokinasai
TitleUnicode:iを解きなさい
Artist:Hana
ArtistUnicode:はな
Creator:Trynna
Version:Normal
Source:いきなりあなたに恋している
Tags:wo visual novel eroge game Ikinari Anata ni Koi Shiteiru
BeatmapID:1452339
BeatmapSetID:684190

[Difficulty]
HPDrainRate:4
CircleSize:3
OverallDifficulty:4
ApproachRate:5
SliderMultiplier:1.2
SliderTickRate:1

[Events]
//Background and Video events
0,0,"eroge.jpg",0,0
//Break Periods
//Storyboard Layer 0 (Background)
//Storyboard Layer 1 (Fail)
//Storyboard Layer 2 (Pass)
//Storyboard Layer 3 (Foreground)
//Storyboard Sound Samples

[TimingPoints]
1580,384.615384615385,4,2,1,50,1,0
26195,-100,4,2,1,60,0,0
50810,-100,4,2,1,40,0,0
56964,-100,4,2,1,70,0,0
81580,-100,4,2,1,60,0,0

[Colours]
Combo1 : 117,186,255
Combo2 : 248,234,135
Combo3 : 255,193,224
Combo4 : 255,255,255

[HitObjects]
144,152,1580,6,0,B|144:32,1,120,10|0,0:0|0:0,0:0:0:0:
248,96,2349,2,0,B|276:112|308:120|344:112|364:96,1,120,2|0,0:0|0:0,0:0:0:0:
412,64,2926,1,10,0:0:0:0:
372,176,3310,1,2,0:0:0:0:
436,276,3695,2,0,L|300:272,1,120,2|10,0:0|0:0,0:0:0:0:
268,308,4272,2,0,B|252:316|232:320|208:316,1,60,2|8,0:0|0:0,0:0:0:0:
164,280,4656,6,0,L|164:160,2,120,8|2|8,0:0|0:0|0:0,0:0:0:0:
52,236,5810,1,2,0:0:0:0:
51,234,6003,2,0,B|36:216|16:180|32:140|49:120,1,120,10|8,0:0|0:0,0:0:0:0:
88,80,6580,2,0,L|147:73,1,60,2|10,0:0|0:0,0:0:0:0:
223,166,7156,2,0,L|163:159,1,60,8|2,0:0|0:0,0:0:0:0:
252,80,7733,6,0,B|288:52|340:44|384:56|414:94,1,180,12|8,0:0|0:0,0:0:0:0:
328,176,8695,1,10,0:0:0:0:
428,244,9080,2,0,L|432:368,2,120,8|2|10,0:0|0:0|0:0,0:0:0:0:
324,304,10233,1,8,0:0:0:0:
324,304,10426,2,0,B|296:312|264:304,1,60,2|8,0:0|0:0,0:0:0:0:
220,264,10810,6,0,B|192:232|144:220|92:232|57:270,1,180,10|10,0:0|0:0,0:0:0:0:
24,156,11772,1,10,0:0:0:0:
108,72,12156,2,0,L|232:64,2,120,8|10|8,0:0|0:0|0:0,0:0:0:0:
176,172,13310,1,8,0:0:0:0:
232,192,13503,1,2,0:0:0:0:
288,172,13695,2,0,B|316:168|347:171,1,60,10|10,0:0|0:0,0:0:0:0:
464,140,14272,6,0,B|496:196|468:256,1,120,2|10,0:0|0:0,0:0:0:0:
384,340,15041,1,2,0:0:0:0:
384,340,15233,2,0,L|264:340,1,120,10|10,0:0|0:0,0:0:0:0:
168,264,16003,2,0,B|152:224|152:180|168:144,1,120,10|10,0:0|0:0,0:0:0:0:
204,100,16580,2,0,L|264:100,1,60,0|10,0:0|0:0,0:0:0:0:
308,60,16964,6,0,B|368:32|424:60,1,120,10|10,0:0|0:0,0:0:0:0:
368,164,17733,2,0,L|368:284,1,120,2|10,0:0|0:0,0:0:0:0:
368,344,18310,1,10,0:0:0:0:
264,284,18695,1,10,0:0:0:0:
160,348,19080,2,0,B|120:360|76:359|36:344,1,120,2|8,0:0|0:0,0:0:0:0:
12,292,19656,1,8,0:0:0:0:
88,200,20041,6,0,B|56:112|120:112|88:20,1,180,14|10,0:0|0:0,0:0:0:0:
188,92,21003,2,0,L|316:84,1,120,10|10,0:0|0:0,0:0:0:0:
400,4,21772,1,2,0:0:0:0:
468,104,22156,2,0,B|492:164|464:220,1,120,2|10,0:0|0:0,0:0:0:0:
420,260,22733,2,0,L|360:260,1,60,2|2,0:0|0:0,0:0:0:0:
308,292,23118,6,0,B|264:268|220:268|176:284|143:319,1,180,10|10,0:0|0:0,0:0:0:0:
48,244,24080,1,10,0:0:0:0:
136,164,24464,5,10,0:0:0:0:
136,164,24656,2,0,B|160:192|216:176,1,60
244,144,25041,2,0,B|288:128|324:132,1,60
360,152,25426,1,0,0:0:0:0:
480,172,25810,2,0,L|500:116,2,60,10|2|14,0:0|0:0|0:0,0:0:0:0:
436,288,26580,5,2,1:2:0:0:
436,288,26772,2,0,B|380:260|316:284,1,120,10|10,0:0|0:0,0:0:0:0:
268,312,27349,2,0,L|208:312,1,60,2|10,1:2|0:0,0:0:0:0:
136,216,27926,1,10,0:0:0:0:
192,108,28310,2,0,B|232:80|276:68|328:80|360:132,1,180,10|0,0:0|1:2,0:0:0:0:
468,80,29272,6,0,L|464:208,1,120,10|0,0:0|1:2,0:0:0:0:
460,260,29849,1,10,0:0:0:0:
356,316,30233,2,0,L|296:316,1,60,10|2,0:0|1:2,0:0:0:0:
252,272,30618,2,0,B|192:256|136:292,1,120,10|10,0:0|0:0,0:0:0:0:
48,208,31387,2,0,L|48:88,1,120,8|8,0:0|0:0,0:0:0:0:
92,48,31964,2,0,B|120:40|156:48,1,60,0|8,1:2|0:0,0:0:0:0:
204,20,32349,5,12,0:0:0:0:
324,0,32733,1,2,1:2:0:0:
380,108,33118,2,0,L|440:108,2,60,2|10|0,0:0|0:0|1:2,0:0:0:0:
336,148,33695,2,0,B|328:176|324:204|328:232|340:268,1,120,10|2,0:0|0:0,0:0:0:0:
308,316,34272,2,0,B|280:324|248:315,1,60,0|10,1:2|0:0,0:0:0:0:
136,356,34849,1,10,0:0:0:0:
64,192,35426,6,0,L|64:72,1,120,8|2,0:0|1:2,0:0:0:0:
108,32,36003,1,10,0:0:0:0:
216,84,36387,2,0,L|276:84,1,60,8|2,0:0|1:2,0:0:0:0:
328,52,36772,2,0,B|384:80|376:164,1,120,10|10,0:0|0:0,0:0:0:0:
352,208,37349,1,0,1:2:0:0:
372,264,37541,1,10,0:0:0:0:
432,368,37926,2,0,B|340:348|344:388|252:368,1,180,8|12,0:0|0:0,0:0:0:0:
144,320,38887,5,2,1:2:0:0:
144,320,39080,2,0,B|120:260|140:196,1,120,10|10,0:0|0:0,0:0:0:0:
176,156,39656,2,0,L|240:156,1,60,0|10,1:2|0:0,0:0:0:0:
292,52,40233,1,10,0:0:0:0:
380,132,40618,2,0,B|452:208|376:296,1,180,10|8,0:0|1:2,0:0:0:0:
276,356,41580,6,0,L|156:356,1,120,10|2,0:0|1:2,0:0:0:0:
116,312,42156,1,10,0:0:0:0:
52,212,42541,2,0,B|64:172|56:136,1,60,10|2,0:0|1:2,0:0:0:0:
44,92,42926,2,0,B|112:56|176:88,1,120,10|10,0:0|0:0,0:0:0:0:
272,128,43695,2,0,L|396:128,1,120,10|10,0:0|0:0,0:0:0:0:
440,164,44272,2,0,B|434:179|432:208|436:232,1,60,0|0,1:2|0:0,0:0:0:0:
468,272,44656,1,14,0:0:0:0:
360,337,45041,6,0,B|320:352|272:328|264:284,1,120,2|2,1:2|0:0,0:0:0:0:
240,236,45618,2,0,L|172:236,1,60,10|0,0:0|1:2,0:0:0:0:
136,196,46003,1,10,0:0:0:0:
200,96,46387,2,0,B|228:120|280:120|316:100,2,120,10|10|10,0:0|0:0|0:0,0:0:0:0:
164,48,47349,1,0,0:0:0:0:
52,96,47733,6,0,B|24:156|48:212,1,120,10|0,0:0|1:2,0:0:0:0:
76,264,48310,1,0,0:0:0:0:
52,320,48503,2,0,B|112:292|168:316,1,120,0|2,0:0|1:2,0:0:0:0:
220,344,49080,1,0,0:0:0:0:
280,320,49272,6,0,B|348:344|408:272|376:212,1,180,12|2,0:0|1:2,0:0:0:0:
332,180,50041,2,0,L|272:172,1,60
224,208,50426,2,0,L|164:216,1,60
256,192,50810,12,8,55426,0:0:0:0:
64,284,56964,6,0,B|116:308|181:285,1,120,12|0,0:0|1:2,0:0:0:0:
224,244,57541,1,2,0:0:0:0:
152,148,57926,2,0,B|92:144,2,60,10|0|10,0:0|0:0|0:0,0:0:0:0:
128,32,58695,2,0,L|260:40,1,120,2|10,0:0|0:0,0:0:0:0:
332,128,59464,2,0,B|373:154|432:148|460:88|432:44,1,180,10|8,0:0|0:0,0:0:0:0:
380,20,60233,6,0,L|320:12,2,60,10|2|10,0:0|1:2|0:0,0:0:0:0:
332,128,61003,1,2,0:0:0:0:
332,188,61195,2,0,L|332:252,1,60,2|8,1:2|0:0,0:0:0:0:
286,287,61580,2,0,B|224:264|175:307,1,120,10|2,0:0|1:2,0:0:0:0:
116,308,62156,1,10,0:0:0:0:
88,192,62541,2,0,L|148:184,1,60,10|2,0:0|1:2,0:0:0:0:
204,76,63118,6,0,L|328:88,1,120,10|0,0:0|1:2,0:0:0:0:
368,48,63695,1,2,0:0:0:0:
428,56,63887,2,0,B|444:92|444:136|430:173,1,120,0|0,0:0|1:2,0:0:0:0:
408,228,64464,1,10,0:0:0:0:
464,336,64849,2,0,L|400:336,1,60,2|2,0:0|1:2,0:0:0:0:
352,304,65233,2,0,B|319:295|292:304|296:320|268:332|232:320,1,120,10|10,0:0|0:0,0:0:0:0:
184,296,65810,1,0,1:0:0:0:
116,200,66195,5,10,0:0:0:0:
164,164,66387,2,0,L|284:164,1,120,2|10,0:0|0:0,0:0:0:0:
380,92,67156,1,10,0:0:0:0:
408,144,67349,2,0,L|408:208,1,60,2|8,1:2|0:0,0:0:0:0:
438,251,67733,2,0,B|396:236|344:244|308:284|305:332,2,180,10|10|0,0:0|0:0|1:2,0:0:0:0:
492,144,69272,5,12,0:0:0:0:
492,24,69656,2,0,B|468:44|437:46,1,60,0|10,1:2|0:0,0:0:0:0:
392,88,70041,2,0,B|360:76|312:76|273:87,1,120,0|2,0:0|1:2,0:0:0:0:
220,116,70618,1,10,0:0:0:0:
168,144,70810,2,0,B|122:174|74:158|34:126|34:78,1,180,10|10,0:0|0:0,0:0:0:0:
140,28,71772,2,0,L|200:28,1,60,8|0,0:0|1:2,0:0:0:0:
168,144,72349,5,10,0:0:0:0:
188,200,72541,2,0,B|220:256|284:263,1,120,10|10,0:0|0:0,0:0:0:0:
344,276,73118,1,0,0:0:0:0:
420,184,73503,2,0,B|420:148|408:120,1,60,2|0,1:2|0:0,0:0:0:0:
360,92,73887,2,0,L|240:92,1,120,10|0,0:0|1:2,0:0:0:0:
202,44,74464,2,0,B|164:52|136:96|142:135,1,120,10|10,0:0|0:0,0:0:0:0:
104,180,75041,1,2,1:2:0:0:
156,288,75426,6,0,B|188:276|216:272|244:276|276:288,2,120,10|0|2,0:0|1:2|0:0,0:0:0:0:
100,312,76387,1,10,0:0:0:0:
48,284,76580,1,2,1:2:0:0:
104,180,76964,2,0,B|136:156|184:152|224:164,1,120,10|2,0:0|1:2,0:0:0:0:
276,180,77541,1,10,0:0:0:0:
392,144,77926,2,0,L|392:208,1,60,10|0,0:0|1:2,0:0:0:0:
442,311,78503,6,0,B|388:280|327:309,1,120,10|2,0:0|1:2,0:0:0:0:
216,356,79272,2,0,B|161:387|101:358,1,120,2|2,0:0|1:2,0:0:0:0:
68,308,79849,1,10,0:0:0:0:
92,252,80041,2,0,L|92:72,2,180,10|10|2,0:0|0:0|1:2,0:0:0:0:
196,192,81580,6,0,B|263:147|344:152|328:252|408:256|480:192,1,300,14|10,0:0|0:0,0:0:0:0:
444,84,82926,2,0,L|324:84,1,120,10|0,0:0|0:0,0:0:0:0:
284,40,83503,1,2,1:2:0:0:
224,28,83695,2,0,B|192:84|224:148,1,120,10|8,0:0|0:0,0:0:0:0:
200,200,84272,1,2,1:2:0:0:
78,191,84656,6,0,B|16:184|-32:248|-8:336|100:368|80:280|164:336,1,300,14|10,0:0|0:0,0:0:0:0:
280,348,86003,2,0,L|280:228,1,120,10|8,0:0|0:0,0:0:0:0:
336,208,86580,1,2,1:2:0:0:
392,224,86772,2,0,B|440:172|416:104,1,120,10|10,0:0|0:0,0:0:0:0:
360,92,87349,2,0,L|292:88,1,60,0|2,1:2|0:0,0:0:0:0:
250,67,87733,6,0,B|171:58|107:162|193:269|289:225,1,300,14|10,0:0|0:0,0:0:0:0:
368,308,89080,1,10,0:0:0:0:
320,344,89272,2,0,L|200:344,1,120,0|2,1:2|1:2,0:0:0:0:
152,308,89849,1,0,1:2:0:0:
96,200,90233,1,10,0:0:0:0:
96,140,90426,2,0,L|96:76,1,60,2|14,0:0|0:0,0:0:0:0:
212,112,91003,5,0,1:0:0:0:
212,112,91195,2,0,B|240:136|304:132|326:111,2,120,2|2|2,1:2|0:0|1:2,0:0:0:0:
296,28,92349,1,0,1:0:0:0:
296,28,92541,2,0,B|328:20|355:25,1,60,2|2,0:0|1:2,0:0:0:0:
408,56,92926,2,0,L|404:180,1,120,2|14,0:0|0:0,0:0:0:0:
