osu file format v14

[General]
AudioFilename: audio.mp3
AudioLeadIn: 0
PreviewTime: 56964
Countdown: 0
SampleSet: Soft
StackLeniency: 0.7
Mode: 0
LetterboxInBreaks: 0
WidescreenStoryboard: 1

[Editor]
Bookmarks: 26195,38503,50810,56964,81580,91003,93310
DistanceSpacing: 1
BeatDivisor: 4
GridSize: 32
TimelineZoom: 1.5

[Metadata]
Title:i o Tokinasai
TitleUnicode:iを解きなさい
Artist:Hana
ArtistUnicode:はな
Creator:Trynna
Version:Hard
Source:いきなりあなたに恋している
Tags:wo visual novel eroge game Ikinari Anata ni Koi Shiteiru
BeatmapID:1449196
BeatmapSetID:684190

[Difficulty]
HPDrainRate:5
CircleSize:4
OverallDifficulty:6
ApproachRate:7
SliderMultiplier:1.5
SliderTickRate:1

[Events]
//Background and Video events
0,0,"eroge.jpg",0,0
//Break Periods
//Storyboard Layer 0 (Background)
//Storyboard Layer 1 (Fail)
//Storyboard Layer 2 (Pass)
//Storyboard Layer 3 (Foreground)
//Storyboard Sound Samples

[TimingPoints]
1580,384.615384615385,4,2,1,50,1,0
26195,-100,4,2,1,60,0,0
50810,-100,4,2,1,40,0,0
56964,-100,4,2,1,70,0,0
81580,-100,4,2,1,60,0,0

[Colours]
Combo1 : 117,186,255
Combo2 : 248,234,135
Combo3 : 255,193,224
Combo4 : 255,255,255

[HitObjects]
104,64,1580,6,0,B|68:92|56:128|68:168|98:195,2,150,10|0|2,0:0|0:0|0:0,0:0:0:0:
244,132,2733,5,0,0:0:0:0:
244,132,2926,2,0,L|404:120,1,150,10|2,0:0|0:0,0:0:0:0:
478,15,3695,2,0,B|426:19|389:66|393:120,1,150,2|10,0:0|0:0,0:0:0:0:
444,180,4272,2,0,L|448:256,1,75,2|8,0:0|0:0,0:0:0:0:
384,324,4656,6,0,B|344:344|312:336|312:312|279:307|232:324,2,150,8|2|8,0:0|0:0|0:0,0:0:0:0:
270,239,5810,5,2,0:0:0:0:
270,239,6003,2,0,B|235:227|195:231|163:259|150:301,1,150,10|8,0:0|0:0,0:0:0:0:
84,336,6580,1,2,0:0:0:0:
24,292,6772,2,0,L|24:136,1,150,10|8,0:0|0:0,0:0:0:0:
24,142,7349,1,2,0:0:0:0:
144,48,7733,5,12,0:0:0:0:
196,104,7926,1,2,0:0:0:0:
272,104,8118,1,2,0:0:0:0:
320,44,8310,2,0,B|292:76|284:112|292:152|320:180,1,150,8|10,0:0|0:0,0:0:0:0:
376,232,8887,1,0,0:0:0:0:
304,256,9080,6,0,L|228:256,1,75,8|10,0:0|0:0,0:0:0:0:
188,320,9464,2,0,L|129:271,1,75,2|0,0:0|0:0,0:0:0:0:
60,304,9849,2,0,L|32:152,1,150,10|8,0:0|0:0,0:0:0:0:
32,156,10426,2,0,B|68:156|108:136,1,75,2|8,0:0|0:0,0:0:0:0:
184,92,10810,6,0,L|264:92,2,75,10|2|0,0:0|0:0|0:0,0:0:0:0:
148,24,11387,2,0,B|188:8|228:0|264:8|292:25,1,150,10|10,0:0|0:0,0:0:0:0:
420,108,12156,5,8,0:0:0:0:
436,256,12541,1,10,0:0:0:0:
300,192,12926,2,0,B|256:172|200:172|152:192,1,150,8|8,0:0|0:0,0:0:0:0:
153,191,13503,1,2,0:0:0:0:
64,156,13695,5,10,0:0:0:0:
64,156,13791,1,0,0:0:0:0:
64,156,13887,1,10,0:0:0:0:
44,304,14272,2,0,L|204:296,1,150,2|10,0:0|0:0,0:0:0:0:
340,340,15041,5,2,0:0:0:0:
396,288,15233,2,0,B|424:248|432:216|424:184|399:149,2,150,10|10|10,0:0|0:0|0:0,0:0:0:0:
256,232,16387,1,10,0:0:0:0:
256,232,16580,2,0,L|256:148,1,75,0|10,0:0|0:0,0:0:0:0:
308,84,16964,5,10,0:0:0:0:
160,64,17349,1,10,0:0:0:0:
80,192,17733,1,2,0:0:0:0:
168,312,18118,5,10,0:0:0:0:
168,312,18310,2,0,B|216:296|272:312|296:360,2,150,10|10|2,0:0|0:0|0:0,0:0:0:0:
24,352,19464,1,8,0:0:0:0:
68,292,19656,2,0,L|68:216,1,75,8|10,0:0|0:0,0:0:0:0:
136,144,20041,5,14,0:0:0:0:
212,144,20233,1,0,0:0:0:0:
176,80,20426,1,2,0:0:0:0:
252,80,20618,2,0,B|328:48|400:80,1,150,10|10,0:0|0:0,0:0:0:0:
490,196,21387,6,0,B|448:228|448:284|481:330,2,150,10|2|2,0:0|0:0|0:0,0:0:0:0:
360,268,22541,1,10,0:0:0:0:
296,228,22733,2,0,L|220:228,1,75,2|2,0:0|0:0,0:0:0:0:
133,193,23118,6,0,B|120:228|132:268,2,75,10|0|2,0:0|0:0|0:0,0:0:0:0:
152,120,23695,2,0,B|204:88|260:88|300:112,1,150,10|10,0:0|0:0,0:0:0:0:
368,140,24272,1,0,0:0:0:0:
420,84,24464,1,10,0:0:0:0:
488,152,24656,6,0,L|488:232,1,75,12|2,0:0|0:0,0:0:0:0:
424,268,25041,2,0,L|344:268,1,75,4|2,0:0|0:0,0:0:0:0:
284,304,25426,2,0,L|284:379,1,75,4|10,0:0|0:0,0:0:0:0:
208,368,25810,2,0,B|136:332|64:368,1,150,10|14,0:0|0:0,0:0:0:0:
48,232,26580,5,2,1:2:0:0:
48,232,26772,2,0,L|48:80,1,150,10|10,0:0|0:0,0:0:0:0:
124,88,27349,1,2,1:2:0:0:
168,152,27541,6,0,B|200:196|264:196|304:160,2,150,10|10|10,0:0|0:0|0:0,0:0:0:0:
256,36,28695,2,0,L|336:36,1,75,8|0,0:0|1:2,0:0:0:0:
424,36,29080,5,2,0:0:0:0:
424,36,29176,1,0,0:0:0:0:
424,36,29272,2,0,B|440:72|423:109,1,75,10|2,0:0|0:0,0:0:0:0:
388,176,29656,1,0,1:2:0:0:
432,236,29849,2,0,B|388:212|336:212|288:240,1,150,10|10,0:0|0:0,0:0:0:0:
232,288,30426,1,2,1:2:0:0:
152,232,30618,6,0,B|138:191|140:156|164:156|168:120|152:80,2,150,10|10|8,0:0|0:0|0:0,0:0:0:0:
64,356,31772,1,8,0:0:0:0:
16,296,31964,1,0,1:2:0:0:
76,248,32156,1,8,0:0:0:0:
124,308,32348,1,12,0:0:0:0:
268,352,32733,6,0,B|308:352|341:337,1,75,2|8,1:2|0:0,0:0:0:0:
376,268,33118,2,0,B|361:234|361:194,2,75,2|10|0,0:0|0:0|1:2,0:0:0:0:
448,296,33695,1,10,0:0:0:0:
476,148,34080,2,0,L|404:128,1,75,2|0,0:0|1:2,0:0:0:0:
364,64,34464,2,0,B|312:52|264:60|224:96,1,150,10|10,0:0|0:0,0:0:0:0:
223,96,35041,1,0,1:2:0:0:
84,40,35426,5,8,0:0:0:0:
40,100,35618,1,2,0:0:0:0:
116,108,35810,1,2,1:2:0:0:
72,168,36002,1,10,0:0:0:0:
116,228,36195,2,0,L|192:224,1,75,0|8,0:0|0:0,0:0:0:0:
256,260,36580,1,2,1:2:0:0:
308,316,36772,6,0,B|340:292|344:248|332:208|289:190,1,150,10|10,0:0|0:0,0:0:0:0:
256,124,37349,1,0,1:2:0:0:
292,56,37541,2,0,L|444:52,1,150,10|8,0:0|0:0,0:0:0:0:
441,52,38118,1,2,1:2:0:0:
500,120,38310,1,0,0:0:0:0:
500,120,38406,1,0,0:0:0:0:
500,120,38503,1,12,0:0:0:0:
444,260,38887,5,2,1:2:0:0:
444,260,39080,2,0,B|416:232|380:220|336:232|309:258,1,150,10|10,0:0|0:0,0:0:0:0:
260,312,39656,1,0,1:2:0:0:
192,284,39849,6,0,L|42:291,2,150,10|10|10,0:0|0:0|0:0,0:0:0:0:
152,140,41003,2,0,L|72:136,1,75,8|8,0:0|1:2,0:0:0:0:
44,60,41387,5,2,0:0:0:0:
44,60,41483,1,0,0:0:0:0:
44,60,41580,2,0,B|80:48|124:48,1,75,10|0,0:0|0:0,0:0:0:0:
188,24,41964,1,2,1:2:0:0:
248,68,42156,2,0,B|295:91|307:155|279:199,1,150,10|10,0:0|0:0,0:0:0:0:
279,198,42733,1,2,1:2:0:0:
336,280,42926,6,0,B|312:232|248:220|204:248,2,150,10|10|10,0:0|0:0|0:0,0:0:0:0:
472,340,44080,1,10,0:0:0:0:
436,276,44272,1,0,1:2:0:0:
480,216,44464,2,0,L|480:140,1,75,0|14,0:0|0:0,0:0:0:0:
360,52,45041,6,0,B|320:44|284:52,1,75,2|8,1:2|0:0,0:0:0:0:
240,112,45426,2,0,B|248:152|240:188,2,75,2|10|0,0:0|0:0|1:2,0:0:0:0:
172,44,46003,6,0,B|136:24|100:16|56:32|32:56,1,150,10|10,0:0|0:0,0:0:0:0:
68,124,46580,1,0,1:2:0:0:
20,184,46772,2,0,L|20:336,1,150,10|10,0:0|0:0,0:0:0:0:
20,334,47349,1,0,0:0:0:0:
168,356,47733,5,10,0:0:0:0:
156,280,47926,1,2,0:0:0:0:
228,308,48118,1,0,1:2:0:0:
216,232,48311,1,0,0:0:0:0:
288,256,48503,2,0,B|324:248|364:256,1,75,0|0,0:0|0:0,0:0:0:0:
412,200,48887,2,0,B|404:164|412:124,1,75,2|10,1:2|0:0,0:0:0:0:
484,84,49272,6,0,L|332:84,1,150,12|2,0:0|1:2,0:0:0:0:
192,40,50041,1,8,1:2:0:0:
192,40,50233,1,0,0:0:0:0:
144,100,50426,1,2,1:2:0:0:
144,100,50618,1,0,0:0:0:0:
192,176,50810,6,0,L|192:252,1,75,8|2,0:0|0:0,0:0:0:0:
268,275,51195,2,0,L|268:200,1,75,8|2,0:0|0:0,0:0:0:0:
344,176,51580,2,0,L|344:252,1,75,8|2,0:0|0:0,0:0:0:0:
420,275,51965,2,0,L|420:200,1,75,8|2,0:0|0:0,0:0:0:0:
472,120,52349,6,0,B|444:92|404:92,1,75,8|2,0:0|0:0,0:0:0:0:
368,28,52733,2,0,B|328:24|297:50,1,75,8|2,0:0|0:0,0:0:0:0:
236,12,53118,2,0,B|203:34|196:74,1,75,8|2,0:0|0:0,0:0:0:0:
127,98,53502,2,0,B|116:136|136:170,1,75,8|2,0:0|0:0,0:0:0:0:
112,264,53887,6,0,L|188:260,1,75,8|2,0:0|0:0,0:0:0:0:
248,216,54272,2,0,L|322:212,1,75,8|2,0:0|0:0,0:0:0:0:
328,288,54656,2,0,L|252:292,1,75,8|2,0:0|0:0,0:0:0:0:
192,336,55041,2,0,L|117:339,1,75,8|8,0:0|0:0,0:0:0:0:
256,192,55426,12,8,56580,0:0:0:0:
296,256,56964,5,12,0:0:0:0:
256,192,57156,1,10,0:0:0:0:
296,128,57349,1,0,1:2:0:0:
256,64,57541,2,0,B|220:52|180:64,1,75,2|0,0:0|0:0,0:0:0:0:
108,48,57926,2,0,L|108:128,1,75,10|2,0:0|1:2,0:0:0:0:
48,192,58310,6,0,B|82:203|110:239|106:291|78:319,1,150,10|2,0:0|0:0,0:0:0:0:
81,315,58887,1,2,1:2:0:0:
144,368,59080,2,0,L|296:356,1,150,10|10,0:0|0:0,0:0:0:0:
364,384,59656,1,0,0:0:0:0:
388,236,60041,5,8,0:0:0:0:
352,168,60233,2,0,B|316:160|277:167,1,75,10|2,0:0|1:2,0:0:0:0:
228,224,60618,2,0,B|248:192|256:148|248:108|228:72,1,150,10|2,0:0|0:0,0:0:0:0:
232,80,61195,5,2,1:2:0:0:
160,64,61387,1,8,0:0:0:0:
88,88,61580,2,0,L|88:168,1,75,10|8,0:0|0:0,0:0:0:0:
40,220,61964,1,2,1:2:0:0:
80,284,62156,2,0,B|120:268|156:276|156:296|192:304|228:284,1,150,10|10,0:0|0:0,0:0:0:0:
292,324,62733,1,2,1:2:0:0:
436,284,63118,5,10,0:0:0:0:
444,208,63310,1,2,0:0:0:0:
384,164,63503,1,0,1:2:0:0:
376,240,63695,1,2,0:0:0:0:
316,196,63887,2,0,B|280:208|242:196,1,75,0|10,0:0|0:0,0:0:0:0:
180,152,64272,1,0,1:2:0:0:
112,92,64464,6,0,B|148:120|156:160|148:196|120:224,1,150,10|2,0:0|0:0,0:0:0:0:
68,280,65041,1,2,1:2:0:0:
116,340,65233,2,0,L|272:336,1,150,10|10,0:0|0:0,0:0:0:0:
265,336,65810,1,0,1:2:0:0:
388,248,66195,5,10,0:0:0:0:
344,188,66387,2,0,L|344:112,1,75,2|0,0:0|1:2,0:0:0:0:
384,48,66772,2,0,B|360:20|316:8|272:20|252:51,1,150,10|10,0:0|0:0,0:0:0:0:
252,50,67349,5,2,1:2:0:0:
180,36,67541,1,8,0:0:0:0:
108,12,67733,2,0,L|32:12,1,75,10|8,0:0|0:0,0:0:0:0:
4,80,68118,1,0,1:2:0:0:
28,152,68310,2,0,B|64:172|99:182|136:172|171:155,1,150,10|10,0:0|0:0,0:0:0:0:
256,192,68887,5,0,1:2:0:0:
256,212,68983,1,0,1:2:0:0:
256,232,69080,1,0,1:2:0:0:
256,252,69176,1,0,1:2:0:0:
256,272,69272,1,12,0:0:0:0:
296,336,69464,1,10,0:0:0:0:
372,336,69656,1,0,1:2:0:0:
412,272,69848,1,10,0:0:0:0:
384,204,70041,2,0,B|368:164|384:128,1,75,0|10,0:0|0:0,0:0:0:0:
452,96,70426,2,0,B|468:136|453:169,1,75,2|10,1:2|0:0,0:0:0:0:
384,52,70810,6,0,L|308:52,1,75,10|0,0:0|0:0,0:0:0:0:
240,20,71195,1,2,1:2:0:0:
196,80,71387,2,0,B|180:100|156:140|176:196|200:216,1,150,10|10,0:0|0:0,0:0:0:0:
200,216,71964,1,0,1:2:0:0:
128,348,72349,5,10,0:0:0:0:
200,372,72541,2,0,L|276:372,1,75,10|0,0:0|1:2,0:0:0:0:
332,320,72926,2,0,B|320:284|328:245,1,75,10|0,0:0|0:0,0:0:0:0:
392,208,73310,1,10,0:0:0:0:
456,248,73503,1,2,1:2:0:0:
512,200,73695,1,10,0:0:0:0:
448,136,73887,6,0,B|448:60,1,75,10|8,0:0|0:0,0:0:0:0:
384,24,74272,1,0,1:2:0:0:
320,64,74464,2,0,B|285:49|248:52|248:76|212:84|171:64,1,150,10|10,0:0|0:0,0:0:0:0:
174,65,75041,1,2,1:2:0:0:
64,176,75426,5,10,0:0:0:0:
116,228,75618,2,0,L|192:228,1,75,2|0,0:0|1:2,0:0:0:0:
264,248,76003,2,0,B|272:208|264:172,1,75,10|2,0:0|0:0,0:0:0:0:
328,108,76387,5,10,0:0:0:0:
272,56,76580,1,2,1:2:0:0:
328,4,76772,1,8,0:0:0:0:
384,56,76964,2,0,L|464:56,1,75,10|8,0:0|0:0,0:0:0:0:
504,116,77349,1,2,1:2:0:0:
460,176,77541,2,0,L|460:340,1,150,10|10,0:0|0:0,0:0:0:0:
460,326,78118,1,0,1:2:0:0:
320,296,78503,5,10,0:0:0:0:
253,329,78695,2,0,B|236:296|255:255,1,75,2|2,0:0|1:2,0:0:0:0:
196,208,79080,2,0,B|158:221|122:205,1,75,10|2,0:0|0:0,0:0:0:0:
76,148,79464,1,10,0:0:0:0:
108,80,79656,2,0,L|108:4,1,75,2|10,1:2|0:0,0:0:0:0:
203,47,80041,6,0,B|239:31|279:27|315:31|349:43,1,150,10|2,0:0|1:2,0:0:0:0:
349,43,80618,1,10,0:0:0:0:
460,148,81003,1,8,0:0:0:0:
412,204,81195,1,2,1:2:0:0:
484,224,81387,1,10,0:0:0:0:
424,292,81580,6,0,L|272:292,1,150,14|2,0:0|1:2,0:0:0:0:
212,332,82156,1,10,0:0:0:0:
100,232,82541,1,10,0:0:0:0:
232,156,82926,6,0,B|308:188|377:157,1,150,10|0,0:0|0:0,0:0:0:0:
432,104,83503,1,2,1:2:0:0:
376,52,83695,2,0,B|306:21|230:53,1,150,10|8,0:0|0:0,0:0:0:0:
176,104,84272,1,2,1:2:0:0:
112,68,84464,1,0,0:0:0:0:
56,140,84656,6,0,L|56:296,1,150,14|2,0:0|1:2,0:0:0:0:
112,340,85233,1,10,0:0:0:0:
232,252,85618,1,10,0:0:0:0:
348,348,86003,6,0,B|320:268|360:200,1,150,10|8,0:0|0:0,0:0:0:0:
412,148,86580,1,2,1:2:0:0:
384,80,86772,2,0,B|304:52|236:92,1,150,10|10,0:0|0:0,0:0:0:0:
172,60,87349,1,0,1:2:0:0:
172,60,87541,1,2,0:0:0:0:
136,144,87733,6,0,L|136:300,1,150,14|2,0:0|1:2,0:0:0:0:
192,344,88310,1,10,0:0:0:0:
340,336,88695,1,10,0:0:0:0:
256,212,89080,1,10,0:0:0:0:
276,140,89272,5,0,1:2:0:0:
276,124,89368,1,0,1:2:0:0:
276,108,89464,1,2,1:2:0:0:
276,92,89560,1,0,1:2:0:0:
276,76,89656,2,0,L|276:36,4,37.5,2|0|2|0|0,1:2|1:2|1:2|1:2|1:2,0:0:0:0:
348,100,90233,1,10,0:0:0:0:
416,68,90426,1,2,0:0:0:0:
484,100,90618,1,14,0:0:0:0:
420,236,91003,6,0,L|420:316,1,75,0|2,1:0|1:2,0:0:0:0:
348,336,91387,2,0,L|348:256,1,75,0|2,0:0|0:0,0:0:0:0:
280,228,91772,1,0,0:0:0:0:
240,292,91964,1,2,1:2:0:0:
276,356,92156,1,2,0:0:0:0:
144,292,92541,2,0,B|108:308|70:299,2,75,2|2|2,0:2|1:2|0:0,0:0:0:0:
256,192,93310,5,14,0:0:0:0:
