osu file format v14

[General]
AudioFilename: audio.mp3
AudioLeadIn: 0
PreviewTime: 56964
Countdown: 0
SampleSet: Soft
StackLeniency: 0.7
Mode: 0
LetterboxInBreaks: 0
WidescreenStoryboard: 0

[Editor]
Bookmarks: 26195,50810,56964,81580,91003,93310
DistanceSpacing: 0.6
BeatDivisor: 4
GridSize: 32
TimelineZoom: 1.5

[Metadata]
Title:i o Tokinasai
TitleUnicode:iを解きなさい
Artist:Hana
ArtistUnicode:はな
Creator:Trynna
Version:Insane
Source:いきなりあなたに恋している
Tags:wo visual novel eroge game Ikinari Anata ni Koi Shiteiru
BeatmapID:1447962
BeatmapSetID:684190

[Difficulty]
HPDrainRate:6
CircleSize:4
OverallDifficulty:7
ApproachRate:8
SliderMultiplier:1.8
SliderTickRate:1

[Events]
//Background and Video events
0,0,"eroge.jpg",0,0
//Break Periods
//Storyboard Layer 0 (Background)
//Storyboard Layer 1 (Fail)
//Storyboard Layer 2 (Pass)
//Storyboard Layer 3 (Foreground)
//Storyboard Sound Samples

[TimingPoints]
1580,384.615384615385,4,2,1,50,1,0
26195,-100,4,2,1,60,0,0
50810,-100,4,2,1,40,0,0
56964,-100,4,2,1,70,0,0
81580,-100,4,2,1,60,0,0

[Colours]
Combo1 : 117,186,255
Combo2 : 248,234,135
Combo3 : 255,193,224
Combo4 : 255,255,255

[HitObjects]
92,92,1580,6,0,B|125:35|213:32|245:97,1,180,10|0,0:0|0:0,0:0:0:0:
168,136,2156,1,8,0:0:0:0:
128,212,2349,2,0,B|172:232|216:208,1,90,2|8,0:0|0:0,0:0:0:0:
292,224,2733,1,0,0:0:0:0:
336,144,2926,6,0,B|392:168|408:252|352:292,2,180,10|2|2,0:0|0:0|0:0,0:0:0:0:
336,144,4080,1,10,0:0:0:0:
316,68,4272,1,2,0:0:0:0:
396,44,4464,1,8,0:0:0:0:
232,84,4656,6,0,B|192:60|144:80,1,90,8|0,0:0|0:0,0:0:0:0:
64,60,5041,2,0,B|40:100|60:148,1,90,8|0,0:0|0:0,0:0:0:0:
32,224,5426,1,8,0:0:0:0:
88,340,5810,5,2,0:0:0:0:
164,296,6003,2,0,B|252:252|332:317,1,180,10|8,0:0|0:0,0:0:0:0:
432,300,6580,1,2,0:0:0:0:
432,300,6772,2,0,B|390:344|284:284|330:203,1,180,10|8,0:0|0:0,0:0:0:0:
415,143,7349,2,0,B|381:162|351:155|351:139|317:131|283:147,1,135,2|0,0:0|0:0,0:0:0:0:
285,147,7733,5,12,0:0:0:0:
240,68,7926,1,2,0:0:0:0:
144,72,8118,1,2,0:0:0:0:
80,176,8310,2,0,B|92:220|80:272,1,90,8|0,0:0|0:0,0:0:0:0:
80,348,8695,1,10,0:0:0:0:
192,324,8887,5,0,0:0:0:0:
220,320,8983,1,0,0:0:0:0:
248,324,9080,1,8,0:0:0:0:
272,336,9176,1,0,0:0:0:0:
292,352,9272,2,0,B|280:304|292:260,1,90,10|2,0:0|0:0,0:0:0:0:
388,216,9656,2,0,B|400:168|388:124,1,90,0|10,0:0|0:0,0:0:0:0:
312,60,10041,1,0,0:0:0:0:
200,128,10233,1,8,0:0:0:0:
108,32,10426,1,2,0:0:0:0:
200,128,10618,1,8,0:0:0:0:
60,232,10810,6,0,B|40:188|56:144,1,90,10|2,0:0|0:0,0:0:0:0:
128,188,11195,1,0,0:0:0:0:
184,260,11387,2,0,L|328:252,1,135,10|0,0:0|0:0,0:0:0:0:
340,252,11772,2,0,B|376:248|404:208|388:152|364:140,1,135,10|0,0:0|0:0,0:0:0:0:
356,128,12156,1,8,0:0:0:0:
228,40,12349,1,8,0:0:0:0:
228,40,12445,1,8,0:0:0:0:
228,40,12541,1,10,0:0:0:0:
332,24,12733,1,2,0:0:0:0:
244,140,12926,6,0,B|176:176|112:132,1,135,8|0,0:0|0:0,0:0:0:0:
116,134,13310,1,8,0:0:0:0:
40,168,13503,1,2,0:0:0:0:
16,252,13695,1,10,0:0:0:0:
56,334,13887,5,10,0:0:0:0:
56,334,14272,2,0,B|100:356|144:344|144:328|188:316|232:336,1,180,2|10,0:0|0:0,0:0:0:0:
372,368,15041,5,2,0:0:0:0:
372,368,15233,2,0,B|356:320|372:280,1,90,10|8,0:0|0:0,0:0:0:0:
464,216,15618,2,0,B|430:253|387:260,1,90,10|0,0:0|0:0,0:0:0:0:
288,208,16003,2,0,B|337:218|364:251,1,90,10|2,0:0|0:0,0:0:0:0:
228,260,16387,1,10,0:0:0:0:
220,164,16580,1,0,0:0:0:0:
296,108,16772,1,10,0:0:0:0:
144,212,16964,6,0,L|52:212,1,90,10|0,0:0|0:0,0:0:0:0:
12,120,17349,2,0,B|56:100|100:120,1,90,10|8,0:0|0:0,0:0:0:0:
204,36,17733,2,0,B|184:80|204:124,1,90,2|8,0:0|0:0,0:0:0:0:
328,208,18118,1,10,0:0:0:0:
412,200,18310,6,0,B|416:140|340:96|280:136,1,180,10|10,0:0|0:0,0:0:0:0:
280,135,19080,1,2,0:0:0:0:
200,208,19272,1,10,0:0:0:0:
200,208,19368,1,0,0:0:0:0:
200,208,19464,1,8,0:0:0:0:
344,280,19656,5,8,0:0:0:0:
320,268,19753,1,8,0:0:0:0:
292,264,19849,1,10,0:0:0:0:
268,272,19945,1,8,0:0:0:0:
248,292,20041,2,0,B|204:316|160:296,1,90,14|0,0:0|0:0,0:0:0:0:
76,240,20426,1,2,0:0:0:0:
100,116,20618,2,0,B|128:88|184:68|240:88|268:112,1,180,10|10,0:0|0:0,0:0:0:0:
360,64,21195,5,0,0:0:0:0:
372,88,21291,1,0,0:0:0:0:
376,116,21387,1,10,0:0:0:0:
372,144,21483,1,0,0:0:0:0:
356,168,21580,1,8,0:0:0:0:
264,236,21772,1,2,0:0:0:0:
340,340,21964,1,0,0:0:0:0:
200,312,22156,2,0,B|140:276|70:306,1,135,10|0,0:0|0:0,0:0:0:0:
70,306,22541,1,10,0:0:0:0:
76,224,22733,1,2,0:0:0:0:
80,140,22926,1,2,0:0:0:0:
184,184,23118,6,0,B|232:196|271:175,1,90,10|0,0:0|0:0,0:0:0:0:
328,120,23503,1,2,0:0:0:0:
376,52,23695,2,0,B|336:31|288:43,1,90,10|0,0:0|0:0,0:0:0:0:
416,136,24080,2,0,B|395:175|407:223,1,90,10|0,0:0|0:0,0:0:0:0:
448,324,24464,5,10,0:0:0:0:
448,324,24656,2,0,L|358:320,1,90,12|2,0:0|0:0,0:0:0:0:
268,356,25041,2,0,L|271:266,1,90,4|2,0:0|0:0,0:0:0:0:
228,180,25426,2,0,L|317:176,1,90,4|10,0:0|0:0,0:0:0:0:
256,72,25810,5,10,0:0:0:0:
228,68,25906,1,0,0:0:0:0:
200,64,26003,1,2,0:0:0:0:
172,60,26099,1,0,0:0:0:0:
148,60,26195,1,14,0:0:0:0:
148,60,26580,1,2,1:2:0:0:
92,124,26772,2,0,L|100:224,1,90,10|0,0:0|0:0,0:0:0:0:
84,348,27156,5,10,0:0:0:0:
184,300,27349,1,2,1:2:0:0:
264,376,27541,2,0,B|312:380|352:366,1,90,10|0,0:0|0:0,0:0:0:0:
440,292,27926,2,0,B|399:278|351:282,1,90,10|0,0:0|1:2,0:0:0:0:
272,164,28310,2,0,L|276:268,1,90,10|2,0:0|0:0,0:0:0:0:
372,192,28695,1,8,0:0:0:0:
372,192,28887,1,0,1:2:0:0:
452,84,29080,5,2,0:0:0:0:
436,64,29176,1,0,0:0:0:0:
412,52,29272,2,0,B|380:40|348:44|320:64,1,90,10|2,0:0|0:0,0:0:0:0:
224,40,29656,1,0,1:2:0:0:
148,128,29849,2,0,B|124:160|60:168|8:120|24:72,1,180,10|10,0:0|0:0,0:0:0:0:
96,72,30426,1,2,1:2:0:0:
228,140,30618,6,0,L|324:140,1,90,10|0,0:0|0:0,0:0:0:0:
376,216,31003,2,0,L|280:216,1,90,10|0,0:0|1:2,0:0:0:0:
212,296,31387,2,0,L|304:296,1,90,8|0,0:0|0:0,0:0:0:0:
424,320,31772,1,8,0:0:0:0:
376,216,31964,1,0,1:2:0:0:
480,100,32156,1,8,0:0:0:0:
412,60,32349,6,0,B|388:100|396:156|452:188|492:180,1,180,12|2,0:0|1:2,0:0:0:0:
492,179,32926,1,8,0:0:0:0:
424,260,33118,2,0,L|332:260,1,90,2|10,0:0|0:0,0:0:0:0:
272,312,33503,1,0,1:2:0:0:
182,238,33695,6,0,B|178:138,1,90,10|8,0:0|0:0,0:0:0:0:
268,92,34080,1,2,0:0:0:0:
179,149,34272,1,0,1:2:0:0:
80,88,34464,2,0,B|32:112|16:148|20:200|68:236,1,180,10|10,0:0|0:0,0:0:0:0:
152,312,35041,1,0,1:2:0:0:
152,312,35426,5,8,0:0:0:0:
232,272,35618,1,2,0:0:0:0:
324,288,35810,1,2,1:2:0:0:
388,356,36003,1,10,0:0:0:0:
324,288,36195,2,0,B|308:256|308:228|324:200,1,90,0|8,0:0|0:0,0:0:0:0:
388,152,36580,1,2,1:2:0:0:
460,108,36772,2,0,B|476:140|476:168|460:196,1,90,10|0,0:0|0:0,0:0:0:0:
384,68,37156,5,10,0:0:0:0:
296,100,37349,1,0,1:2:0:0:
213,42,37541,2,0,B|168:28|125:42|129:62|85:78|33:62,1,180,10|8,0:0|0:0,0:0:0:0:
12,148,38118,5,0,0:0:0:0:
25,171,38214,1,0,0:0:0:0:
30,199,38310,1,0,0:0:0:0:
27,227,38406,1,0,0:0:0:0:
16,255,38503,1,12,0:0:0:0:
16,255,38887,1,2,1:2:0:0:
108,316,39080,2,0,B|200:376|268:280,1,180,10|10,0:0|0:0,0:0:0:0:
264,285,39656,1,0,1:2:0:0:
376,296,39849,6,0,B|360:252|376:204,1,90,10|8,0:0|0:0,0:0:0:0:
332,124,40233,2,0,B|376:108|424:124,1,90,10|0,0:0|1:2,0:0:0:0:
276,192,40618,2,0,L|96:200,1,180,10|8,0:0|0:0,0:0:0:0:
96,199,41195,1,8,1:2:0:0:
44,92,41387,5,2,0:0:0:0:
67,81,41483,1,0,0:0:0:0:
96,80,41580,2,0,B|140:96|184:72,1,90,10|0,0:0|0:0,0:0:0:0:
256,16,41964,1,2,1:2:0:0:
316,108,42156,2,0,B|292:144|296:200|328:240|384:244,1,180,10|10,0:0|0:0,0:0:0:0:
472,244,42733,1,2,1:2:0:0:
424,168,42926,1,10,0:0:0:0:
424,320,43118,6,0,L|332:324,1,90,8|10,0:0|0:0,0:0:0:0:
248,280,43503,2,0,L|158:276,1,90,0|10,1:2|0:0,0:0:0:0:
88,212,43887,1,0,0:0:0:0:
88,212,44080,1,10,0:0:0:0:
108,80,44272,1,0,1:2:0:0:
108,80,44465,1,8,0:0:0:0:
240,148,44656,5,14,0:0:0:0:
240,148,45041,2,0,B|284:164|332:152,1,90,2|8,1:2|0:0,0:0:0:0:
420,176,45426,2,0,B|408:131|424:87,2,90,2|10|0,0:0|0:0|1:2,0:0:0:0:
456,280,46003,6,0,B|424:256|368:240|316:260|288:292,1,180,10|10,0:0|0:0,0:0:0:0:
290,289,46580,1,0,1:2:0:0:
204,332,46772,2,0,L|112:328,1,90,10|0,0:0|0:0,0:0:0:0:
67,211,47156,2,0,B|114:192|155:199|155:223|195:231|243:203,1,180,10|0,0:0|0:0,0:0:0:0:
241,205,47732,5,10,0:0:0:0:
228,104,47925,1,2,0:0:0:0:
329,93,48117,1,0,1:2:0:0:
443,183,48309,5,10,0:0:0:0:
456,284,48502,1,0,0:0:0:0:
355,295,48694,1,10,0:0:0:0:
355,295,48791,1,0,0:0:0:0:
355,295,48887,1,2,1:2:0:0:
342,194,49080,1,10,0:0:0:0:
256,308,49272,6,0,B|212:360|148:360|96:316,1,180,12|2,0:0|1:2,0:0:0:0:
80,172,49849,1,0,0:0:0:0:
172,212,50041,1,0,0:0:0:0:
172,212,50233,1,0,0:0:0:0:
172,120,50426,1,0,0:0:0:0:
172,120,50618,1,0,0:0:0:0:
284,92,50810,6,0,B|313:82|345:82|373:90,1,90,8|2,0:0|0:0,0:0:0:0:
425,196,51195,2,0,B|397:204|365:204|337:194,1,90,8|2,0:0|0:0,0:0:0:0:
284,92,51580,2,0,B|313:82|345:82|373:90,1,90,8|2,0:0|0:0,0:0:0:0:
425,196,51965,2,0,B|397:204|365:204|337:194,1,90,8|2,0:0|0:0,0:0:0:0:
169,166,52349,6,0,B|141:158|109:158|80:168,1,90,8|2,0:0|0:0,0:0:0:0:
133,270,52734,2,0,B|161:280|193:280|221:272,1,90,8|2,0:0|0:0,0:0:0:0:
169,166,53119,2,0,B|141:158|109:158|80:168,1,90,8|2,0:0|0:0,0:0:0:0:
133,270,53504,2,0,B|161:280|193:280|221:272,1,90,8|2,0:0|0:0,0:0:0:0:
320,336,53887,5,8,0:0:0:0:
408,296,54080,1,2,0:0:0:0:
480,368,54272,1,8,0:0:0:0:
408,296,54464,1,2,0:0:0:0:
408,172,54656,1,8,0:0:0:0:
408,296,54849,1,2,0:0:0:0:
280,232,55041,5,8,0:0:0:0:
252,228,55137,1,0,0:0:0:0:
224,232,55233,1,8,0:0:0:0:
200,244,55330,1,0,0:0:0:0:
184,268,55426,1,8,0:0:0:0:
256,192,55522,12,12,56964,0:0:0:0:
256,192,57156,5,10,0:0:0:0:
332,144,57349,2,0,B|356:100|348:57,1,90,0|2,1:2|0:0,0:0:0:0:
163,57,57733,2,0,B|156:100|180:144,1,90,0|10,0:0|0:0,0:0:0:0:
256,88,58118,1,2,1:2:0:0:
76,24,58310,6,0,L|76:212,1,180,10|2,0:0|0:0,0:0:0:0:
76,204,58887,1,2,1:2:0:0:
192,296,59080,2,0,B|152:268|100:288,1,90,10|0,0:0|0:0,0:0:0:0:
148,364,59464,2,0,B|216:400|272:352|272:316|272:268,1,180,10|0,0:0|0:0,0:0:0:0:
271,286,60041,5,8,0:0:0:0:
368,348,60233,1,10,0:0:0:0:
464,296,60426,1,2,1:2:0:0:
367,234,60618,2,0,L|368:88,1,135,10|0,0:0|0:0,0:0:0:0:
367,99,61003,1,2,0:0:0:0:
288,128,61195,1,2,1:2:0:0:
208,96,61387,1,8,0:0:0:0:
184,8,61580,6,0,B|136:8|96:48,1,90,10|8,0:0|0:0,0:0:0:0:
40,116,61964,1,2,1:2:0:0:
52,212,62156,2,0,L|196:212,1,135,10|0,0:0|0:0,0:0:0:0:
191,216,62541,2,0,B|208:260|192:304,1,90,10|2,0:0|1:2,0:0:0:0:
344,348,63118,5,10,0:0:0:0:
344,252,63310,1,2,0:0:0:0:
456,204,63503,1,0,1:2:0:0:
456,300,63695,1,2,0:0:0:0:
344,252,63887,2,0,L|344:152,1,90,0|10,0:0|0:0,0:0:0:0:
396,100,64272,1,0,1:2:0:0:
274,54,64464,6,0,B|229:36|186:42|186:66|136:73|90:54,1,180,10|2,0:0|0:0,0:0:0:0:
99,58,65041,1,2,1:2:0:0:
40,156,65233,2,0,B|12:220|40:296,1,135,10|0,0:0|0:0,0:0:0:0:
37,287,65618,2,0,L|141:283,1,90,10|0,0:0|1:2,0:0:0:0:
200,244,66003,1,0,0:0:0:0:
256,360,66195,5,10,0:0:0:0:
256,360,66387,2,0,L|360:348,1,90,2|0,0:0|1:2,0:0:0:0:
404,260,66772,2,0,L|392:156,1,90,10|0,0:0|0:0,0:0:0:0:
448,88,67156,1,10,0:0:0:0:
392,168,67349,1,2,1:2:0:0:
296,168,67541,1,8,0:0:0:0:
196,24,67733,6,0,B|240:8|284:24,1,90,10|8,0:0|0:0,0:0:0:0:
240,96,68118,1,0,1:2:0:0:
172,148,68310,2,0,B|124:108|48:120|20:184,1,180,10|10,0:0|0:0,0:0:0:0:
24,288,68887,5,0,1:2:0:0:
40,308,68983,1,0,1:2:0:0:
64,320,69080,1,0,1:2:0:0:
92,324,69176,1,0,1:2:0:0:
120,320,69272,1,12,0:0:0:0:
220,280,69464,1,10,0:0:0:0:
248,384,69656,1,0,1:2:0:0:
352,356,69849,1,10,0:0:0:0:
324,252,70041,2,0,B|317:200|333:164,1,90,0|10,0:0|0:0,0:0:0:0:
448,120,70426,2,0,B|464:156|457:209,1,90,2|10,1:2|0:0,0:0:0:0:
380,44,70810,5,10,0:0:0:0:
276,24,71003,1,0,0:0:0:0:
260,128,71195,1,2,1:2:0:0:
164,68,71387,2,0,L|20:68,1,135,10|0,0:0|0:0,0:0:0:0:
29,68,71772,2,0,B|12:112|28:160,1,90,10|0,0:0|1:2,0:0:0:0:
68,220,72156,1,0,0:0:0:0:
28,288,72349,1,10,0:0:0:0:
104,352,72541,6,0,L|196:344,1,90,10|0,0:0|1:2,0:0:0:0:
288,372,72926,2,0,B|298:325|287:282,1,90,10|0,0:0|0:0,0:0:0:0:
328,192,73310,1,10,0:0:0:0:
216,216,73503,1,2,1:2:0:0:
192,104,73695,1,10,0:0:0:0:
304,80,73887,6,0,B|352:72|396:84,1,90,10|8,0:0|0:0,0:0:0:0:
448,148,74272,1,0,1:2:0:0:
408,248,74464,2,0,B|373:278|322:279|272:244,1,135,10|0,0:0|0:0,0:0:0:0:
282,250,74849,2,0,L|189:249,1,90,10|2,0:0|1:2,0:0:0:0:
80,216,75233,5,0,0:0:0:0:
80,216,75330,1,0,0:0:0:0:
80,216,75426,1,10,0:0:0:0:
96,320,75618,1,2,0:0:0:0:
192,249,75810,1,0,1:2:0:0:
208,144,76003,2,0,B|212:95|192:51,1,90,10|2,0:0|0:0,0:0:0:0:
288,0,76387,1,10,0:0:0:0:
340,84,76580,1,2,1:2:0:0:
436,64,76772,1,8,0:0:0:0:
412,164,76964,6,0,L|412:264,1,90,10|8,0:0|0:0,0:0:0:0:
460,316,77349,1,2,1:2:0:0:
356,352,77541,2,0,B|328:324|260:320|228:352,1,135,10|0,0:0|0:0,0:0:0:0:
230,349,77926,2,0,L|232:255,1,90,10|0,0:0|1:2,0:0:0:0:
180,192,78310,1,0,0:0:0:0:
108,276,78503,5,10,0:0:0:0:
12,220,78695,1,2,0:0:0:0:
12,220,78791,1,0,0:0:0:0:
12,220,78887,1,2,1:2:0:0:
84,136,79080,1,10,0:0:0:0:
148,64,79272,6,0,L|252:68,1,90,2|10,0:0|0:0,0:0:0:0:
348,108,79656,2,0,B|372:92|376:44|356:24,1,90,2|10,1:2|0:0,0:0:0:0:
264,172,80041,1,10,0:0:0:0:
356,212,80233,1,8,0:0:0:0:
276,272,80426,1,2,1:2:0:0:
387,319,80618,2,0,B|358:289|305:278|256:292|223:323,1,180,10|8,0:0|0:0,0:0:0:0:
116,368,81195,2,0,L|116:268,1,90,2|10,1:2|0:0,0:0:0:0:
60,192,81580,5,14,0:0:0:0:
196,216,81772,1,8,0:0:0:0:
220,80,81964,1,2,1:2:0:0:
324,172,82156,2,0,B|380:204|456:184|476:128,2,180,10|10|10,0:0|0:0|0:0,0:0:0:0:
336,88,83118,5,10,0:0:0:0:
324,172,83310,1,0,0:0:0:0:
316,264,83503,1,2,1:2:0:0:
244,212,83695,2,0,L|104:208,1,135,10|0,0:0|0:0,0:0:0:0:
109,208,84080,1,8,0:0:0:0:
156,304,84272,2,0,L|64:300,1,90,2|0,1:2|0:0,0:0:0:0:
56,136,84656,5,14,0:0:0:0:
184,88,84849,1,8,0:0:0:0:
244,212,85041,1,2,1:2:0:0:
360,136,85233,2,0,B|408:128|412:80|368:40|312:64|304:108|340:132,1,180,10|10,0:0|0:0,0:0:0:0:
356,216,85810,1,0,1:2:0:0:
392,308,86003,5,10,0:0:0:0:
392,308,86099,1,0,0:0:0:0:
392,308,86195,2,0,L|296:304,1,90,10|8,0:0|0:0,0:0:0:0:
216,352,86580,1,2,1:2:0:0:
156,260,86772,2,0,B|136:216|152:168,1,90,10|0,0:0|0:0,0:0:0:0:
108,92,87156,1,10,0:0:0:0:
224,116,87349,1,0,1:2:0:0:
188,4,87541,1,2,0:0:0:0:
328,48,87733,5,14,0:0:0:0:
476,28,87926,1,8,0:0:0:0:
428,168,88118,1,2,1:2:0:0:
492,272,88310,2,0,B|452:252|392:272|380:316,1,135,10|0,0:0|0:0,0:0:0:0:
380,315,88695,1,10,0:0:0:0:
288,352,88887,1,0,1:2:0:0:
192,312,89080,1,10,0:0:0:0:
284,252,89272,5,0,1:2:0:0:
284,224,89368,1,0,1:2:0:0:
284,196,89464,1,2,1:2:0:0:
284,168,89560,1,0,1:2:0:0:
284,140,89656,2,0,L|284:88,4,45,2|0|2|0|0,1:2|1:2|1:2|1:2|1:2,1:2:0:0:
184,192,90233,1,10,0:0:0:0:
104,128,90426,1,2,0:0:0:0:
104,128,90522,1,0,0:0:0:0:
104,128,90618,1,14,0:0:0:0:
220,32,91003,5,0,1:0:0:0:
364,48,91195,1,2,1:2:0:0:
352,212,91387,1,0,0:0:0:0:
280,124,91580,1,2,0:0:0:0:
440,140,91772,1,0,0:0:0:0:
352,212,91964,1,2,1:2:0:0:
352,212,92059,1,0,0:0:0:0:
352,212,92156,1,2,0:0:0:0:
428,304,92349,5,0,1:0:0:0:
312,364,92541,2,0,L|220:364,1,90,2|0,0:0|0:0,0:0:0:0:
136,368,92926,1,2,0:0:0:0:
256,192,93310,5,14,0:0:0:0:
