osu file format v14

[General]
AudioFilename: audio.mp3
AudioLeadIn: 0
PreviewTime: 56964
Countdown: 0
SampleSet: Soft
StackLeniency: 0.7
Mode: 0
LetterboxInBreaks: 0
WidescreenStoryboard: 1

[Editor]
Bookmarks: 26195,38503,50810,56964,81580,91003,93310
DistanceSpacing: 1
BeatDivisor: 4
GridSize: 32
TimelineZoom: 1.5

[Metadata]
Title:i o Tokinasai
TitleUnicode:iを解きなさい
Artist:Hana
ArtistUnicode:はな
Creator:Trynna
Version:Easy
Source:いきなりあなたに恋している
Tags:wo visual novel eroge game Ikinari Anata ni Koi Shiteiru
BeatmapID:1453187
BeatmapSetID:684190

[Difficulty]
HPDrainRate:2
CircleSize:3
OverallDifficulty:2
ApproachRate:3
SliderMultiplier:0.9
SliderTickRate:1

[Events]
//Background and Video events
0,0,"eroge.jpg",0,0
//Break Periods
//Storyboard Layer 0 (Background)
//Storyboard Layer 1 (Fail)
//Storyboard Layer 2 (Pass)
//Storyboard Layer 3 (Foreground)
//Storyboard Sound Samples

[TimingPoints]
1580,384.615384615385,4,2,1,50,1,0
26195,-100,4,2,1,60,0,0
50810,-100,4,2,1,40,0,0
56964,-100,4,2,1,70,0,0
81580,-100,4,2,1,60,0,0

[Colours]
Combo1 : 117,186,255
Combo2 : 248,234,135
Combo3 : 255,193,224
Combo4 : 255,255,255

[HitObjects]
92,108,1580,6,0,B|120:72|172:72,2,90,10|0|2,0:0|0:0|0:0,0:0:0:0:
164,164,2733,2,0,B|188:204|196:248|188:292|169:339,2,180,0|2|2,0:0|0:0|0:0,0:0:0:0:
171,72,4656,1,8,0:0:0:0:
248,120,5041,2,0,L|340:120,1,90
412,68,5810,1,2,0:0:0:0:
412,248,6580,1,2,0:0:0:0:
457,325,6964,2,0,B|416:352|372:328,1,90,0|2,0:0|0:0,0:0:0:0:
316,256,7733,5,12,0:0:0:0:
228,272,8118,2,0,B|188:236|144:227|100:236|63:267,1,180,2|0,0:0|0:0,0:0:0:0:
12,196,9272,1,10,0:0:0:0:
44,112,9656,2,0,L|224:112,1,180,0|2,0:0|0:0,0:0:0:0:
308,84,10810,1,0,0:0:0:0:
372,20,11195,5,2,0:0:0:0:
480,164,11964,1,2,0:0:0:0:
304,196,12733,2,0,L|304:288,1,90,2|0,0:0|0:0,0:0:0:0:
304,376,13503,1,2,0:0:0:0:
224,332,13887,5,10,0:0:0:0:
136,360,14272,2,0,B|92:380|44:360,1,90,2|8,0:0|0:0,0:0:0:0:
92,284,15041,2,0,B|80:208|128:180|100:104,2,180,2|0|0,0:0|0:0|0:0,0:0:0:0:
176,252,16964,1,10,0:0:0:0:
264,276,17349,2,0,B|312:284|348:252,1,90
408,188,18118,1,10,0:0:0:0:
252,104,18887,2,0,B|240:132|240:164|252:196,1,90,0|10,0:0|0:0,0:0:0:0:
328,148,19656,1,8,0:0:0:0:
356,64,20041,5,14,0:0:0:0:
284,12,20426,2,0,B|216:0|160:32|152:108,1,180,2|0,0:0|0:0,0:0:0:0:
72,144,21580,1,0,0:0:0:0:
63,233,21964,2,0,B|103:217|155:217|199:233|234:258,1,180,2|2,0:0|0:0,0:0:0:0:
292,328,23118,1,10,0:0:0:0:
364,272,23503,5,2,0:0:0:0:
364,92,24272,1,0,0:0:0:0:
408,168,24656,2,0,B|388:180|344:180|320:168,1,90,12|4,0:0|0:0,0:0:0:0:
248,112,25426,2,0,B|228:100|184:100|160:112,1,90,4|10,0:0|0:0,0:0:0:0:
96,172,26195,5,14,0:0:0:0:
120,260,26580,2,0,B|164:352|280:316,1,180,2|2,1:2|1:2,0:0:0:0:
344,264,27733,1,0,0:0:0:0:
388,348,28118,2,0,L|372:164,1,180,0|0,1:2|1:2,0:0:0:0:
448,124,29272,6,0,B|408:56|312:88,2,135,10|10|2,0:0|0:0|1:2,0:0:0:0:
372,168,30810,2,0,L|236:168,2,135,2|8|0,0:0|0:0|1:2,0:0:0:0:
428,236,32349,1,12,0:0:0:0:
376,308,32733,5,2,1:2:0:0:
200,336,33503,1,0,1:2:0:0:
253,164,34272,2,0,B|160:124|72:168,1,180,0|0,1:2|1:2,0:0:0:0:
16,100,35426,5,8,0:0:0:0:
64,24,35810,2,0,L|168:32,1,90,2|0,1:2|0:0,0:0:0:0:
240,6,36580,1,2,1:2:0:0:
368,132,37349,1,0,1:2:0:0:
316,204,37733,2,0,L|316:296,1,90,0|2,0:0|1:2,0:0:0:0:
260,364,38503,5,12,0:0:0:0:
196,300,38887,2,0,B|112:248|27:309,1,180,2|0,1:2|1:2,0:0:0:0:
120,156,40426,2,0,L|300:156,1,180,0|8,1:2|1:2,0:0:0:0:
368,100,41580,1,10,0:0:0:0:
428,168,41964,1,2,1:2:0:0:
360,228,42349,2,0,L|360:324,1,90,0|2,0:0|1:2,0:0:0:0:
272,344,43118,2,0,L|136:344,2,135,8|10|0,0:0|0:0|1:2,0:0:0:0:
360,318,44656,1,14,0:0:0:0:
292,260,45041,5,2,1:2:0:0:
196,108,45810,1,0,1:2:0:0:
96,260,46580,1,0,1:2:0:0:
32,196,46964,2,0,L|32:104,1,90,0|0,0:0|0:0,0:0:0:0:
76,28,47733,1,10,0:0:0:0:
164,16,48118,5,0,1:2:0:0:
328,88,48887,1,2,1:2:0:0:
272,160,49272,2,0,L|272:252,1,90,12|2,0:0|1:2,0:0:0:0:
320,328,50041,2,0,B|272:352|233:330,1,90,8|2,1:2|1:2,0:0:0:0:
256,192,50810,12,8,55426,0:0:0:0:
76,156,56964,5,12,0:0:0:0:
128,83,57349,2,0,B|215:31|296:88,1,180,0|2,1:2|1:2,0:0:0:0:
460,164,58887,2,0,L|460:344,1,180,2|0,1:2|0:0,0:0:0:0:
376,312,60041,5,8,0:0:0:0:
292,344,60426,2,0,B|240:364|168:364|115:345,1,180,2|2,1:2|1:2,0:0:0:0:
60,276,61580,2,0,L|80:188,1,90,10|2,0:0|1:2,0:0:0:0:
48,104,62349,2,0,L|134:77,1,90,0|2,0:0|1:2,0:0:0:0:
188,6,63118,5,10,0:0:0:0:
268,48,63503,2,0,B|346:27|367:80|456:56,1,180,0|0,1:2|1:2,0:0:0:0:
492,232,65041,2,0,B|460:212|408:200|352:224|324:268,1,180,2|0,1:2|1:2,0:0:0:0:
248,300,66195,1,10,0:0:0:0:
172,248,66580,2,0,L|172:68,1,180,0|2,1:2|1:2,0:0:0:0:
92,24,67733,2,0,B|40:32|12:76,1,90,10|0,0:0|1:2,0:0:0:0:
52,152,68503,2,0,B|32:201|57:247,1,90,0|0,0:0|1:2,0:0:0:0:
104,316,69272,1,12,0:0:0:0:
180,368,69656,5,0,1:2:0:0:
360,364,70426,1,2,1:2:0:0:
264,212,71195,2,0,L|264:112,1,90,2|0,1:2|0:0,0:0:0:0:
264,32,71964,1,0,1:2:0:0:
340,80,72349,5,10,0:0:0:0:
416,32,72733,2,0,B|452:68|459:115|452:160|420:204,1,180,0|2,1:2|1:2,0:0:0:0:
464,372,74272,2,0,B|428:336|380:328|336:336|292:368,1,180,0|2,1:2|1:2,0:0:0:0:
224,316,75426,5,10,0:0:0:0:
140,352,75810,2,0,B|28:340|48:220,1,180,0|2,1:2|1:2,0:0:0:0:
212,152,77349,2,0,L|304:152,2,90,2|0|0,1:2|0:0|1:2,0:0:0:0:
148,88,78503,1,10,0:0:0:0:
212,24,78887,6,0,B|272:12|336:24|376:72,1,180,2|2,1:2|1:2,0:0:0:0:
480,220,80426,2,0,B|412:196|368:248|292:220,1,180,2|2,1:2|1:2,0:0:0:0:
228,272,81580,1,14,0:0:0:0:
152,224,81964,2,0,L|152:44,1,180,2|0,1:2|0:0,0:0:0:0:
236,76,83118,2,0,B|276:56|332:56|384:80,2,135,10|10|2,0:0|0:0|1:2,0:0:0:0:
260,164,84656,1,14,0:0:0:0:
352,164,85041,5,2,1:2:0:0:
424,328,85810,1,0,1:2:0:0:
336,308,86195,2,0,L|200:308,1,135,10|10,0:0|0:0,0:0:0:0:
84,236,87349,1,0,1:2:0:0:
144,172,87733,1,14,0:0:0:0:
224,208,88118,6,0,B|244:136|200:96|232:24,1,180,2|0,1:2|1:2,0:0:0:0:
320,20,89272,2,0,B|352:44|368:108|344:152,1,135,0|2,1:2|1:2,0:0:0:0:
420,256,90426,2,0,L|420:304,1,45,2|14,0:0|0:0,0:0:0:0:
340,340,91003,6,0,B|272:312|208:352,1,135,0|0,1:0|0:0,0:0:0:0:
132,308,91964,1,2,1:2:0:0:
68,192,92541,2,0,L|68:100,1,90,2|2,0:0|0:0,0:0:0:0:
136,40,93310,1,14,0:0:0:0:
