osu file format v14

[General]
AudioFilename: audio.mp3
AudioLeadIn: 0
PreviewTime: 52508
Countdown: 0
SampleSet: Soft
StackLeniency: 0.7
Mode: 0
LetterboxInBreaks: 0
WidescreenStoryboard: 0

[Editor]
Bookmarks: 52636,91909,109363,144273,183545,218454,235909,275182,314454
DistanceSpacing: 1.9
BeatDivisor: 4
GridSize: 4
TimelineZoom: 1.6

[Metadata]
Title:answer
TitleUnicode:answer
Artist:Hana
ArtistUnicode:はな
Creator:iBell
Version:Kotae
Source:
Tags:bellicose japanese pop rock first light 折倉俊則 orikura toshinori
BeatmapID:3964846
BeatmapSetID:1920951

[Difficulty]
HPDrainRate:6
CircleSize:4
OverallDifficulty:8
ApproachRate:9
SliderMultiplier:2
SliderTickRate:1

[Events]
//Background and Video events
0,0,"aa.jpg",0,0
//Break Periods
2,92190,100044
//Storyboard Layer 0 (Background)
//Storyboard Layer 1 (Fail)
//Storyboard Layer 2 (Pass)
//Storyboard Layer 3 (Foreground)
//Storyboard Layer 4 (Overlay)
//Storyboard Sound Samples

[TimingPoints]
281,545.454545454546,4,2,0,50,1,0
281,-55.5555555555556,4,2,0,50,0,0
17735,-55.5555555555556,4,2,0,50,0,0
52644,-50,4,2,0,70,0,0
100644,-55.5555555555556,4,2,0,50,0,0
144281,-50,4,2,0,70,0,0
218462,-55.5555555555556,4,2,0,50,0,0
235917,-50,4,2,0,70,0,0
323371,-50,4,2,0,5,0,0

[Colours]
Combo1 : 226,143,243
Combo2 : 139,222,254
Combo3 : 253,206,240
Combo4 : 150,166,254

[HitObjects]
109,57,281,5,2,0:0:0:0:
255,60,690,1,2,0:0:0:0:
394,51,1099,1,2,0:0:0:0:
24,124,2735,2,0,P|24:55|27:14,1,89.9999972534181,0|2,0:0|0:0,0:0:0:0:
403,327,4644,5,2,0:0:0:0:
257,324,5053,1,2,0:0:0:0:
118,333,5462,1,2,0:0:0:0:
488,260,6553,1,0,0:0:0:0:
350,193,7099,1,0,0:0:0:0:
318,41,7644,1,0,0:0:0:0:
318,41,8053,1,0,0:0:0:0:
142,119,9008,5,2,0:0:0:0:
204,251,9417,1,2,0:0:0:0:
80,184,9826,1,2,0:0:0:0:
213,167,10235,1,0,0:0:0:0:
117,257,10644,1,0,0:0:0:0:
117,257,11190,5,0,0:0:0:0:
213,167,11599,1,2,0:0:0:0:
80,184,12008,1,0,0:0:0:0:
204,251,12417,1,0,0:0:0:0:
142,119,12826,1,0,0:0:0:0:
375,237,13371,5,2,0:0:0:0:
313,369,13780,1,2,0:0:0:0:
437,302,14189,1,2,0:0:0:0:
304,285,14598,1,0,0:0:0:0:
400,375,15007,1,0,0:0:0:0:
400,375,15553,5,0,0:0:0:0:
304,285,15962,1,0,0:0:0:0:
437,302,16371,1,0,0:0:0:0:
313,369,16780,1,0,0:0:0:0:
375,237,17189,1,0,0:0:0:0:
461,323,17735,6,0,P|456:201|461:40,1,269.999991760254,4|0,3:2|0:0,0:0:0:0:
460,53,18281,1,10,0:0:0:0:
424,135,18417,1,2,0:0:0:0:
380,19,18553,1,10,0:3:0:0:
337,100,18690,2,0,P|278:96|218:104,1,89.9999972534181,6|0,0:3|0:0,0:0:0:0:
158,94,18962,2,0,P|155:49|159:4,1,89.9999972534181,10|4,0:3|0:3,0:0:0:0:
249,187,19235,2,0,P|251:231|247:276,1,89.9999972534181,2|8,0:0|0:0,0:0:0:0:
70,181,19508,2,0,P|129:185|189:177,1,89.9999972534181,2|0,0:0|3:0,0:0:0:0:
247,276,19781,1,2,0:0:0:0:
247,276,20053,5,2,0:0:0:0:
211,360,20190,2,0,P|113:356|-23:370,1,179.999994506836,2|8,0:0|0:0,0:0:0:0:
61,191,20735,1,8,0:3:0:0:
12,264,20871,1,4,0:3:0:0:
49,58,21144,1,8,0:3:0:0:
4,130,21281,2,0,P|99:134|223:122,2,179.999994506836,4|0|0,0:3|1:0|0:0,0:0:0:0:
137,0,22099,6,0,P|139:135|135:301,1,269.999991760254,0|0,3:0|0:0,0:0:0:0:
136,269,22644,1,10,0:0:0:0:
58,241,22781,1,2,0:0:0:0:
0,306,22917,1,10,0:3:0:0:
52,380,23053,1,6,0:3:0:0:
52,380,23326,1,10,0:3:0:0:
134,356,23462,2,0,B|256:391|286:270,1,179.999994506836,6|8,0:3|0:0,0:0:0:0:
158,59,24008,1,0,3:0:0:0:
158,59,24281,6,0,B|242:28|356:121|299:235,1,269.999991760254,0|0,3:0|0:0,0:0:0:0:
306,217,24826,1,10,0:0:0:0:
259,143,24962,1,2,0:0:0:0:
317,80,25099,1,10,0:3:0:0:
403,115,25235,1,6,0:3:0:0:
403,115,25508,1,10,0:3:0:0:
397,200,25644,2,0,P|395:287|399:388,2,179.999994506836,6|0|0,0:3|1:0|0:0,0:0:0:0:
511,282,26462,6,0,B|439:360|335:353|251:270,1,269.999991760254,0|0,3:0|0:0,0:0:0:0:
269,286,27008,1,14,0:0:0:0:
291,203,27144,1,2,0:0:0:0:
180,265,27281,1,10,0:3:0:0:
203,180,27417,2,0,P|204:109|202:60,1,89.9999972534181,6|0,0:3|0:0,0:0:0:0:
389,224,27690,2,0,P|388:179|389:134,1,89.9999972534181,10|4,0:3|0:3,0:0:0:0:
299,20,27962,2,0,P|299:64|298:109,1,89.9999972534181,2|8,0:0|0:0,0:0:0:0:
485,64,28235,2,0,P|484:135|486:184,1,89.9999972534181,2|0,0:0|3:0,0:0:0:0:
486,328,28508,1,2,0:0:0:0:
486,328,28781,5,2,0:0:0:0:
490,240,28917,2,0,P|398:238|296:243,1,179.999994506836,2|8,0:0|0:0,0:0:0:0:
212,382,29462,1,10,0:3:0:0:
212,382,29735,2,0,B|265:302|210:195,1,179.999994506836,2|4,0:0|0:3,0:0:0:0:
134,9,30144,2,0,B|86:100|139:180,1,179.999994506836,2|0,0:0|0:0,0:0:0:0:
209,130,30553,1,2,0:0:0:0:
209,130,30826,6,0,B|91:23|-61:174|57:291,1,359.999989013672,0|8,3:0|0:0,0:0:0:0:
298,128,31644,1,10,0:3:0:0:
285,48,31781,1,6,0:3:0:0:
270,285,32053,1,8,0:3:0:0:
257,205,32190,2,0,P|171:208|65:204,2,179.999994506836,4|8|0,0:3|0:0|3:0,0:0:0:0:
437,311,33008,6,0,P|278:305|50:311,1,359.999989013672,0|8,3:0|0:0,0:0:0:0:
256,356,33826,1,8,0:3:0:0:
256,356,34099,2,0,P|268:311|241:252,1,89.9999972534181,2|8,0:0|0:3,0:0:0:0:
188,202,34371,2,0,P|189:72|196:-5,2,179.999994506836,6|2|2,0:3|1:2|0:0,0:0:0:0:
71,49,35190,6,0,B|150:-8|242:-9|317:64,1,269.999991760254,0|0,3:0|0:0,0:0:0:0:
475,12,35735,2,0,P|430:11|385:8,1,89.9999972534181,10|0,0:0|0:0,0:0:0:0:
316,63,36008,1,10,0:3:0:0:
398,184,36144,2,0,P|401:139|401:94,1,89.9999972534181,4|0,0:3|0:0,0:0:0:0:
486,193,36417,1,8,0:3:0:0:
317,250,36553,2,0,P|313:205|313:160,1,89.9999972534181,4|0,0:3|0:0,0:0:0:0:
486,193,36826,2,0,B|538:291|470:381,1,179.999994506836,10|2,0:0|0:0,0:0:0:0:
211,380,37371,6,0,B|137:265|157:102|238:32,1,359.999989013672,0|8,3:0|0:0,0:0:0:0:
118,200,38190,1,8,0:3:0:0:
118,200,38462,2,0,P|74:214|14:198,1,89.9999972534181,2|8,0:0|0:3,0:0:0:0:
143,117,38735,2,0,B|227:52|316:120,2,179.999994506836,6|2|2,0:3|1:2|0:0,0:0:0:0:
218,376,39553,6,0,P|226:250|226:65,1,269.999991760254,0|0,3:0|0:0,0:0:0:0:
69,0,40099,2,0,P|64:66|67:120,1,89.9999972534181,10|0,0:0|0:0,0:0:0:0:
54,261,40371,1,10,0:3:0:0:
0,173,40508,2,0,P|44:173|89:177,1,89.9999972534181,4|0,0:3|0:0,0:0:0:0:
183,37,40781,1,8,0:3:0:0:
240,120,40917,2,0,P|195:119|150:115,1,89.9999972534181,4|0,0:3|0:0,0:0:0:0:
46,274,41190,2,0,B|119:336|215:283,1,179.999994506836,10|2,0:0|0:0,0:0:0:0:
320,384,41735,5,8,0:3:0:0:
303,301,41871,1,8,0:3:0:0:
340,223,42008,1,4,0:3:0:0:
424,199,42144,1,4,0:3:0:0:
505,239,42281,2,0,P|510:133|505:39,1,179.999994506836,8|0,0:0|3:0,0:0:0:0:
249,63,42826,1,2,0:0:0:0:
183,5,42962,2,0,P|130:8|71:1,1,89.9999972534181,10|4,0:3|0:3,0:0:0:0:
249,63,43235,2,0,P|293:66|338:62,1,89.9999972534181,2|8,0:0|0:0,0:0:0:0:
420,15,43508,1,2,0:0:0:0:
429,100,43644,1,2,0:0:0:0:
159,98,43917,6,0,P|174:147|158:187,1,89.9999972534181,6|0,3:1|0:0,0:0:0:0:
5,256,44190,2,0,P|39:218|82:211,1,89.9999972534181,2|0,3:1|0:0,0:0:0:0:
220,309,44463,2,0,P|170:297|142:264,1,89.9999972534181,10|0,0:1|0:0,0:0:0:0:
67,113,44735,1,8,0:3:0:0:
94,30,44871,1,4,0:3:0:0:
94,30,45144,1,8,0:3:0:0:
181,6,45281,1,4,0:3:0:0:
245,68,45417,1,4,0:3:0:0:
223,153,45553,2,0,P|332:152|465:159,1,179.999994506836,8|0,0:0|0:0,0:0:0:0:
481,362,46099,6,0,P|484:292|482:244,1,89.9999972534181,2|0,3:1|0:0,0:0:0:0:
396,159,46371,2,0,P|393:229|395:277,1,89.9999972534181,2|0,3:1|0:0,0:0:0:0:
491,185,46644,1,10,0:1:0:0:
491,185,46917,1,10,0:3:0:0:
460,95,47053,1,4,0:3:0:0:
460,95,47326,1,8,0:3:0:0:
302,142,47462,1,6,0:3:0:0:
372,75,47599,1,0,1:0:0:0:
372,75,47667,1,0,1:0:0:0:
372,75,47735,1,10,0:0:0:0:
399,166,47871,1,0,1:0:0:0:
334,238,48008,1,0,1:0:0:0:
233,214,48144,1,0,1:0:0:0:
399,166,48281,6,0,P|454:159|495:181,1,89.9999972534181,2|0,1:1|0:0,0:0:0:0:
372,74,48553,2,0,P|386:32|420:4,1,89.9999972534181,2|0,3:1|0:0,0:0:0:0:
302,142,48826,2,0,P|268:97|266:51,1,89.9999972534181,10|0,0:1|0:0,0:0:0:0:
437,256,49099,1,8,0:3:0:0:
428,342,49235,1,4,0:3:0:0:
428,342,49508,1,8,0:3:0:0:
340,377,49644,1,4,0:3:0:0:
266,323,49781,1,4,0:3:0:0:
279,233,49917,2,0,P|175:230|83:237,1,179.999994506836,8|0,0:0|0:0,0:0:0:0:
3,27,50462,6,0,P|107:30|199:23,1,179.999994506836,2|0,3:1|0:0,0:0:0:0:
260,86,50871,1,10,0:1:0:0:
177,214,51008,2,0,P|178:156|185:103,1,89.9999972534181,0|0,3:0|0:0,0:0:0:0:
336,5,51281,2,0,P|340:49|340:94,1,89.9999972534181,10|0,0:1|0:0,0:0:0:0:
266,172,51553,1,0,3:0:0:0:
266,172,51826,1,0,1:0:0:0:
307,265,51962,1,0,1:0:0:0:
253,352,52099,1,0,1:0:0:0:
49,320,52235,1,0,1:0:0:0:
8,227,52371,1,0,1:0:0:0:
62,140,52508,1,0,1:0:0:0:
148,363,52644,6,0,P|155:214|152:58,1,300,6|8,3:2|0:0,0:0:0:0:
302,0,53190,1,2,0:0:0:0:
258,82,53326,1,2,0:0:0:0:
343,136,53462,2,0,P|401:145|454:124,1,100,2|0,3:2|0:0,0:0:0:0:
258,82,53735,2,0,P|256:166|259:226,1,100,0|8,0:0|0:0,0:0:0:0:
315,313,54008,1,2,3:2:0:0:
348,225,54144,1,2,0:0:0:0:
226,275,54281,2,0,B|129:338|35:262,2,200,10|0|0,0:0|3:0|3:0,0:0:0:0:
420,371,54962,6,0,P|422:287|419:227,1,100,0|0,3:0|0:0,0:0:0:0:
363,41,55235,2,0,B|288:137|359:258,1,200,8|0,0:0|0:0,0:0:0:0:
499,245,55644,2,0,B|529:191|489:129,1,100,0|0,3:0|0:0,0:0:0:0:
458,70,55917,1,2,0:0:0:0:
290,148,56053,2,0,P|339:149|389:144,1,100,10|0,0:0|3:0,0:0:0:0:
458,70,56326,1,2,0:0:0:0:
387,14,56462,2,0,P|337:12|287:17,1,100,8|2,0:0|0:0,0:0:0:0:
111,122,56735,1,0,3:0:0:0:
111,122,56871,1,0,3:0:0:0:
111,122,57008,6,0,B|200:64|321:77|377:203,1,300,2|8,3:2|0:0,0:0:0:0:
331,350,57553,1,2,0:0:0:0:
401,283,57690,1,2,0:0:0:0:
304,256,57826,2,0,P|253:254|192:258,1,100,2|0,3:2|0:0,0:0:0:0:
8,344,58099,2,0,P|-4:295|20:239,1,100,0|8,0:0|0:0,0:0:0:0:
205,170,58371,1,2,3:2:0:0:
142,99,58508,1,2,0:0:0:0:
104,184,58644,2,0,P|101:276|107:408,2,200,10|0|0,0:0|3:0|3:0,0:0:0:0:
0,14,59326,6,0,P|116:17|253:12,1,200,0|8,3:0|0:0,0:0:0:0:
299,10,59735,1,0,0:0:0:0:
299,10,59871,1,0,0:0:0:0:
299,10,60008,2,0,B|393:105|508:6,2,200,2|0|2,3:2|3:0|0:0,0:0:0:0:
243,92,60690,1,0,0:0:0:0:
328,132,60826,2,0,P|332:210|326:264,1,100,2|0,3:2|3:0,0:0:0:0:
174,250,61099,2,0,P|172:200|176:150,1,100,2|0,3:2|3:0,0:0:0:0:
425,173,61371,5,6,3:2:0:0:
250,199,61508,1,2,0:0:0:0:
250,199,61781,2,0,B|171:113|4:152|-4:274,1,300,10|0,0:0|3:0,0:0:0:0:
43,58,62326,2,0,B|86:103|37:170,1,100,0|0,0:0|0:0,0:0:0:0:
1,243,62599,1,8,0:0:0:0:
37,336,62735,2,0,P|137:334|248:334,1,200,2|8,3:2|0:0,0:0:0:0:
421,361,63144,1,0,0:0:0:0:
421,361,63281,2,0,P|371:364|310:363,1,100,2|0,3:2|0:0,0:0:0:0:
176,376,63553,5,2,3:2:0:0:
259,237,63690,1,2,3:2:0:0:
259,237,63962,2,0,B|302:157|468:148|503:305,1,300,10|0,0:0|3:0,0:0:0:0:
362,257,64508,2,0,P|359:180|361:128,1,100,0|0,0:0|0:0,0:0:0:0:
457,104,64781,1,8,0:0:0:0:
407,19,64917,2,0,P|246:17|154:25,2,200,2|8|0,3:2|0:0|0:0,0:0:0:0:
225,143,65599,1,0,0:0:0:0:
225,143,65735,6,0,P|200:198|237:250,1,100,2|2,3:1|0:0,0:0:0:0:
381,157,66008,2,0,P|345:107|282:113,1,100,2|8,0:0|0:0,0:0:0:0:
291,282,66281,2,0,P|351:276|377:218,1,100,2|0,0:0|0:0,0:0:0:0:
299,187,66553,2,0,P|161:187|32:193,1,200,2|0,3:1|0:0,0:0:0:0:
44,102,66962,1,8,0:0:0:0:
145,0,67099,2,0,P|145:52|142:99,1,100,0|0,3:0|0:0,0:0:0:0:
33,293,67371,2,0,B|-48:198|48:96,2,200,14|0|0,0:1|3:0|1:0,0:0:0:0:
471,367,68190,5,2,0:1:0:0:
471,367,68326,2,0,P|490:327|453:249,1,100,8|0,0:0|3:0,0:0:0:0:
440,174,68599,1,2,0:1:0:0:
293,248,68735,2,0,P|343:251|400:249,1,100,8|0,0:0|0:0,0:0:0:0:
475,84,69008,2,0,P|425:81|368:83,1,100,2|0,3:1|0:0,0:0:0:0:
173,147,69281,1,0,1:0:0:0:
146,41,69417,1,2,1:0:0:0:
255,0,69553,1,0,1:0:0:0:
279,109,69690,1,0,1:0:0:0:
196,251,69826,1,0,1:0:0:0:
63,178,69962,1,0,1:0:0:0:
275,93,70099,6,0,B|206:174|73:167|24:56,1,300,6|8,3:2|0:0,0:0:0:0:
3,243,70644,1,2,0:0:0:0:
85,284,70781,1,2,0:0:0:0:
155,223,70917,2,0,P|157:170|157:119,1,100,2|0,3:2|0:0,0:0:0:0:
342,221,71190,2,0,P|343:271|345:321,1,100,0|8,0:0|0:0,0:0:0:0:
495,194,71462,1,2,3:2:0:0:
405,145,71599,1,2,0:0:0:0:
330,229,71735,2,0,B|242:131|343:34,1,200,10|0,0:0|3:0,0:0:0:0:
327,50,72144,1,0,0:0:0:0:
505,25,72281,6,0,P|457:41|398:18,1,100,0|0,3:0|3:0,0:0:0:0:
468,346,72690,2,0,B|547:260|480:157,1,200,8|0,0:0|0:0,0:0:0:0:
400,132,73099,1,0,3:0:0:0:
387,215,73235,2,0,P|385:263|383:334,1,100,0|2,0:0|0:0,0:0:0:0:
480,256,73508,1,8,0:0:0:0:
296,259,73644,2,0,P|197:260|95:257,1,200,0|8,3:0|0:0,0:0:0:0:
17,307,74053,1,2,0:0:0:0:
99,349,74190,1,0,3:0:0:0:
96,257,74326,1,0,3:0:0:0:
3,169,74462,6,0,P|148:167|352:169,1,300,2|8,3:2|0:0,0:0:0:0:
456,23,75008,1,2,0:0:0:0:
455,117,75144,1,2,0:0:0:0:
376,73,75281,2,0,P|319:71|248:74,1,100,2|0,3:2|0:0,0:0:0:0:
89,203,75553,2,0,P|71:246|90:308,1,100,0|8,0:0|0:0,0:0:0:0:
5,141,75826,1,2,3:2:0:0:
96,92,75962,1,2,0:0:0:0:
89,184,76099,2,0,B|186:254|287:173,1,200,10|0,0:0|3:0,0:0:0:0:
274,182,76508,1,0,0:0:0:0:
191,15,76644,6,0,P|189:72|192:143,1,100,0|0,3:0|3:0,0:0:0:0:
352,382,77053,2,0,P|354:290|352:178,1,200,8|0,0:0|0:0,0:0:0:0:
284,88,77462,1,2,3:2:0:0:
284,88,77599,1,0,0:0:0:0:
424,24,77735,1,2,3:2:0:0:
424,24,77871,1,0,0:0:0:0:
325,4,78008,1,2,0:0:0:0:
325,4,78144,1,0,0:0:0:0:
433,114,78281,1,2,3:2:0:0:
433,114,78417,1,0,0:0:0:0:
351,162,78553,1,2,3:2:0:0:
351,162,78690,1,0,0:0:0:0:
508,90,78826,6,0,B|421:26|293:35|232:142,1,300,6|8,3:2|0:0,0:0:0:0:
224,227,79371,1,2,0:0:0:0:
137,263,79508,1,2,0:0:0:0:
56,208,79644,2,0,P|47:145|80:103,1,100,2|0,3:2|0:0,0:0:0:0:
229,120,79917,2,0,P|193:154|144:159,1,100,0|8,0:0|0:0,0:0:0:0:
74,14,80189,2,0,P|133:37|152:87,1,100,0|0,3:0|0:0,0:0:0:0:
202,295,80462,2,0,P|99:294|-10:297,1,200,8|0,0:0|3:0,0:0:0:0:
270,380,81008,6,0,B|198:210|301:78,1,300,6|8,3:2|0:0,0:0:0:0:
358,22,81553,1,2,3:2:0:0:
452,36,81690,1,2,0:0:0:0:
495,125,81826,2,0,P|449:142|388:122,1,100,10|0,0:0|0:0,0:0:0:0:
403,218,82099,2,0,P|451:229|497:212,1,100,0|0,3:0|0:0,0:0:0:0:
499,300,82371,2,0,P|453:317|392:297,1,100,0|0,0:0|0:0,0:0:0:0:
326,365,82644,1,8,3:0:0:0:
232,324,82781,1,8,0:3:0:0:
315,270,82917,1,4,0:3:0:0:
226,225,83053,1,4,0:3:0:0:
304,165,83190,6,0,P|207:162|85:165,1,200,6|0,3:2|0:0,0:0:0:0:
0,132,83599,2,0,P|97:135|219:132,1,200,6|0,3:2|0:0,0:0:0:0:
145,13,84008,2,0,P|138:205|137:368,1,300,6|8,3:2|0:0,0:0:0:0:
57,374,84553,1,0,3:0:0:0:
47,281,84690,1,0,0:0:0:0:
233,265,84826,2,0,P|246:329|218:380,1,100,8|0,0:0|0:0,0:0:0:0:
47,281,85099,2,0,P|34:217|62:166,1,100,0|0,3:0|0:0,0:0:0:0:
145,13,85371,5,0,3:0:0:0:
145,13,85508,2,0,P|259:14|363:18,2,200,8|4|0,0:3|0:3|0:0,0:0:0:0:
142,119,86190,1,0,3:0:0:0:
142,119,86326,2,0,B|222:205|132:313,1,200,8|4,0:3|0:3,0:0:0:0:
37,130,86735,2,0,P|40:64|43:1,1,100,2|0,0:0|0:0,0:0:0:0:
133,3,87008,1,8,3:0:0:0:
218,23,87144,1,8,0:3:0:0:
272,90,87281,1,4,0:3:0:0:
271,172,87417,1,4,0:3:0:0:
205,236,87553,6,0,B|302:162|404:253,1,200,6|0,3:2|0:0,0:0:0:0:
512,237,87962,2,0,B|415:311|313:220,1,200,6|0,3:2|0:0,0:0:0:0:
363,373,88371,2,0,P|365:197|361:32,1,300,6|8,3:2|0:0,0:0:0:0:
461,16,88917,1,0,3:0:0:0:
472,121,89053,1,0,0:0:0:0:
268,113,89190,2,0,B|232:51|294:5,1,100,12|0,0:0|0:0,0:0:0:0:
472,121,89462,1,0,1:0:0:0:
472,121,89531,1,0,1:0:0:0:
472,121,89599,2,0,P|473:176|471:232,1,100,8|4,0:3|0:3,0:0:0:0:
471,220,90281,6,2,P|481:293|442:189,1,500,6|0,3:2|0:0,0:1:0:0:
384,172,91099,1,0,3:0:0:0:
310,118,91235,1,0,3:0:0:0:
230,166,91372,1,0,3:0:0:0:
227,248,91508,1,0,3:0:0:0:
301,302,91645,1,0,3:0:0:0:
385,264,91781,1,0,3:0:0:0:
454,154,100644,5,0,3:0:0:0:
454,154,101053,1,0,3:0:0:0:
454,154,101462,1,0,3:0:0:0:
444,8,101871,2,0,P|411:39|422:120,1,89.9999972534181,0|0,0:0|0:0,0:0:0:0:
454,154,102144,1,0,0:0:0:0:
454,154,102281,2,0,B|381:57|278:132,1,179.999994506836,0|0,0:0|3:0,0:0:0:0:
67,254,102826,5,0,3:0:0:0:
67,254,103235,1,0,3:0:0:0:
67,254,103644,1,0,3:0:0:0:
77,108,104053,2,0,P|110:139|99:220,1,89.9999972534181,0|0,0:0|0:0,0:0:0:0:
67,254,104326,1,0,0:0:0:0:
67,254,104463,2,0,B|140:157|243:232,1,179.999994506836,0|0,0:0|0:0,0:0:0:0:
459,344,105008,5,0,3:0:0:0:
459,344,105417,1,0,3:0:0:0:
459,344,105826,1,0,3:0:0:0:
289,373,106235,2,0,P|334:374|396:372,1,89.9999972534181,0|0,0:0|0:0,0:0:0:0:
459,344,106508,1,0,0:0:0:0:
459,344,106644,2,0,P|460:240|455:135,1,179.999994506836,0|0,0:0|3:0,0:0:0:0:
252,193,107190,5,0,3:0:0:0:
252,193,107599,1,0,3:0:0:0:
252,193,108008,1,0,3:0:0:0:
82,222,108417,2,0,P|127:223|189:221,1,89.9999972534181,0|0,0:0|0:0,0:0:0:0:
252,193,108690,1,0,0:0:0:0:
252,193,108826,2,0,P|253:89|248:-16,1,179.999994506836,0|0,0:0|0:0,0:0:0:0:
53,128,109371,6,2,B|-14:179|-32:312|67:370,1,269.999991760254,2|0,3:1|0:0,0:1:0:0:
55,362,109917,1,10,0:0:0:0:
143,354,110053,1,2,0:0:0:0:
189,285,110190,1,10,0:3:0:0:
153,211,110326,2,0,P|151:143|154:86,1,89.9999972534181,6|0,0:3|0:0,0:0:0:0:
234,119,110599,2,0,P|236:187|233:244,1,89.9999972534181,10|4,0:3|0:3,0:0:0:0:
401,115,110871,2,0,P|403:47|400:-10,1,89.9999972534181,2|8,0:0|0:0,0:0:0:0:
320,23,111144,2,0,P|318:91|321:148,1,89.9999972534181,2|0,0:0|3:0,0:0:0:0:
493,184,111417,1,2,0:0:0:0:
493,184,111553,6,2,B|381:186|336:304|386:377,1,269.999991760254,2|0,3:1|0:0,0:1:0:0:
477,307,112099,2,2,B|434:206|311:227,1,179.999994506836,10|8,0:1|0:3,0:1:0:0:
255,266,112508,1,4,0:3:0:0:
28,165,112781,1,8,0:3:0:0:
28,165,112917,2,0,B|71:266|194:245,2,179.999994506836,4|0|0,0:3|1:0|0:0,0:0:0:0:
73,361,113735,6,2,B|185:359|230:241|180:168,1,269.999991760254,2|0,3:1|0:0,0:1:0:0:
180,168,114281,1,10,0:0:0:0:
109,120,114417,1,2,0:0:0:0:
129,30,114553,1,10,0:3:0:0:
109,120,114690,1,6,0:3:0:0:
109,120,114962,1,10,0:3:0:0:
21,155,115099,2,0,P|18:255|21:355,1,179.999994506836,6|8,0:3|0:0,0:0:0:0:
306,376,115644,1,0,3:0:0:0:
306,376,115917,6,2,P|308:215|303:83,1,269.999991760254,2|0,3:1|0:0,0:1:0:0:
304,106,116462,1,10,0:1:0:0:
400,146,116599,1,2,0:0:0:0:
468,87,116735,1,10,0:3:0:0:
400,146,116871,1,6,0:3:0:0:
400,146,117144,1,10,0:3:0:0:
378,39,117281,2,0,B|289:109|193:24,2,179.999994506836,6|0|0,0:3|1:0|0:0,0:0:0:0:
512,273,118099,6,2,B|500:165|373:137|300:214,1,269.999991760254,2|0,3:1|0:0,0:1:0:0:
306,207,118644,1,14,0:0:0:0:
247,278,118781,1,2,0:0:0:0:
158,257,118917,1,10,0:3:0:0:
131,172,119053,2,0,P|131:108|138:58,1,89.9999972534181,6|0,0:3|0:0,0:0:0:0:
36,230,119326,2,0,P|36:166|29:116,1,89.9999972534181,10|4,0:3|0:3,0:0:0:0:
224,174,119599,2,0,P|227:129|226:84,1,89.9999972534181,2|8,0:0|0:0,0:0:0:0:
324,232,119872,2,0,P|320:187|321:142,1,89.9999972534181,2|0,0:0|3:0,0:0:0:0:
419,33,120144,1,2,0:0:0:0:
419,33,120281,6,2,P|423:164|418:338,1,269.999991760254,2|0,3:1|0:0,0:1:0:0:
501,235,120826,2,2,B|421:165|327:238,1,179.999994506836,10|10,0:1|0:3,0:1:0:0:
291,322,121235,1,4,0:3:0:0:
128,319,121371,2,0,B|212:253|292:323,1,179.999994506836,2|4,0:0|0:3,0:0:0:0:
343,229,121781,2,0,B|413:149|340:55,1,179.999994506836,2|0,0:0|0:0,0:0:0:0:
259,18,122190,1,2,0:0:0:0:
259,18,122462,6,2,B|183:79|158:180|253:282,1,269.999991760254,2|0,3:1|0:0,0:1:0:0:
280,144,123008,1,8,0:0:0:0:
280,144,123281,1,10,0:3:0:0:
200,90,123417,2,0,P|126:91|94:94,1,89.9999972534181,6|0,0:3|0:0,0:0:0:0:
21,131,123690,1,8,0:3:0:0:
94,183,123826,2,0,P|168:182|200:179,1,89.9999972534181,4|0,0:3|0:0,0:0:0:0:
377,268,124099,2,0,B|275:202|196:312,1,179.999994506836,8|0,0:0|3:0,0:0:0:0:
12,379,124508,1,0,3:0:0:0:
12,379,124644,6,2,P|12:280|23:66,1,269.999991760254,2|0,3:1|0:0,0:1:0:0:
69,3,125190,2,2,B|128:88|230:22,1,179.999994506836,10|8,0:1|0:3,0:1:0:0:
312,41,125599,1,4,0:3:0:0:
312,41,125735,2,0,P|329:112|311:144,1,89.9999972534181,2|8,0:0|0:3,0:0:0:0:
409,169,126008,2,0,B|462:57|380:-14,2,179.999994506836,6|2|2,0:3|1:2|0:0,0:0:0:0:
512,106,126826,6,0,P|385:104|199:108,1,269.999991760254,0|0,3:0|0:0,0:0:0:0:
21,30,127371,2,0,P|83:32|123:29,1,89.9999972534181,10|0,0:0|0:0,0:0:0:0:
201,27,127644,1,10,0:3:0:0:
155,106,127781,2,0,P|153:150|155:195,1,89.9999972534181,4|0,0:3|0:0,0:0:0:0:
8,293,128053,1,8,0:3:0:0:
91,353,128190,2,0,P|92:308|90:263,1,89.9999972534181,4|0,0:3|0:0,0:0:0:0:
161,201,128462,2,0,B|90:121|2:203,1,179.999994506836,10|2,0:0|3:2,0:0:0:0:
4,200,129008,6,0,B|75:280|163:198,1,179.999994506836,0|0,3:0|0:0,0:0:0:0:
238,146,129417,2,0,P|254:99|237:50,1,89.9999972534181,2|8,0:0|0:0,0:0:0:0:
244,61,129826,1,8,0:3:0:0:
159,100,129962,1,4,0:3:0:0:
341,111,130099,2,0,P|392:112|466:110,1,89.9999972534181,2|8,0:0|0:3,0:0:0:0:
498,174,130371,2,0,P|499:269|496:386,2,179.999994506836,6|2|2,0:3|1:2|0:0,0:0:0:0:
356,3,131190,6,0,B|273:56|266:179|359:253,1,269.999991760254,0|0,3:0|0:0,0:0:0:0:
495,86,131735,2,0,P|444:84|375:86,1,89.9999972534181,10|0,0:0|0:0,0:0:0:0:
341,237,132008,1,10,0:3:0:0:
432,255,132144,2,0,P|434:204|432:135,1,89.9999972534181,4|0,0:3|0:0,0:0:0:0:
232,124,132417,1,8,0:3:0:0:
318,70,132553,2,0,P|320:121|318:190,1,89.9999972534181,4|0,0:3|0:0,0:0:0:0:
336,249,132826,2,0,B|251:331|151:236,1,179.999994506836,10|2,0:0|3:2,0:0:0:0:
14,359,133371,5,8,0:3:0:0:
105,349,133508,1,8,0:3:0:0:
0,211,133644,1,4,0:3:0:0:
88,201,133781,1,4,0:3:0:0:
54,280,133917,2,0,P|52:187|54:82,1,179.999994506836,8|0,0:0|3:0,0:0:0:0:
303,7,134462,1,2,0:0:0:0:
379,48,134599,2,0,P|424:61|483:32,1,89.9999972534181,10|4,0:3|0:3,0:0:0:0:
303,7,134871,2,0,P|290:52|319:111,1,89.9999972534181,2|8,0:0|0:0,0:0:0:0:
380,136,135144,1,2,0:0:0:0:
303,179,135281,1,2,0:0:0:0:
303,179,135553,5,6,3:2:0:0:
226,128,135690,2,0,P|176:128|115:135,1,89.9999972534181,2|0,0:3|3:0,0:0:0:0:
136,131,136099,2,0,B|62:222|138:321,1,179.999994506836,8|2,0:0|0:3,0:0:0:0:
206,281,136508,2,0,P|217:319|199:374,1,89.9999972534181,2|0,0:3|0:0,0:0:0:0:
122,297,136781,1,8,0:3:0:0:
148,221,136917,1,4,0:3:0:0:
233,200,137053,1,0,3:0:0:0:
295,262,137190,2,0,P|387:268|490:265,1,179.999994506836,8|0,0:0|0:0,0:0:0:0:
122,297,137735,5,2,3:0:0:0:
29,345,137871,2,0,P|31:265|35:234,1,89.9999972534181,2|0,0:3|3:0,0:0:0:0:
31,254,138281,2,0,B|105:164|25:68,1,179.999994506836,8|2,0:0|3:0,0:0:0:0:
212,0,138690,2,0,P|215:44|215:89,1,89.9999972534181,2|0,0:3|0:0,0:0:0:0:
130,91,138962,1,8,0:3:0:0:
123,177,139099,1,4,0:3:0:0:
219,187,139235,1,0,1:0:0:0:
219,187,139303,1,0,1:0:0:0:
219,187,139371,1,0,1:0:0:0:
292,137,139508,1,0,1:0:0:0:
366,178,139644,1,0,1:0:0:0:
445,141,139781,1,0,1:0:0:0:
510,196,139917,5,2,3:0:0:0:
445,141,140053,2,0,P|446:60|451:28,1,89.9999972534181,2|0,0:3|3:0,0:0:0:0:
447,51,140462,2,0,B|367:-34|256:68,1,179.999994506836,8|2,0:0|3:0,0:0:0:0:
121,19,140871,2,0,P|166:32|225:8,1,89.9999972534181,2|0,0:3|0:0,0:0:0:0:
285,43,141144,1,8,0:3:0:0:
303,127,141281,1,4,0:3:0:0:
240,180,141417,1,0,3:0:0:0:
157,154,141553,2,0,P|153:265|154:356,1,179.999994506836,8|0,0:0|0:0,0:0:0:0:
372,380,142099,5,2,3:0:0:0:
372,380,142235,1,2,0:3:0:0:
386,213,142508,1,8,0:0:0:0:
386,213,142644,1,0,3:0:0:0:
384,46,142917,1,10,0:3:0:0:
384,46,143053,2,0,P|331:47|254:52,1,89.9999972534181,2|0,0:3|3:0,0:0:0:0:
236,116,143326,1,0,1:0:0:0:
236,116,143394,1,0,1:0:0:0:
236,116,143462,1,0,1:0:0:0:
304,179,143599,1,0,1:0:0:0:
275,270,143735,1,0,1:0:0:0:
441,384,143871,1,0,1:0:0:0:
412,293,144007,1,0,1:0:0:0:
480,230,144144,1,0,1:0:0:0:
217,204,144281,6,0,B|306:110|453:141|478:272,1,300,6|8,3:2|0:0,0:0:0:0:
361,31,144826,1,2,0:0:0:0:
443,84,144962,1,2,0:0:0:0:
352,126,145099,2,0,P|348:177|350:250,1,100,2|0,3:2|0:0,0:0:0:0:
164,107,145371,2,0,P|168:56|166:-17,1,100,0|8,0:0|0:0,0:0:0:0:
113,192,145644,1,2,3:2:0:0:
28,160,145781,1,2,0:0:0:0:
65,71,145917,2,0,P|166:67|322:72,2,200,10|0|0,0:0|3:0|3:0,0:0:0:0:
10,277,146599,6,0,P|-5:338|34:388,1,100,0|0,3:0|0:0,0:0:0:0:
221,348,146871,2,0,B|298:236|185:136,1,200,8|0,0:0|0:0,0:0:0:0:
124,224,147281,2,0,P|120:296|121:353,1,100,0|0,3:0|0:0,0:0:0:0:
22,283,147553,1,2,0:0:0:0:
29,187,147690,2,0,P|33:115|32:58,1,100,10|0,0:0|3:0,0:0:0:0:
22,283,147962,1,2,0:0:0:0:
214,256,148099,2,0,P|263:256|313:259,1,100,8|2,0:0|0:0,0:0:0:0:
135,107,148371,1,0,3:0:0:0:
135,107,148508,1,0,3:0:0:0:
135,107,148644,6,0,B|187:196|374:178|392:24,1,300,2|8,3:2|0:0,0:0:0:0:
417,294,149190,1,2,0:0:0:0:
323,258,149326,1,2,0:0:0:0:
400,194,149462,2,0,P|456:191|534:195,1,100,2|0,3:2|0:0,0:0:0:0:
337,361,149735,2,0,P|281:364|203:360,1,100,0|8,0:0|0:0,0:0:0:0:
60,298,150008,1,2,3:2:0:0:
168,266,150144,1,2,0:0:0:0:
133,369,150281,2,0,P|141:237|140:137,2,200,10|0|0,0:0|3:0|3:0,0:0:0:0:
48,160,150962,6,0,B|135:85|231:157,1,200,0|8,3:0|0:0,0:0:0:0:
337,104,151371,1,0,0:0:0:0:
337,104,151508,1,0,0:0:0:0:
337,104,151644,2,0,B|412:190|340:286,2,200,2|0|2,3:2|3:0|0:0,0:0:0:0:
252,158,152326,1,0,0:0:0:0:
172,105,152462,2,0,P|172:58|178:-10,1,100,2|0,3:2|3:0,0:0:0:0:
333,5,152735,2,0,P|336:54|337:104,1,100,2|0,3:2|3:0,0:0:0:0:
83,133,153008,5,6,3:2:0:0:
255,67,153144,1,2,0:0:0:0:
255,67,153417,2,0,B|290:172|440:192|510:74,1,300,10|0,0:0|3:0,0:0:0:0:
426,324,153962,2,0,P|412:267|437:225,1,100,0|0,0:0|0:0,0:0:0:0:
512,278,154235,1,8,0:0:0:0:
340,369,154371,2,0,B|283:268|355:170,1,200,2|8,3:2|0:0,0:0:0:0:
236,352,154781,1,0,0:0:0:0:
236,352,154917,2,0,P|182:354|105:348,1,100,2|0,3:2|0:0,0:0:0:0:
343,273,155190,5,2,3:2:0:0:
250,137,155326,1,2,3:2:0:0:
250,137,155599,2,0,B|215:242|65:262|-5:144,1,300,10|0,0:0|3:0,0:0:0:0:
136,251,156144,2,0,P|138:305|132:382,1,100,0|0,0:0|0:0,0:0:0:0:
36,303,156417,1,8,0:0:0:0:
233,294,156553,2,0,P|349:294|459:298,2,200,2|8|0,3:2|0:0|0:0,0:0:0:0:
106,111,157235,1,0,0:0:0:0:
106,111,157371,6,0,P|114:63|154:36,1,100,2|2,3:1|0:0,0:0:0:0:
234,194,157644,2,0,P|188:211|145:189,1,100,2|8,0:0|0:0,0:0:0:0:
242,42,157917,2,0,P|279:72|282:121,1,100,2|0,0:0|0:0,0:0:0:0:
196,117,158190,2,0,B|297:41|385:137,1,200,2|0,3:1|0:0,0:0:0:0:
454,196,158599,1,8,0:0:0:0:
356,321,158735,2,0,P|355:259|360:208,1,100,0|0,3:0|0:0,0:0:0:0:
472,26,159008,2,0,B|548:127|452:215,2,200,14|0|0,0:1|3:0|1:0,0:0:0:0:
43,40,159826,5,2,0:1:0:0:
43,40,159962,2,0,P|91:18|143:32,1,100,8|0,0:0|3:0,0:0:0:0:
191,102,160235,1,2,0:1:0:0:
97,219,160371,2,0,P|98:154|101:107,1,100,8|0,0:0|0:0,0:0:0:0:
276,9,160644,2,0,P|275:74|272:121,1,100,2|0,3:1|0:0,0:0:0:0:
189,300,160917,1,0,1:0:0:0:
306,270,161053,1,2,1:0:0:0:
219,197,161190,1,0,1:0:0:0:
268,367,161326,1,0,1:0:0:0:
448,319,161462,1,0,1:0:0:0:
400,162,161599,1,0,1:0:0:0:
272,380,161735,6,0,B|200:309|192:162|294:94,1,300,6|8,3:2|0:0,0:0:0:0:
480,230,162281,1,2,0:0:0:0:
311,217,162417,1,2,0:0:0:0:
397,147,162553,2,0,P|395:240|393:281,1,100,2|0,3:2|0:0,0:0:0:0:
185,342,162826,2,0,P|136:354|70:315,1,100,0|8,0:0|0:0,0:0:0:0:
183,184,163099,1,2,3:2:0:0:
13,192,163235,1,2,0:0:0:0:
99,256,163371,2,0,P|102:112|101:32,1,200,10|0,0:0|3:0,0:0:0:0:
101,56,163781,1,0,0:0:0:0:
10,181,163917,6,0,P|-6:227|5:275,1,100,0|0,3:0|3:0,0:0:0:0:
17,0,164326,2,0,B|114:91|222:-3,1,200,8|0,0:0|0:0,0:0:0:0:
382,70,164735,1,0,3:0:0:0:
290,109,164871,2,0,P|288:51|290:-9,1,100,0|2,0:0|0:0,0:0:0:0:
382,70,165144,1,8,0:0:0:0:
196,124,165281,2,0,B|120:208|211:305,1,200,0|8,3:0|0:0,0:0:0:0:
303,329,165690,1,2,0:0:0:0:
366,252,165826,1,0,3:0:0:0:
277,228,165962,1,0,3:0:0:0:
391,371,166099,6,0,P|394:199|389:62,1,300,2|8,3:2|0:0,0:0:0:0:
272,236,166644,1,2,0:0:0:0:
251,132,166781,1,2,0:0:0:0:
347,163,166917,2,0,P|396:175|448:155,1,100,2|0,3:2|0:0,0:0:0:0:
251,132,167190,2,0,P|201:119|150:140,1,100,0|8,0:0|0:0,0:0:0:0:
81,336,167462,1,2,3:2:0:0:
0,274,167599,1,2,0:0:0:0:
98,234,167735,2,0,P|198:231|327:235,1,200,10|0,0:0|3:0,0:0:0:0:
297,233,168144,1,0,0:0:0:0:
504,297,168281,6,0,P|454:298|404:296,1,100,0|0,3:0|3:0,0:0:0:0:
385,23,168690,2,0,B|465:102|385:204,1,200,8|0,0:0|0:0,0:0:0:0:
491,205,169099,1,2,3:2:0:0:
491,205,169235,1,0,0:0:0:0:
441,120,169371,1,2,3:2:0:0:
441,120,169508,1,0,0:0:0:0:
417,287,169644,1,2,0:0:0:0:
417,287,169781,1,0,0:0:0:0:
334,138,169917,1,2,3:2:0:0:
334,138,170053,1,0,0:0:0:0:
320,238,170190,1,2,3:2:0:0:
320,238,170326,1,0,0:0:0:0:
153,159,170462,6,0,B|215:76|378:90|404:221,1,300,6|8,3:2|0:0,0:0:0:0:
403,295,171008,1,2,0:0:0:0:
320,353,171144,1,2,0:0:0:0:
226,319,171281,2,0,P|209:269|238:214,1,100,2|0,3:2|0:0,0:0:0:0:
373,105,171553,2,0,P|338:144|276:147,1,100,0|8,0:0|0:0,0:0:0:0:
124,87,171826,2,0,P|175:97|208:149,1,100,0|0,3:0|0:0,0:0:0:0:
312,362,172099,2,0,P|416:362|533:358,1,200,8|0,0:0|3:0,0:0:0:0:
300,280,172644,6,0,P|137:280|-60:285,1,300,6|8,3:2|0:0,0:0:0:0:
92,322,173190,1,2,3:2:0:0:
128,232,173326,1,2,0:0:0:0:
40,192,173462,2,0,P|40:134|43:74,1,100,10|0,0:0|0:0,0:0:0:0:
197,25,173735,2,0,P|139:25|79:22,1,100,0|0,3:0|0:0,0:0:0:0:
25,182,174008,2,0,P|25:124|28:64,1,100,0|0,0:0|0:0,0:0:0:0:
97,23,174281,1,8,3:0:0:0:
154,109,174417,1,8,0:3:0:0:
245,140,174553,1,4,0:3:0:0:
342,118,174690,1,4,0:3:0:0:
395,35,174826,6,0,B|467:128|396:238,1,200,6|0,3:2|0:0,0:0:0:0:
481,19,175235,2,0,B|547:115|484:231,1,200,6|0,3:2|0:0,0:0:0:0:
328,258,175644,2,0,B|224:217|217:17|353:-18,1,300,6|8,3:2|0:0,0:0:0:0:
348,123,176190,1,0,3:0:0:0:
441,114,176326,1,0,0:0:0:0:
348,123,176462,2,0,P|292:125|190:118,1,100,8|0,0:0|0:0,0:0:0:0:
65,208,176735,2,0,P|121:206|223:213,1,100,0|0,3:0|0:0,0:0:0:0:
250,384,177008,5,0,3:0:0:0:
250,384,177144,2,0,B|340:287|259:197,2,200,8|4|0,0:3|0:3|0:0,0:0:0:0:
178,300,177826,1,0,3:0:0:0:
178,300,177962,2,0,P|178:185|184:77,1,200,8|4,0:3|0:3,0:0:0:0:
271,8,178371,2,0,P|271:88|269:129,1,100,2|0,0:0|0:0,0:0:0:0:
189,21,178644,1,8,3:0:0:0:
103,70,178781,1,8,0:3:0:0:
114,157,178917,1,4,0:3:0:0:
210,180,179053,1,4,0:3:0:0:
182,100,179190,6,0,B|82:37|-3:118,1,200,6|0,3:2|0:0,0:0:0:0:
182,267,179599,2,0,B|82:330|0:251,1,200,6|0,3:2|0:0,0:0:0:0:
94,180,180008,2,0,P|242:181|409:182,1,300,6|8,3:2|0:0,0:0:0:0:
505,139,180553,1,0,3:0:0:0:
491,242,180690,1,0,0:0:0:0:
420,99,180826,2,0,P|418:25|419:-20,1,100,12|0,0:0|0:0,0:0:0:0:
491,242,181099,1,0,1:0:0:0:
491,242,181167,1,0,1:0:0:0:
491,242,181235,2,0,B|522:297|473:336,1,100,8|4,0:3|0:3,0:0:0:0:
477,331,181917,6,0,B|422:221|267:176|97:223|46:337,1,500,6|0,3:2|0:0,0:0:0:0:
52,323,182735,2,0,P|89:353|148:360,1,100,2|0,0:1|0:0,0:0:0:0:
229,350,183008,2,0,P|272:333|308:285,1,100,2|0,0:1|0:0,0:0:0:0:
335,214,183281,2,0,P|342:167|318:113,1,100,2|0,0:1|0:0,0:0:0:0:
99,2,183553,6,2,B|118:124|256:99,1,200,6|0,1:0|0:0,0:1:0:0:
410,11,183962,2,2,P|311:10|171:13,1,200,10|0,1:0|0:0,0:1:0:0:
55,98,184371,1,2,3:1:0:0:
55,98,184508,2,0,P|120:105|171:64,1,100,0|0,0:0|0:0,0:0:0:0:
99,10,184781,1,8,0:1:0:0:
209,11,184917,2,2,B|292:99|199:197,1,200,0|8,3:0|0:1,0:1:0:0:
206,188,185462,2,0,P|271:181|322:222,1,100,2|0,3:1|0:0,0:0:0:0:
395,373,185735,5,2,3:1:0:0:
395,373,185871,2,0,P|356:320|366:255,1,100,0|0,3:0|0:0,0:0:0:0:
454,123,186144,2,0,P|427:182|366:206,1,100,10|0,0:1|0:0,0:0:0:0:
242,302,186417,1,0,0:0:0:0:
242,302,186553,6,2,P|242:184|245:85,1,200,2|0,3:1|0:0,0:1:0:0:
257,8,186962,1,8,0:1:0:0:
338,67,187099,1,0,3:0:0:0:
244,102,187235,1,0,0:0:0:0:
170,52,187371,2,0,P|115:50|56:53,1,100,10|0,0:1|0:0,0:0:0:0:
4,225,187644,2,0,P|2:170|5:111,1,100,2|0,0:1|0:0,0:0:0:0:
88,315,187917,6,2,B|182:229|105:131,1,200,2|0,3:1|0:0,0:1:0:0:
1,241,188326,2,2,B|97:174|178:263,1,200,8|0,0:1|0:0,0:1:0:0:
373,318,188735,1,0,3:0:0:0:
280,376,188871,2,0,P|265:321|298:259,1,100,0|0,0:0|0:0,0:0:0:0:
353,221,189144,1,8,0:1:0:0:
353,221,189281,2,0,P|351:139|346:90,1,100,2|0,3:1|0:0,0:0:0:0:
502,74,189553,2,2,P|501:235|503:305,2,200,10|0|0,0:1|3:0|3:0,0:1:0:0:
424,169,190235,6,0,P|335:171|309:168,1,100,0|2,3:0|0:1,0:0:0:0:
145,156,190508,1,8,0:1:0:0:
235,109,190644,2,0,P|237:198|234:224,1,100,2|0,0:1|0:0,0:0:0:0:
75,84,190917,1,2,3:1:0:0:
169,38,191053,1,0,0:0:0:0:
138,150,191190,2,0,P|136:239|139:265,1,100,2|0,3:1|0:0,0:0:0:0:
314,379,191462,2,0,P|314:281|309:237,1,100,2|0,0:1|0:0,0:0:0:0:
230,326,191735,1,2,3:2:0:0:
401,312,191871,1,2,0:2:0:0:
247,219,192008,1,2,3:1:0:0:
360,205,192144,1,4,0:3:0:0:
313,279,192281,1,4,3:2:0:0:
313,279,192553,6,0,P|374:297|429:272,1,100,2|8,0:1|0:1,0:0:0:0:
507,261,192826,2,0,P|507:228|504:148,1,100,2|0,0:1|0:0,0:0:0:0:
419,0,193099,2,0,P|401:61|426:116,1,100,2|0,3:1|0:0,0:0:0:0:
505,144,193371,2,2,B|411:78|316:163,1,200,2|2,0:1|3:2,0:1:0:0:
299,191,193735,1,2,0:0:0:0:
260,200,193826,1,2,0:0:0:0:
221,189,193917,2,2,P|88:184|-2:185,1,200,10|0,0:1|3:0,0:1:0:0:
51,0,194326,1,0,0:0:0:0:
51,0,194462,5,2,3:1:0:0:
127,49,194599,1,0,3:0:0:0:
39,94,194735,1,0,0:0:0:0:
115,147,194871,2,2,P|114:239|109:352,1,200,10|0,0:1|0:0,0:1:0:0:
377,311,195281,1,2,3:1:0:0:
314,383,195417,1,0,0:0:0:0:
224,353,195553,1,0,0:0:0:0:
218,265,195690,2,2,P|218:208|222:144,2,100,10|0|0,0:1|3:0|0:0,0:1:0:0:
6,225,196099,1,10,0:1:0:0:
6,225,196235,2,2,B|150:223|327:229,1,300,2|2,0:1|3:2,0:1:0:0:
148,325,196781,6,0,P|93:326|29:324,1,100,2|0,0:1|0:0,0:0:0:0:
6,225,197053,1,10,0:1:0:0:
101,125,197190,2,0,P|123:77|110:24,1,100,2|0,0:1|0:0,0:0:0:0:
29,71,197462,1,0,3:0:0:0:
218,103,197599,2,0,P|266:110|310:89,1,100,2|0,0:1|0:0,0:0:0:0:
256,11,197871,1,10,0:1:0:0:
211,95,198008,2,0,P|203:215|202:320,1,200,2|8,3:1|0:1,0:0:0:0:
257,380,198417,1,2,0:1:0:0:
302,299,198553,2,0,P|305:233|306:179,1,100,2|0,3:1|0:0,0:0:0:0:
512,302,198826,5,2,3:1:0:0:
392,353,198962,1,0,3:0:0:0:
464,238,199099,1,2,0:1:0:0:
476,373,199235,1,8,0:1:0:0:
390,275,199371,1,2,0:1:0:0:
42,242,199644,1,2,3:1:0:0:
188,304,199780,1,0,0:0:0:0:
100,163,199917,1,2,3:1:0:0:
85,328,200053,1,0,0:0:0:0:
190,209,200189,1,2,0:1:0:0:
37,249,200326,2,2,P|250:253|464:252,1,400,2|0,0:1|0:0,0:1:0:0:
436,252,201008,1,6,3:2:0:0:
503,38,201281,6,0,P|452:23|394:62,1,100,2|8,0:1|0:1,0:0:0:0:
367,207,201553,2,0,P|349:161|364:114,1,100,2|0,0:1|0:0,0:0:0:0:
461,125,201826,1,0,3:0:0:0:
316,39,201962,2,2,B|232:116|281:230,1,200,2|8,0:1|0:1,0:1:0:0:
115,115,202371,2,0,P|44:115|8:117,1,100,2|0,3:1|0:0,0:0:0:0:
181,51,202644,1,10,0:1:0:0:
229,118,202781,1,2,0:1:0:0:
115,115,202917,1,8,0:3:0:0:
181,51,203053,1,4,0:3:0:0:
165,192,203190,5,0,3:0:0:0:
165,192,203326,2,2,P|266:194|418:190,1,200,0|8,3:0|0:0,0:1:0:0:
495,242,203735,1,2,0:3:0:0:
458,155,203871,1,2,0:3:0:0:
406,275,204008,2,0,P|395:331|423:379,1,100,2|0,3:1|0:0,0:0:0:0:
458,155,204281,2,0,P|469:99|441:51,1,100,0|8,0:0|0:1,0:0:0:0:
308,0,204553,2,2,B|217:80|282:181,2,200,2|8|0,3:1|0:1|3:0,0:1:0:0:
360,99,205235,1,0,0:0:0:0:
360,99,205371,1,2,3:2:0:0:
69,90,205644,6,0,P|127:93|181:92,1,100,2|8,0:1|0:1,0:0:0:0:
360,99,205917,2,0,P|302:96|248:97,1,100,2|0,0:1|0:0,0:0:0:0:
173,97,206190,1,0,3:0:0:0:
303,199,206326,2,2,P|306:96|306:-12,1,200,2|8,0:1|0:1,0:1:0:0:
211,204,206735,2,0,P|208:262|209:316,1,100,2|0,3:1|0:0,0:0:0:0:
275,373,207008,1,10,0:1:0:0:
371,365,207144,1,2,0:1:0:0:
424,282,207281,1,8,0:3:0:0:
389,197,207417,1,4,0:3:0:0:
326,277,207553,5,0,3:0:0:0:
326,277,207690,2,2,B|241:204|114:280,1,200,0|8,3:0|0:1,0:1:0:0:
90,349,208099,1,2,0:3:0:0:
49,255,208235,1,2,0:3:0:0:
90,349,208371,2,0,P|34:357|-12:327,2,100,2|0|0,3:1|0:0|3:0,0:0:0:0:
242,215,208781,1,0,0:0:0:0:
242,215,208917,2,2,B|332:119|238:23,2,200,2|0|0,0:1|3:0|3:0,0:1:0:0:
174,125,209599,1,0,3:0:0:0:
313,102,209735,6,2,P|417:96|530:93,1,200,6|0,3:1|0:0,0:1:0:0:
350,0,210144,2,2,P|246:6|133:9,1,200,10|0,0:1|0:0,0:1:0:0:
0,94,210553,2,2,B|-1:251|182:316|397:316|446:122,1,600,2|8,3:1|0:1,0:1:0:0:
441,136,211644,2,0,P|443:226|441:267,1,100,2|2,3:2|0:0,0:0:0:0:
363,379,211917,5,2,3:1:0:0:
363,379,212053,2,2,P|361:289|363:248,1,100,0|0,3:0|0:0,0:1:0:0:
186,135,212326,2,2,B|253:233|363:188,1,200,10|0,3:1|0:0,0:1:0:0:
500,293,212735,2,2,B|460:153|252:99|66:203|58:379,1,600,2|8,3:1|0:1,0:1:0:0:
58,367,213826,2,0,P|54:300|12:257,1,100,2|2,3:2|0:2,0:0:0:0:
126,78,214099,6,2,B|62:176|140:282,1,200,2|0,3:1|0:0,0:1:0:0:
5,143,214508,2,2,B|103:207|209:129,1,200,10|0,0:1|0:0,0:1:0:0:
368,59,214917,2,2,B|191:-5|83:234|309:364|421:231,1,500,2|0,3:1|0:0,0:1:0:0:
475,201,215735,1,10,0:1:0:0:
374,167,215871,1,2,0:0:0:0:
368,344,216008,1,2,0:1:0:0:
474,307,216144,1,2,0:0:0:0:
306,253,216281,5,2,3:1:0:0:
306,253,216417,2,0,P|259:250|205:249,1,100,0|0,3:0|0:0,0:0:0:0:
229,353,216690,2,2,B|319:253|226:126,1,200,10|0,0:1|0:0,0:1:0:0:
311,0,217099,2,0,P|295:38|318:103,1,100,2|0,3:1|0:0,0:0:0:0:
383,167,217371,1,2,3:0:0:0:
475,143,217508,1,2,0:3:0:0:
502,39,217644,2,2,B|257:37|-5:40,1,500,2|0,0:1|0:0,0:1:0:0:
20,148,218462,6,0,B|121:114|226:166|207:307,1,269.999991760254,6|8,3:2|0:0,0:0:0:0:
209,272,219008,1,2,0:0:0:0:
170,346,219144,1,2,0:0:0:0:
90,323,219281,2,0,P|92:125|97:3,1,269.999991760254,2|8,3:2|0:0,0:0:0:0:
94,53,219826,1,2,0:0:0:0:
178,19,219962,1,2,0:0:0:0:
243,84,220099,2,0,B|314:152|418:94,2,179.999994506836,10|0|0,0:0|3:0|3:0,0:0:0:0:
360,18,220781,5,0,3:0:0:0:
360,18,221053,2,0,B|286:68|293:220|364:291,1,269.999991760254,8|0,0:0|3:0,0:0:0:0:
344,266,221735,2,0,P|425:263|460:260,1,89.9999972534181,2|10,0:0|0:0,0:0:0:0:
502,182,222008,1,0,3:0:0:0:
502,182,222144,2,0,P|421:179|386:176,1,89.9999972534181,2|8,0:0|0:0,0:0:0:0:
314,344,222417,2,0,P|314:197|313:95,1,179.999994506836,2|0,0:0|0:0,0:0:0:0:
461,91,222826,6,0,B|404:177|268:163|247:33,1,269.999991760254,2|8,3:2|0:0,0:0:0:0:
252,55,223371,1,2,0:0:0:0:
322,0,223508,1,2,0:0:0:0:
165,29,223644,2,0,B|149:120|219:219|308:246,1,269.999991760254,2|8,3:2|0:0,0:0:0:0:
296,242,224190,1,2,0:0:0:0:
360,186,224326,1,2,0:0:0:0:
269,146,224462,2,0,B|170:207|232:316,2,179.999994506836,10|0|0,0:0|3:0|3:0,0:0:0:0:
163,230,225144,5,0,3:0:0:0:
163,230,225417,2,0,B|68:293|-17:194,1,179.999994506836,8|0,0:0|0:0,0:0:0:0:
54,351,225826,2,0,P|101:351|156:345,1,89.9999972534181,10|0,0:3|0:0,0:0:0:0:
234,384,226099,2,0,P|238:339|238:294,1,89.9999972534181,4|0,0:3|0:0,0:0:0:0:
281,212,226371,1,2,3:0:0:0:
281,212,226508,1,0,3:0:0:0:
369,194,226644,1,10,0:3:0:0:
369,194,226781,1,8,0:3:0:0:
449,237,226917,1,6,0:3:0:0:
449,237,227053,1,4,0:3:0:0:
461,327,227190,5,6,3:2:0:0:
357,284,227326,1,2,0:0:0:0:
357,284,227599,2,0,B|273:148|371:20,1,269.999991760254,10|0,0:0|3:0,0:0:0:0:
362,31,228281,2,0,P|297:26|268:-18,1,89.9999972534181,0|8,0:0|0:0,0:0:0:0:
443,7,228553,2,0,B|513:97|452:180,2,179.999994506836,2|8|2,3:2|0:0|3:2,0:0:0:0:
190,57,229371,5,10,0:0:0:0:
280,11,229508,2,0,P|281:73|279:117,1,89.9999972534181,2|4,0:3|0:3,0:0:0:0:
366,187,229781,1,2,3:2:0:0:
366,187,229917,2,0,P|304:188|260:186,1,89.9999972534181,8|0,0:0|0:0,0:0:0:0:
222,270,230190,1,0,1:0:0:0:
222,270,230281,1,0,1:0:0:0:
222,270,230371,1,0,1:0:0:0:
222,270,230462,1,0,3:0:0:0:
163,195,230599,1,0,1:0:0:0:
89,241,230735,1,0,1:0:0:0:
19,175,230871,1,0,1:0:0:0:
102,124,231008,1,0,3:0:0:0:
166,187,231144,1,8,0:3:0:0:
248,150,231281,1,4,0:3:0:0:
305,229,231417,1,0,0:0:0:0:
220,283,231553,6,0,P|351:285|518:281,2,269.999991760254,2|2|2,0:0|0:0|0:0,0:0:0:0:
256,192,232917,12,4,235371,0:3:0:0:
430,11,235917,6,0,B|525:66|510:200|419:263,1,300,6|8,3:2|0:0,0:0:0:0:
351,77,236462,1,2,0:0:0:0:
271,129,236599,1,2,0:0:0:0:
356,172,236735,2,0,P|420:170|486:166,1,100,2|0,3:2|0:0,0:0:0:0:
253,39,237008,2,0,P|189:41|123:45,1,100,0|8,0:0|0:0,0:0:0:0:
20,257,237281,1,2,3:2:0:0:
106,211,237417,1,2,0:0:0:0:
20,154,237553,2,0,B|132:77|208:195,1,200,10|0,0:0|3:0,0:0:0:0:
239,366,237962,1,0,0:0:0:0:
350,339,238099,5,0,3:0:0:0:
239,366,238235,2,0,P|235:280|270:239,1,100,0|0,3:0|0:0,0:0:0:0:
305,181,238508,2,0,B|437:193|430:55,1,200,8|0,0:0|0:0,0:0:0:0:
362,5,238917,1,0,3:0:0:0:
300,71,239053,1,0,0:0:0:0:
371,128,239190,1,2,0:0:0:0:
431,60,239326,1,10,0:0:0:0:
211,7,239462,2,0,P|208:58|208:122,1,100,0|2,3:0|0:0,0:0:0:0:
229,248,239735,1,8,0:0:0:0:
131,139,239871,1,2,0:0:0:0:
270,172,240008,1,0,3:0:0:0:
136,231,240144,1,0,3:0:0:0:
6,99,240281,6,0,P|161:93|308:92,1,300,2|8,3:2|0:0,0:0:0:0:
467,237,240826,1,2,0:0:0:0:
468,136,240962,1,2,0:0:0:0:
376,178,241099,2,0,P|373:242|373:287,1,100,2|0,3:2|0:0,0:0:0:0:
136,384,241371,2,0,P|135:334|132:284,1,100,0|8,0:0|0:0,0:0:0:0:
44,114,241644,1,2,3:2:0:0:
136,157,241781,1,2,0:0:0:0:
41,223,241917,2,0,B|180:301|266:146,1,200,10|0,0:0|3:0,0:0:0:0:
243,10,242326,1,0,0:0:0:0:
141,63,242462,5,0,3:0:0:0:
243,10,242599,2,0,P|269:63|239:129,1,100,0|0,3:0|0:0,0:0:0:0:
351,365,242871,2,0,B|269:272|344:168,1,200,8|0,0:0|0:0,0:0:0:0:
433,316,243281,2,0,P|407:263|437:197,1,100,2|0,3:2|0:0,0:0:0:0:
221,262,243553,2,0,P|286:265|336:266,1,100,0|0,3:0|0:0,0:0:0:0:
414,224,243826,1,2,0:0:0:0:
414,224,243962,1,0,0:0:0:0:
438,134,244099,1,2,3:2:0:0:
438,134,244235,1,0,3:0:0:0:
365,58,244371,1,2,3:2:0:0:
365,58,244508,1,0,3:0:0:0:
512,199,244644,5,6,3:2:0:0:
339,163,244781,2,0,P|274:160|224:159,1,100,2|0,0:0|0:0,0:0:0:0:
20,240,245053,2,0,P|126:245|269:245,1,200,10|0,0:0|0:0,0:0:0:0:
145,161,245462,1,0,3:0:0:0:
110,284,245599,2,0,P|107:349|106:399,1,100,0|0,0:0|0:0,0:0:0:0:
204,335,245871,1,8,0:0:0:0:
21,254,246008,2,0,B|-34:134|51:46,1,200,2|8,3:2|0:0,0:0:0:0:
105,4,246417,1,0,0:0:0:0:
199,24,246553,1,2,3:2:0:0:
226,108,246690,1,0,0:0:0:0:
37,76,246826,5,2,3:2:0:0:
117,208,246962,2,0,P|137:156|109:89,1,100,2|0,3:2|0:0,0:0:0:0:
369,24,247235,2,0,B|279:112|160:-15,1,200,10|0,0:0|0:0,0:0:0:0:
248,200,247644,1,0,3:0:0:0:
333,155,247781,2,0,P|388:155|456:159,1,100,0|0,0:0|0:0,0:0:0:0:
301,74,248053,1,8,0:0:0:0:
241,189,248190,2,0,P|234:319|236:397,2,200,2|8|0,3:2|0:0|0:0,0:0:0:0:
450,344,248871,1,0,0:0:0:0:
450,344,249008,6,0,B|367:238|212:345,1,200,2|2,3:1|0:0,0:0:0:0:
107,381,249417,1,8,0:0:0:0:
107,381,249553,2,0,P|139:319|110:263,1,100,2|0,0:0|0:0,0:0:0:0:
55,156,249826,2,0,B|138:262|293:155,1,200,2|0,3:1|0:0,0:0:0:0:
421,153,250235,1,8,0:0:0:0:
334,98,250371,2,0,P|330:183|331:216,1,100,0|0,3:0|0:0,0:0:0:0:
224,384,250644,2,0,P|231:292|234:121,1,200,14|0,0:1|3:0,0:0:0:0:
421,287,251053,1,0,0:0:0:0:
421,287,251190,2,0,P|371:286|321:283,1,100,0|0,1:0|0:0,0:0:0:0:
120,86,251462,5,2,0:1:0:0:
153,171,251599,1,8,0:0:0:0:
233,108,251735,1,0,3:0:0:0:
194,24,251871,1,2,0:1:0:0:
48,154,252008,1,8,0:0:0:0:
11,67,252144,1,0,0:0:0:0:
83,1,252281,2,0,P|110:41|100:104,1,100,2|0,3:1|0:0,0:0:0:0:
2,234,252553,1,0,1:0:0:0:
176,256,252690,1,2,1:0:0:0:
106,90,252826,1,0,1:0:0:0:
281,113,252962,1,0,1:0:0:0:
176,256,253099,1,0,1:0:0:0:
347,277,253235,1,0,1:0:0:0:
83,194,253371,6,0,B|144:99|277:92|340:174,1,300,6|8,3:2|0:0,0:0:0:0:
376,379,253917,1,2,0:0:0:0:
278,338,254053,1,2,0:0:0:0:
365,274,254190,2,0,P|425:272|497:275,1,100,2|0,3:2|0:0,0:0:0:0:
278,338,254462,2,0,P|258:283|293:217,1,100,0|8,0:0|0:0,0:0:0:0:
311,54,254735,1,2,3:2:0:0:
198,101,254871,1,2,0:0:0:0:
215,1,255008,2,0,B|279:112|160:215,1,200,10|0,0:0|3:0,0:0:0:0:
391,140,255417,2,0,P|393:66|391:10,1,100,0|0,0:0|3:0,0:0:0:0:
197,104,255690,6,0,B|69:161|7:58,1,200,0|8,3:0|0:0,0:0:0:0:
101,208,256099,1,0,0:0:0:0:
0,190,256235,1,0,0:0:0:0:
101,208,256371,1,0,3:0:0:0:
28,292,256508,2,0,P|80:293|127:293,1,100,0|2,0:0|0:0,0:0:0:0:
326,291,256781,1,8,0:0:0:0:
226,234,256917,2,0,P|224:283|224:333,1,100,0|0,3:0|0:0,0:0:0:0:
395,382,257190,1,8,0:0:0:0:
493,328,257326,1,2,0:0:0:0:
483,225,257462,1,0,3:0:0:0:
376,198,257599,1,0,3:0:0:0:
321,299,257735,6,0,P|322:115|324:-9,1,300,2|8,3:2|0:0,0:0:0:0:
101,123,258281,1,2,0:0:0:0:
211,135,258417,1,2,0:0:0:0:
159,37,258553,2,0,P|104:19|48:44,1,100,2|0,3:2|0:0,0:0:0:0:
211,135,258826,2,0,P|266:153|322:128,1,100,0|8,0:0|0:0,0:0:0:0:
438,350,259099,1,2,3:2:0:0:
511,266,259235,1,2,0:0:0:0:
396,250,259371,2,0,P|284:248|152:253,1,200,10|0,0:0|3:0,0:0:0:0:
302,59,259781,2,0,P|323:112|304:156,1,100,0|0,0:0|3:0,0:0:0:0:
127,372,260053,6,0,B|54:272|146:171,1,200,0|8,3:0|0:0,0:0:0:0:
297,268,260462,2,0,P|242:269|178:267,1,100,0|0,0:0|0:0,0:0:0:0:
3,258,260735,1,2,3:2:0:0:
3,258,260871,1,0,0:0:0:0:
22,154,261008,1,2,3:2:0:0:
22,154,261144,1,0,0:0:0:0:
111,95,261281,1,2,0:0:0:0:
111,95,261417,1,0,0:0:0:0:
221,114,261553,1,2,3:2:0:0:
221,114,261690,1,0,0:0:0:0:
280,199,261826,1,2,3:2:0:0:
280,199,261962,1,0,0:0:0:0:
125,14,262099,6,0,P|120:168|118:329,1,300,6|8,3:2|0:0,0:0:0:0:
203,363,262644,1,2,0:0:0:0:
308,313,262781,1,2,0:0:0:0:
398,368,262917,2,0,P|419:296|397:253,1,100,2|0,3:2|0:0,0:0:0:0:
258,162,263190,2,0,P|309:216|358:218,1,100,0|8,0:0|0:0,0:0:0:0:
510,142,263462,2,0,P|437:159|410:200,1,100,0|0,3:0|0:0,0:0:0:0:
512,48,263735,2,0,B|395:30|330:138,1,200,8|0,0:0|3:0,0:0:0:0:
32,15,264281,6,0,P|194:13|350:13,1,300,6|8,3:2|0:0,0:0:0:0:
417,66,264826,1,2,3:2:0:0:
342,132,264962,1,2,0:0:0:0:
254,96,265099,2,0,P|250:159|249:212,1,100,10|0,0:0|0:0,0:0:0:0:
150,224,265371,2,0,P|148:174|145:124,1,100,0|0,3:0|0:0,0:0:0:0:
353,134,265644,2,0,P|349:183|348:233,1,100,0|0,0:0|0:0,0:0:0:0:
444,384,265917,1,8,3:0:0:0:
473,258,266053,1,8,0:3:0:0:
348,233,266190,1,4,0:3:0:0:
326,359,266326,1,4,0:3:0:0:
399,308,266462,6,0,B|305:207|168:307,1,200,6|0,3:2|0:0,0:0:0:0:
1,225,266871,2,0,B|95:124|232:224,1,200,6|0,3:2|0:0,0:0:0:0:
147,384,267281,2,0,B|219:288|234:192|166:60,1,300,6|8,3:2|0:0,0:0:0:0:
133,4,267826,1,0,3:0:0:0:
232,23,267962,1,0,0:0:0:0:
91,87,268099,2,0,P|46:88|-8:86,1,100,8|0,0:0|0:0,0:0:0:0:
232,23,268371,2,0,P|277:22|331:24,1,100,0|0,3:0|0:0,0:0:0:0:
475,195,268644,5,0,3:0:0:0:
475,195,268781,2,0,B|399:100|473:4,1,200,8|4,0:3|0:3,0:0:0:0:
259,154,269190,2,0,P|297:123|345:128,1,100,0|0,0:0|0:0,0:0:0:0:
475,195,269462,1,0,3:0:0:0:
475,195,269599,2,0,B|543:283|467:378,1,200,8|4,0:3|0:3,0:0:0:0:
382,333,270008,2,0,P|382:262|384:207,1,100,2|0,0:0|0:0,0:0:0:0:
295,265,270281,1,8,3:0:0:0:
352,149,270417,1,8,0:3:0:0:
264,179,270553,1,4,0:3:0:0:
321,58,270690,1,4,0:3:0:0:
234,85,270826,6,0,B|349:145|430:51,1,200,6|0,3:2|0:0,0:0:0:0:
183,166,271235,2,0,B|68:226|-13:132,1,200,6|0,3:2|0:0,0:0:0:0:
220,273,271644,2,0,B|157:176|184:51|252:-1,1,300,6|8,3:2|0:0,0:0:0:0:
56,73,272190,2,0,P|103:96|173:76,1,100,0|0,3:0|0:0,0:0:0:0:
385,202,272462,2,0,B|306:125|196:173,1,200,12|0,0:0|1:0,0:0:0:0:
200,171,273008,5,2,1:3:0:0:
243,194,273281,1,2,1:3:0:0:
321,144,273553,1,2,1:3:0:0:
288,28,273826,1,2,1:3:0:0:
125,0,274099,1,2,1:3:0:0:
5,142,274371,1,2,1:3:0:0:
89,336,274644,1,2,1:3:0:0:
340,381,274917,1,2,1:3:0:0:
512,149,275190,6,0,P|377:148|183:150,1,300,6|8,3:2|0:0,0:0:0:0:
449,64,275735,1,2,0:0:0:0:
362,4,275871,1,2,0:0:0:0:
314,98,276008,2,0,P|299:153|326:210,1,100,2|0,3:2|0:0,0:0:0:0:
362,384,276281,2,0,P|374:336|359:289,1,100,0|8,0:0|0:0,0:0:0:0:
61,262,276553,1,2,3:2:0:0:
113,358,276690,1,2,0:0:0:0:
205,301,276826,2,0,P|207:211|205:95,1,200,10|0,0:0|3:0,0:0:0:0:
6,149,277235,1,0,0:0:0:0:
6,149,277371,5,0,3:0:0:0:
110,39,277508,2,0,P|106:84|107:146,1,100,0|0,3:0|0:0,0:0:0:0:
292,229,277781,2,0,B|204:315|89:215,1,200,8|0,0:0|0:0,0:0:0:0:
174,384,278190,1,0,3:0:0:0:
0,324,278326,2,0,P|49:328|99:327,1,100,0|2,0:0|0:0,0:0:0:0:
204,174,278599,1,10,0:0:0:0:
184,378,278735,2,0,P|206:332|186:275,1,100,0|2,3:0|0:0,0:0:0:0:
109,225,279008,1,8,0:0:0:0:
203,164,279144,1,2,0:0:0:0:
116,110,279281,1,0,3:0:0:0:
203,158,279417,1,0,3:0:0:0:
11,177,279553,6,0,B|87:92|214:105|264:225,1,300,2|8,3:2|0:0,0:0:0:0:
512,214,280099,1,2,0:0:0:0:
445,306,280235,1,2,0:0:0:0:
356,240,280371,2,0,P|355:179|358:110,1,100,2|0,3:2|0:0,0:0:0:0:
174,375,280644,2,0,P|175:314|172:245,1,100,0|8,0:0|0:0,0:0:0:0:
8,140,280917,1,2,3:2:0:0:
167,161,281053,1,2,0:0:0:0:
80,231,281190,2,0,B|15:127|119:29,1,200,10|0,0:0|3:0,0:0:0:0:
260,233,281599,1,0,0:0:0:0:
260,233,281735,5,0,3:0:0:0:
277,16,281871,2,0,P|281:79|244:130,1,100,0|0,3:0|0:0,0:0:0:0:
360,187,282144,2,0,B|271:107|151:180,1,200,8|0,0:0|0:0,0:0:0:0:
95,235,282553,1,2,3:2:0:0:
185,286,282690,1,0,0:0:0:0:
95,235,282826,2,0,P|93:292|96:361,1,100,0|0,3:0|0:0,0:0:0:0:
242,360,283099,1,2,0:0:0:0:
297,284,283235,1,0,0:0:0:0:
246,209,283371,1,2,3:2:0:0:
354,172,283508,1,0,3:0:0:0:
409,282,283644,1,2,3:2:0:0:
353,384,283781,1,0,3:0:0:0:
179,283,283917,5,6,3:2:0:0:
409,282,284053,2,0,P|436:321|429:390,1,100,2|0,0:0|0:0,0:0:0:0:
488,210,284326,2,0,B|547:99|459:20,1,200,10|0,0:0|0:0,0:0:0:0:
377,0,284735,1,0,3:0:0:0:
343,88,284871,1,0,0:0:0:0:
466,27,285008,1,0,0:0:0:0:
430,121,285144,1,8,0:0:0:0:
343,88,285281,2,0,P|264:88|226:90,1,100,2|0,3:2|0:0,0:0:0:0:
140,180,285553,1,8,0:0:0:0:
164,45,285690,1,0,0:0:0:0:
224,168,285826,1,2,3:2:0:0:
100,103,285962,1,0,0:0:0:0:
248,85,286099,5,2,3:2:0:0:
15,215,286235,2,0,P|0:167|22:120,1,100,2|0,3:2|0:0,0:0:0:0:
158,38,286508,2,0,P|160:134|157:272,1,200,10|0,0:0|0:0,0:0:0:0:
436,274,286917,1,0,3:0:0:0:
347,330,287053,2,0,P|347:266|352:203,1,100,0|0,0:0|0:0,0:0:0:0:
380,75,287326,1,8,0:0:0:0:
211,140,287462,2,0,P|261:142|311:143,1,100,2|0,3:2|0:0,0:0:0:0:
242,349,287735,1,8,0:0:0:0:
158,237,287871,1,0,0:0:0:0:
254,247,288008,1,0,3:0:0:0:
146,335,288144,1,0,3:0:0:0:
416,381,288281,6,0,B|506:288|415:162,1,200,2|2,3:1|0:0,0:0:0:0:
384,0,288690,1,8,0:0:0:0:
384,0,288826,2,0,P|429:31|497:10,1,100,2|0,0:0|0:0,0:0:0:0:
374,124,289099,2,0,B|283:55|190:145,1,200,2|0,3:1|0:0,0:0:0:0:
388,260,289508,1,8,0:0:0:0:
293,297,289644,2,0,P|294:225|297:176,1,100,0|0,3:0|0:0,0:0:0:0:
484,24,289917,2,0,P|485:106|483:300,1,200,14|0,0:1|3:0,0:0:0:0:
363,121,290326,1,0,0:0:0:0:
363,121,290462,2,0,P|412:118|462:118,1,100,0|0,1:0|0:0,0:0:0:0:
416,382,290735,5,2,0:1:0:0:
504,319,290871,1,8,0:0:0:0:
480,217,291008,1,0,3:0:0:0:
373,214,291144,1,2,0:1:0:0:
332,306,291281,1,8,0:0:0:0:
221,299,291417,1,0,0:0:0:0:
195,198,291553,2,0,P|196:127|200:73,1,100,2|0,3:1|0:0,0:0:0:0:
106,238,291826,1,0,1:0:0:0:
289,133,291962,1,2,1:0:0:0:
106,27,292099,1,0,1:0:0:0:
99,249,292235,1,0,1:0:0:0:
302,133,292371,1,0,1:0:0:0:
99,15,292508,1,0,1:0:0:0:
246,274,292644,6,0,B|211:373|69:397|0:311,1,300,6|8,3:2|0:0,0:0:0:0:
171,145,293190,1,2,0:0:0:0:
0,127,293326,1,2,0:0:0:0:
79,254,293462,2,0,P|84:195|86:131,1,100,2|0,3:2|0:0,0:0:0:0:
244,1,293735,2,0,P|246:50|250:100,1,100,0|8,0:0|0:0,0:0:0:0:
278,333,294008,1,2,3:2:0:0:
176,254,294144,1,2,0:0:0:0:
346,228,294281,2,0,B|415:128|340:39,1,200,10|0,0:0|3:0,0:0:0:0:
258,195,294690,1,0,0:0:0:0:
258,195,294826,5,0,3:0:0:0:
410,139,294962,2,0,P|465:136|522:137,1,100,0|0,3:0|0:0,0:0:0:0:
461,332,295235,2,0,P|446:300|468:220,2,100,8|0|0,0:0|0:0|0:0,0:0:0:0:
401,127,295644,1,0,3:0:0:0:
351,213,295781,2,0,P|296:216|239:215,1,100,0|2,0:0|0:0,0:0:0:0:
57,199,296053,1,8,0:0:0:0:
152,259,296190,2,0,P|155:204|154:147,1,100,0|0,3:0|0:0,0:0:0:0:
227,93,296462,1,8,0:0:0:0:
73,102,296599,1,2,0:0:0:0:
72,6,296735,1,0,3:0:0:0:
222,2,296871,1,0,3:0:0:0:
2,62,297008,6,0,P|152:60|322:53,1,300,2|8,3:2|0:0,0:0:0:0:
379,301,297553,1,2,0:0:0:0:
477,235,297690,1,2,0:0:0:0:
402,149,297826,2,0,P|345:136|290:170,1,100,2|0,3:2|0:0,0:0:0:0:
111,275,298099,2,0,P|168:288|223:254,1,100,0|8,0:0|0:0,0:0:0:0:
129,17,298371,1,2,3:2:0:0:
54,103,298508,1,2,0:0:0:0:
152,169,298644,2,0,P|151:267|146:385,1,200,10|0,0:0|3:0,0:0:0:0:
286,233,299053,1,0,0:0:0:0:
286,233,299190,5,0,3:0:0:0:
22,307,299326,2,0,P|23:244|26:196,1,100,0|0,3:0|0:0,0:0:0:0:
286,233,299599,2,0,B|195:326|90:227,1,200,8|0,0:0|0:0,0:0:0:0:
197,180,300008,1,2,3:2:0:0:
197,180,300144,1,0,0:0:0:0:
182,81,300281,1,2,3:2:0:0:
182,81,300417,1,0,0:0:0:0:
102,144,300553,1,2,0:0:0:0:
102,144,300690,1,0,0:0:0:0:
275,117,300826,1,2,3:2:0:0:
275,117,300962,1,0,0:0:0:0:
90,47,301099,1,2,3:2:0:0:
90,47,301235,1,0,0:0:0:0:
121,257,301371,6,0,B|54:183|56:53|158:1,1,300,6|8,3:2|0:0,0:0:0:0:
263,18,301917,1,2,0:0:0:0:
283,122,302053,1,2,0:0:0:0:
183,99,302190,2,0,P|173:145|196:197,1,100,2|0,3:2|0:0,0:0:0:0:
391,262,302462,2,0,P|356:230|299:224,1,100,0|8,0:0|0:0,0:0:0:0:
145,363,302735,2,0,P|189:348|223:302,1,100,0|0,3:0|0:0,0:0:0:0:
286,115,303008,2,0,P|391:114|510:117,1,200,8|0,0:0|3:0,0:0:0:0:
433,12,303417,1,0,0:0:0:0:
391,216,303553,6,0,P|248:217|76:210,1,300,6|8,3:2|0:0,0:0:0:0:
15,144,304099,1,2,3:2:0:0:
11,274,304235,1,2,0:0:0:0:
15,144,304371,2,0,P|11:84|43:51,1,100,10|0,0:0|0:0,0:0:0:0:
171,178,304644,2,0,P|121:211|76:200,1,100,0|0,3:0|0:0,0:0:0:0:
123,23,304917,2,0,P|176:49|189:93,1,100,0|0,0:0|0:0,0:0:0:0:
243,246,305190,1,8,3:0:0:0:
105,113,305326,1,8,0:3:0:0:
189,84,305462,1,4,0:3:0:0:
152,273,305599,1,4,0:3:0:0:
171,178,305735,6,0,B|283:126|348:219,1,200,6|0,3:2|0:0,0:0:0:0:
497,384,306144,2,0,B|395:313|444:210,1,200,6|0,3:2|0:0,0:0:0:0:
509,0,306553,2,0,B|498:122|384:132,1,200,6|0,3:2|0:0,0:0:0:0:
217,52,306962,1,8,0:0:0:0:
310,3,307099,2,0,P|310:54|306:117,1,100,0|0,3:0|0:0,0:0:0:0:
455,308,307371,2,0,P|452:258|452:208,1,100,8|0,0:0|0:0,0:0:0:0:
392,140,307644,2,0,P|294:139|145:143,1,200,0|0,3:0|3:0,0:0:0:0:
247,374,308053,6,0,B|336:273|251:169,1,200,8|4,0:3|0:3,0:0:0:0:
191,127,308462,1,4,0:3:0:0:
100,171,308599,1,0,0:0:0:0:
111,269,308735,1,0,3:0:0:0:
204,291,308871,2,0,P|302:292|451:288,1,200,8|4,0:3|0:3,0:0:0:0:
403,289,309281,1,2,0:0:0:0:
388,3,309553,1,8,3:0:0:0:
484,47,309690,1,8,0:3:0:0:
473,148,309826,1,4,0:3:0:0:
375,170,309962,1,4,0:3:0:0:
310,83,310099,6,0,B|265:-24|131:16,1,200,6|0,3:2|0:0,0:0:0:0:
192,299,310508,2,0,B|307:313|339:177,1,200,6|0,3:2|0:0,0:0:0:0:
61,80,310917,2,0,B|-9:172|92:268,1,200,6|0,3:2|0:0,0:0:0:0:
254,149,311326,1,8,0:0:0:0:
161,99,311462,2,0,P|157:146|156:201,1,100,0|0,3:0|0:0,0:0:0:0:
360,199,311735,2,0,P|359:149|355:99,1,100,12|0,0:0|0:0,0:0:0:0:
253,256,312008,1,0,1:0:0:0:
253,256,312076,1,0,1:0:0:0:
253,256,312144,2,0,P|253:206|257:156,1,100,8|4,0:3|0:3,0:0:0:0:
257,156,312826,6,2,P|430:157|293:333,1,500,6|0,3:2|0:0,0:1:0:0:
248,254,313644,1,0,3:0:0:0:
341,232,313781,1,0,3:0:0:0:
256,162,313917,1,0,3:0:0:0:
164,221,314053,1,0,3:0:0:0:
193,331,314190,1,0,3:0:0:0:
302,339,314326,1,0,3:0:0:0:
