osu file format v14

[General]
AudioFilename: .mp3
AudioLeadIn: 0
PreviewTime: 128904
Countdown: 0
SampleSet: Soft
StackLeniency: 0.3
Mode: 0
LetterboxInBreaks: 0
WidescreenStoryboard: 1

[Editor]
Bookmarks: 48814,68547,133368,159261
DistanceSpacing: 0.6
BeatDivisor: 4
GridSize: 4
TimelineZoom: 1

[Metadata]
Title:Thank you rock
TitleUnicode:サンキューロック
Artist:Hana
ArtistUnicode:はな
Creator:Fushimi Rio
Version:Daisuki
Source:
Tags:BLACK × WHITE thank you rock
BeatmapID:1065204
BeatmapSetID:500026

[Difficulty]
HPDrainRate:6
CircleSize:4
OverallDifficulty:8.5
ApproachRate:10
SliderMultiplier:1.6
SliderTickRate:1

[Events]
//Background and Video events
0,0,"random bg.jpg",0,0
//Break Periods
2,153747,158811
2,179461,183989
//Storyboard Layer 0 (Background)
//Storyboard Layer 1 (Fail)
//Storyboard Layer 2 (Pass)
//Storyboard Layer 3 (Foreground)
//Storyboard Sound Samples

[TimingPoints]
690,357.142857142857,4,2,0,50,1,0
6314,-100,4,2,0,60,0,0
6404,-100,4,2,0,70,0,0
9975,-80,4,2,0,70,0,0
10511,-133.333333333333,4,2,0,70,0,0
12118,-80,4,2,0,70,0,0
21404,-66.6666666666667,4,2,0,70,0,0
22118,-50,4,2,0,70,0,0
23547,-100,4,2,0,50,0,0
26047,-50,4,2,0,70,0,0
26404,-100,4,2,0,70,0,0
32118,-80,4,2,0,70,0,0
34975,-80,4,2,0,70,0,0
37475,-50,4,2,0,70,0,0
37832,-80,4,2,0,70,0,0
44261,-66.6666666666667,4,2,0,70,0,0
46225,-100,4,2,0,70,0,0
51404,-75.187969924812,4,2,0,70,0,0
51939,-100,4,2,0,70,0,0
56761,-66.6666666666667,4,2,0,70,0,0
57118,-50,4,2,0,70,0,0
57832,-80,4,2,0,70,0,1
61939,-50,4,2,0,70,0,1
62297,-80,4,2,0,80,0,1
65868,-66.6666666666667,4,2,0,70,0,1
66404,-66.6666666666667,4,2,0,70,0,1
67297,-57.1428571428571,4,2,0,70,0,1
67654,-100,4,2,0,70,0,0
68189,-66.6666666666667,4,2,0,70,0,0
68547,-66.6666666666667,4,2,0,70,0,1
69261,-80,4,2,0,70,0,1
72475,-66.6666666666667,4,2,0,70,0,1
72832,-50,4,2,0,70,0,1
74975,-80,4,2,0,70,0,1
79261,-50,4,2,0,70,0,1
80511,-66.6666666666667,4,2,0,70,0,1
83008,-133.333333333333,4,2,0,70,0,1
83011,-133.333333333333,4,2,0,70,0,0
83547,-80,4,2,0,70,0,1
83725,-80,4,2,0,70,0,0
92832,-66.6666666666667,4,2,0,70,0,0
93547,-50,4,2,0,70,0,0
94975,-100,4,2,0,70,0,0
97118,-66.6666666666667,4,2,0,70,0,0
97475,-100,4,2,0,70,0,0
106404,-80,4,2,0,70,0,0
108904,-50,4,2,0,70,0,0
109261,-80,4,2,0,70,0,0
117654,-100,4,2,0,70,0,0
128547,-50,4,2,0,70,0,0
129261,-80,4,2,0,70,0,1
133368,-50,4,2,0,70,0,1
133725,-80,4,2,0,70,0,1
137297,-66.6666666666667,4,2,0,70,0,1
139082,-80,4,2,0,70,0,1
144797,-50,4,2,0,70,0,1
146404,-80,4,2,0,70,0,1
150689,-50,4,2,0,70,0,1
151939,-66.6666666666667,4,2,0,70,0,1
153547,-80,4,2,0,70,0,0
163368,-200,4,2,0,70,0,0
164439,-80,4,2,0,70,0,0
164618,-66.6666666666667,4,2,0,70,0,0
164975,-80,4,2,0,70,0,0
176582,-50,4,2,0,70,0,0
179261,-100,4,2,0,70,0,0
189082,-80,4,2,0,70,0,0
190689,-80,4,2,0,70,0,1
194796,-50,4,2,0,70,0,1
196404,-80,4,2,0,70,0,1
199796,-50,4,2,0,70,0,1
200154,-66.6666666666667,4,2,0,70,0,1
201404,-50,4,2,0,70,0,1
202118,-50,4,2,0,70,0,1
202475,-80,4,2,0,70,0,1
204796,-57.1428571428571,4,2,0,70,0,1
205332,-80,4,2,0,70,0,1
205689,-66.6666666666667,4,2,0,70,0,1
206046,-57.1428571428571,4,2,0,70,0,1
206404,-50,4,2,0,70,0,1
206582,-66.6666666666667,4,2,0,70,0,1
207788,-66.6666666666667,4,2,0,5,0,1
207832,-80,4,2,0,70,0,1
212118,-50,4,2,0,70,0,1
215868,-133.333333333333,4,2,0,70,0,1
216404,-80,4,2,0,70,0,0
225689,-66.6666666666667,4,2,0,70,0,0
226404,-50,4,2,0,70,0,0
227832,-100,4,2,0,70,0,0
239439,-100,4,2,0,50,0,0
239529,-100,4,2,0,30,0,0
239618,-100,4,2,0,10,0,0
244261,-100,4,2,0,5,0,0

[Colours]
Combo1 : 244,218,138
Combo2 : 128,226,255
Combo3 : 128,128,255
Combo4 : 170,255,170

[HitObjects]
96,92,690,5,0,0:0:0:0:
96,92,868,1,0,0:0:0:0:
168,152,1047,2,0,L|256:152,1,80
198,64,1404,2,0,L|286:64,1,80
138,240,1761,1,0,0:0:0:0:
138,240,1939,2,0,L|328:240,1,160
328,152,2475,2,0,L|248:152,1,80
268,328,2832,2,0,L|188:328,1,80
298,240,3189,2,0,L|218:240,1,80
374,303,3547,5,0,0:0:0:0:
370,300,3725,1,0,0:0:0:0:
298,240,3904,2,0,L|210:240,1,80
268,328,4261,2,0,L|180:328,1,80
332,155,4618,1,0,0:0:0:0:
328,151,4797,2,0,L|137:150,1,160
218,239,5332,2,0,L|138:239,1,80
202,67,5689,1,0,0:0:0:0:
198,64,5868,2,0,B|278:64|278:64|323:137,1,160
329,153,6314,1,0,0:0:0:0:
339,175,6404,5,4,0:0:0:0:
388,54,6582,1,0,0:0:0:0:
260,213,6761,1,2,0:0:0:0:
424,183,6939,1,0,0:0:0:0:
303,283,7118,1,0,0:0:0:0:
438,293,7297,1,2,0:0:0:0:
269,362,7475,1,0,0:0:0:0:
339,202,7654,6,0,P|387:263|370:339,1,160,2|0,0:0|0:0,0:0:0:0:
250,180,8189,1,0,0:0:0:0:
405,142,8368,1,2,0:0:0:0:
148,245,8547,1,0,0:0:0:0:
303,283,8725,1,2,0:0:0:0:
16,187,8904,1,0,0:0:0:0:
171,149,9083,1,0,0:0:0:0:
9,291,9261,5,0,0:0:0:0:
24,84,9439,1,0,0:0:0:0:
114,213,9618,2,0,L|116:311,1,80,2|0,0:0|0:0,0:0:0:0:
219,135,9975,2,0,L|221:258,1,100,0|2,0:0|0:0,0:0:0:0:
222,351,10332,1,0,0:0:0:0:
290,86,10511,6,0,B|302:53|302:53|346:31|401:44|401:44|387:66|363:80|363:80|378:98|394:113|394:113|359:144|345:168|352:220,1,345.000013160706,0|0,1:0|0:0,0:0:0:0:
350,209,11582,5,0,1:0:0:0:
480,144,11761,1,0,1:0:0:0:
34,198,11939,1,0,1:0:0:0:
34,198,12029,1,0,1:0:0:0:
34,198,12118,6,0,P|18:250|32:303,1,100,4|0,0:0|0:0,0:0:0:0:
212,268,12475,2,0,L|112:256,1,100,0|0,1:0|0:0,0:0:0:0:
146,50,12832,2,0,P|192:109|197:143,1,100
112,256,13189,1,0,1:0:0:0:
196,132,13368,1,0,0:0:0:0:
31,189,13547,5,0,0:0:0:0:
159,357,13725,1,0,1:0:0:0:
196,132,13904,1,0,1:0:0:0:
112,256,14083,1,0,1:0:0:0:
366,146,14261,2,0,L|425:121,2,50,0|0|0,0:0|0:0|1:0,0:0:0:0:
267,40,14618,2,0,L|305:-11,2,50,0|0|0,0:0|0:0|1:0,0:0:0:0:
274,316,14975,6,0,P|236:268|236:208,1,100,4|0,0:0|0:0,0:0:0:0:
366,146,15332,2,0,L|324:237,1,100,0|0,1:0|0:0,0:0:0:0:
389,346,15689,1,0,0:0:0:0:
366,146,15868,2,0,L|324:237,1,100,0|0,1:0|0:0,0:0:0:0:
389,346,16225,2,0,P|465:293|465:212,1,150,4|0,1:0|0:0,0:0:0:0:
455,153,16582,1,0,1:0:0:0:
305,321,16761,1,0,0:0:0:0:
455,153,16939,1,0,1:0:0:0:
196,263,17118,2,0,L|133:291,3,50,4|0|0|0,0:0|0:0|0:0|0:0,0:0:0:0:
229,248,17475,5,2,0:0:0:0:
258,207,17564,1,2,0:0:0:0:
229,167,17653,1,2,0:0:0:0:
181,182,17742,1,2,0:0:0:0:
181,232,17832,6,0,P|197:282|233:310,1,100,4|0,0:0|0:0,0:0:0:0:
342,167,18189,2,0,L|266:232,1,100,0|0,1:0|0:0,0:0:0:0:
481,257,18547,2,0,L|381:244,1,100
447,351,18904,1,0,1:0:0:0:
404,108,19082,1,0,0:0:0:0:
266,232,19261,5,0,0:0:0:0:
481,257,19439,1,0,1:0:0:0:
404,108,19618,1,0,1:0:0:0:
447,351,19796,1,0,1:0:0:0:
180,177,19975,2,0,L|110:130,2,50,0|0|0,0:0|0:0|1:0,0:0:0:0:
265,118,20332,2,0,L|248:35,2,50,0|0|0,0:0|0:0|1:0,0:0:0:0:
196,252,20689,6,0,P|238:167|333:165,1,200,4|0,0:0|0:0,0:0:0:0:
169,237,21225,5,0,1:0:0:0:
169,237,21404,2,0,P|218:134|332:132,1,240.000009155274,4|0,0:0|0:0,0:0:0:0:
113,349,21939,5,0,1:0:0:0:
113,349,22029,1,0,1:0:0:0:
113,349,22118,2,0,P|126:311|156:285,1,80,4|0,0:0|0:0,0:0:0:0:
458,140,22297,2,0,P|418:133|381:145,1,80,0|0,1:0|0:0,0:0:0:0:
99,271,22475,6,0,P|130:245|169:237,1,80,4|0,0:0|0:0,0:0:0:0:
396,89,22654,2,0,P|358:102|331:131,1,80,0|0,1:0|0:0,0:0:0:0:
348,339,22832,5,4,0:0:0:0:
164,45,23011,5,4,0:0:0:0:
164,45,23547,6,0,L|165:237,1,160
84,45,24082,1,0,0:0:0:0:
84,125,24261,2,0,L|276:124,1,160
84,284,24797,1,0,1:0:0:0:
188,181,24975,6,0,L|300:67,1,160
358,126,25511,1,0,0:0:0:0:
187,68,25689,2,0,L|272:152,1,120
340,202,26047,6,0,L|181:203,1,160,2|0,1:0|0:0,0:0:0:0:
20,204,26404,6,0,L|212:203,1,160
20,284,26939,1,0,0:0:0:0:
100,283,27118,2,0,L|98:91,1,160
259,284,27654,1,0,1:0:0:0:
99,123,27832,6,0,L|195:122,1,80
257,121,28189,2,0,L|337:121,1,80
338,201,28547,2,0,L|417:200,1,80
179,202,28904,2,0,L|258:201,1,80,0|0,1:0|0:0,0:0:0:0:
179,282,29261,6,0,L|-13:283,1,160
179,202,29796,1,0,0:0:0:0:
99,362,29975,2,0,L|99:203,1,160,0|0,0:0|1:0,0:0:0:0:
258,202,30511,1,0,0:0:0:0:
19,203,30689,2,0,L|178:202,1,160
99,123,31225,1,0,0:0:0:0:
178,362,31404,2,0,L|178:282,1,80
258,202,31761,5,0,1:0:0:0:
258,241,31850,1,2,0:0:0:0:
258,281,31939,1,2,0:0:0:0:
340,200,32118,6,0,P|304:134|189:153,1,200,4|0,0:0|1:0,0:0:0:0:
259,362,32654,1,0,0:0:0:0:
404,147,32832,6,0,P|312:125|258:202,1,200,4|0,0:0|1:0,0:0:0:0:
446,323,33368,1,0,0:0:0:0:
130,104,33547,5,4,0:0:0:0:
196,293,33725,1,0,0:0:0:0:
404,147,33904,1,0,1:0:0:0:
354,288,34082,1,0,0:0:0:0:
175,122,34261,1,0,1:0:0:0:
191,169,34350,1,0,1:0:0:0:
208,216,34439,1,0,1:0:0:0:
393,65,34618,1,2,0:0:0:0:
343,206,34796,1,2,0:0:0:0:
204,43,34975,6,0,P|154:39|110:62,1,100,4|0,0:0|0:0,0:0:0:0:
59,149,35332,1,0,1:0:0:0:
14,15,35511,1,0,0:0:0:0:
139,196,35689,2,0,P|129:256|103:284,1,100
172,122,36047,1,0,1:0:0:0:
55,213,36225,1,0,0:0:0:0:
225,284,36404,6,0,P|278:291|323:269,1,100,0|0,0:0|1:0,0:0:0:0:
173,383,36761,1,0,0:0:0:0:
153,237,36939,1,0,1:0:0:0:
318,272,37118,2,0,P|351:206|327:138,1,150
262,204,37475,6,0,B|279:255|318:272|318:272|357:240|365:182|327:138,1,240,2|0,1:0|0:0,0:0:0:0:
193,147,37832,6,0,P|175:193|183:247,1,100
324,355,38189,1,0,1:0:0:0:
262,204,38368,1,0,0:0:0:0:
124,368,38547,2,0,P|176:362|216:320,1,100,0|0,0:0|1:0,0:0:0:0:
276,118,38904,1,0,0:0:0:0:
318,272,39082,1,0,1:0:0:0:
81,195,39261,6,0,P|64:144|82:90,1,100
216,93,39618,2,0,P|233:144|215:198,1,100,0|0,1:0|0:0,0:0:0:0:
143,226,39886,1,0,1:0:0:0:
115,221,39975,2,0,P|74:185|63:129,1,100
150,145,40243,1,0,1:0:0:0:
150,145,40332,1,0,1:0:0:0:
179,18,40511,1,0,0:0:0:0:
207,247,40689,6,0,P|246:302|312:321,1,100,4|0,0:0|0:0,0:0:0:0:
374,115,41047,1,0,1:0:0:0:
297,231,41225,1,0,0:0:0:0:
480,336,41404,1,0,0:0:0:0:
489,300,41494,1,2,0:0:0:0:
482,263,41583,1,2,1:2:0:0:
461,233,41672,1,2,0:0:0:0:
428,215,41761,2,0,L|383:236,1,50,2|0,0:0|0:0,0:0:0:0:
368,319,41939,1,0,1:0:0:0:
491,151,42118,6,0,P|447:128|398:132,1,100
270,197,42475,2,0,P|206:192|168:159,1,100,0|0,1:0|0:0,0:0:0:0:
165,93,42743,1,0,0:0:0:0:
193,77,42832,2,0,P|198:127|178:171,1,100
69,249,43189,1,0,1:0:0:0:
148,11,43368,1,0,0:0:0:0:
423,275,43547,6,0,P|335:232|267:265,1,150,4|0,0:0|0:0,0:0:0:0:
230,326,43904,1,0,1:0:0:0:
288,119,44082,1,0,0:0:0:0:
361,381,44261,6,0,P|347:355|343:325,1,60.0000022888184,2|0,1:0|0:0,0:0:0:0:
355,196,44439,2,0,B|361:140|401:99|401:99|337:163|239:157,1,240.000009155274,0|0,1:0|0:0,0:0:0:0:
440,260,44975,5,4,0:0:0:0:
198,155,45154,1,0,1:0:0:0:
288,0,45332,5,0,0:0:0:0:
204,193,45511,1,0,1:0:0:0:
99,122,45689,5,0,1:0:0:0:
136,138,45779,1,0,1:0:0:0:
173,153,45868,1,0,1:0:0:0:
203,282,46047,5,0,0:0:0:0:
245,186,46225,6,0,P|313:145|398:176,1,160,0|0,1:0|0:0,0:0:0:0:
386,166,46761,1,0,0:0:0:0:
94,95,47118,6,0,P|140:76|101:126,1,160,4|0,0:0|0:0,0:0:0:0:
254,176,47654,6,0,P|313:180|379:111,1,160,0|0,1:0|0:0,0:0:0:0:
378,111,48189,1,0,0:0:0:0:
107,131,48547,6,0,P|154:93|94:95,1,160,0|0,1:0|0:0,0:0:0:0:
283,177,49082,6,0,P|349:155|438:183,1,160,0|0,1:0|0:0,0:0:0:0:
433,179,49618,1,0,0:0:0:0:
94,95,49975,6,0,P|140:76|101:126,1,160,4|0,0:0|0:0,0:0:0:0:
316,201,50511,6,0,P|367:216|469:168,1,160,0|0,1:0|0:0,0:0:0:0:
323,49,51047,2,0,P|285:42|246:53,1,80,0|0,1:0|0:0,0:0:0:0:
107,131,51404,6,0,P|154:93|94:95,1,159.599993424683,0|0,1:0|1:0,0:0:0:0:
246,53,51939,6,0,P|285:42|382:119,1,160,4|0,1:0|0:0,0:0:0:0:
378,104,52475,1,0,0:0:0:0:
94,94,52832,6,0,P|154:93|107:131,1,160,4|0,0:0|0:0,0:0:0:0:
209,186,53279,1,0,0:0:0:0:
232,195,53368,6,0,P|297:200|375:107,1,160,0|0,1:0|0:0,0:0:0:0:
366,141,53904,1,0,0:0:0:0:
107,131,54261,6,0,P|154:93|94:94,1,160,0|0,1:0|0:0,0:0:0:0:
94,94,54797,1,0,1:0:0:0:
248,23,54975,6,0,P|235:88|255:123,1,80,0|0,0:0|1:0,0:0:0:0:
384,265,55332,5,0,0:0:0:0:
315,69,55511,1,0,1:0:0:0:
464,164,55689,5,0,0:0:0:0:
403,3,55868,1,0,1:0:0:0:
482,204,56047,5,0,1:0:0:0:
105,69,56225,1,4,0:0:0:0:
176,308,56582,5,0,0:0:0:0:
105,69,56761,2,0,P|85:129|127:78,1,180.000006866455,4|0,0:0|0:0,0:0:0:0:
197,24,57118,6,2,B|236:79|236:149|191:201|136:220|136:220|209:190|282:234|282:330|351:359|404:350,1,560,4|0,1:0|0:0,0:0:0:0:
439,191,57832,6,0,P|400:221|385:268,1,100,4|0,0:0|0:0,0:0:0:0:
491,123,58189,2,0,P|445:104|397:115,1,100,0|0,1:0|0:0,0:0:0:0:
465,377,58547,2,0,P|483:331|475:283,1,100
213,155,58904,1,0,1:0:0:0:
439,190,59082,2,0,L|367:225,1,50,0|0,3:0|3:0,0:0:0:0:
216,300,59261,5,0,0:0:0:0:
439,190,59439,1,0,1:0:0:0:
124,142,59618,5,0,0:0:0:0:
439,190,59797,2,0,L|394:212,1,50,0|0,3:0|3:0,0:0:0:0:
92,361,59975,1,0,0:0:0:0:
138,53,60154,1,0,1:0:0:0:
216,300,60332,1,0,1:0:0:0:
6,186,60511,6,0,P|10:275|107:317,1,200,4|0,0:0|0:0,0:0:0:0:
164,171,61047,2,0,P|117:187|87:226,1,100,0|0,1:0|0:0,0:0:0:0:
320,147,61404,1,0,0:0:0:0:
168,256,61582,2,0,L|198:326,1,50,0|0,1:0|0:0,0:0:0:0:
80,96,61761,1,0,1:0:0:0:
168,256,61939,6,0,B|222:212|274:152|246:72|175:70|162:125|206:135,1,240,4|0,1:0|0:0,0:0:0:0:
222,126,62297,1,0,1:0:0:0:
243,105,62386,1,0,1:0:0:0:
247,77,62475,1,0,1:0:0:0:
235,50,62565,1,0,1:0:0:0:
207,38,62654,1,0,1:0:0:0:
86,227,62832,5,4,0:0:0:0:
204,145,63011,1,0,1:0:0:0:
345,170,63189,1,0,1:0:0:0:
427,288,63368,1,0,0:0:0:0:
384,85,63547,6,0,P|350:120|344:169,1,100,4|0,0:0|0:0,0:0:0:0:
424,11,63904,2,0,P|376:0|330:18,1,100,0|0,1:0|0:0,0:0:0:0:
438,256,64261,2,0,P|449:208|430:162,1,100
252,324,64618,1,0,1:0:0:0:
430,162,64797,2,0,L|368:216,1,50,0|0,3:0|3:0,0:0:0:0:
252,324,64975,5,0,0:0:0:0:
440,75,65154,1,0,0:0:0:0:
147,266,65332,5,0,1:0:0:0:
440,75,65510,1,0,0:0:0:0:
72,180,65689,5,0,0:0:0:0:
298,119,65868,2,0,L|240:133,1,60.0000022888184
238,346,66047,2,0,L|254:288,1,60.0000022888184,0|0,1:0|0:0,0:0:0:0:
72,180,66225,2,0,L|114:222,1,60.0000022888184,0|0,1:0|0:0,0:0:0:0:
176,288,66404,5,6,0:0:0:0:
2,61,66582,1,0,1:0:0:0:
16,256,66761,1,0,0:0:0:0:
164,68,66939,5,2,0:0:0:0:
106,239,67118,1,0,1:0:0:0:
329,156,67297,5,2,0:0:0:0:
144,311,67476,1,0,1:0:0:0:
391,105,67654,6,0,L|512:0,1,160,4|0,0:0|0:0,0:0:0:0:
348,228,68189,6,0,L|242:108,1,120.000004577637,0|0,1:0|0:0,0:0:0:0:
240,284,68547,5,0,1:0:0:0:
208,292,68636,1,0,1:0:0:0:
165,290,68725,1,2,1:2:0:0:
118,268,68814,1,2,1:2:0:0:
82,218,68904,1,2,1:2:0:0:
82,145,68993,1,2,1:2:0:0:
129,79,69082,1,2,1:2:0:0:
220,63,69172,1,2,1:2:0:0:
318,95,69261,6,0,P|342:163|308:222,1,100,4|0,0:0|0:0,0:0:0:0:
296,13,69618,2,0,P|367:26|400:85,1,100,0|0,1:0|0:0,0:0:0:0:
314,268,69975,2,0,P|258:220|259:153,1,100
473,81,70332,1,0,1:0:0:0:
335,187,70511,1,0,0:0:0:0:
185,5,70689,5,0,0:0:0:0:
384,43,70868,1,0,1:0:0:0:
252,197,71047,1,0,0:0:0:0:
290,0,71225,2,0,L|308:86,1,50,0|0,3:0|3:0,0:0:0:0:
346,294,71404,5,0,0:0:0:0:
427,62,71583,1,0,1:0:0:0:
187,107,71762,1,0,1:0:0:0:
423,316,71939,6,0,L|201:258,1,200,4|0,0:0|0:0,0:0:0:0:
323,250,72475,6,0,P|282:292|224:297,1,120.000004577637,0|0,1:0|0:0,0:0:0:0:
326,160,72832,5,0,0:0:0:0:
142,272,73011,1,0,1:0:0:0:
137,56,73189,1,0,1:0:0:0:
278,236,73368,6,0,P|391:226|393:101,1,240,4|0,1:0|0:0,0:0:0:0:
386,115,73725,1,0,1:0:0:0:
367,119,73815,1,0,1:0:0:0:
349,128,73904,1,0,1:0:0:0:
335,142,73993,1,0,1:0:0:0:
326,160,74082,1,0,1:0:0:0:
497,194,74261,5,4,0:0:0:0:
441,29,74439,1,0,1:0:0:0:
326,160,74618,1,0,1:0:0:0:
382,325,74796,1,0,0:0:0:0:
379,99,74975,6,0,P|337:80|284:90,1,100,4|0,0:0|0:0,0:0:0:0:
459,115,75332,2,0,P|454:69|419:28,1,100,0|0,1:0|0:0,0:0:0:0:
205,117,75689,2,0,P|231:154|282:172,1,100
420,29,76047,1,0,1:0:0:0:
380,244,76225,2,0,L|341:192,1,50
221,31,76404,5,0,0:0:0:0:
336,316,76582,1,0,0:0:0:0:
154,80,76761,1,0,1:0:0:0:
240,280,76939,6,0,L|278:214,1,50,0|0,3:0|3:0,3:0:0:0:
366,57,77118,1,0,1:0:0:0:
152,312,77297,1,0,1:0:0:0:
272,82,77475,1,4,0:0:0:0:
286,54,77564,1,0,1:0:0:0:
315,58,77654,1,0,1:0:0:0:
319,89,77743,1,0,1:0:0:0:
293,102,77832,1,4,1:2:0:0:
420,284,78011,6,0,L|412:206,1,50
397,72,78189,1,0,1:0:0:0:
292,256,78368,6,0,L|264:183,1,50
215,58,78546,1,0,1:0:0:0:
164,259,78725,6,0,L|123:204,1,50
36,91,78904,1,0,1:0:0:0:
222,325,79082,5,0,0:0:0:0:
124,126,79261,6,0,P|164:119|201:131,1,80,4|0,1:2|0:0,0:0:0:0:
469,335,79439,2,0,P|456:297|426:271,1,80,0|0,1:0|0:0,0:0:0:0:
186,75,79618,6,0,P|224:88|251:117,1,80,4|0,0:0|0:0,0:0:0:0:
483,257,79797,2,0,P|452:231|413:223,1,80,0|0,1:0|0:0,0:0:0:0:
222,325,79975,5,4,0:0:0:0:
272,250,80064,1,0,1:0:0:0:
322,175,80153,1,0,1:0:0:0:
372,100,80243,1,0,1:0:0:0:
422,25,80332,1,0,1:0:0:0:
222,325,80511,6,0,L|341:149,1,180.000006866455,4|0,0:0|0:0,0:0:0:0:
322,175,80868,1,0,1:0:0:0:
336,318,81047,5,0,1:0:0:0:
203,209,81225,5,0,1:0:0:0:
404,190,81404,5,0,1:0:0:0:
259,370,81582,5,0,1:0:0:0:
234,113,81761,5,0,1:0:0:0:
456,295,81939,5,0,1:0:0:0:
141,325,82118,5,4,0:0:0:0:
362,59,82297,2,0,L|402:4,2,60.0000022888184,0|0|0,1:0|1:0|1:0,0:0:0:0:
296,320,82654,5,0,1:0:0:0:
296,320,82743,1,0,1:0:0:0:
296,320,82832,1,0,1:0:0:0:
193,229,83011,2,0,L|361:202,1,150.000005722046,4|0,0:0|0:0,0:0:0:0:
371,201,83547,6,0,P|324:172|304:132,1,100,4|0,0:0|0:0,0:0:0:0:
464,40,83904,2,0,L|396:112,1,100,0|0,1:0|0:0,0:0:0:0:
437,268,84261,2,0,P|413:225|371:201,1,100,4|0,0:0|0:0,0:0:0:0:
220,352,84618,1,0,1:0:0:0:
352,288,84797,1,0,1:0:0:0:
240,188,84975,5,0,0:0:0:0:
304,384,85154,1,0,1:0:0:0:
352,288,85332,1,0,0:0:0:0:
220,352,85511,1,0,1:0:0:0:
240,188,85689,2,0,L|248:138,2,50,0|0|0,0:0|0:0|1:0,0:0:0:0:
132,216,86047,2,0,L|102:175,2,50,0|0|0,0:0|0:0|1:0,0:0:0:0:
220,352,86404,6,0,P|264:376|312:372,1,100,4|0,0:0|0:0,0:0:0:0:
396,256,86761,2,0,L|436:364,1,100,0|0,1:0|0:0,0:0:0:0:
220,352,87118,1,0,3:0:0:0:
220,352,87297,2,4,P|264:376|312:372,1,100,0|4,1:0|1:0,1:0:0:0:
396,256,87654,6,0,L|436:364,1,100,4|0,1:0|0:0,0:0:0:0:
300,296,88011,1,0,0:0:0:0:
316,96,88189,1,0,1:0:0:0:
396,256,88368,1,0,0:0:0:0:
160,208,88547,5,2,0:0:0:0:
123,200,88636,1,2,0:0:0:0:
86,192,88725,1,2,0:0:0:0:
49,185,88814,1,2,0:0:0:0:
13,177,88904,5,2,0:0:0:0:
47,199,88993,1,2,0:0:0:0:
86,192,89082,1,2,0:0:0:0:
116,160,89172,1,2,0:0:0:0:
120,120,89261,6,0,P|92:80|44:64,1,100,4|0,0:0|0:0,0:0:0:0:
80,272,89618,2,0,L|184:284,1,100,0|0,1:0|0:0,0:0:0:0:
352,248,89975,2,0,P|316:300|312:336,1,100
412,328,90332,1,0,1:0:0:0:
288,164,90511,1,0,1:0:0:0:
311,335,90689,5,0,0:0:0:0:
448,228,90868,1,0,1:0:0:0:
288,164,91047,1,0,0:0:0:0:
412,328,91226,1,0,1:0:0:0:
488,140,91404,2,0,L|508:88,2,50,0|0|0,0:0|0:0|1:0,0:0:0:0:
352,152,91761,2,0,L|329:101,2,50,0|0|0,0:0|0:0|1:0,0:0:0:0:
296,264,92118,6,0,P|211:222|209:127,1,200,4|0,0:0|0:0,0:0:0:0:
383,112,92654,1,0,1:0:0:0:
281,291,92833,6,0,P|178:242|176:128,1,240.000009155274,4|0,0:0|0:0,0:0:0:0:
393,347,93368,5,0,1:0:0:0:
393,347,93458,1,0,1:0:0:0:
393,347,93547,2,0,P|355:334|329:304,1,80,4|0,0:0|0:0,0:0:0:0:
184,2,93726,2,0,P|177:42|189:78,1,80,0|0,1:0|0:0,0:0:0:0:
315,361,93904,6,0,P|289:330|281:291,1,80,4|0,0:0|0:0,0:0:0:0:
133,64,94083,2,0,P|146:102|175:129,1,80,0|0,1:0|0:0,0:0:0:0:
96,318,94261,6,0,L|164:264,1,80,4|0,0:0|0:0,0:0:0:0:
378,93,94439,2,0,L|315:142,1,80,4|0,0:0|0:0,0:0:0:0:
244,339,94618,5,0,3:0:0:0:
244,339,94707,1,0,3:0:0:0:
244,339,94797,1,0,1:0:0:0:
244,339,94886,1,0,3:0:0:0:
244,339,94975,6,0,P|319:326|347:255,1,160
508,308,95511,1,0,0:0:0:0:
472,304,95600,1,0,0:0:0:0:
448,280,95689,2,0,P|437:204|497:156,1,160
348,256,96225,2,0,P|324:260|304:260,1,40,0|0,1:0|0:0,0:0:0:0:
228,252,96404,2,0,B|184:244|152:266|124:288|72:272,1,160,0|0,0:0|1:0,0:0:0:0:
208,360,96939,1,0,0:0:0:0:
228,252,97118,2,0,B|245:180|210:121|210:121|196:139|199:164,1,180.000006866455
228,252,97475,2,0,P|272:288|328:296,1,80,2|0,1:0|0:0,0:0:0:0:
446,154,97832,6,0,P|371:138|316:191,1,160,4|0,0:0|1:0,0:0:0:0:
332,351,98368,1,0,3:0:0:0:
332,351,98457,1,0,3:0:0:0:
332,351,98547,2,0,P|389:297|394:220,1,160,0|0,1:0|0:0,0:0:0:0:
336,112,99082,1,0,1:0:0:0:
300,256,99261,2,0,P|248:276|220:272,1,80
87,187,99618,2,0,P|139:167|167:170,1,80,0|0,1:0|0:0,0:0:0:0:
163,325,99886,1,0,0:0:0:0:
159,328,99975,2,0,P|139:276|143:248,1,80
228,115,100332,2,0,P|248:167|244:195,1,80,0|0,1:0|1:0,0:0:0:0:
155,68,100689,6,0,P|221:28|292:60,1,160,4|2,0:0|1:2,0:0:0:0:
332,132,101225,1,0,0:0:0:0:
336,132,101314,1,0,0:0:0:0:
340,132,101404,2,0,B|364:116|376:88|376:88|416:184,1,160,0|2,0:0|0:0,0:0:0:0:
512,248,101939,2,0,P|488:236|456:232,1,40,0|0,1:0|0:0,0:0:0:0:
368,244,102118,2,0,B|308:264|300:320|300:320|328:317|346:293,1,160,0|2,0:0|1:2,0:0:0:0:
376,164,102654,1,0,0:0:0:0:
424,300,102832,2,0,P|404:348|356:372,1,80
240,252,103189,2,0,P|188:232|164:236,1,80,2|0,1:0|0:0,0:0:0:0:
256,348,103547,6,0,P|320:304|320:204,1,160,4|0,0:0|1:0,0:0:0:0:
144,332,104082,1,0,3:0:0:0:
144,332,104172,1,0,3:0:0:0:
144,332,104261,2,0,P|80:288|80:188,1,160,4|0,1:0|1:0,0:0:0:0:
124,72,104797,1,0,1:0:0:0:
165,235,104975,5,4,0:0:0:0:
292,164,105154,1,0,0:0:0:0:
124,117,105332,5,4,0:0:0:0:
224,295,105511,1,0,0:0:0:0:
287,70,105689,5,4,0:0:0:0:
59,198,105868,1,0,1:0:0:0:
339,277,106047,5,4,1:2:0:0:
183,0,106225,1,0,1:0:0:0:
184,208,106404,6,0,P|214:247|259:267,1,100
488,176,106761,1,0,1:0:0:0:
292,352,106939,1,0,0:0:0:0:
463,252,107118,2,0,P|445:287|396:320,1,100
248,112,107475,1,0,1:0:0:0:
372,224,107654,1,0,0:0:0:0:
199,319,107832,6,0,P|205:280|244:232,1,100
288,368,108189,1,0,1:0:0:0:
152,176,108368,1,0,0:0:0:0:
104,384,108547,2,0,P|165:343|178:272,1,150
89,297,108904,6,0,B|78:349|103:383|103:383|153:375|189:329|178:272,1,240,2|0,1:0|0:0,0:0:0:0:
58,213,109261,6,0,P|19:243|0:294,1,100
32,124,109618,1,0,1:0:0:0:
89,297,109797,1,0,0:0:0:0:
216,168,109975,2,0,P|261:149|311:154,1,100
288,292,110332,1,0,1:0:0:0:
332,40,110511,1,0,0:0:0:0:
252,208,110689,5,0,0:0:0:0:
468,260,110868,1,0,0:0:0:0:
276,248,111047,1,0,1:0:0:0:
495,224,111225,2,0,L|443:241,1,50,0|0,3:0|3:0,0:0:0:0:
288,292,111404,1,0,1:0:0:0:
376,120,111582,5,0,1:0:0:0:
360,328,111761,1,0,1:0:0:0:
300,64,111939,1,0,0:0:0:0:
288,292,112118,6,0,P|244:332|204:340,1,100,4|0,0:0|0:0,0:0:0:0:
56,248,112475,1,0,1:0:0:0:
136,384,112654,1,0,0:0:0:0:
237,211,112832,1,2,0:0:0:0:
207,170,112922,1,2,0:0:0:0:
160,186,113011,1,2,0:0:0:0:
159,236,113100,1,2,0:0:0:0:
207,251,113189,2,0,L|237:211,1,50,2|0,1:2|0:0,0:0:0:0:
288,140,113368,1,0,0:0:0:0:
304,308,113547,6,0,P|332:364|364:384,1,100,4|0,0:0|0:0,0:0:0:0:
512,276,113904,1,0,1:0:0:0:
388,251,114082,2,0,P|387:276|396:300,1,50,0|0,3:0|3:0,0:0:0:0:
512,276,114261,2,0,P|515:213|498:180,1,100
288,128,114618,2,0,P|284:190|301:223,1,100,0|0,1:0|0:0,0:0:0:0:
455,56,114975,6,0,B|430:86|432:128|432:128|410:160|372:163,1,150,4|0,0:0|0:0,0:0:0:0:
288,128,115332,1,0,1:0:0:0:
420,244,115511,1,0,0:0:0:0:
352,68,115689,6,0,P|256:44|200:116,1,200,4|0,0:0|1:0,0:0:0:0:
192,276,116225,1,0,0:0:0:0:
288,128,116404,1,0,1:0:0:0:
124,312,116582,1,0,0:0:0:0:
281,231,116761,1,0,1:0:0:0:
46,308,116939,1,0,0:0:0:0:
223,316,117118,1,0,1:0:0:0:
142,159,117297,1,0,1:0:0:0:
132,368,117475,1,0,0:0:0:0:
220,192,117654,6,0,P|224:145|192:87,1,80,0|4,1:0|0:0,0:0:0:0:
304,248,118011,1,0,0:0:0:0:
304,248,118189,1,0,0:0:0:0:
440,64,118547,5,0,1:0:0:0:
340,264,118904,5,0,0:0:0:0:
380,192,119082,2,0,P|416:232|424:260,1,80,0|0,1:0|0:0,0:0:0:0:
296,196,119439,1,0,0:0:0:0:
296,196,119618,1,0,0:0:0:0:
440,64,119975,5,0,1:0:0:0:
256,256,120332,1,0,0:0:0:0:
224,168,120511,2,0,L|168:224,1,80,0|0,1:0|0:0,0:0:0:0:
308,192,120868,1,0,0:0:0:0:
308,192,121046,1,0,0:0:0:0:
440,64,121404,5,0,1:0:0:0:
148,84,121761,5,0,0:0:0:0:
224,99,121939,2,0,P|263:95|296:72,1,80,0|0,1:0|0:0,0:0:0:0:
232,16,122297,1,0,0:0:0:0:
232,16,122475,1,0,0:0:0:0:
440,64,122832,5,0,1:0:0:0:
336,40,123100,5,0,1:0:0:0:
368,143,123368,6,0,P|368:176|344:220,1,80,0|0,1:0|0:0,0:0:0:0:
276,260,123725,1,0,0:0:0:0:
276,260,123904,1,0,0:0:0:0:
440,64,124261,5,0,1:0:0:0:
384,316,124618,1,0,0:0:0:0:
376,232,124797,2,0,P|336:180|292:168,1,80,0|0,1:0|0:0,0:0:0:0:
456,272,125154,1,0,0:0:0:0:
456,272,125332,1,0,0:0:0:0:
440,64,125689,5,0,1:0:0:0:
344,184,126047,1,0,1:0:0:0:
224,88,126226,1,0,0:0:0:0:
440,64,126404,5,4,0:0:0:0:
344,184,126582,1,0,1:0:0:0:
116,120,126761,5,0,0:0:0:0:
231,263,126939,1,0,1:0:0:0:
392,172,127118,5,0,0:0:0:0:
256,340,127296,1,0,1:0:0:0:
256,44,127475,5,0,1:0:0:0:
256,322,127653,1,4,1:0:0:0:
316,20,128011,5,0,1:0:0:0:
316,332,128189,1,4,0:0:0:0:
316,332,128547,6,0,P|248:295|220:221,1,160,4|0,1:0|1:0,0:0:0:0:
237,151,128814,5,0,1:0:0:0:
301,182,128903,5,0,1:0:0:0:
256,239,128992,5,0,1:0:0:0:
212,182,129082,5,0,1:0:0:0:
277,151,129171,5,0,1:0:0:0:
293,221,129261,6,0,P|233:268|188:269,1,100,4|0,1:2|0:0,0:0:0:0:
12,288,129618,2,0,L|112:328,1,100,0|0,1:0|0:0,0:0:0:0:
343,302,129975,2,0,P|328:254|292:220,1,100
188,360,130332,1,0,1:0:0:0:
212,152,130511,6,0,L|206:205,1,50,0|0,3:0|3:0,0:0:0:0:
188,360,130689,1,0,0:0:0:0:
272,100,130868,5,0,0:0:0:0:
248,308,131047,1,0,1:0:0:0:
332,48,131225,6,0,L|326:101,1,50,0|0,3:0|3:0,0:0:0:0:
308,256,131404,1,0,0:0:0:0:
224,48,131582,1,0,1:0:0:0:
432,72,131761,1,0,1:0:0:0:
92,304,131939,6,0,P|168:276|200:168,1,200,4|0,0:0|0:0,0:0:0:0:
256,243,132475,2,0,P|241:196|200:169,1,100,0|0,1:0|0:0,0:0:0:0:
240,328,132832,1,0,0:0:0:0:
176,60,133011,1,0,1:0:0:0:
96,196,133189,1,0,1:0:0:0:
352,184,133368,6,0,B|528:180|528:180|456:240,1,240,4|0,1:0|0:0,0:0:0:0:
485,191,133725,1,0,1:0:0:0:
491,162,133814,1,0,1:0:0:0:
498,133,133903,1,0,1:0:0:0:
504,103,133993,1,0,1:0:0:0:
511,74,134082,1,0,1:0:0:0:
434,302,134261,5,4,0:0:0:0:
352,184,134440,1,0,1:0:0:0:
211,159,134618,1,0,1:0:0:0:
93,241,134797,1,0,0:0:0:0:
352,184,134975,6,0,P|364:128|348:88,1,100,4|0,0:0|0:0,0:0:0:0:
276,224,135332,2,0,P|318:262|361:268,1,100,0|0,1:0|0:0,0:0:0:0:
432,33,135689,2,0,L|349:89,1,100
120,236,136047,1,0,1:0:0:0:
276,136,136225,6,0,L|211:177,1,50,0|0,3:0|3:0,0:0:0:0:
120,236,136404,1,0,0:0:0:0:
160,48,136582,5,0,0:0:0:0:
280,235,136761,1,0,1:0:0:0:
300,20,136939,5,0,0:0:0:0:
81,159,137118,1,0,0:0:0:0:
228,262,137297,6,0,L|173:287,1,60.0000022888184,0|0,1:0|0:0,0:0:0:0:
67,337,137475,2,0,L|72:278,1,60.0000022888184,0|0,1:0|0:0,0:0:0:0:
80,159,137654,2,0,L|159:215,1,60.0000022888184,0|0,3:0|3:0,0:0:0:0:
328,336,137832,5,4,1:0:0:0:
456,68,138011,1,2,0:0:0:0:
200,267,138189,1,0,1:0:0:0:
404,181,138368,6,0,L|295:196,1,60.0000022888184,2|0,0:0|0:0,0:0:0:0:
83,225,138546,1,0,1:0:0:0:
302,254,138725,6,0,L|222:221,1,60.0000022888184,2|0,0:0|0:0,0:0:0:0:
2,130,138903,1,0,1:0:0:0:
177,263,139082,6,0,P|177:198|296:172,1,200,4|0,0:0|0:0,0:0:0:0:
437,331,139618,6,0,P|400:298|384:251,1,100,0|0,1:0|0:0,0:0:0:0:
460,56,139975,5,2,3:2:0:0:
465,130,140064,1,0,3:2:0:0:
438,199,140153,1,2,3:2:0:0:
385,252,140242,1,2,3:2:0:0:
315,277,140332,1,2,1:2:0:0:
241,270,140421,1,2,1:2:0:0:
177,233,140510,1,2,1:2:0:0:
133,173,140599,1,2,1:2:0:0:
119,100,140689,6,0,P|120:48|140:4,1,100,4|0,0:0|0:0,0:0:0:0:
140,272,141047,2,0,L|96:368,1,100,0|0,1:0|0:0,0:0:0:0:
204,184,141404,2,0,P|240:232|244:288,1,100
98,362,141761,1,0,1:0:0:0:
372,221,141939,6,0,L|314:233,1,50,0|0,3:0|3:0,0:0:0:0:
140,272,142118,1,0,0:0:0:0:
452,248,142297,5,0,0:0:0:0:
224,175,142476,1,0,1:0:0:0:
506,309,142654,6,0,L|465:265,1,50,0|0,3:0|3:0,0:0:0:0:
345,132,142833,1,0,0:0:0:0:
368,328,143011,1,0,1:0:0:0:
500,84,143189,1,0,1:0:0:0:
368,328,143368,6,0,P|304:364|200:308,1,200,4|0,1:0|0:0,0:0:0:0:
188,124,143904,2,0,L|224:224,1,100,0|0,1:0|0:0,0:0:0:0:
40,364,144261,1,0,0:0:0:0:
290,266,144439,1,0,1:0:0:0:
136,52,144618,1,0,1:0:0:0:
112,304,144797,6,0,B|119:338|147:358|147:358|175:306|159:234|113:202,1,240,4|0,1:0|0:0,0:0:0:0:
92,192,145154,1,0,1:0:0:0:
69,185,145243,1,0,1:0:0:0:
45,183,145332,1,0,1:0:0:0:
21,184,145422,1,0,1:0:0:0:
0,190,145511,1,0,1:0:0:0:
264,308,145689,5,4,0:0:0:0:
379,177,145868,1,0,1:0:0:0:
323,12,146046,1,0,1:0:0:0:
208,143,146225,1,0,0:0:0:0:
351,259,146404,6,0,P|399:259|447:227,1,100,4|0,0:0|0:0,0:0:0:0:
488,47,146761,2,0,P|441:63|408:100,1,100,0|0,1:0|0:0,0:0:0:0:
416,336,147118,2,0,L|352:260,1,100
192,112,147475,1,0,1:0:0:0:
252,316,147654,6,0,L|237:265,1,50,0|0,3:0|3:0,0:0:0:0:
192,112,147832,1,0,0:0:0:0:
173,324,148011,5,0,0:0:0:0:
296,100,148189,1,0,1:0:0:0:
266,363,148368,6,0,L|252:316,1,50,0|0,3:0|3:0,0:0:0:0:
172,44,148547,1,0,1:0:0:0:
49,268,148725,1,0,0:0:0:0:
367,87,148904,5,0,1:0:0:0:
422,135,148993,1,0,1:0:0:0:
419,207,149082,1,0,1:0:0:0:
362,251,149171,1,0,1:0:0:0:
291,236,149261,1,4,0:0:0:0:
512,57,149439,5,2,0:0:0:0:
345,170,149618,1,0,1:0:0:0:
186,46,149797,5,2,0:0:0:0:
378,151,149975,1,0,1:0:0:0:
349,354,150154,5,2,0:0:0:0:
345,133,150333,1,0,1:0:0:0:
247,332,150511,5,2,0:0:0:0:
345,133,150689,6,0,P|305:126|268:138,1,80,4|0,1:2|0:0,0:0:0:0:
0,342,150867,2,0,P|13:304|43:278,1,80,0|0,1:0|0:0,0:0:0:0:
280,80,151046,6,0,P|242:93|215:122,1,80,4|0,0:0|0:0,0:0:0:0:
0,264,151225,2,0,P|17:238|56:230,1,80,0|0,1:0|0:0,0:0:0:0:
247,332,151403,5,4,0:0:0:0:
197,257,151492,1,0,1:0:0:0:
147,182,151581,1,0,1:0:0:0:
97,107,151671,1,0,1:0:0:0:
47,32,151760,1,0,1:0:0:0:
247,332,151939,6,0,L|128:156,1,180.000006866455,4|0,0:0|0:0,0:0:0:0:
146,182,152296,1,0,1:0:0:0:
158,383,152475,5,0,1:0:0:0:
146,182,152654,5,0,1:0:0:0:
320,353,152833,5,0,1:0:0:0:
143,187,153011,5,0,1:0:0:0:
404,225,153189,5,0,1:0:0:0:
141,192,153368,5,0,1:0:0:0:
420,64,153547,5,4,1:0:0:0:
0,80,159261,5,4,0:0:0:0:
80,187,159439,2,0,L|112:231,2,50,0|0|0,0:0|0:0|1:0,0:0:0:0:
224,212,159797,2,0,L|277:220,2,50
342,127,160154,2,0,L|386:94,2,50,0|0|0,0:0|0:0|1:0,0:0:0:0:
248,68,160511,6,0,L|204:100,2,50
224,212,160869,2,0,L|215:265,2,50,0|0|0,0:0|0:0|1:0,0:0:0:0:
309,330,161226,2,0,L|341:374,2,50
452,353,161582,2,0,L|505:361,2,50,0|0|0,0:0|0:0|1:0,0:0:0:0:
309,330,161939,1,0,0:0:0:0:
432,260,162118,5,0,0:0:0:0:
224,240,162297,1,0,0:0:0:0:
492,304,162475,5,0,1:0:0:0:
321,182,162654,1,0,0:0:0:0:
296,340,162832,5,0,0:0:0:0:
417,169,163011,1,0,1:0:0:0:
227,369,163189,5,0,0:0:0:0:
419,282,163368,2,0,L|494:248,2,80,2|2|0,1:2|0:0|0:0,0:0:0:0:
419,282,164439,6,0,P|407:305|391:324,1,50,0|0,1:0|0:0,0:0:0:0:
424,132,164618,6,0,P|433:160|436:189,1,60.0000022888184,0|0,1:0|0:0,0:0:0:0:
408,104,164797,5,0,1:0:0:0:
384,80,164886,1,0,1:0:0:0:
356,68,164975,6,0,P|304:56|256:68,1,100,4|0,1:0|1:0,0:0:0:0:
145,287,165332,2,0,P|193:275|232:244,1,100,0|0,0:0|1:0,0:0:0:0:
80,72,165689,2,0,L|131:157,1,100,0|0,0:0|1:0,0:0:0:0:
252,352,166047,1,0,0:0:0:0:
308,184,166225,1,0,1:0:0:0:
145,287,166404,5,0,0:0:0:0:
352,340,166582,1,0,1:0:0:0:
308,184,166761,1,0,0:0:0:0:
252,352,166939,1,0,1:0:0:0:
456,216,167118,5,0,0:0:0:0:
444,224,167207,1,0,0:0:0:0:
432,232,167297,1,0,1:0:0:0:
408,112,167475,1,0,0:0:0:0:
401,124,167564,1,0,0:0:0:0:
395,137,167654,1,0,1:0:0:0:
320,40,167832,5,4,0:0:0:0:
296,152,168011,1,0,0:0:0:0:
295,165,168100,1,0,0:0:0:0:
297,180,168189,2,0,P|301:211|313:233,3,50
360,288,168547,5,0,0:0:0:0:
360,104,168725,1,0,1:0:0:0:
349,97,168814,1,0,0:0:0:0:
335,91,168903,2,0,P|305:79|279:78,3,50,0|0|0|0,0:0|0:0|1:0|0:0,0:0:0:0:
208,72,169261,5,4,0:0:0:0:
183,76,169350,1,0,0:0:0:0:
160,85,169439,1,0,1:0:0:0:
140,100,169528,1,0,0:0:0:0:
92,48,169618,5,0,0:0:0:0:
74,72,169707,1,0,0:0:0:0:
63,99,169796,1,0,1:0:0:0:
58,129,169885,1,0,0:0:0:0:
120,172,169975,5,0,0:0:0:0:
124,206,170064,1,0,0:0:0:0:
138,239,170153,1,0,1:0:0:0:
159,269,170242,1,0,0:0:0:0:
236,260,170332,5,0,0:0:0:0:
270,285,170421,1,0,0:0:0:0:
308,301,170510,1,0,1:0:0:0:
350,307,170599,1,0,0:0:0:0:
424,296,170689,6,0,P|468:272|500:232,1,100,4|0,0:0|0:0,0:0:0:0:
412,20,171047,2,0,P|404:64|416:120,1,100,0|0,1:0|0:0,0:0:0:0:
499,233,171404,2,0,L|367:189,1,100,0|0,0:0|1:0,0:0:0:0:
220,176,171761,2,0,L|314:207,1,100,0|0,0:0|1:0,0:0:0:0:
368,288,172118,5,0,0:0:0:0:
356,124,172297,1,0,1:0:0:0:
228,275,172475,5,0,0:0:0:0:
457,258,172654,2,0,L|530:252,2,50
161,240,173011,2,0,P|161:308|197:344,1,100
132,158,173368,1,0,1:0:0:0:
276,280,173547,5,0,0:0:0:0:
68,76,173725,2,0,L|32:40,2,50,0|0|0,1:0|0:0|0:0,0:0:0:0:
176,184,174082,2,0,P|180:248|156:288,1,100,0|0,1:0|0:0,0:0:0:0:
175,184,174439,2,0,L|259:128,1,100,0|0,1:0|0:0,0:0:0:0:
348,72,174797,1,0,1:0:0:0:
85,126,174975,5,0,0:0:0:0:
238,316,175154,1,0,1:0:0:0:
85,126,175332,5,0,0:0:0:0:
161,221,175511,1,0,1:0:0:0:
177,76,175689,5,0,0:0:0:0:
43,183,175868,1,0,1:0:0:0:
237,203,176047,5,0,0:0:0:0:
100,32,176225,1,0,1:0:0:0:
74,275,176404,5,0,0:0:0:0:
298,175,176582,2,0,P|306:81|232:149,1,240,4|0,0:0|0:0,0:0:0:0:
177,358,176939,5,0,0:0:0:0:
320,159,177118,2,0,P|280:73|250:169,1,240,4|0,0:0|0:0,0:0:0:0:
306,379,177475,5,0,0:0:0:0:
331,135,177653,2,0,P|254:80|276:178,1,240,4|0,0:0|0:0,0:0:0:0:
428,332,178011,5,0,0:0:0:0:
328,108,178189,2,0,P|234:99|302:173,1,240,4|0,0:0|0:0,0:0:0:0:
510,230,178547,6,0,L|216:288,2,240,4|4|0,0:0|0:0|0:0,0:0:0:0:
112,308,179261,1,4,0:1:0:0:
136,220,184439,5,0,0:0:0:0:
160,211,184528,1,0,0:0:0:0:
176,190,184617,1,2,0:0:0:0:
179,164,184706,1,2,0:0:0:0:
166,141,184796,1,2,0:0:0:0:
143,129,184885,1,2,0:0:0:0:
116,131,184974,5,0,0:0:0:0:
220,64,185154,2,0,L|256:40,2,40,0|0|0,0:0|0:0|3:0,0:0:0:0:
256,160,185511,2,0,L|298:168,2,40,0|0|0,0:0|0:0|3:0,0:0:0:0:
213,253,185868,2,0,L|237:289,2,40,0|0|0,0:0|0:0|1:0,0:0:0:0:
160,168,186225,6,0,L|137:134,2,40,0|0|0,0:0|0:0|3:0,0:0:0:0:
117,261,186582,2,0,L|77:253,2,40,0|0|0,0:0|0:0|1:0,0:0:0:0:
153,357,186939,2,0,L|119:379,2,40,0|0|0,0:0|0:0|1:0,0:0:0:0:
373,202,187297,5,0,1:0:0:0:
264,280,187475,1,0,1:0:0:0:
272,136,187654,1,0,0:0:0:0:
332,368,187832,5,4,0:0:0:0:
272,136,188011,1,0,0:0:0:0:
216,240,188189,1,0,1:0:0:0:
336,37,188368,5,4,0:0:0:0:
224,67,188547,1,0,1:0:0:0:
456,6,188726,1,0,0:0:0:0:
364,108,188904,1,0,1:0:0:0:
144,24,189082,6,0,P|88:24|24:124,1,150,4|0,0:0|0:0,0:0:0:0:
16,164,189439,1,0,0:0:0:0:
144,24,189618,1,0,1:0:0:0:
47,239,189797,6,0,L|92:264,1,50,0|0,3:0|3:0,0:0:0:0:
164,300,189975,1,0,1:0:0:0:
144,24,190154,1,4,0:0:0:0:
280,228,190689,6,4,P|324:252|376:248,1,100,4|0,0:0|0:0,0:0:0:0:
220,164,191047,2,0,P|196:208|200:260,1,100,0|0,1:0|0:0,0:0:0:0:
439,137,191404,2,0,L|344:168,1,100
400,328,191761,5,0,1:0:0:0:
316,84,191939,2,0,L|296:24,2,50,0|0|0,3:0|3:0|3:0,0:0:0:0:
280,288,192296,5,0,0:0:0:0:
393,56,192475,1,0,1:0:0:0:
249,173,192654,6,0,P|234:201|232:225,1,50,0|0,3:0|3:0,0:0:0:0:
292,384,192832,1,0,3:0:0:0:
249,173,193011,1,0,1:0:0:0:
90,315,193189,1,0,1:0:0:0:
291,168,193368,6,0,B|287:114|248:78|248:78|230:130|249:173,1,200,4|0,0:0|0:0,0:0:0:0:
368,224,193904,2,0,P|384:164|376:124,1,100,0|0,1:0|0:0,0:0:0:0:
300,276,194261,1,0,0:0:0:0:
340,52,194439,1,0,1:0:0:0:
452,308,194618,1,0,1:0:0:0:
212,184,194796,6,0,B|146:158|68:143|13:207|48:270|102:253|88:211,1,240,4|0,1:0|0:0,0:0:0:0:
72,199,195154,1,0,1:0:0:0:
44,191,195243,1,0,1:0:0:0:
16,202,195332,1,0,1:0:0:0:
0,226,195422,1,0,1:0:0:0:
3,256,195511,1,0,1:0:0:0:
132,72,195689,5,4,0:0:0:0:
172,264,195868,1,0,1:0:0:0:
359,326,196046,1,0,1:0:0:0:
319,134,196225,1,0,0:0:0:0:
144,352,196404,6,0,P|193:351|240:324,1,100,4|0,0:0|0:0,0:0:0:0:
80,288,196761,2,0,P|55:331|56:385,1,100,0|0,1:0|0:0,0:0:0:0:
288,252,197118,2,0,P|287:202|259:156,1,100
144,352,197475,1,0,1:0:0:0:
263,159,197654,2,0,P|284:192|288:248,1,50,0|0,3:0|3:0,0:0:0:0:
300,328,197832,5,0,0:0:0:0:
184,112,198011,1,0,0:0:0:0:
436,208,198189,1,0,1:0:0:0:
212,271,198368,6,0,P|206:247|207:222,1,50,0|0,3:0|3:0,0:0:0:0:
244,44,198546,1,0,0:0:0:0:
104,304,198725,1,0,1:0:0:0:
399,149,198904,5,0,1:0:0:0:
355,88,198994,1,0,3:0:0:0:
282,111,199083,1,0,3:0:0:0:
283,187,199172,1,0,3:0:0:0:
354,210,199261,5,4,0:0:0:0:
184,68,199439,1,2,0:0:0:0:
288,288,199618,1,0,1:0:0:0:
283,33,199796,6,0,L|283:129,1,80,2|0,0:0|0:0,0:0:0:0:
288,369,199975,1,0,1:0:0:0:
152,164,200154,6,0,L|218:202,1,60.0000022888184,2|0,0:0|0:0,0:0:0:0:
387,294,200333,1,0,1:0:0:0:
184,68,200511,5,0,0:0:0:0:
400,180,200689,6,0,P|383:205|357:219,1,60.0000022888184,4|0,0:0|0:0,0:0:0:0:
185,313,200868,2,0,P|215:308|238:290,1,60.0000022888184
376,126,201046,6,0,P|374:156|358:181,1,60.0000022888184,4|0,0:0|0:0,0:0:0:0:
148,270,201224,2,0,P|176:281|205:276,1,60.0000022888184
413,51,201404,6,0,P|373:44|336:56,1,80,4|0,1:2|0:0,0:0:0:0:
68,260,201582,2,0,P|81:222|111:196,1,80,0|0,1:0|0:0,0:0:0:0:
351,0,201761,6,0,P|313:13|286:42,1,80,4|0,0:0|0:0,0:0:0:0:
54,182,201940,2,0,P|85:156|124:148,1,80,0|0,1:0|0:0,0:0:0:0:
412,220,202118,6,0,P|364:300|372:208,1,240,4|0,0:0|0:0,0:0:0:0:
504,128,202475,2,0,P|486:145|466:159,1,50,0|0,1:0|0:0,0:0:0:0:
268,200,202654,1,0,0:0:0:0:
400,16,202832,2,0,P|404:65|384:112,1,100
78,201,203189,5,0,1:0:0:0:
368,224,203368,2,0,L|299:242,1,50,0|0,3:0|3:0,0:0:0:0:
92,296,203546,5,0,0:0:0:0:
360,172,203725,1,0,0:0:0:0:
154,374,203904,5,0,1:0:0:0:
327,130,204082,2,0,L|268:171,1,50,0|0,3:0|3:0,0:0:0:0:
92,296,204261,1,0,0:0:0:0:
132,74,204439,1,0,1:0:0:0:
272,308,204618,1,0,1:0:0:0:
140,80,204796,6,0,P|92:112|174:112,1,210.000002002716,4|0,0:0|0:0,0:0:0:0:
140,80,205154,1,0,0:0:0:0:
128,256,205332,6,0,P|179:313|212:322,1,100,4|0,0:0|0:0,0:0:0:0:
140,80,205689,6,0,P|81:83|32:116,1,120.000004577637,0|0,1:0|0:0,0:0:0:0:
285,178,206046,6,0,P|317:116|304:48,1,140.000001335144,0|0,1:0|0:0,0:0:0:0:
199,319,206404,6,0,P|208:260|128:256,1,160,4|0,1:0|0:0,0:0:0:0:
225,332,206671,1,0,0:0:0:0:
254,339,206760,1,0,1:0:0:0:
284,339,206849,1,0,1:0:0:0:
313,331,206939,1,0,1:0:0:0:
304,144,207118,5,4,0:0:0:0:
442,377,207296,1,0,0:0:0:0:
448,340,207386,1,0,0:0:0:0:
436,305,207475,1,0,0:0:0:0:
407,281,207564,1,0,0:0:0:0:
371,275,207654,1,0,0:0:0:0:
367,310,207743,1,0,0:0:0:0:
348,336,207832,6,0,P|300:348|252:336,1,100,4|0,0:0|0:0,0:0:0:0:
398,251,208189,2,0,P|438:302|443:354,1,100,0|0,1:0|0:0,0:0:0:0:
168,384,208546,2,0,P|155:336|167:288,1,100
348,336,208904,1,0,1:0:0:0:
151,172,209082,2,0,L|208:176,1,50,0|0,3:0|3:0,0:0:0:0:
433,189,209261,5,0,0:0:0:0:
195,342,209439,1,0,0:0:0:0:
298,79,209618,5,0,1:0:0:0:
371,352,209797,2,0,L|348:268,1,50,0|0,3:0|3:0,0:0:0:0:
298,79,209975,5,0,0:0:0:0:
195,342,210154,1,0,1:0:0:0:
308,161,210332,5,0,0:0:0:0:
352,221,210421,1,0,0:0:0:0:
308,282,210511,1,0,0:0:0:0:
236,259,210600,1,0,0:0:0:0:
236,184,210689,1,4,1:0:0:0:
421,78,210868,5,2,0:0:0:0:
236,184,211048,1,0,1:0:0:0:
92,73,211225,5,2,0:0:0:0:
276,184,211404,1,0,1:0:0:0:
256,361,211582,5,2,0:0:0:0:
256,144,211761,1,0,1:0:0:0:
256,361,211939,5,0,0:0:0:0:
454,144,212118,6,0,P|415:135|377:146,1,80,4|0,1:2|0:0,0:0:0:0:
58,144,212297,2,0,P|96:135|134:146,1,80,0|0,0:2|0:0,0:0:0:0:
392,83,212475,6,0,P|354:94|325:122,1,80,4|0,0:0|0:0,0:0:0:0:
120,83,212654,2,0,P|157:94|186:122,1,80,0|0,1:0|0:0,0:0:0:0:
256,324,212833,5,0,1:0:0:0:
256,243,212922,1,0,1:0:0:0:
256,162,213011,1,0,1:0:0:0:
256,82,213101,1,0,1:0:0:0:
256,2,213189,1,0,1:0:0:0:
256,162,213368,6,0,B|283:95|382:119|401:198|354:269|283:257|283:296|257:323,1,320,4|0,0:0|1:0,0:0:0:0:
225,134,213904,1,0,1:0:0:0:
225,286,214082,1,0,1:0:0:0:
185,138,214261,1,0,1:0:0:0:
185,250,214439,1,0,1:0:0:0:
161,166,214618,1,0,1:0:0:0:
161,210,214797,1,0,1:0:0:0:
256,3,214975,5,4,0:0:0:0:
352,224,215154,5,0,0:0:0:0:
340,180,215243,1,0,0:0:0:0:
300,168,215332,1,0,1:0:0:0:
160,224,215511,5,0,0:0:0:0:
172,180,215600,1,0,0:0:0:0:
212,168,215689,1,0,1:0:0:0:
256,332,215868,6,0,B|288:280|224:244|256:188,1,150.000005722046,4|0,0:1|0:0,0:0:0:0:
256,187,216404,6,0,P|303:208|352:203,1,100,4|0,0:0|0:0,0:0:0:0:
435,26,216761,2,0,L|392:126,1,100,0|0,1:0|0:0,0:0:0:0:
430,297,217118,2,0,P|450:250|445:200,1,100,4|0,0:0|0:0,0:0:0:0:
249,87,217475,1,0,1:0:0:0:
350,203,217654,1,0,0:0:0:0:
321,5,217832,5,0,0:0:0:0:
186,168,218011,1,0,1:0:0:0:
350,203,218189,1,0,1:0:0:0:
249,87,218368,1,0,1:0:0:0:
302,284,218547,2,0,L|318:342,2,50
161,262,218904,2,0,L|131:314,2,50,0|0|0,0:0|0:0|1:0,0:0:0:0:
77,163,219261,6,0,L|-29:192,1,100,4|0,0:0|0:0,0:0:0:0:
169,176,219618,2,0,P|190:106|169:49,1,100,0|0,1:0|0:0,0:0:0:0:
101,249,219975,1,0,0:0:0:0:
101,249,220154,2,0,P|132:288|218:264,1,150,4|0,1:0|0:0,0:0:0:0:
169,176,220511,2,0,L|356:150,1,150,4|0,0:0|0:0,0:0:0:0:
396,144,220868,1,0,1:0:0:0:
295,239,221047,1,0,1:0:0:0:
431,70,221225,1,0,1:0:0:0:
390,269,221404,2,0,L|380:318,3,50,4|0|0|0,0:0|0:0|0:0|0:0,0:0:0:0:
416,232,221761,5,2,0:0:0:0:
390,196,221850,1,2,0:0:0:0:
347,210,221940,1,2,0:0:0:0:
347,255,222029,1,2,0:0:0:0:
390,269,222118,6,0,P|441:260|480:208,1,100,6|0,0:0|0:0,0:0:0:0:
273,236,222475,2,0,L|246:343,1,100,0|0,1:0|0:0,0:0:0:0:
358,140,222832,2,0,P|347:75|325:51,1,100
355,221,223189,1,0,1:0:0:0:
174,123,223368,1,0,0:0:0:0:
199,292,223547,5,0,0:0:0:0:
283,120,223725,1,0,1:0:0:0:
174,123,223904,1,0,1:0:0:0:
355,221,224083,1,0,1:0:0:0:
113,76,224261,2,0,L|71:48,2,50,0|0|0,0:0|0:0|1:0,0:0:0:0:
106,164,224618,2,0,L|57:174,2,50,0|0|0,0:0|0:0|1:0,0:0:0:0:
265,163,224975,6,0,P|223:248|128:250,1,200,4|0,0:0|0:0,0:0:0:0:
113,76,225511,1,0,1:0:0:0:
292,178,225690,6,0,P|243:281|129:283,1,240.000009155274,4|0,0:0|0:0,0:0:0:0:
348,66,226225,5,0,1:0:0:0:
348,66,226315,1,0,1:0:0:0:
348,66,226404,2,0,P|335:104|305:130,1,80,4|0,0:0|0:0,0:0:0:0:
3,275,226583,2,0,P|43:282|79:270,1,80,0|0,1:0|0:0,0:0:0:0:
362,144,226761,6,0,P|331:170|292:178,1,80,4|0,0:0|0:0,0:0:0:0:
65,326,226940,2,0,P|103:313|130:284,1,80,0|0,1:0|0:0,0:0:0:0:
100,76,227118,5,4,1:0:0:0:
151,151,227207,1,0,1:0:0:0:
201,226,227296,1,0,1:2:0:0:
251,301,227386,1,0,1:0:0:0:
301,376,227475,1,0,1:0:0:0:
341,295,227564,1,0,1:0:0:0:
381,214,227654,1,0,1:0:0:0:
421,133,227743,1,0,1:0:0:0:
461,53,227832,5,4,0:0:0:0:
461,53,228189,1,0,0:0:0:0:
461,53,228547,1,0,0:0:0:0:
461,53,228904,1,0,0:0:0:0:
461,53,229261,1,0,0:0:0:0:
461,53,229618,1,0,0:0:0:0:
461,53,229975,1,0,0:0:0:0:
461,53,230332,1,0,1:0:0:0:
332,116,230689,5,0,0:0:0:0:
332,116,231046,1,0,0:0:0:0:
332,116,231403,1,0,0:0:0:0:
332,116,231760,1,0,0:0:0:0:
332,116,232118,1,0,0:0:0:0:
332,116,232475,1,0,0:0:0:0:
332,116,232832,1,0,0:0:0:0:
332,116,233189,1,0,1:0:0:0:
461,53,233368,1,0,1:0:0:0:
451,196,233547,5,4,0:0:0:0:
416,120,233725,1,0,0:0:0:0:
344,270,233904,1,2,0:0:0:0:
372,191,234082,1,0,0:0:0:0:
215,246,234261,1,0,0:0:0:0:
290,210,234439,1,2,0:0:0:0:
140,138,234618,1,0,0:0:0:0:
219,166,234797,6,0,P|217:103|121:57,1,160,2|0,0:0|0:0,0:0:0:0:
0,108,235332,1,2,0:0:0:0:
140,138,235511,1,0,0:0:0:0:
20,216,235689,1,2,0:0:0:0:
140,138,235868,1,0,0:0:0:0:
110,278,236047,1,2,0:0:0:0:
140,138,236226,1,0,0:0:0:0:
218,259,236404,5,4,0:1:0:0:
218,259,236582,1,0,0:0:0:0:
296,200,236761,2,0,L|296:112,1,80,2|0,0:0|0:0,0:0:0:0:
384,144,237118,2,0,L|384:56,1,80
384,240,237475,1,2,0:0:0:0:
216,76,237654,5,4,1:0:0:0:
176,56,238011,5,4,1:0:0:0:
131,58,238368,5,4,1:0:0:0:
93,82,238725,5,0,1:0:0:0:
73,122,239082,5,0,1:0:0:0:
75,166,239172,1,0,1:0:0:0:
99,203,239261,1,4,1:0:0:0:
256,192,239350,12,0,244261,0:0:0:0:
