osu file format v14

[General]
AudioFilename: audio.mp3
AudioLeadIn: 0
PreviewTime: 191526
Countdown: 0
SampleSet: Soft
StackLeniency: 0.2
Mode: 0
LetterboxInBreaks: 0
WidescreenStoryboard: 1

[Editor]
Bookmarks: 13026,25926,38726,51526,64326,77126,89926,115526,141126,153926,165126
DistanceSpacing: 1.8
BeatDivisor: 4
GridSize: 4
TimelineZoom: 1.399999

[Metadata]
Title:Tenkyuu no Shita no Kiseki
TitleUnicode:天球の下の奇蹟
Artist:Hana
ArtistUnicode:はな
Creator:Gust
Version:III.A Nice Derangement of Epitaphs
Source:サクラノ詩 -櫻の森の上を舞う-
Tags:sakura no uta - sakura no mori no ue o mau - metrowing makura 枕 eroge galgame natsume shizuku ending japanese video game
BeatmapID:2090130
BeatmapSetID:999367

[Difficulty]
HPDrainRate:6
CircleSize:4.2
OverallDifficulty:7
ApproachRate:9
SliderMultiplier:1.8
SliderTickRate:1

[Events]
//Background and Video events
0,0,"bgp.png",0,0
//Break Periods
2,117326,127726
//Storyboard Layer 0 (Background)
//Storyboard Layer 1 (Fail)
//Storyboard Layer 2 (Pass)
//Storyboard Layer 3 (Foreground)
//Storyboard Layer 4 (Overlay)
//Storyboard Sound Samples

[TimingPoints]
326,400,4,2,1,40,1,0
11526,-66.6666666666667,4,2,1,20,0,0
11926,-83.3333333333333,4,2,1,40,0,0
12026,-83.3333333333333,4,2,1,20,0,0
12826,-166.666666666667,4,2,1,20,0,0
12926,-166.666666666667,4,2,1,40,0,0
13126,-200,4,2,1,30,0,0
14726,-333.333333333333,4,2,1,30,0,0
15226,-200,4,2,1,30,0,0
17926,-333.333333333333,4,2,1,30,0,0
18726,-200,4,2,1,30,0,0
21126,-333.333333333333,4,2,1,30,0,0
21926,-200,4,2,1,30,0,0
23926,-83.3333333333333,4,2,1,35,0,0
24326,-83.3333333333333,4,2,1,20,0,0
24726,-83.3333333333333,4,2,1,20,0,0
25126,-125,4,2,1,20,0,0
25526,-200,4,2,1,20,0,0
25926,-66.6666666666667,4,2,0,50,0,0
26026,-66.6666666666667,4,2,1,50,0,0
26326,-125,4,2,1,50,0,0
27326,-125,4,2,0,25,0,0
27426,-125,4,2,1,50,0,0
30926,-125,4,2,0,25,0,0
31126,-125,4,2,1,50,0,0
31326,-125,4,2,0,30,0,0
31426,-125,4,2,1,50,0,0
33726,-125,4,2,0,25,0,0
33926,-125,4,2,1,50,0,0
36326,-125,4,2,1,50,0,0
37326,-125,4,2,0,30,0,0
37826,-125,4,2,1,50,0,0
38126,-125,4,2,1,30,0,0
38726,-125,4,2,0,50,0,0
63526,-83.3333333333333,4,2,0,50,0,0
63826,-100,4,2,0,50,0,0
64326,-133.333333333333,4,2,0,50,0,0
64726,-133.333333333333,4,2,2,60,0,0
65926,-200,4,2,2,60,0,0
66526,-133.333333333333,4,2,2,60,0,0
73926,-200,4,2,2,60,0,0
75526,-133.333333333333,4,2,2,60,0,0
77126,-111.111111111111,4,2,0,60,0,0
77526,-111.111111111111,4,2,2,60,0,0
86326,-166.666666666667,4,2,2,60,0,0
86726,-222.222222222222,4,2,2,60,0,0
89926,-83.3333333333333,4,2,3,70,0,1
102726,-66.6666666666667,4,2,3,70,0,1
103126,-83.3333333333333,4,2,3,70,0,1
103226,-83.3333333333333,4,2,3,70,0,1
108326,-100,4,2,3,70,0,1
109126,-83.3333333333333,4,2,3,70,0,1
115526,-100,4,2,0,50,0,0
128326,-125,4,2,0,40,0,0
141126,-133.333333333333,4,2,0,60,0,0
141326,-133.333333333333,4,2,2,60,0,0
153926,-133.333333333333,4,2,0,60,0,0
154226,-133.333333333333,4,2,2,60,0,0
157926,-200,4,2,2,60,0,0
158526,-133.333333333333,4,2,2,60,0,0
163526,-200,4,2,3,40,0,0
166726,-125,4,2,3,40,0,0
167126,-125,4,2,0,60,0,0
192326,-83.3333333333333,4,2,3,70,0,1
192726,-83.3333333333333,4,2,3,70,0,1
205126,-66.6666666666667,4,2,3,70,0,1
205526,-83.3333333333333,4,2,3,70,0,1
217826,-76.9230769230769,4,2,3,70,0,0
217926,-76.9230769230769,4,2,3,80,0,1
230726,-71.4285714285714,4,2,3,80,0,1
230727,-71.4285714285714,4,2,3,90,0,1
241926,-83.3333333333333,4,2,3,90,0,1
243526,-200,4,2,3,90,0,0
243926,-200,4,2,3,30,0,0
267526,-250,4,2,3,30,0,0
269126,-200,4,2,3,10,0,0

[Colours]
Combo1 : 128,255,255
Combo2 : 255,0,128
Combo3 : 255,172,214
Combo4 : 0,0,170

[HitObjects]
197,149,326,37,2,0:0:0:0:
197,149,526,1,0,0:0:0:0:
84,113,726,1,0,0:0:0:0:
84,113,926,1,2,0:0:0:0:
197,76,1126,5,2,0:0:0:0:
126,171,1326,1,0,0:0:0:0:
126,53,1526,1,0,0:0:0:0:
277,4,1726,5,2,0:0:0:0:
347,24,1926,21,2,0:0:0:0:
347,24,2126,1,0,0:0:0:0:
278,122,2326,1,0,0:0:0:0:
278,122,2526,1,2,0:0:0:0:
277,4,2726,5,2,0:0:0:0:
347,99,2926,1,0,0:0:0:0:
235,61,3126,1,2,0:0:0:0:
347,24,3326,1,0,0:0:0:0:
328,192,3526,37,2,0:0:0:0:
328,192,3726,1,0,0:0:0:0:
440,154,3926,1,0,0:0:0:0:
440,154,4126,1,2,0:0:0:0:
370,251,4326,5,2,0:0:0:0:
372,132,4526,1,0,0:0:0:0:
441,227,4726,1,0,0:0:0:0:
349,356,4926,5,2,0:0:0:0:
280,380,5126,21,2,0:0:0:0:
280,380,5326,1,0,0:0:0:0:
278,261,5526,1,0,0:0:0:0:
278,261,5726,1,2,0:0:0:0:
349,356,5926,5,2,0:0:0:0:
236,320,6126,1,0,0:0:0:0:
349,285,6326,1,2,0:0:0:0:
280,380,6526,1,0,0:0:0:0:
197,234,6726,37,2,0:0:0:0:
197,234,6926,1,0,0:0:0:0:
128,330,7126,1,0,0:0:0:0:
128,330,7326,1,2,0:0:0:0:
128,210,7526,5,2,0:0:0:0:
196,308,7726,1,0,0:0:0:0:
85,272,7926,1,0,0:0:0:0:
84,114,8126,5,2,0:0:0:0:
125,54,8326,21,2,0:0:0:0:
125,54,8526,1,0,0:0:0:0:
197,149,8726,1,0,0:0:0:0:
197,149,8926,1,2,0:0:0:0:
84,114,9126,5,2,0:0:0:0:
196,76,9326,1,0,0:0:0:0:
125,171,9526,1,2,0:0:0:0:
125,54,9726,1,0,0:0:0:0:
278,122,9926,37,2,0:0:0:0:
278,122,10126,1,0,0:0:0:0:
197,234,10326,1,0,0:0:0:0:
197,234,10526,1,2,0:0:0:0:
328,192,10726,5,2,0:0:0:0:
197,149,10926,1,0,0:0:0:0:
278,261,11126,1,0,0:0:0:0:
278,122,11326,1,2,0:0:0:0:
197,234,11526,6,0,P|125:275|125:191,1,202.500007724762,8|0,0:0|0:0,0:0:0:0:
136,154,11926,2,0,P|121:113|121:88,3,53.9999983520508,2|4|4|4,0:0|3:0|3:0|3:0,0:0:0:0:
208,67,12326,6,0,P|189:87|183:107,2,26.9999991760254,4|0|4,3:3|0:0|3:3,0:0:0:0:
208,24,12526,1,4,3:3:0:0:
250,11,12626,1,4,3:3:0:0:
275,46,12726,1,4,3:3:0:0:
250,81,12826,2,4,P|251:112|257:127,1,26.9999991760254,4|4,3:3|3:3,3:3:0:0:
316,132,13126,6,0,P|372:96|456:108,1,135,0|0,1:0|0:0,0:0:0:0:
476,179,13926,6,0,P|483:158|496:140,1,45,2|0,0:0|0:0,0:0:0:0:
384,220,14326,2,0,P|373:200|369:178,1,45,0|0,0:0|0:0,0:0:0:0:
345,313,14726,2,0,P|298:297|268:268,1,80.9999975280763,2|0,0:0|0:0,0:0:0:0:
428,294,15526,6,0,L|418:387,2,90,2|0|2,0:0|0:0|0:0,0:0:0:0:
459,68,16726,5,0,0:0:0:0:
459,68,16926,1,2,0:0:0:0:
496,139,17126,6,0,P|483:157|476:179,1,45,2|0,0:0|0:0,0:0:0:0:
369,178,17526,2,0,P|373:200|384:220,1,45,2|0,0:0|0:0,0:0:0:0:
274,276,17926,2,0,P|306:301|345:313,1,80.9999975280763,2|0,0:0|0:0,0:0:0:0:
192,192,18726,6,0,L|96:208,1,90,2|0,0:0|0:0,0:0:0:0:
103,206,19326,1,0,0:0:0:0:
102,44,19526,2,0,P|157:73|133:130,1,135,2|0,0:0|0:0,0:0:0:0:
256,88,20326,6,0,L|304:96,1,45,2|0,0:0|0:0,0:0:0:0:
408,40,20726,2,0,L|363:47,1,45,2|0,0:0|0:0,0:0:0:0:
391,202,21126,2,0,L|372:124,1,80.9999975280763,2|0,0:0|0:0,0:0:0:0:
447,248,21926,6,0,L|436:337,2,90,2|0|2,0:0|0:0|0:0,0:0:0:0:
473,22,23126,5,0,0:0:0:0:
473,22,23326,1,2,0:0:0:0:
391,32,23526,2,0,L|346:39,1,45,2|0,0:0|0:0,0:0:0:0:
229,16,23926,22,0,L|390:31,1,161.999995056153,8|0,0:0|0:0,0:0:0:0:
489,86,24326,2,0,L|435:96,3,53.9999983520508,0|4|4|4,3:0|2:3|2:3|2:3,0:0:0:0:
384,165,24726,6,0,P|361:148|357:139,2,26.9999991760254,4|0|4,2:3|0:0|2:3,0:0:0:0:
426,173,24926,1,4,2:3:0:0:
434,216,25026,1,4,2:3:0:0:
395,234,25126,1,4,2:3:0:0:
364,204,25226,1,4,2:3:0:0:
320,183,25326,1,4,2:3:0:0:
273,178,25426,1,4,2:3:0:0:
226,189,25526,2,0,P|193:211|171:242,1,67.5,4|0,2:3|0:0,0:0:0:0:
208,317,25926,6,0,B|247:270|225:188|225:188|193:204|175:232,1,202.500007724762,4|0,0:0|0:0,0:0:0:0:
175,231,26326,1,4,0:0:0:0:
376,120,26526,21,0,0:0:0:0:
452,185,26726,2,0,P|417:185|402:216,1,72,6|0,0:0|0:0,0:0:0:0:
394,21,27126,2,0,P|412:50|446:48,1,72,6|8,0:0|0:0,0:0:0:0:
281,153,27526,2,0,P|297:122|278:94,2,72,6|0|4,0:0|0:0|0:0,0:0:0:0:
376,120,28126,1,2,0:0:0:0:
136,24,28326,6,0,P|56:20|-16:76,1,144,6|4,0:0|0:0,0:0:0:0:
123,114,28926,1,2,0:0:0:0:
123,114,29126,2,0,L|195:107,1,72,6|0,0:0|0:0,0:0:0:0:
4,251,29526,5,4,0:0:0:0:
4,251,29926,2,0,L|150:272,1,144,6|4,0:0|0:0,0:0:0:0:
212,330,30526,1,0,0:0:0:0:
391,283,30726,5,6,0:0:0:0:
350,127,30926,1,8,0:0:0:0:
237,240,31126,1,4,0:0:0:0:
326,217,31326,5,8,0:0:0:0:
326,217,31426,1,0,0:0:0:0:
326,217,31526,2,0,L|410:230,1,72,6|0,0:0|0:0,0:0:0:0:
188,138,31926,2,0,L|272:128,1,72,6|0,0:0|0:0,0:0:0:0:
34,97,32326,2,0,L|113:66,1,72,6|0,0:0|0:0,0:0:0:0:
256,0,32726,5,4,0:0:0:0:
157,218,32926,1,0,0:0:0:0:
157,218,33026,1,0,0:0:0:0:
157,218,33126,2,0,L|73:231,1,72,6|0,0:0|0:0,0:0:0:0:
324,138,33526,2,0,L|239:128,1,72,6|8,0:0|0:0,0:0:0:0:
506,104,33926,2,0,L|426:73,1,72,6|0,0:0|0:0,0:0:0:0:
256,0,34326,5,4,0:0:0:0:
256,0,34726,2,0,L|277:84,1,72,6|0,0:0|0:0,0:0:0:0:
188,190,35126,2,0,L|208:121,1,72,6|0,0:0|0:0,0:0:0:0:
138,363,35526,2,0,L|104:214,1,144,6|4,0:0|0:0,0:0:0:0:
32,193,36126,1,2,0:0:0:0:
142,23,36326,6,0,P|213:30|272:69,1,144,6|6,0:0|0:0,0:0:0:0:
422,49,36926,2,0,L|351:60,1,72,2|4,0:0|0:0,0:0:0:0:
500,39,37326,5,8,0:0:0:0:
497,74,37426,1,0,0:0:0:0:
478,104,37526,1,0,0:0:0:0:
358,228,37726,1,8,0:0:0:0:
325,243,37826,1,0,0:0:0:0:
290,241,37926,1,4,0:0:0:0:
131,171,38126,1,4,0:3:0:0:
112,131,38226,1,4,0:3:0:0:
69,136,38326,1,4,0:3:0:0:
60,178,38426,1,4,0:3:0:0:
96,199,38526,1,4,0:3:0:0:
323,33,38726,21,4,0:0:0:0:
456,77,38926,1,0,0:0:0:0:
323,120,39126,1,2,0:0:0:0:
406,7,39326,1,0,0:0:0:0:
406,147,39526,1,2,0:0:0:0:
406,147,39926,5,2,0:0:0:0:
382,267,40126,2,0,L|389:231,1,36,2|0,0:0|0:0,0:0:0:0:
329,323,40326,38,0,P|361:340|397:339,1,72,10|0,0:0|0:0,0:0:0:0:
256,204,40726,2,0,L|256:288,1,72,0|2,0:0|0:0,0:0:0:0:
114,339,41126,2,0,P|150:340|182:323,1,72,2|0,0:0|0:0,0:0:0:0:
106,147,41526,5,2,0:0:0:0:
130,267,41726,2,0,L|123:231,1,36,0|0,0:0|0:0,0:0:0:0:
55,134,41926,37,2,0:0:0:0:
72,112,42026,1,0,0:0:0:0:
96,101,42126,1,0,0:0:0:0:
122,102,42226,1,0,0:0:0:0:
146,115,42326,1,0,0:0:0:0:
256,24,42526,5,2,0:0:0:0:
256,24,42626,1,0,0:0:0:0:
256,24,42726,2,0,L|246:104,2,72,10|0|0,0:0|0:0|0:0,0:0:0:0:
170,235,43326,38,0,L|163:199,1,36,2|0,0:0|0:0,0:0:0:0:
146,115,43526,1,2,0:0:0:0:
170,235,43726,2,0,L|204:246,1,36,8|0,0:0|0:0,0:0:0:0:
286,275,43926,1,2,0:0:0:0:
170,235,44126,2,0,L|142:259,1,36,2|0,0:0|0:0,0:0:0:0:
78,316,44326,1,10,0:0:0:0:
78,316,44526,1,2,0:0:0:0:
342,235,44726,5,2,0:0:0:0:
342,235,44926,2,0,L|369:259,1,36,8|0,0:0|0:0,0:0:0:0:
434,316,45126,1,2,0:0:0:0:
438,298,45226,1,0,0:0:0:0:
443,281,45326,1,0,0:0:0:0:
447,263,45426,1,0,0:0:0:0:
452,246,45526,1,0,0:0:0:0:
404,176,45726,1,2,0:0:0:0:
478,57,45926,1,2,0:0:0:0:
478,57,46326,37,0,0:0:0:0:
498,140,46526,1,2,0:0:0:0:
360,22,46726,5,2,0:0:0:0:
343,106,46926,1,0,0:0:0:0:
178,52,47126,1,0,0:0:0:0:
202,172,47326,2,0,L|195:136,1,36,2|0,0:0|0:0,0:0:0:0:
16,141,47526,37,2,0:0:0:0:
33,56,47726,1,0,0:0:0:0:
9,177,47926,2,0,L|16:141,1,36,0|0,0:0|0:0,0:0:0:0:
71,222,48126,2,0,L|64:258,1,36,2|0,0:0|0:0,0:0:0:0:
6,312,48326,5,2,0:0:0:0:
27,328,48426,1,0,0:0:0:0:
52,336,48526,1,0,0:0:0:0:
79,335,48626,1,0,0:0:0:0:
104,324,48726,1,0,0:0:0:0:
256,296,48926,37,2,0:0:0:0:
256,296,49026,1,0,0:0:0:0:
256,296,49126,2,0,L|327:305,2,72,10|0|2,0:0|0:0|0:0,0:0:0:0:
376,248,49727,1,0,0:0:0:0:
428,103,49926,6,0,P|409:56|370:25,1,72,2|8,0:0|0:0,0:0:0:0:
309,78,50226,1,0,0:0:0:0:
309,78,50326,2,0,P|328:125|367:156,1,72,0|10,0:0|0:0,0:0:0:0:
216,192,50626,37,0,0:0:0:0:
216,192,50726,2,0,L|167:188,3,36,2|0|4|4,0:0|0:0|0:3|0:3,0:0:0:0:
129,185,51126,1,6,0:3:0:0:
100,144,51226,1,4,0:3:0:0:
52,160,51326,1,4,0:3:0:0:
52,210,51426,1,0,0:0:0:0:
100,226,51526,1,6,0:0:0:0:
504,73,51926,6,0,L|407:83,1,72,0|2,0:0|0:0,0:0:0:0:
299,123,52326,1,2,0:0:0:0:
382,10,52526,1,0,0:0:0:0:
382,150,52726,1,0,0:0:0:0:
299,36,52926,1,10,0:0:0:0:
299,36,53026,1,0,0:0:0:0:
299,36,53126,38,0,P|247:47|222:77,1,72,2|0,0:0|0:0,0:0:0:0:
89,6,53526,2,0,P|124:16|149:42,1,72,0|10,0:0|0:0,0:0:0:0:
182,122,53826,1,0,0:0:0:0:
182,121,53926,2,0,P|178:157|158:186,2,72,2|0|0,0:0|0:0|0:0,0:0:0:0:
95,128,54526,1,10,0:0:0:0:
320,192,54726,6,0,P|323:227|343:256,2,72,2|0|0,0:0|0:0|0:0,0:0:0:0:
407,198,55326,1,10,0:0:0:0:
407,198,55426,1,0,0:0:0:0:
407,198,55526,1,2,0:0:0:0:
445,275,55726,1,0,0:0:0:0:
382,334,55926,1,0,0:0:0:0:
344,257,56126,1,10,0:0:0:0:
470,139,56326,37,2,0:0:0:0:
424,48,56526,1,0,0:0:0:0:
256,164,56726,1,8,0:0:0:0:
256,24,56926,1,2,0:0:0:0:
256,24,57026,1,0,0:0:0:0:
256,24,57126,1,2,0:0:0:0:
256,164,57326,1,0,0:0:0:0:
88,48,57526,1,10,0:0:0:0:
42,139,57726,1,0,0:0:0:0:
196,312,57926,5,2,0:0:0:0:
56,297,58126,1,0,0:0:0:0:
177,226,58326,1,8,0:0:0:0:
120,355,58526,1,2,0:0:0:0:
91,218,58726,1,2,0:0:0:0:
440,63,59126,37,8,0:0:0:0:
469,200,59326,1,2,0:0:0:0:
504,106,59526,5,2,0:0:0:0:
405,157,59726,1,8,0:0:0:0:
462,271,59926,2,0,L|468:199,1,72,0|2,0:0|0:0,0:0:0:0:
469,200,60226,1,0,0:0:0:0:
469,200,60326,1,2,0:0:0:0:
239,214,60526,37,8,0:0:0:0:
296,100,60726,2,0,L|302:172,1,72,2|0,0:0|0:0,0:0:0:0:
301,171,61026,1,0,0:0:0:0:
301,171,61126,1,2,0:0:0:0:
71,22,61326,5,8,0:0:0:0:
128,136,61526,2,0,L|134:64,1,72,0|2,0:0|0:0,0:0:0:0:
133,64,61826,1,0,0:0:0:0:
133,64,61926,1,2,0:0:0:0:
49,263,62126,37,8,0:0:0:0:
233,150,62326,1,0,0:0:0:0:
17,136,62526,1,2,0:0:0:0:
113,331,62726,5,10,0:0:0:0:
146,319,62826,1,0,0:0:0:0:
180,307,62926,1,0,0:0:0:0:
399,331,63126,1,10,0:0:0:0:
365,319,63226,1,0,0:0:0:0:
331,307,63326,1,2,0:0:0:0:
444,192,63526,37,8,0:0:0:0:
256,348,63726,1,10,0:0:0:0:
68,192,63926,1,8,0:0:0:0:
64,152,64026,1,8,0:0:0:0:
59,113,64126,1,8,0:0:0:0:
55,74,64226,1,0,0:0:0:0:
50,35,64326,1,4,0:0:0:0:
50,35,64726,5,4,0:0:0:0:
50,35,64926,1,0,0:0:0:0:
68,192,65126,2,0,L|59:111,1,67.5000025749208,6|0,0:0|0:0,0:0:0:0:
123,0,65526,2,0,L|130:67,1,67.5000025749208,6|8,0:0|0:0,0:0:0:0:
224,185,65926,2,0,L|213:95,1,90,6|4,0:0|0:0,0:0:0:0:
322,125,66526,5,0,0:0:0:0:
322,125,66626,1,0,0:0:0:0:
322,125,66726,2,0,P|362:146|398:146,1,67.5000025749208,6|0,0:0|0:0,0:0:0:0:
512,91,67126,2,0,P|491:117|462:133,1,67.5000025749208,6|0,0:0|0:0,0:0:0:0:
434,208,67426,1,0,0:0:0:0:
434,208,67526,2,0,L|446:249,4,33.7500012874604,14|0|0|0|4,0:0|0:0|0:0|0:0|0:0,0:0:0:0:
461,133,68126,5,0,0:0:0:0:
461,133,68226,1,0,0:0:0:0:
461,133,68326,2,0,P|490:117|512:91,1,67.5000025749208,6|0,0:0|0:0,0:0:0:0:
433,208,68726,2,0,P|457:231|489:243,1,67.5000025749208,6|0,0:0|0:0,0:0:0:0:
351,204,69126,2,0,P|337:234|337:268,1,67.5000025749208,6|8,0:0|0:0,0:0:0:0:
331,126,69526,2,0,P|298:121|266:131,1,67.5000025749208,4|8,0:0|0:0,0:0:0:0:
374,21,69826,1,8,0:0:0:0:
374,21,69926,6,0,P|392:49|398:81,1,67.5000025749208,6|8,0:0|0:0,0:0:0:0:
120,196,70326,2,0,P|125:162|143:134,2,67.5000025749208,6|8|6,0:0|0:0|0:0,0:0:0:0:
103,201,70826,1,0,0:0:0:0:
87,206,70926,1,0,0:0:0:0:
71,211,71026,1,0,0:0:0:0:
55,216,71126,1,6,0:0:0:0:
55,216,71526,5,6,0:0:0:0:
41,136,71726,1,0,0:0:0:0:
180,268,71926,1,6,0:0:0:0:
194,188,72126,1,8,0:0:0:0:
48,332,72326,5,6,0:0:0:0:
34,252,72526,1,0,0:0:0:0:
172,384,72726,1,4,0:0:0:0:
186,304,72926,1,0,0:0:0:0:
293,375,73126,6,0,L|226:384,1,67.5000025749208,6|0,0:0|0:0,0:0:0:0:
384,354,73526,2,0,L|318:345,1,67.5000025749208,6|0,0:0|0:0,0:0:0:0:
498,362,73826,1,0,0:0:0:0:
498,362,73926,2,0,L|413:330,2,90,14|4|6,0:0|0:0|0:0,0:0:0:0:
437,129,74926,5,0,0:0:0:0:
424,242,75126,1,6,0:0:0:0:
487,190,75326,1,0,0:0:0:0:
373,179,75526,6,0,L|283:195,1,67.5000025749208,6|8,0:0|0:0,0:0:0:0:
222,106,75826,1,0,0:0:0:0:
222,106,75926,2,0,L|288:117,1,67.5000025749208,4|8,0:0|0:0,0:0:0:0:
176,168,76226,5,8,0:0:0:0:
151,136,76326,1,4,0:2:0:0:
112,150,76426,1,4,0:2:0:0:
115,191,76526,1,4,0:2:0:0:
155,203,76626,1,4,0:2:0:0:
184,230,76726,1,4,0:2:0:0:
201,266,76826,1,4,0:2:0:0:
207,305,76926,2,0,P|193:357|190:363,1,33.7500012874604,4|4,0:2|0:2,0:0:0:0:
103,257,77126,5,4,0:0:0:0:
112,150,77326,1,0,0:0:0:0:
173,62,77526,1,4,0:0:0:0:
268,14,77726,1,8,0:0:0:0:
375,19,77926,5,6,0:0:0:0:
509,125,78126,1,0,0:0:0:0:
339,116,78326,1,6,0:0:0:0:
482,23,78526,1,8,0:0:0:0:
422,185,78726,2,0,P|375:220|346:224,2,80.9999975280763,6|0|4,0:0|0:0|0:0,0:0:0:0:
164,69,79326,5,8,0:0:0:0:
164,69,79426,1,0,0:0:0:0:
164,69,79526,2,0,L|3:88,1,161.999995056153,6|6,0:0|0:0,0:0:0:0:
75,0,80126,1,8,0:0:0:0:
198,198,80326,6,0,P|278:200|343:154,1,161.999995056153,14|4,0:0|0:0,0:0:0:0:
432,190,80926,1,8,0:0:0:0:
432,190,81026,1,0,0:0:0:0:
432,190,81126,2,0,L|447:351,1,161.999995056153,6|0,0:0|0:0,0:0:0:0:
508,214,81726,1,10,0:0:0:0:
370,326,81926,5,6,0:0:0:0:
293,289,82126,1,0,0:0:0:0:
201,355,82326,1,12,0:0:0:0:
81,245,82526,1,0,0:0:0:0:
81,245,82626,1,0,0:0:0:0:
81,245,82726,6,0,P|131:198|177:184,1,80.9999975280763,6|0,0:0|0:0,0:0:0:0:
365,157,83126,2,0,P|315:110|269:96,1,80.9999975280763,14|0,0:0|0:0,0:0:0:0:
94,21,83526,6,0,P|86:92|15:76,1,161.999995056153,6|12,0:0|0:0,0:0:0:0:
19,4,84126,1,0,0:0:0:0:
130,153,84326,6,0,P|129:209|112:246,1,80.9999975280763,6|0,0:0|0:0,0:0:0:0:
26,296,84726,2,0,P|27:240|44:203,1,80.9999975280763,14|0,0:0|0:0,0:0:0:0:
180,85,85126,2,0,P|233:68|274:73,1,80.9999975280763,6|8,0:0|0:0,0:0:0:0:
428,166,85526,2,0,P|460:211|468:251,1,80.9999975280763,6|0,0:0|0:0,0:0:0:0:
427,342,85926,6,0,P|394:296|386:256,1,80.9999975280763,6|8,0:0|0:0,0:0:0:0:
384,174,86326,2,0,P|407:123|420:108,1,53.9999983520508,6|0,0:0|0:0,0:0:0:0:
464,68,86726,2,0,P|510:39|443:30,1,161.999995056153,6|2,0:0|0:0,0:0:0:0:
56,192,87926,5,6,0:0:0:0:
96,204,88126,1,2,0:0:0:0:
136,216,88326,5,6,0:0:0:0:
309,270,88526,5,8,0:0:0:0:
297,310,88626,1,0,0:0:0:0:
285,350,88726,1,4,0:0:0:0:
96,204,88926,1,8,0:0:0:0:
108,244,89026,1,8,0:0:0:0:
120,284,89126,1,6,0:0:0:0:
456,192,89326,5,8,0:0:0:0:
444,152,89426,1,0,0:0:0:0:
432,112,89526,1,14,0:0:0:0:
420,72,89626,1,0,0:0:0:0:
408,32,89726,1,8,0:0:0:0:
48,60,89926,6,0,P|106:91|133:191,1,161.999995056153,4|0,0:0|0:0,0:0:0:0:
135,178,90326,2,0,P|177:135|237:118,1,107.999996704102,8|0,0:0|0:0,0:0:0:0:
464,324,90726,6,0,P|406:293|379:190,1,161.999995056153,2|0,0:0|0:0,0:0:0:0:
376,205,91126,2,0,P|333:247|279:261,1,107.999996704102,10|0,0:0|0:0,0:0:0:0:
264,130,91526,1,6,0:0:0:0:
400,100,91726,1,0,0:0:0:0:
489,205,91926,1,8,0:0:0:0:
429,330,92126,1,0,0:0:0:0:
172,192,92326,6,0,P|128:216|95:273,1,107.999996704102,2|0,0:0|0:0,0:0:0:0:
340,192,92726,2,0,P|386:218|414:263,1,107.999996704102,10|0,0:0|0:0,0:0:0:0:
128,96,93026,1,0,0:0:0:0:
128,96,93126,2,0,P|84:72|51:24,1,107.999996704102,6|0,0:0|0:0,0:0:0:0:
383,95,93526,2,0,P|430:69|460:25,1,107.999996704102,10|0,0:0|0:0,0:0:0:0:
172,244,93926,5,2,0:0:0:0:
360,184,94126,1,0,0:0:0:0:
124,184,94326,1,10,0:0:0:0:
312,244,94526,1,0,0:0:0:0:
84,256,94726,1,6,0:0:0:0:
212,312,94926,1,0,0:0:0:0:
212,312,95026,1,0,0:0:0:0:
212,312,95126,1,8,0:0:0:0:
44,328,95326,5,0,0:0:0:0:
44,328,95426,1,0,0:0:0:0:
44,328,95526,2,0,P|97:346|142:395,1,107.999996704102,2|0,0:0|0:0,0:0:0:0:
263,368,95926,2,0,P|278:321|323:277,1,107.999996704102,10|0,0:0|0:0,0:0:0:0:
508,307,96326,5,6,0:0:0:0:
508,307,96726,1,10,0:0:0:0:
508,307,97126,2,0,P|454:275|422:217,1,107.999996704102,2|0,0:0|0:0,0:0:0:0:
396,64,97526,6,0,P|471:18|467:106,1,215.999993408203,10|6,0:0|0:0,0:0:0:0:
172,49,98126,1,0,0:0:0:0:
467,106,98326,1,10,0:0:0:0:
152,136,98526,1,0,0:0:0:0:
425,12,98726,6,0,P|459:52|466:105,1,107.999996704102,2|0,0:0|0:0,0:0:0:0:
182,306,99126,2,0,P|144:232|151:205,1,107.999996704102,10|0,0:0|0:0,0:0:0:0:
467,106,99526,6,0,P|398:133|317:89,1,161.999995056153,6|0,0:0|0:0,0:0:0:0:
322,96,99926,2,0,P|306:51|253:34,1,107.999996704102,10|0,0:0|0:0,0:0:0:0:
305,296,100326,2,0,P|352:305|394:267,1,107.999996704102,2|0,0:0|0:0,0:0:0:0:
140,182,100726,2,0,P|109:219|121:274,1,107.999996704102,10|0,0:0|0:0,0:0:0:0:
321,96,101126,5,4,0:0:0:0:
140,182,101326,1,0,0:0:0:0:
305,296,101526,1,10,0:0:0:0:
206,86,101726,5,0,0:0:0:0:
206,86,101826,1,0,0:0:0:0:
206,86,101926,1,2,0:0:0:0:
371,200,102126,1,0,0:0:0:0:
190,286,102326,2,0,P|139:262|129:249,1,53.9999983520508,10|0,0:0|0:0,0:0:0:0:
256,192,102526,2,0,P|260:248|253:261,1,53.9999983520508
140,182,102726,6,0,P|82:117|99:231,1,270.000010299683,6|8,0:0|0:0,0:0:0:0:
305,327,103326,1,0,0:0:0:0:
455,150,103526,5,2,0:0:0:0:
395,50,103726,1,0,0:0:0:0:
256,192,103926,1,10,0:0:0:0:
256,72,104126,1,0,0:0:0:0:
57,150,104326,1,6,0:0:0:0:
117,50,104526,1,0,0:0:0:0:
256,192,104726,1,8,0:0:0:0:
256,72,104926,1,0,0:0:0:0:
420,272,105126,6,0,P|382:304|322:314,1,107.999996704102,2|0,0:0|0:0,0:0:0:0:
91,272,105526,2,0,P|129:304|189:314,1,107.999996704102,10|0,0:0|0:0,0:0:0:0:
476,111,105926,2,0,P|438:79|380:65,1,107.999996704102,6|0,0:0|0:0,0:0:0:0:
34,111,106326,2,0,P|72:79|130:65,1,107.999996704102,10|0,0:0|0:0,0:0:0:0:
383,164,106726,5,2,0:0:0:0:
127,165,106926,1,0,0:0:0:0:
335,314,107126,1,10,0:0:0:0:
256,72,107326,1,0,0:0:0:0:
177,316,107526,5,6,0:0:0:0:
45,353,107726,1,0,0:0:0:0:
78,219,107926,1,10,0:0:0:0:
100,296,108126,1,0,0:0:0:0:
100,296,108226,1,0,0:0:0:0:
100,296,108326,2,0,P|136:324|183:310,1,90,2|0,0:0|0:0,0:0:0:0:
256,246,108726,2,0,P|220:218|173:232,1,90,10|0,0:0|0:0,0:0:0:0:
256,384,109126,5,4,0:0:0:0:
275,382,109526,5,10,0:0:0:0:
294,377,109926,5,2,0:0:0:0:
327,355,110126,1,0,0:0:0:0:
364,285,110326,1,10,0:0:0:0:
352,166,110526,1,0,0:0:0:0:
264,27,110726,6,0,P|195:16|136:35,1,107.999996704102,6|0,0:0|0:0,0:0:0:0:
345,330,111126,2,0,P|408:298|445:244,1,107.999996704102,10|0,0:0|0:0,0:0:0:0:
102,132,111526,2,0,P|70:195|70:262,1,107.999996704102,2|0,0:0|0:0,0:0:0:0:
415,149,111926,2,0,P|404:79|366:27,1,107.999996704102,10|0,0:0|0:0,0:0:0:0:
152,320,112326,38,0,P|202:370|265:388,1,107.999996704102,6|0,0:0|0:0,0:0:0:0:
501,216,112726,2,0,P|451:266|385:287,1,107.999996704102,10|0,0:0|0:0,0:0:0:0:
216,104,113126,2,0,P|266:154|328:172,1,107.999996704102,2|0,0:0|0:0,0:0:0:0:
448,104,113526,2,0,P|472:40|385:86,1,215.999993408203,10|4,0:0|0:0,0:0:0:0:
148,144,114126,5,0,0:0:0:0:
400,196,114326,1,8,0:0:0:0:
142,54,114526,5,0,0:0:0:0:
142,54,114626,1,0,0:0:0:0:
142,54,114726,1,2,0:0:0:0:
64,175,114926,1,0,0:0:0:0:
56,31,115126,1,8,0:0:0:0:
148,144,115326,1,0,0:0:0:0:
8,106,115526,1,6,0:0:0:0:
256,192,115626,12,0,117126,0:0:0:0:
409,257,128326,53,6,0:0:0:0:
400,150,128526,1,0,0:0:0:0:
339,62,128726,1,0,0:0:0:0:
244,14,128926,1,2,0:0:0:0:
137,19,129126,5,10,0:0:0:0:
3,125,129326,1,0,0:0:0:0:
173,116,129526,1,0,0:0:0:0:
30,23,129726,1,10,0:0:0:0:
90,185,129926,38,0,P|160:212|168:212,1,72,2|0,0:0|0:0,0:0:0:0:
304,132,130326,2,0,P|245:179|241:186,1,72,0|10,0:0|0:0,0:0:0:0:
232,272,130626,1,0,0:0:0:0:
232,272,130726,2,0,P|258:342|264:348,2,72,2|0|2,0:0|0:0|0:0,0:0:0:0:
424,152,131326,5,8,0:0:0:0:
472,80,131526,2,0,L|532:64,4,36,10|0|0|0|0,0:0|0:0|0:0|0:0|0:0,0:0:0:0:
256,132,132126,38,0,L|316:116,1,36,10|0,0:0|0:0,0:0:0:0:
320,40,132326,1,2,0:0:0:0:
264,20,132526,1,0,0:0:0:0:
208,40,132726,1,0,0:0:0:0:
180,88,132926,1,10,0:0:0:0:
300,220,133126,5,2,0:0:0:0:
396,192,133326,1,0,0:0:0:0:
468,261,133526,1,8,0:0:0:0:
444,357,133726,1,2,0:0:0:0:
444,357,133826,1,0,0:0:0:0:
444,357,133926,37,2,0:0:0:0:
348,384,134126,1,0,0:0:0:0:
220,352,134326,1,10,0:0:0:0:
92,232,134526,1,0,0:0:0:0:
67,28,134726,5,2,0:0:0:0:
171,124,134926,1,0,0:0:0:0:
31,108,135126,1,8,0:0:0:0:
157,37,135326,1,2,0:0:0:0:
94,168,135526,1,2,0:0:0:0:
440,321,135926,37,8,0:0:0:0:
469,184,136126,1,2,0:0:0:0:
504,278,136326,5,2,0:0:0:0:
405,227,136526,1,8,0:0:0:0:
462,113,136726,2,0,L|468:185,1,72,0|2,0:0|0:0,0:0:0:0:
469,184,137026,1,0,0:0:0:0:
469,184,137126,1,2,0:0:0:0:
239,170,137326,37,8,0:0:0:0:
296,284,137526,2,0,L|302:212,1,72,2|0,0:0|0:0,0:0:0:0:
301,213,137826,1,0,0:0:0:0:
301,213,137926,1,2,0:0:0:0:
71,362,138126,5,8,0:0:0:0:
128,248,138326,2,0,L|134:320,1,72,0|2,0:0|0:0,0:0:0:0:
133,320,138626,1,0,0:0:0:0:
133,320,138726,1,2,0:0:0:0:
49,121,138926,37,8,0:0:0:0:
233,234,139126,1,0,0:0:0:0:
17,248,139326,1,2,0:0:0:0:
113,53,139526,6,0,P|172:28|196:28,1,72,10|0,0:0|0:0,0:0:0:0:
256,84,139826,1,0,0:0:0:0:
256,84,139926,2,0,P|197:109|173:109,1,72,8|2,0:0|0:0,0:0:0:0:
340,2,140226,37,0,0:0:0:0:
340,2,140326,2,0,L|357:45,1,36,10|0,0:0|0:0,0:0:0:0:
426,169,140526,2,0,L|386:144,1,36,8|0,0:0|0:0,0:0:0:0:
256,84,140726,2,0,L|302:80,1,36,10|8,0:0|0:0,0:0:0:0:
444,54,140926,2,0,L|408:83,1,36,8|0,0:0|0:0,0:0:0:0:
310,187,141126,2,0,L|329:257,3,67.5000025749208,6|0|4|0,0:0|0:0|0:0|0:0,0:0:0:0:
219,48,141926,5,6,0:0:0:0:
152,94,142126,1,0,0:0:0:0:
51,13,142326,37,6,0:0:0:0:
135,59,142526,1,8,0:0:0:0:
124,198,142726,5,6,0:0:0:0:
113,91,142926,1,0,0:0:0:0:
223,213,143126,1,6,0:0:0:0:
256,124,143326,1,8,0:0:0:0:
297,274,143526,37,6,0:0:0:0:
357,220,143726,1,0,0:0:0:0:
477,112,143926,1,6,0:0:0:0:
417,166,144126,1,0,0:0:0:0:
417,166,144226,1,0,0:0:0:0:
417,166,144326,2,0,L|492:228,3,67.5000025749208,14|0|4|0,0:0|0:0|0:0|0:0,0:0:0:0:
268,36,145126,5,6,0:0:0:0:
360,94,145326,1,0,0:0:0:0:
460,14,145526,37,6,0:0:0:0:
377,59,145726,1,0,0:0:0:0:
391,171,145926,5,6,0:0:0:0:
399,91,146126,1,8,0:0:0:0:
456,218,146326,1,4,0:0:0:0:
364,360,146526,1,8,0:0:0:0:
364,360,146626,1,8,0:0:0:0:
364,360,146726,6,0,P|318:355|284:334,1,67.5000025749208,6|0,0:0|0:0,0:0:0:0:
145,244,147126,2,0,P|121:221|107:191,1,67.5000025749208,6|8,0:0|0:0,0:0:0:0:
116,15,147526,2,0,P|74:66|10:57,1,135.000005149842,6|4,0:0|0:0,0:0:0:0:
10,240,148126,1,0,0:0:0:0:
148,360,148326,6,0,P|181:358|212:345,1,67.5000025749208,6|0,0:0|0:0,0:0:0:0:
364,245,148726,2,0,P|389:221|404:191,1,67.5000025749208,6|0,0:0|0:0,0:0:0:0:
396,15,149126,2,0,P|437:66|501:57,1,135.000005149842,6|4,0:0|0:0,0:0:0:0:
501,57,149726,1,0,0:0:0:0:
315,28,149926,38,0,P|282:61|268:101,1,67.5000025749208,6|0,0:0|0:0,0:0:0:0:
275,216,150326,2,0,P|286:261|313:293,1,67.5000025749208,4|0,0:0|0:0,0:0:0:0:
417,344,150626,1,0,0:0:0:0:
417,344,150726,6,0,P|479:344|441:281,2,135.000005149842,6|4|6,0:0|0:0|0:0,0:0:0:0:
438,223,151726,1,0,0:0:0:0:
291,298,151926,1,6,0:0:0:0:
262,179,152126,1,0,0:0:0:0:
145,293,152326,6,0,P|89:307|53:297,1,67.5000025749208,6|8,0:0|0:0,0:0:0:0:
60,228,152626,1,0,0:0:0:0:
60,228,152726,2,0,P|115:213|151:223,1,67.5000025749208,4|8,0:0|0:0,0:0:0:0:
204,236,153026,5,8,0:0:0:0:
204,236,153126,1,6,0:0:0:0:
231,266,153226,1,4,0:0:0:0:
268,249,153326,1,4,0:0:0:0:
263,209,153426,1,4,0:0:0:0:
224,200,153526,1,4,0:0:0:0:
179,185,153626,1,4,0:0:0:0:
179,138,153726,1,4,0:2:0:0:
224,123,153826,1,4,0:2:0:0:
251,161,153926,6,0,L|336:152,1,67.5000025749208,6|0,0:0|0:0,0:0:0:0:
404,192,154326,1,4,0:0:0:0:
448,108,154526,1,10,0:0:0:0:
256,28,154726,6,0,P|208:32|176:64,1,67.5000025749208,6|0,0:0|0:0,0:0:0:0:
204,184,155126,2,0,P|224:144|212:100,1,67.5000025749208,6|8,0:0|0:0,0:0:0:0:
94,60,155526,2,0,P|117:97|161:109,2,67.5000025749208,6|0|4,0:0|0:0|0:0,0:0:0:0:
281,61,156126,1,8,0:0:0:0:
424,192,156326,6,0,P|377:217|413:296,1,135.000005149842,6|0,0:0|0:0,0:0:0:0:
500,184,156926,1,10,0:0:0:0:
500,184,157026,1,0,0:0:0:0:
500,184,157126,2,0,L|490:151,4,33.7500012874604,12|0|0|0|4,0:0|0:0|0:0|0:0|0:0,0:0:0:0:
281,286,157726,5,8,0:0:0:0:
281,286,157826,1,0,0:0:0:0:
281,286,157926,2,0,P|287:328|327:346,1,90,6|0,0:0|0:0,0:0:0:0:
360,276,158526,1,10,0:0:0:0:
224,372,158726,5,6,0:0:0:0:
140,332,158926,1,0,0:0:0:0:
196,224,159126,1,12,0:0:0:0:
68,153,159326,1,0,0:0:0:0:
68,153,159426,1,0,0:0:0:0:
68,153,159526,21,6,0:0:0:0:
158,29,159726,1,0,0:0:0:0:
13,76,159926,1,14,0:0:0:0:
158,123,160126,1,0,0:0:0:0:
68,0,160326,5,6,0:0:0:0:
82,37,160726,5,12,0:0:0:0:
96,74,161126,6,0,P|128:100|157:101,1,67.5000025749208,2|4,0:0|0:0,0:0:0:0:
256,64,161526,2,0,P|224:38|195:37,1,67.5000025749208,14|0,0:0|0:0,0:0:0:0:
256,160,161926,2,0,P|288:186|317:187,1,67.5000025749208,6|8,0:0|0:0,0:0:0:0:
460,116,162326,2,0,P|428:90|399:89,1,67.5000025749208,4|0,0:0|0:0,0:0:0:0:
256,16,162726,5,6,0:0:0:0:
128,56,162926,1,8,0:0:0:0:
64,144,163126,1,2,0:0:0:0:
44,224,163326,1,0,0:0:0:0:
56,276,163526,2,0,P|112:280|240:240,1,180,2|2,0:0|0:0,0:0:0:0:
229,246,164726,5,2,0:0:0:0:
260,288,164926,1,2,0:0:0:0:
267,323,165126,1,6,0:0:0:0:
256,192,165226,12,0,166326,0:0:0:0:
88,52,166726,5,6,0:0:0:0:
174,42,166926,1,0,0:0:0:0:
174,42,167026,1,0,0:0:0:0:
174,42,167126,1,10,0:0:0:0:
80,84,167326,1,0,0:0:0:0:
256,108,167526,1,2,0:0:0:0:
316,44,167726,1,2,0:0:0:0:
473,145,167926,1,10,0:0:0:0:
441,65,168126,1,2,0:0:0:0:
256,192,168326,12,4,169526,0:0:0:0:
431,63,169926,5,2,0:0:0:0:
431,63,170326,1,8,0:0:0:0:
418,148,170526,1,0,0:0:0:0:
256,16,170726,1,2,0:0:0:0:
269,101,170926,1,0,0:0:0:0:
92,56,171126,1,10,0:0:0:0:
79,141,171326,1,0,0:0:0:0:
256,192,171526,12,4,172726,0:0:0:0:
256,192,173126,5,2,0:0:0:0:
256,192,173326,1,0,0:0:0:0:
204,122,173526,1,10,0:0:0:0:
198,135,173726,1,2,0:0:0:0:
115,73,173926,1,2,0:0:0:0:
111,101,174126,1,0,0:0:0:0:
3,51,174326,1,10,0:0:0:0:
6,94,174526,1,0,0:0:0:0:
96,231,174726,5,2,0:0:0:0:
82,190,174926,1,0,0:0:0:0:
235,235,175126,1,10,0:0:0:0:
201,171,175326,1,2,0:0:0:0:
376,197,175526,1,2,0:0:0:0:
306,123,175726,1,0,0:0:0:0:
505,90,175926,1,10,0:0:0:0:
386,36,176126,1,0,0:0:0:0:
256,192,176326,12,4,179526,0:0:0:0:
384,94,179726,5,0,0:0:0:0:
410,175,179926,1,8,0:0:0:0:
314,144,180126,1,2,0:0:0:0:
314,43,180326,1,2,0:0:0:0:
410,12,180526,1,2,0:0:0:0:
469,94,180726,1,10,0:0:0:0:
384,94,180926,1,2,0:0:0:0:
256,192,181126,12,4,182726,0:0:0:0:
98,133,183126,5,8,0:0:0:0:
98,133,183526,1,2,0:0:0:0:
98,133,183926,1,8,0:0:0:0:
256,192,184326,12,8,185526,0:0:0:0:
256,192,185926,12,8,187126,0:0:0:0:
256,192,187526,12,8,188726,0:0:0:0:
256,192,189126,12,12,191126,0:0:0:0:
127,165,191526,5,6,0:0:0:0:
383,164,191726,1,0,0:0:0:0:
177,316,191926,1,6,0:0:0:0:
256,72,192126,1,0,0:0:0:0:
335,313,192326,6,0,P|417:270|439:196,1,161.999995056153,4|0,0:0|0:0,0:0:0:0:
432,133,192726,2,0,P|494:162|513:205,1,107.999996704102,8|0,0:0|0:0,0:0:0:0:
186,182,193126,2,0,P|104:139|82:65,1,161.999995056153,2|0,0:0|0:0,0:0:0:0:
89,2,193526,2,0,P|27:31|8:74,1,107.999996704102,8|0,0:0|0:0,0:0:0:0:
256,192,193926,5,6,0:0:0:0:
332,86,194126,1,0,0:0:0:0:
457,127,194326,1,8,0:0:0:0:
457,257,194526,1,0,0:0:0:0:
332,298,194726,6,0,P|278:292|220:243,1,107.999996704102,2|0,0:0|0:0,0:0:0:0:
64,369,195126,2,0,P|107:337|130:290,1,107.999996704102,10|0,0:0|0:0,0:0:0:0:
222,107,195426,1,0,0:0:0:0:
222,107,195526,2,0,P|145:91|68:168,1,161.999995056153,6|0,0:0|0:0,0:0:0:0:
117,203,195926,2,0,P|196:200|222:172,1,107.999996704102,10|0,0:0|0:0,0:0:0:0:
460,264,196326,5,2,0:0:0:0:
214,183,196526,1,0,0:0:0:0:
460,264,196726,1,10,0:0:0:0:
244,284,196926,1,0,0:0:0:0:
460,264,197126,5,6,0:0:0:0:
316,360,197326,1,0,0:0:0:0:
388,188,197526,1,8,0:0:0:0:
500,337,197726,5,0,0:0:0:0:
500,337,197826,1,0,0:0:0:0:
500,337,197926,2,0,L|392:349,1,107.999996704102,2|0,0:0|0:0,0:0:0:0:
204,208,198326,2,0,L|328:193,1,107.999996704102,10|0,0:0|0:0,0:0:0:0:
0,360,198726,6,0,L|215:385,1,215.999993408203,4|10,0:0|0:0,0:0:0:0:
332,304,199326,1,0,0:0:0:0:
166,147,199526,6,0,P|113:158|72:192,1,107.999996704102,2|0,0:0|0:0,0:0:0:0:
345,147,199926,2,0,P|398:158|440:192,1,107.999996704102,10|0,0:0|0:0,0:0:0:0:
0,110,200326,2,0,P|28:65|76:40,1,107.999996704102,2|0,0:0|0:0,0:0:0:0:
511,110,200726,2,0,P|483:65|436:40,1,107.999996704102,10|0,0:0|0:0,0:0:0:0:
71,191,201126,2,0,P|77:244|105:291,1,107.999996704102,2|0,0:0|0:0,0:0:0:0:
440,191,201526,2,0,P|434:244|407:291,1,107.999996704102,10|0,0:0|0:0,0:0:0:0:
71,191,201926,5,6,0:0:0:0:
20,96,202126,1,0,0:0:0:0:
180,172,202326,1,10,0:0:0:0:
160,44,202526,1,0,0:0:0:0:
288,184,202726,1,2,0:0:0:0:
316,36,202926,1,0,0:0:0:0:
388,228,203126,1,10,0:0:0:0:
476,80,203326,1,0,0:0:0:0:
464,296,203526,6,0,P|404:328|332:316,1,107.999996704102,4|0,0:0|0:0,0:0:0:0:
408,128,203826,1,0,0:0:0:0:
408,128,203926,2,0,P|465:163|491:232,1,107.999996704102,10|0,0:0|0:0,0:0:0:0:
291,261,204226,1,0,0:0:0:0:
291,261,204326,2,0,P|293:193|339:136,1,107.999996704102,10|0,0:0|0:0,0:0:0:0:
508,36,204626,5,0,0:0:0:0:
508,36,204726,2,0,P|484:69|450:86,1,53.9999983520508,10|0,0:0|0:0,0:0:0:0:
312,159,204926,2,0,P|271:166|235:153,1,53.9999983520508,8|8,0:0|0:0,0:0:0:0:
45,102,205126,2,0,P|14:32|108:63,1,202.500007724762,6|0,0:0|0:0,0:0:0:0:
132,120,205526,5,8,0:0:0:0:
20,192,205726,1,0,0:0:0:0:
92,356,205926,2,0,L|220:336,1,107.999996704102,2|0,0:0|0:0,0:0:0:0:
420,356,206326,2,0,L|292:336,1,107.999996704102,10|0,0:0|0:0,0:0:0:0:
45,185,206726,2,0,L|151:201,1,107.999996704102,6|0,0:0|0:0,0:0:0:0:
467,185,207126,2,0,L|360:201,1,107.999996704102,8|0,0:0|0:0,0:0:0:0:
123,29,207526,5,2,0:0:0:0:
180,120,207726,1,0,0:0:0:0:
389,29,207926,1,10,0:0:0:0:
332,120,208126,1,0,0:0:0:0:
332,120,208226,1,0,0:0:0:0:
331,120,208326,6,0,P|384:131|425:165,1,107.999996704102,6|0,0:0|0:0,0:0:0:0:
180,120,208726,2,0,P|127:131|86:165,1,107.999996704102,10|0,0:0|0:0,0:0:0:0:
309,343,209126,2,0,P|295:291|255:255,1,107.999996704102,2|0,0:0|0:0,0:0:0:0:
202,343,209526,2,0,P|216:291|256:256,1,107.999996704102,10|0,0:0|0:0,0:0:0:0:
408,304,209926,5,6,0:0:0:0:
309,343,210126,1,0,0:0:0:0:
202,343,210326,1,8,0:0:0:0:
104,304,210526,1,0,0:0:0:0:
104,304,210626,1,0,0:0:0:0:
104,304,210726,5,2,0:0:0:0:
140,180,210926,1,0,0:0:0:0:
256,120,211126,1,10,0:0:0:0:
372,180,211326,1,0,0:0:0:0:
408,304,211526,5,6,0:0:0:0:
408,304,211926,2,0,P|470:337|489:269,1,161.999995056153,10|0,0:0|0:0,0:0:0:0:
418,216,212326,2,0,P|365:224|327:262,1,107.999996704102,2|0,0:0|0:0,0:0:0:0:
93,216,212726,2,0,P|146:224|184:262,1,107.999996704102,10|0,0:0|0:0,0:0:0:0:
496,192,213126,6,0,P|476:116|452:92,1,107.999996704102,6|0,0:0|0:0,0:0:0:0:
16,192,213526,2,0,P|36:116|60:92,1,107.999996704102,10|0,0:0|0:0,0:0:0:0:
424,24,213926,6,0,P|368:60|368:104,1,107.999996704102,2|0,0:0|0:0,0:0:0:0:
88,24,214326,2,0,P|144:60|144:104,1,107.999996704102,10|0,0:0|0:0,0:0:0:0:
380,184,214726,2,0,P|316:208|324:252,1,107.999996704102,2|0,0:0|0:0,0:0:0:0:
132,184,215126,2,0,P|196:208|188:252,1,107.999996704102,10|0,0:0|0:0,0:0:0:0:
336,352,215526,5,2,0:0:0:0:
256,296,215726,1,0,0:0:0:0:
176,352,215926,1,10,0:0:0:0:
256,296,216126,1,0,0:0:0:0:
132,184,216326,6,0,P|80:224|28:224,1,107.999996704102,4|0,0:0|0:0,0:0:0:0:
0,136,216626,1,0,0:0:0:0:
0,136,216726,2,0,P|52:96|104:96,1,107.999996704102,8|0,0:0|0:0,0:0:0:0:
180,108,217026,5,0,0:0:0:0:
180,108,217126,2,0,P|223:149|231:165,1,53.9999983520508,10|0,0:0|0:0,0:0:0:0:
316,152,217326,2,0,P|290:205|277:218,1,53.9999983520508
316,294,217526,2,0,P|257:286|241:277,1,53.9999983520508,10|0,0:0|0:0,0:0:0:0:
180,337,217726,2,8,P|169:278|172:260,1,53.9999983520508
96,222,217926,5,6,0:0:0:0:
316,152,218126,1,0,0:0:0:0:
180,337,218326,1,8,0:0:0:0:
180,108,218526,1,0,0:0:0:0:
329,304,218726,6,0,P|408:284|464:204,1,175.499991966248,2|0,0:0|0:0,0:0:0:0:
501,279,219126,2,0,P|415:279|349:225,1,175.499991966248,10|0,0:0|0:0,0:0:0:0:
462,211,219526,5,6,0:0:0:0:
329,304,219726,1,0,0:0:0:0:
179,237,219926,1,8,0:0:0:0:
170,73,220126,1,0,0:0:0:0:
179,237,220326,6,0,P|199:284|278:334,1,116.999994644165,2|0,0:0|0:0,0:0:0:0:
463,158,220726,2,0,P|472:216|453:271,1,116.999994644165,10|0,0:0|0:0,0:0:0:0:
347,270,221026,5,0,0:0:0:0:
347,270,221126,1,6,0:0:0:0:
256,124,221326,1,0,0:0:0:0:
165,306,221526,1,10,0:0:0:0:
256,160,221726,1,0,0:0:0:0:
347,342,221926,1,2,0:0:0:0:
256,196,222126,1,0,0:0:0:0:
165,378,222326,1,10,0:0:0:0:
256,232,222526,1,0,0:0:0:0:
479,305,222726,5,6,0:0:0:0:
393,384,222926,1,0,0:0:0:0:
343,154,223126,1,8,0:0:0:0:
454,189,223326,1,0,0:0:0:0:
454,189,223426,1,0,0:0:0:0:
454,189,223526,2,0,P|428:241|376:267,1,116.999994644165,2|0,0:0|0:0,0:0:0:0:
135,267,223926,2,0,P|83:241|57:189,1,116.999994644165,10|0,0:0|0:0,0:0:0:0:
256,0,224326,5,4,0:0:0:0:
256,23,224726,1,10,0:0:0:0:
256,48,225126,5,2,0:0:0:0:
256,96,225326,1,0,0:0:0:0:
256,144,225526,1,10,0:0:0:0:
256,192,225726,1,0,0:0:0:0:
32,80,225926,6,0,P|80:36|136:16,1,116.999994644165,6|0,0:0|0:0,0:0:0:0:
480,80,226326,2,0,P|432:36|376:16,1,116.999994644165,10|0,0:0|0:0,0:0:0:0:
92,216,226726,2,0,P|111:153|150:108,1,116.999994644165,2|0,0:0|0:0,0:0:0:0:
420,216,227126,2,0,P|400:153|361:108,1,116.999994644165,10|0,0:0|0:0,0:0:0:0:
189,351,227526,6,0,P|206:278|133:290,1,175.499991966248,6|0,0:0|0:0,0:0:0:0:
58,324,227926,2,0,P|62:266|92:215,1,116.999994644165,10|0,0:0|0:0,0:0:0:0:
180,156,228226,1,0,0:0:0:0:
180,156,228326,2,0,P|237:145|293:160,1,116.999994644165,2|0,0:0|0:0,0:0:0:0:
398,339,228726,2,0,P|398:281|373:229,1,116.999994644165,10|0,0:0|0:0,0:0:0:0:
416,33,229026,5,0,0:0:0:0:
415,33,229126,2,0,P|492:28|478:103,1,175.499991966248,14|0,0:0|0:0,0:0:0:0:
386,121,229526,6,0,P|334:85|320:17,1,116.999994644165,10|0,0:0|0:0,0:0:0:0:
125,121,229826,1,0,0:0:0:0:
125,121,229926,2,0,P|178:85|192:17,1,116.999994644165,10|2,0:0|0:0,0:0:0:0:
33,103,230226,5,0,0:0:0:0:
33,103,230326,2,0,P|37:131|65:171,1,58.4999973220826,10|0,0:0|0:0,0:0:0:0:
156,253,230526,2,0,P|177:270|226:278,1,58.4999973220826,8|8,0:0|0:0,0:0:0:0:
465,253,230726,38,0,P|462:315|439:374,1,125.999996154785,6|0,0:0|0:0,0:0:0:0:
72,374,231126,2,0,P|49:315|47:253,1,125.999996154785,10|0,0:0|0:0,0:0:0:0:
433,47,231526,5,2,0:0:0:0:
323,17,231726,1,0,0:0:0:0:
39,148,231926,1,10,0:0:0:0:
149,118,232126,1,0,0:0:0:0:
473,148,232326,1,6,0:0:0:0:
363,118,232526,1,0,0:0:0:0:
79,47,232726,1,8,0:0:0:0:
189,17,232926,1,0,0:0:0:0:
404,192,233126,38,0,L|384:336,1,125.999996154785,2|0,0:0|0:0,0:0:0:0:
125,316,233526,2,0,L|108:192,1,125.999996154785,10|0,0:0|0:0,0:0:0:0:
497,131,233826,1,0,0:0:0:0:
497,131,233926,2,0,L|480:256,1,125.999996154785,6|0,0:0|0:0,0:0:0:0:
32,256,234326,2,0,L|14:131,1,125.999996154785,10|0,0:0|0:0,0:0:0:0:
504,16,234726,6,0,P|448:68|380:68,1,125.999996154785,2|0,0:0|0:0,0:0:0:0:
8,16,235126,2,0,P|64:68|132:68,1,125.999996154785,10|0,0:0|0:0,0:0:0:0:
424,0,235526,37,6,0:0:0:0:
160,136,235726,1,0,0:0:0:0:
488,100,235926,1,8,0:0:0:0:
192,24,236126,5,0,0:0:0:0:
192,24,236226,1,0,0:0:0:0:
192,24,236326,1,2,0:0:0:0:
80,146,236526,1,0,0:0:0:0:
304,242,236726,1,10,0:0:0:0:
192,120,236926,1,0,0:0:0:0:
80,342,237126,1,6,0:0:0:0:
192,220,237326,1,0,0:0:0:0:
420,192,237526,38,0,P|496:244|516:284,1,125.999996154785,10|0,0:0|0:0,0:0:0:0:
92,191,237926,2,0,P|36:221|0:271,1,125.999996154785,2|0,0:0|0:0,0:0:0:0:
384,64,238326,2,0,P|443:44|505:53,1,125.999996154785,10|0,0:0|0:0,0:0:0:0:
128,64,238726,2,0,P|68:44|6:53,1,125.999996154785,6|0,0:0|0:0,0:0:0:0:
328,384,239126,5,10,0:0:0:0:
255,108,239326,1,0,0:0:0:0:
104,323,239526,37,2,0:0:0:0:
344,168,239726,1,0,0:0:0:0:
94,91,239926,5,10,0:0:0:0:
314,271,240126,1,0,0:0:0:0:
311,10,240326,37,6,0:0:0:0:
205,275,240526,1,0,0:0:0:0:
455,189,240726,5,10,0:0:0:0:
170,174,240926,1,0,0:0:0:0:
327,383,241126,38,0,P|384:363|398:305,1,125.999996154785,2|0,0:0|0:0,0:0:0:0:
184,383,241526,2,0,P|127:363|113:305,1,125.999996154785,10|0,0:0|0:0,0:0:0:0:
402,195,241926,6,0,P|425:208|442:230,1,53.9999983520508,2|0,0:0|0:0,0:0:0:0:
316,99,242126,2,0,P|340:86|367:84,1,53.9999983520508,2|0,0:0|0:0,0:0:0:0:
109,194,242326,2,0,P|85:208|69:230,1,53.9999983520508,10|0,0:0|0:0,0:0:0:0:
195,98,242526,2,0,P|172:86|145:83,1,53.9999983520508,0|0,0:0|0:0,0:0:0:0:
255,298,242726,5,6,0:0:0:0:
308,138,242926,1,0,0:0:0:0:
170,237,243126,1,2,0:0:0:0:
340,237,243326,1,0,0:0:0:0:
203,138,243526,1,6,0:0:0:0:
203,138,243926,5,0,0:0:0:0:
203,138,244126,1,2,0:0:0:0:
121,134,244326,2,0,P|126:112|137:92,1,45,2|0,0:0|0:0,0:0:0:0:
46,20,244726,2,0,P|57:40|62:62,1,45,2|0,0:0|0:0,0:0:0:0:
137,92,245126,2,0,P|172:59|211:43,1,90,2|0,0:0|0:0,0:0:0:0:
363,18,245726,5,2,0:0:0:0:
363,18,245926,2,0,P|382:29|397:46,1,45,2|0,0:0|0:0,0:0:0:0:
477,57,246326,2,0,P|471:78|460:98,1,45,2|0,0:0|0:0,0:0:0:0:
312,192,246726,2,0,P|332:149|363:122,1,90,2|0,0:0|0:0,0:0:0:0:
496,192,247326,5,0,0:0:0:0:
451,259,247526,2,0,L|349:275,2,90,2|2|2,0:0|0:0|0:0,0:0:0:0:
125,364,248726,5,0,0:0:0:0:
125,364,248926,1,2,0:0:0:0:
45,336,249126,2,0,P|34:317|32:295,1,45,2|0,0:0|0:0,0:0:0:0:
105,256,249526,2,0,P|106:233|115:213,1,45,2|0,0:0|0:0,0:0:0:0:
197,216,249926,2,0,P|219:177|256:152,1,90,2|0,0:0|0:0,0:0:0:0:
416,192,250526,5,0,0:0:0:0:
484,148,250726,2,0,L|478:103,1,45,2|0,0:0|0:0,0:0:0:0:
408,60,251126,2,0,L|402:104,1,45,2|0,0:0|0:0,0:0:0:0:
340,12,251526,2,0,L|304:112,1,90,2|0,0:0|0:0,0:0:0:0:
416,192,252126,5,2,0:0:0:0:
363,253,252326,2,0,P|403:272|447:266,2,90,2|2|2,0:0|0:0|0:0,0:0:0:0:
94,41,253526,5,0,0:0:0:0:
94,41,253726,1,0,0:0:0:0:
146,102,253926,2,0,P|105:121|61:115,2,90,2|2|2,0:0|0:0|0:0,0:0:0:0:
256,24,254926,5,2,0:0:0:0:
332,0,255126,1,0,0:0:0:0:
412,16,255326,1,2,0:0:0:0:
464,76,255526,5,2,0:0:0:0:
464,76,255726,1,0,0:0:0:0:
391,165,255926,1,2,0:0:0:0:
391,165,256126,1,0,0:0:0:0:
472,238,256326,2,0,L|462:334,1,90,2|0,0:0|0:0,0:0:0:0:
192,192,257126,6,0,L|199:127,1,45,2|0,0:0|0:0,0:0:0:0:
133,47,257526,2,0,L|140:92,1,45,2|0,0:0|0:0,0:0:0:0:
60,228,257926,2,0,L|75:140,1,90,2|0,0:0|0:0,0:0:0:0:
352,16,258726,6,0,L|367:104,1,90,2|0,0:0|0:0,0:0:0:0:
488,84,259326,1,2,0:0:0:0:
436,144,259526,2,0,L|421:232,1,90,2|0,0:0|0:0,0:0:0:0:
52,380,260326,6,0,P|56:332|104:312,1,90,2|0,0:0|0:0,0:0:0:0:
200,356,260926,1,2,0:0:0:0:
140,192,261126,2,0,P|160:264|224:252,1,135,2|0,0:0|0:0,0:0:0:0:
424,192,261926,6,0,P|444:164|452:134,1,45,2|0,0:0|0:0,0:0:0:0:
316,95,262326,2,0,P|319:60|311:30,1,45,2|0,0:0|0:0,0:0:0:0:
173,64,262726,2,0,P|157:36|95:6,1,90,2|0,0:0|0:0,0:0:0:0:
49,139,263326,1,0,0:0:0:0:
108,7,263526,6,0,P|148:27|172:63,2,90,2|2|2,0:0|0:0|0:0,0:0:0:0:
179,140,264526,1,0,0:0:0:0:
256,118,264726,1,2,0:0:0:0:
309,57,264926,1,2,0:0:0:0:
428,119,265126,5,2,0:0:0:0:
367,1,265326,1,0,0:0:0:0:
345,130,265526,1,2,0:0:0:0:
438,38,265726,1,0,0:0:0:0:
309,57,265926,2,0,P|254:48|217:19,1,90,2|0,0:0|0:0,0:0:0:0:
136,192,266726,6,0,P|174:168|218:164,1,90,2|0,0:0|0:0,0:0:0:0:
376,196,267326,5,2,0:0:0:0:
328,260,267526,2,0,P|308:308|395:259,1,252,2|0,0:0|0:0,0:0:0:0:
