osu file format v14

[General]
AudioFilename: Hana Song Compilation.mp3
AudioLeadIn: 0
PreviewTime: 430201
Countdown: 0
SampleSet: Soft
StackLeniency: 0.7
Mode: 0
LetterboxInBreaks: 0
WidescreenStoryboard: 1

[Editor]
Bookmarks: 7236,31736,42081,68481,78745,102891,114425,132988,143490,183490,192660,218071,227375,256634,267375,282858,292416,318789,330987,354987,365580,388250,398055,419813,430201
DistanceSpacing: 1.1
BeatDivisor: 4
GridSize: 8
TimelineZoom: 2

[Metadata]
Title:Songs Compilation
TitleUnicode:Songs Compilation
Artist:Hana
ArtistUnicode:はな
Creator:eLy
Version:Sakura
Source:
Tags:alacat jonathanlfj litoluna toybot giralda lecana shirakai poruteri vellya rrtyui sakura no uta piano edit tenkyuu no shita no kiseki jougen no tsuki dear my friend silent room gekka jasmine eden's song ariadne tree to kotori majick kuuki rikigaku to shounen no uta
BeatmapID:973967
BeatmapSetID:454266

[Difficulty]
HPDrainRate:6
CircleSize:4
OverallDifficulty:8
ApproachRate:9.3
SliderMultiplier:1.8
SliderTickRate:2

[Events]
//Background and Video events
0,0,"BG.png",0,0
//Break Periods
2,31936,42327
2,68681,77442
2,103074,113871
2,133188,142906
2,183660,192106
2,218271,227191
2,261463,266821
2,283058,291862
2,318989,330433
2,355186,365877
2,391178,397501
2,420013,429647
//Storyboard Layer 0 (Background)
//Storyboard Layer 1 (Fail)
//Storyboard Layer 2 (Pass)
//Storyboard Layer 3 (Foreground)
//Storyboard Sound Samples

[TimingPoints]
4570,333.333333333333,4,2,3,60,1,0
7819,-100,4,2,3,5,0,0
7903,-100,4,2,3,60,0,0
8486,-100,4,2,3,5,0,0
8569,-100,4,2,3,60,0,0
9153,-100,4,2,3,5,0,0
9236,-100,4,2,3,60,0,0
9819,-100,4,2,3,5,0,0
9903,-100,4,2,3,60,0,0
42881,400,4,2,1,60,1,0
77996,365.853658536585,4,2,1,80,1,0
78727,-100,4,2,1,60,0,0
79459,-90.9090909090909,4,2,1,70,0,0
102874,-100,4,2,1,40,0,0
114425,331.491712707182,4,2,1,60,1,0
143460,312.5,4,2,1,60,1,0
192660,352.941176470588,4,2,1,60,1,0
210836,-90.9090909090909,4,2,1,60,0,0
211365,-100,4,2,1,60,0,0
215248,-133.333333333333,4,2,1,60,0,0
215954,-133.333333333333,4,2,1,30,0,0
227375,370.37037037037,4,2,1,60,1,0
228486,-100,4,2,1,60,0,0
252560,-125,4,2,1,60,0,0
261263,-125,4,2,1,10,0,0
267375,241.935483870968,4,2,1,60,1,0
291757,329.67032967033,4,2,1,60,1,0
310877,-83.3333333333333,4,2,1,60,0,0
311125,-83.3333333333333,4,2,1,5,0,0
311207,-83.3333333333333,4,2,1,60,0,0
311454,-83.3333333333333,4,2,1,5,0,0
311537,-71.4285714285714,4,2,1,60,0,0
311784,-71.4285714285714,4,2,1,5,0,0
311866,-100,4,2,1,60,0,0
330987,333.333333333333,4,2,1,60,1,0
330987,-100,4,2,1,60,0,0
332153,-100,4,2,2,60,0,0
332487,-100,4,2,1,60,0,0
334820,-100,4,2,2,60,0,0
335153,-100,4,2,1,60,0,0
336153,-100,4,2,2,60,0,0
336487,-100,4,2,1,60,0,0
337487,-100,4,2,2,60,0,0
337820,-100,4,2,1,60,0,0
342820,-100,4,2,2,60,0,0
343153,-100,4,2,1,60,0,0
345487,-100,4,2,2,60,0,0
345820,-100,4,2,1,60,0,0
348153,-100,4,2,2,60,0,0
348487,-100,4,2,1,60,0,0
351320,-100,4,2,1,40,0,0
352320,-100,4,2,1,50,0,0
363705,340.909090909091,4,2,1,60,1,0
398055,329.67032967033,4,2,1,60,1,0
398055,-100,4,2,1,60,0,0
398714,-100,4,2,3,60,0,0
399044,-90.9090909090909,4,2,1,60,0,0
401516,-90.9090909090909,4,2,2,60,0,0
401681,-90.9090909090909,4,2,1,60,0,0
402670,-90.9090909090909,4,2,2,60,0,0
402835,-90.9090909090909,4,2,1,60,0,0
404648,-90.9090909090909,4,2,2,60,0,0
404813,-90.9090909090909,4,2,1,60,0,0
405967,-90.9090909090909,4,2,2,60,0,0
406131,-90.9090909090909,4,2,1,60,0,0
409263,-90.9090909090909,4,2,3,60,0,0
409593,-90.9090909090909,4,2,1,60,0,0
410582,-90.9090909090909,4,2,2,60,0,0
410747,-90.9090909090909,4,2,1,60,0,0
411736,-90.9090909090909,4,2,2,60,0,0
411901,-90.9090909090909,4,2,3,60,0,0
412065,-90.9090909090909,4,2,1,60,0,0
412725,-90.9090909090909,4,2,2,60,0,0
412890,-90.9090909090909,4,2,1,60,0,0
414538,-90.9090909090909,4,2,3,60,0,0
414868,-90.9090909090909,4,2,1,60,0,0
416846,-90.9090909090909,4,2,3,60,0,0
417011,-90.9090909090909,4,2,1,60,0,0
419813,-90.9090909090909,4,2,3,60,0,0
430201,333.333333333333,4,2,1,60,1,0
454201,-166.666666666667,4,2,1,60,0,0
454701,-76.9230769230769,4,2,1,60,0,0
455034,-100,4,2,1,60,0,0
480534,-125,4,2,1,60,0,0
480867,-100,4,2,1,60,0,0

[HitObjects]
234,135,7236,6,0,B|186:73|256:-9|256:-9|321:80|271:141,1,315,4|0,0:0|0:0,0:0:0:0:
232,254,7903,6,0,B|222:341|127:353|127:353|134:232|214:226,1,315,4|0,0:0|0:0,0:0:0:0:
310,157,8569,6,0,B|367:90|453:146|453:146|395:227|299:184,1,315,4|0,0:0|0:0,0:0:0:0:
201,157,9236,6,0,B|158:86|62:122|62:122|101:216|196:187,1,315,4|0,0:0|0:0,0:0:0:0:
307,229,9903,6,0,B|375:246|386:349|386:349|279:342|277:251|277:251|240:368|120:360|120:360|104:232|208:176,1,720,4|0,0:0|0:0,0:0:0:0:
185,190,11569,6,0,P|144:175|87:162,1,90,2|0,0:0|0:0,0:0:0:0:
286,91,11903,2,0,P|327:106|384:119,1,90,2|0,0:0|0:0,0:0:0:0:
488,191,12236,2,0,P|428:215|356:262,1,135,2|0,0:0|0:0,0:0:0:0:
355,270,12569,6,0,P|359:319|366:371,1,90,2|0,0:0|0:0,0:0:0:0:
256,190,12903,1,0,0:0:0:0:
89,341,13069,2,0,P|172:335|277:272,1,180,2|0,0:0|0:0,0:0:0:0:
127,156,13569,2,0,P|85:176|42:206,1,90,2|0,0:0|0:0,0:0:0:0:
133,294,13903,6,0,P|176:322|307:331,1,180,2|0,0:0|0:0,0:0:0:0:
394,192,14403,1,0,0:0:0:0:
343,111,14569,2,0,P|312:147|300:193,1,90,2|0,0:0|0:0,0:0:0:0:
407,384,14903,2,0,P|384:314|352:260,1,135,2|0,0:0|0:0,0:0:0:0:
330,259,15236,6,0,P|241:273|147:293,1,180,2|0,0:0|0:0,0:0:0:0:
6,144,15736,2,0,B|51:142|86:174|86:174|123:210|171:206,1,180,2|0,0:0|0:0,0:0:0:0:
187,30,16236,2,0,P|165:80|167:133,1,90,2|0,0:0|0:0,0:0:0:0:
295,228,16569,5,2,0:0:0:0:
408,176,16736,1,0,0:0:0:0:
311,102,16903,1,2,0:0:0:0:
218,259,17069,2,0,B|165:269|165:269|30:217,1,180,2|0,0:0|0:0,0:0:0:0:
36,67,17569,2,0,L|184:121,1,135,2|0,0:0|0:0,0:0:0:0:
183,122,17903,6,0,P|230:119|283:106,1,90,2|0,0:0|0:0,0:0:0:0:
359,61,18236,1,0,0:0:0:0:
444,178,18403,2,0,P|405:167|339:160,1,90,2|0,0:0|0:0,0:0:0:0:
484,86,18736,1,0,0:0:0:0:
382,242,18903,2,0,P|339:252|291:254,1,90,2|0,0:0|0:0,0:0:0:0:
171,271,19236,6,0,P|186:314|212:350,1,90,2|0,0:0|0:0,0:0:0:0:
382,242,19569,2,0,P|367:199|340:162,1,90,2|0,0:0|0:0,0:0:0:0:
278,259,19903,1,2,0:0:0:0:
128,129,20236,1,2,0:0:0:0:
128,129,20569,6,0,P|83:136|33:142,2,90,6|0|2,0:0|0:0|0:0,0:0:0:0:
254,25,21069,1,0,0:0:0:0:
254,25,21403,2,0,P|231:68|222:116,1,90,2|0,0:0|0:0,0:0:0:0:
363,314,21736,2,0,P|410:240|411:151,1,180,2|0,0:0|0:0,0:0:0:0:
213,234,22236,6,0,P|266:226|310:203,1,90,2|0,0:0|0:0,0:0:0:0:
131,55,22569,2,0,P|78:43|26:41,1,90,2|0,0:0|0:0,0:0:0:0:
201,10,22903,2,0,B|214:62|214:62|170:162,1,135,2|0,0:0|0:0,0:0:0:0:
170,156,23236,6,0,P|129:225|178:319,1,180,2|0,0:0|0:0,0:0:0:0:
347,248,23736,2,0,B|286:211|216:232|216:232|228:258|269:273,1,180,2|0,0:0|0:0,0:0:0:0:
374,353,24236,1,0,0:0:0:0:
336,124,24403,2,0,P|274:138|217:244,1,180,2|0,0:0|0:0,0:0:0:0:
355,277,24903,6,0,L|461:261,1,90,2|0,0:0|0:0,0:0:0:0:
336,124,25236,1,2,0:0:0:0:
224,86,25403,1,2,0:0:0:0:
113,123,25569,1,0,0:0:0:0:
70,232,25736,1,2,0:0:0:0:
112,341,25903,6,0,L|215:326,1,90,6|0,0:0|0:0,0:0:0:0:
224,86,26236,1,2,0:0:0:0:
13,240,26403,2,0,L|195:213,1,180
285,349,26903,1,2,0:0:0:0:
417,260,27069,2,0,B|440:173|440:173|424:82,1,180,2|0,0:0|0:0,0:0:0:0:
254,19,27569,1,2,0:0:0:0:
254,19,27736,1,0,0:0:0:0:
126,135,27903,2,0,P|167:147|224:150,1,90,2|0,0:0|0:0,0:0:0:0:
424,84,28236,2,0,P|377:86|316:107,1,90,2|0,0:0|0:0,0:0:0:0:
159,264,28569,5,6,0:0:0:0:
213,150,28736,1,0,0:0:0:0:
106,101,28903,1,2,0:0:0:0:
45,207,29069,1,0,0:0:0:0:
45,207,29403,2,0,P|91:200|145:169,1,90,2|0,0:0|0:0,0:0:0:0:
336,159,29736,2,0,P|262:111|225:18,1,180,2|0,0:0|0:0,0:0:0:0:
484,15,30236,6,0,P|480:61|465:106,1,90,2|0,0:0|0:0,0:0:0:0:
255,298,30569,2,0,P|230:258|219:206,1,90,2|0,0:0|0:0,0:0:0:0:
18,347,30903,2,0,P|87:344|154:299,1,135,2|0,0:0|0:0,0:0:0:0:
168,298,31236,2,0,P|212:287|269:306,1,90,2|0,0:0|0:0,0:0:0:0:
363,348,31569,1,0,0:0:0:0:
255,134,31736,1,6,0:0:0:0:
208,280,42881,5,6,0:0:0:0:
365,216,43081,1,0,0:0:0:0:
254,169,43281,1,8,0:0:0:0:
318,326,43481,1,0,0:0:0:0:
472,260,43681,2,0,P|468:224|473:169,1,90,2|0,0:0|0:0,0:0:0:0:
384,32,44081,2,0,P|388:68|382:128,1,90,8|0,0:0|0:0,0:0:0:0:
288,248,44481,5,2,0:0:0:0:
176,208,44681,1,0,0:0:0:0:
264,128,44881,1,8,0:0:0:0:
288,248,45081,1,0,0:0:0:0:
104,300,45281,2,0,P|64:292|11:292,1,90,2|0,0:0|0:0,0:0:0:0:
176,208,45681,2,0,P|216:216|270:215,1,90,8|0,0:0|0:0,0:0:0:0:
108,56,46081,6,0,B|83:106|94:160|94:160|117:121|172:114,1,180,2|8,0:0|0:0,0:0:0:0:
268,176,46681,1,0,0:0:0:0:
179,296,46881,2,0,P|171:257|177:203,1,90,2|0,0:0|0:0,0:0:0:0:
236,8,47281,2,0,P|243:47|234:102,1,90,8|0,0:0|0:0,0:0:0:0:
88,240,47681,5,2,0:0:0:0:
258,336,47881,2,0,L|250:383,2,45,0|0|8,0:0|0:0|0:0,0:0:0:0:
352,192,48281,1,0,0:0:0:0:
352,192,48381,1,0,0:0:0:0:
352,192,48481,2,0,P|312:196|269:228,1,90,2|0,0:0|0:0,0:0:0:0:
428,260,48881,2,0,P|444:223|445:171,1,90,8|0,0:0|0:0,0:0:0:0:
312,100,49281,6,0,P|392:104|460:37,2,180,2|8|2,0:0|0:0|0:0,0:0:0:0:
132,40,50281,1,0,0:0:0:0:
132,40,50482,2,0,P|172:32|224:32,1,90,8|0,0:0|0:0,0:0:0:0:
284,188,50881,6,0,L|298:283,1,90,2|0,0:0|0:0,0:0:0:0:
148,328,51281,2,0,L|162:237,1,90,8|0,0:0|0:0,0:0:0:0:
308,156,51681,2,0,L|322:247,1,90,2|0,0:0|0:0,0:0:0:0:
140,360,52081,2,0,P|95:355|48:356,1,90,8|0,0:0|0:0,0:0:0:0:
232,311,52481,6,0,P|312:323|412:311,1,180,2|8,0:0|0:0,0:0:0:0:
434,149,53081,1,0,0:0:0:0:
434,149,53281,2,0,P|398:165|360:205,1,90,2|0,0:0|0:0,0:0:0:0:
500,320,53681,2,0,L|491:229,1,90,8|0,0:0|0:0,0:0:0:0:
476,52,54081,5,2,0:0:0:0:
292,188,54281,2,0,L|277:233,2,45,0|0|8,0:0|0:0|0:0,0:0:0:0:
364,24,54681,1,0,0:0:0:0:
364,24,54781,1,0,0:0:0:0:
364,24,54881,2,0,L|376:70,3,45,2|0|0|0,0:0|0:0|0:0|0:0,0:0:0:0:
272,108,55281,2,0,L|285:60,3,45,8|0|0|0,0:0|0:0|0:0|0:0,0:0:0:0:
204,36,55681,6,0,P|128:68|31:70,1,180,4|8,0:0|0:0,0:0:0:0:
168,176,56281,1,0,0:0:0:0:
168,176,56481,2,0,L|260:192,1,90,2|0,0:0|0:0,0:0:0:0:
120,256,56881,2,0,L|31:268,1,90,8|0,0:0|0:0,0:0:0:0:
148,148,57281,6,0,L|328:178,1,180,2|8,0:0|0:0,0:0:0:0:
218,256,57881,1,0,0:0:0:0:
240,72,58081,2,0,P|312:40|410:55,1,180,2|8,0:0|0:0,0:0:0:0:
470,140,58681,1,0,0:0:0:0:
407,289,58881,6,0,P|390:252|387:203,1,90,2|0,0:0|0:0,0:0:0:0:
497,318,59281,2,0,P|477:356|428:381,1,90,8|0,0:0|0:0,0:0:0:0:
296,248,59681,1,2,0:0:0:0:
212,336,59881,1,0,0:0:0:0:
98,201,60081,2,0,P|139:203|186:227,1,90,8|0,0:0|0:0,0:0:0:0:
96,360,60481,5,2,0:0:0:0:
16,224,60681,2,0,L|5:179,2,45,0|0|8,0:0|0:0|0:0,0:0:0:0:
212,336,61081,1,0,0:0:0:0:
212,336,61181,1,0,0:0:0:0:
212,336,61281,2,0,L|221:290,3,45,2|0|0|0,0:0|0:0|0:0|0:0,0:0:0:0:
296,248,61681,2,0,L|287:202,3,45,8|0|0|0,0:0|0:0|0:0|0:0,0:0:0:0:
220,144,62081,6,0,P|140:140|47:185,1,180,2|8,0:0|0:0,0:0:0:0:
216,60,62681,1,0,0:0:0:0:
216,60,62881,2,0,P|256:68|309:67,1,90,2|0,0:0|0:0,0:0:0:0:
442,67,63281,2,0,P|416:97|395:143,1,90,8|0,0:0|0:0,0:0:0:0:
325,263,63681,6,0,P|312:225|283:184,1,90,2|0,0:0|0:0,0:0:0:0:
448,239,64081,2,0,P|428:274|413:323,1,90,8|0,0:0|0:0,0:0:0:0:
272,344,64481,1,2,0:0:0:0:
192,252,64681,1,0,0:0:0:0:
288,184,64881,2,0,P|307:149|321:101,1,90,8|0,0:0|0:0,0:0:0:0:
168,73,65281,6,0,L|192:258,1,180,2|8,0:0|0:0,0:0:0:0:
32,184,65881,1,0,0:0:0:0:
72,348,66081,2,0,L|86:258,1,90,2|0,0:0|0:0,0:0:0:0:
16,95,66481,2,0,L|31:183,1,90,8|0,0:0|0:0,0:0:0:0:
256,192,66881,12,4,68481,0:0:0:0:
208,36,77996,5,8,1:3:0:0:
196,68,78361,1,8,1:3:0:0:
184,100,78727,6,0,L|192:168,2,60
108,52,79093,2,0,L|40:64,2,60
96,152,79459,6,0,P|83:241|0:304,1,198.000006042481,6|2,0:0|0:0,0:0:0:0:
200,200,80008,1,0,0:0:0:0:
288,264,80191,2,0,P|285:316|264:372,1,99.0000030212403,8|0,1:0|0:0,0:0:0:0:
140,104,80556,2,0,L|248:92,1,99.0000030212403
452,192,80922,6,0,L|344:184,1,99.0000030212403,2|2,0:0|0:0,0:0:0:0:
64,164,81288,1,2,0:0:0:0:
64,164,81654,1,8,1:0:0:0:
152,232,81837,1,0,0:0:0:0:
252,184,82020,2,0,P|275:145|276:80,1,99.0000030212403
236,28,82295,1,0,0:0:0:0:
236,28,82387,6,0,P|312:60|416:24,1,198.000006042481,2|2,0:0|0:0,0:0:0:0:
168,112,82935,2,0,P|116:96|60:100,1,99.0000030212403,0|8,0:0|1:0,0:0:0:0:
252,184,83301,1,0,0:0:0:0:
236,28,83484,1,2,0:0:0:0:
108,204,83667,1,8,0:1:0:0:
336,240,83850,6,0,L|346:133,1,99.0000030212403,2|0,0:0|0:0,0:0:0:0:
436,284,84216,2,0,L|428:384,1,99.0000030212403,2|0,0:0|0:0,0:0:0:0:
505,198,84582,2,0,P|411:180|336:240,1,198.000006042481,8|0,1:0|0:0,0:0:0:0:
436,284,85131,1,8,0:1:0:0:
436,28,85313,5,2,0:0:0:0:
312,68,85496,1,0,0:0:0:0:
412,152,85679,2,0,L|432:44,1,99.0000030212403,2|0,0:0|0:0,0:0:0:0:
296,184,86045,2,0,P|268:248|344:344,1,198.000006042481,8|0,1:0|0:0,0:0:0:0:
132,308,86594,1,0,0:0:0:0:
72,216,86777,6,0,B|120:200|120:200|180:208,1,99.0000030212403,2|8,0:0|0:1,0:0:0:0:
337,342,87143,2,0,B|288:340|288:340|236:320,1,99.0000030212403
60,112,87509,2,0,B|108:96|108:96|268:120,1,198.000006042481,8|0,1:0|0:0,0:0:0:0:
440,200,88057,1,0,0:0:0:0:
440,200,88149,1,0,0:0:0:0:
440,200,88240,6,0,L|332:208,1,99.0000030212403,2|0,0:0|0:0,0:0:0:0:
136,320,88606,2,0,B|164:216,1,99.0000030212403,2|0,0:0|0:0,0:0:0:0:
500,304,88972,2,0,L|392:312,1,99.0000030212403,8|0,1:0|0:0,0:0:0:0:
48,240,89338,2,0,B|76:132,1,99.0000030212403,0|8,0:0|0:1,0:0:0:0:
300,104,89703,5,2,0:0:0:0:
161,224,89887,1,0,0:0:0:0:
216,16,90070,1,8,1:0:0:0:
288,264,90252,5,8,0:3:0:0:
288,264,90344,1,8,0:3:0:0:
288,264,90435,1,8,1:0:0:0:
80,116,90618,1,2,0:0:0:0:
344,96,90801,2,0,L|448:112,1,99.0000030212403,2|0,0:0|0:0,0:0:0:0:
232,172,91166,6,0,B|168:176|168:176|108:212|108:212|44:216,1,198.000006042481,6|2,0:0|0:0,0:0:0:0:
80,116,91716,1,0,0:0:0:0:
200,272,91899,2,0,P|210:308|204:368,1,99.0000030212403,8|0,1:0|0:0,0:0:0:0:
44,215,92265,1,2,0:0:0:0:
256,176,92448,1,0,0:0:0:0:
168,72,92631,5,2,0:0:0:0:
200,272,92813,1,2,0:0:0:0:
353,161,92996,2,0,L|256:176,1,99.0000030212403,2|0,0:0|0:0,0:0:0:0:
70,53,93362,2,0,L|178:73,1,99.0000030212403,8|0,1:0|0:0,0:0:0:0:
353,161,93728,1,0,0:0:0:0:
176,296,93911,1,0,0:0:0:0:
176,296,94002,1,0,0:0:0:0:
176,296,94094,6,0,B|132:288|132:288|84:228|100:144,1,198.000006042481,2|2,0:0|0:0,0:0:0:0:
316,208,94643,2,0,P|276:208|212:192,1,99.0000030212403,0|8,0:0|1:0,0:0:0:0:
408,148,95009,1,0,0:0:0:0:
276,308,95191,2,0,P|332:312|384:296,1,99.0000030212403,0|8,0:0|0:1,0:0:0:0:
228,120,95557,5,2,0:0:0:0:
104,244,95740,1,8,1:0:0:0:
276,308,95922,2,0,P|288:264|280:200,1,99.0000030212403,2|0,0:0|0:0,0:0:0:0:
44,152,96289,2,0,P|0:212|32:324,1,198.000006042481,8|2,1:0|0:0,0:0:0:0:
104,244,96838,1,8,0:1:0:0:
116,60,97020,5,2,0:0:0:0:
44,152,97204,1,0,0:0:0:0:
228,84,97387,2,0,L|116:60,1,99.0000030212403,2|0,0:0|0:0,0:0:0:0:
288,184,97752,2,0,P|368:144|460:200,1,198.000006042481,8|0,1:0|0:0,0:0:0:0:
252,288,98301,1,0,0:0:0:0:
172,172,98484,6,0,L|68:160,1,99.0000030212403,2|2,0:0|0:0,0:0:0:0:
280,136,98850,1,2,0:0:0:0:
144,276,99033,1,0,0:0:0:0:
336,232,99216,2,0,L|320:28,1,198.000006042481,8|0,1:0|0:0,0:0:0:0:
320,34,99765,1,0,0:0:0:0:
448,168,99948,5,12,0:0:0:0:
224,116,100131,1,8,0:3:0:0:
436,32,100313,1,2,0:0:0:0:
436,32,100678,5,8,1:0:0:0:
448,168,100862,1,2,0:0:0:0:
460,304,101045,2,0,B|384:336|309:308|309:308|332:288|360:288,1,198.000006042481,12|2,1:0|0:0,0:0:0:0:
347,289,101776,5,8,1:0:0:0:
347,289,102143,1,8,0:1:0:0:
294,64,102326,1,8,1:0:0:0:
126,222,102509,1,8,0:3:0:0:
256,192,102874,5,0,0:0:0:0:
128,162,114425,6,0,P|196:121|291:150,1,180,4|8,0:0|0:0,0:0:0:0:
343,220,114922,1,0,0:0:0:0:
234,296,115087,2,0,P|212:251|216:199,1,90,2|8,0:0|0:0,0:0:0:0:
326,65,115419,1,0,0:0:0:0:
432,228,115585,5,2,0:0:0:0:
432,228,115668,1,0,0:0:0:0:
432,228,115750,2,0,L|338:219,2,90,0|8|0,0:0|0:0|0:0,0:0:0:0:
177,126,116248,2,0,L|224:121,2,45,2|0|8,0:0|0:0|0:0,0:0:0:0:
121,322,116579,1,8,0:0:0:0:
146,328,116662,1,0,0:0:0:0:
173,325,116745,1,8,0:0:0:0:
197,315,116828,1,0,0:0:0:0:
217,297,116911,1,8,0:0:0:0:
230,274,116994,1,0,0:0:0:0:
237,249,117076,6,0,B|229:209|245:180|245:180|239:165|239:165|262:119|236:69,1,180,4|8,0:0|0:0,0:0:0:0:
108,118,117574,1,0,0:0:0:0:
320,228,117739,1,2,0:0:0:0:
320,228,117905,1,8,0:0:0:0:
271,10,118071,2,0,P|231:6|183:28,1,90,0|2,0:0|0:0,0:0:0:0:
151,241,118402,1,0,0:0:0:0:
388,207,118568,6,0,P|383:261|274:286,1,180,8|2,0:0|0:0,0:0:0:0:
70,204,119065,1,8,0:0:0:0:
243,94,119231,1,10,0:0:0:0:
269,91,119314,1,2,0:0:0:0:
296,89,119397,1,8,0:0:0:0:
322,87,119480,1,2,0:0:0:0:
349,84,119563,1,8,0:3:0:0:
375,82,119645,1,0,0:0:0:0:
402,80,119728,6,0,P|441:95|493:92,1,90,4|2,0:0|0:0,0:0:0:0:
460,0,120060,1,8,0:0:0:0:
357,165,120226,1,0,0:0:0:0:
357,165,120308,1,0,0:0:0:0:
357,165,120391,2,0,P|357:209|371:256,1,90,2|8,0:0|0:0,0:0:0:0:
512,320,120723,2,0,P|473:309|418:312,1,90,0|2,0:0|0:0,0:0:0:0:
342,329,120971,1,0,0:0:0:0:
324,348,121054,6,0,P|282:359|233:357,1,90,0|8,0:0|0:0,0:0:0:0:
262,201,121386,2,0,P|233:172|211:122,1,90,0|2,0:0|0:0,0:0:0:0:
362,75,121717,1,8,0:0:0:0:
323,242,121883,1,8,0:0:0:0:
291,266,121966,1,0,0:0:0:0:
252,273,122049,1,8,0:0:0:0:
153,90,122215,1,8,0:0:0:0:
185,66,122297,1,0,0:0:0:0:
224,59,122380,6,0,B|268:86|323:69|323:69|404:41,2,180,4|8|2,0:0|0:0|0:0,0:0:0:0:
39,42,123209,2,0,P|90:24|145:27,1,90,8|0,0:0|0:0,0:0:0:0:
219,161,123541,1,2,0:0:0:0:
89,241,123706,6,0,L|106:133,1,90,0|8,0:0|0:0,0:0:0:0:
246,325,124038,2,0,L|230:224,1,90,0|2,0:0|0:0,0:0:0:0:
78,332,124369,1,8,0:0:0:0:
219,161,124535,1,8,0:0:0:0:
250,162,124618,1,2,0:0:0:0:
279,175,124701,1,8,0:0:0:0:
302,197,124784,1,2,0:0:0:0:
325,219,124866,1,8,0:3:0:0:
354,232,124949,1,0,0:0:0:0:
386,234,125032,6,0,P|430:210|357:156,1,180,4|8,0:0|0:0,0:0:0:0:
233,245,125529,1,0,0:0:0:0:
146,109,125695,1,2,0:0:0:0:
159,285,125861,2,0,P|205:327|309:283,1,180,8|2,0:0|0:0,0:0:0:0:
328,92,126358,5,0,0:0:0:0:
191,176,126524,1,8,0:0:0:0:
101,42,126690,1,2,0:0:0:0:
101,42,126773,1,0,0:0:0:0:
101,42,126855,1,8,0:0:0:0:
260,133,127021,1,8,0:0:0:0:
76,253,127187,1,8,0:0:0:0:
77,292,127270,1,0,0:0:0:0:
95,328,127353,1,8,0:0:0:0:
126,353,127436,1,0,0:0:0:0:
164,363,127518,1,8,0:0:0:0:
203,356,127601,1,0,0:0:0:0:
236,334,127684,6,0,P|301:290|401:315,1,180,4|8,0:0|0:0,0:0:0:0:
168,270,128181,2,0,P|125:261|62:246,1,90,0|2,0:0|0:0,0:0:0:0:
241,175,128513,2,0,P|283:166|345:150,1,90,8|0,0:0|0:0,0:0:0:0:
206,67,128844,5,2,0:0:0:0:
206,67,128927,1,0,0:0:0:0:
206,67,129010,2,0,P|165:56|102:45,1,90,0|8,0:0|0:0,0:0:0:0:
314,50,129342,1,8,0:0:0:0:
137,148,129507,1,2,0:0:0:0:
137,148,129590,1,0,0:0:0:0:
137,148,129673,1,8,0:0:0:0:
308,329,129839,1,8,0:0:0:0:
339,305,129922,1,2,0:0:0:0:
347,266,130005,1,8,0:0:0:0:
329,231,130087,1,2,0:0:0:0:
311,196,130170,1,4,0:3:0:0:
319,157,130253,1,0,0:0:0:0:
350,133,130336,6,0,P|411:140|416:248,1,180,4|8,0:0|0:0,0:0:0:0:
259,265,130833,1,0,0:0:0:0:
412,333,130999,1,2,0:0:0:0:
207,351,131165,2,0,P|159:291|189:197,1,180,8|2,0:0|0:0,0:0:0:0:
280,103,131662,5,0,0:0:0:0:
189,26,131828,2,0,P|150:35|99:40,2,90,8|0|2,0:0|0:0|0:0,0:0:0:0:
160,122,132325,1,8,0:0:0:0:
300,3,132491,1,8,0:0:0:0:
336,19,132574,1,0,0:0:0:0:
363,48,132657,1,8,0:0:0:0:
377,85,132739,1,0,0:0:0:0:
376,125,132822,1,8,0:0:0:0:
360,161,132905,1,0,0:0:0:0:
331,188,132988,1,0,0:0:0:0:
320,188,143460,6,0,P|290:216|269:285,1,90
411,217,143772,1,0,0:0:0:0:
305,96,143928,1,0,0:0:0:0:
93,197,144085,2,0,P|140:197|188:179,1,90
365,40,144397,1,0,0:0:0:0:
246,145,144553,1,0,0:0:0:0:
405,218,144710,6,0,L|422:128,1,90
260,56,145022,2,0,L|245:147,1,90
12,228,145335,2,0,P|102:226|193:269,1,180
254,367,145803,1,0,0:0:0:0:
403,275,145960,6,0,B|431:190|431:190|399:99,1,180
295,45,146428,1,0,0:0:0:0:
156,214,146585,1,0,0:0:0:0:
299,189,146741,1,0,0:0:0:0:
116,62,146897,2,0,P|86:96|74:145,1,90
191,0,147210,6,0,P|231:83|219:183,1,180
107,306,147678,2,0,P|67:223|79:123,1,180
191,0,148147,1,0,0:0:0:0:
224,168,148303,1,0,0:0:0:0:
384,96,148460,6,0,L|294:81,1,90
228,293,148772,2,0,P|241:248|242:201,1,90
14,109,149085,2,0,P|34:161|142:227,1,180
329,129,149553,1,0,0:0:0:0:
192,16,149710,6,0,P|167:53|150:111,1,90
242,205,150022,1,0,0:0:0:0:
432,114,150178,2,0,P|364:50|255:44,1,180
203,286,150647,1,0,0:0:0:0:
345,152,150803,1,0,0:0:0:0:
322,274,150960,6,0,L|310:370,1,90
222,163,151272,2,0,L|233:65,1,90
60,225,151585,2,0,P|144:216|235:144,1,180
119,95,152053,1,0,0:0:0:0:
217,279,152210,5,0,0:0:0:0:
321,95,152366,1,0,0:0:0:0:
221,162,152522,1,0,0:0:0:0:
221,162,152835,1,0,0:0:0:0:
429,132,152991,1,0,0:0:0:0:
321,95,153147,1,0,0:0:0:0:
221,162,153303,1,0,0:0:0:0:
203,276,153460,6,0,B|276:296|332:249|332:249|283:232,1,180
103,255,153928,1,0,0:0:0:0:
161,384,154085,2,0,P|185:347|204:293,1,90
73,91,154397,2,0,P|75:142|88:184,1,90
328,240,154710,6,0,P|267:180|171:169,1,180
201,304,155178,1,0,0:0:0:0:
302,103,155335,2,0,P|276:62|239:36,1,90
73,219,155647,1,0,0:0:0:0:
176,167,155803,1,0,0:0:0:0:
95,18,155960,6,0,L|85:107,1,90
157,370,156272,2,0,L|170:269,1,90
10,226,156585,2,0,P|79:218|189:153,1,180
343,311,157053,2,0,P|251:309|158:275,1,180
258,100,157522,6,0,P|276:141|274:213,1,90
126,353,157835,2,0,P|96:319|149:200,1,180
348,121,158303,1,0,0:0:0:0:
199,31,158460,6,0,P|174:68|168:118,1,90
312,200,158772,2,0,P|338:164|347:109,1,90
135,205,159085,1,0,0:0:0:0:
135,205,159397,1,0,0:0:0:0:
257,116,159553,2,0,P|322:162|434:184,1,180
440,17,160022,6,0,P|403:42|367:82,1,90
492,253,160335,2,0,P|506:209|513:154,1,90
372,74,160647,1,0,0:0:0:0:
285,232,160803,2,0,P|209:271|105:280,1,180
23,218,161272,6,0,P|53:190|111:174,1,90
285,232,161585,2,0,P|215:198|174:98,1,180
312,16,162053,1,0,0:0:0:0:
402,103,162210,6,0,P|358:134|306:141,1,90
64,81,162522,1,0,0:0:0:0:
64,81,162835,1,0,0:0:0:0:
204,201,162991,1,0,0:0:0:0:
152,21,163147,1,0,0:0:0:0:
121,262,163303,1,0,0:0:0:0:
315,121,163460,6,0,P|274:103|211:94,1,90
0,189,163772,2,0,P|49:185|95:169,1,90
280,20,164085,2,0,P|246:63|218:215,1,180
304,281,164553,1,0,0:0:0:0:
477,172,164710,6,0,P|441:154|367:142,1,90
355,357,165022,2,0,P|383:319|395:271,1,90
214,182,165335,2,0,P|213:255|313:275,1,180
332,143,165803,1,0,0:0:0:0:
188,54,165960,5,0,0:0:0:0:
117,257,166116,1,0,0:0:0:0:
302,159,166272,1,0,0:0:0:0:
93,107,166428,1,0,0:0:0:0:
28,269,166585,2,0,P|75:267|130:252,1,90
255,184,166897,1,0,0:0:0:0:
227,366,167053,1,0,0:0:0:0:
390,297,167210,6,0,P|299:279|189:266,1,180
388,175,167678,1,0,0:0:0:0:
284,99,167835,2,0,P|267:140|253:194,1,90
128,347,168147,2,0,P|125:301|113:248,1,90
3,150,168460,6,0,P|65:151|189:102,1,180
71,29,168928,1,0,0:0:0:0:
116,258,169085,1,0,0:0:0:0:
116,258,169397,2,0,P|165:245|204:222,1,90
335,18,169710,6,0,P|292:79|287:199,1,180
376,271,170178,1,0,0:0:0:0:
506,159,170335,2,0,P|468:139|411:123,1,90
258,310,170647,1,0,0:0:0:0:
376,271,170803,1,0,0:0:0:0:
282,181,170960,6,0,P|196:202|121:282,1,180
293,378,171428,1,0,0:0:0:0:
376,271,171585,2,0,P|392:182|400:78,1,180
253,15,172053,1,0,0:0:0:0:
169,71,172210,6,0,P|204:101|252:115,1,90
484,76,172522,2,0,P|411:87|324:160,1,180
268,304,172991,1,0,0:0:0:0:
128,207,173147,2,0,P|171:192|221:188,1,90
438,341,173460,6,0,B|388:351|388:351|251:297,1,180
128,207,173928,1,0,0:0:0:0:
65,366,174085,2,0,P|94:326|109:286,1,90
88,129,174397,2,0,L|0:144,1,90
215,187,174710,6,0,P|306:191|393:142,1,180
276,46,175178,1,0,0:0:0:0:
215,187,175335,2,0,L|230:283,1,90
383,151,175647,1,0,0:0:0:0:
228,275,175803,1,0,0:0:0:0:
356,382,175960,6,0,P|367:341|372:279,1,90
126,173,176272,2,0,P|174:185|233:184,1,90
444,56,176585,2,0,P|356:56|279:107,1,180
197,287,177053,2,0,P|103:279|19:233,1,180
97,89,177522,6,0,P|119:130|125:175,1,90
4,46,177835,1,0,0:0:0:0:
205,139,177991,1,0,0:0:0:0:
27,240,178147,1,0,0:0:0:0:
97,89,178303,1,0,0:0:0:0:
223,231,178460,6,0,P|219:279|199:332,1,90
330,172,178772,2,0,P|315:127|308:77,1,90
443,202,179085,1,0,0:0:0:0:
443,202,179397,2,0,P|421:247|384:287,1,90
226,358,179710,5,0,0:0:0:0:
215,134,179866,1,0,0:0:0:0:
330,172,180022,1,0,0:0:0:0:
330,172,180178,1,0,0:0:0:0:
235,257,180335,2,0,L|220:157,1,90
381,81,180647,2,0,P|416:114|424:214,1,135
429,196,180960,6,0,L|336:175,1,90
146,275,181272,2,0,L|244:254,1,90
109,140,181585,2,0,P|53:172|15:285,1,180
236,373,182053,2,0,B|261:335|242:288|242:288|220:237|250:186,1,180
405,267,182522,1,0,0:0:0:0:
405,267,182835,6,0,P|357:263|307:232,1,90
84,358,183147,2,0,P|138:344|171:318,1,90
243,97,183460,1,0,0:0:0:0:
96,168,192660,6,0,P|187:149|267:230,1,180,6|8,0:0|0:0,0:0:0:0:
412,229,193189,2,0,P|367:235|330:260,1,90,2|0,0:0|0:0,0:0:0:0:
268,80,193542,1,2,0:0:0:0:
340,152,193718,1,0,0:0:0:0:
448,132,193895,6,0,L|424:328,1,180,6|0,0:0|0:0,0:0:0:0:
208,352,194424,2,0,P|184:304|192:236,1,90,8|2,0:0|0:0,0:0:0:0:
280,148,194777,1,0,0:0:0:0:
320,352,194954,1,2,0:0:0:0:
272,272,195130,2,0,P|316:260|404:316,1,135,8|0,0:0|0:0,0:0:0:0:
208,352,195483,6,0,B|116:328|124:396|24:368,1,180,6|8,0:0|0:0,0:0:0:0:
168,176,196012,2,0,P|184:224|180:276,1,90,2|0,0:0|0:0,0:0:0:0:
44,288,196365,2,0,P|28:240|32:188,1,90,2|0,0:0|0:0,0:0:0:0:
208,100,196718,5,4,0:0:0:0:
108,232,196895,1,0,0:0:0:0:
268,300,197071,2,0,P|288:256|288:204,1,90,2|8,0:0|0:0,0:0:0:0:
124,64,197424,2,0,P|180:80|268:0,1,180,0|2,0:0|0:0,0:0:0:0:
456,104,197954,6,0,L|396:96,1,45,8|0,0:0|0:0,0:0:0:0:
383,14,198130,2,0,L|428:20,1,45,2|0,0:0|0:0,0:0:0:0:
408,176,198307,2,0,B|359:167|359:167|327:142|327:142|271:131,1,135,4|0,0:0|0:0,0:0:0:0:
136,204,198660,5,8,0:0:0:0:
184,56,198836,2,0,P|196:108|200:152,1,90,2|0,0:0|0:0,0:0:0:0:
72,263,199189,5,2,0:0:0:0:
260,244,199365,1,0,0:0:0:0:
108,120,199542,2,0,P|60:116|-4:224,1,180,4|0,0:0|0:0,0:0:0:0:
148,344,200071,6,0,P|144:300|112:248,1,90,8|0,0:0|0:0,0:0:0:0:
320,300,200424,2,0,P|283:325|254:379,1,90,0|2,0:0|0:0,0:0:0:0:
196,174,200777,2,0,P|236:192|297:190,1,90,8|0,0:0|0:0,0:0:0:0:
416,104,201042,1,0,0:0:0:0:
416,104,201130,6,0,L|304:120,1,90,6|0,0:0|0:0,0:0:0:0:
224,284,201483,1,8,0:0:0:0:
384,220,201660,2,0,L|436:232,2,45,2|0|0,0:0|0:0|0:0,0:0:0:0:
284,76,202012,6,0,P|268:124|276:192,1,90,2|0,0:0|0:0,0:0:0:0:
500,168,202365,2,0,P|469:126|345:134,1,180,4|2,0:0|0:0,0:0:0:0:
280,272,202895,1,8,0:0:0:0:
108,204,203071,6,0,P|151:214|212:220,1,90,2|0,0:0|0:0,0:0:0:0:
122,369,203424,2,0,P|164:351|207:338,1,90,2|8,0:0|0:0,0:0:0:0:
280,272,203777,1,0,0:0:0:0:
40,284,203954,6,0,P|8:236|52:116,1,180,6|8,0:0|0:0,0:0:0:0:
160,31,204483,2,0,P|154:76|146:120,1,90,2|0,0:0|0:0,0:0:0:0:
308,260,204836,1,2,0:0:0:0:
264,96,205012,1,0,0:0:0:0:
172,204,205189,6,0,B|264:228|252:152|360:180,1,180,4|2,0:0|0:0,0:0:0:0:
496,112,205718,2,0,P|432:116|336:24,1,180,8|0,0:0|0:0,0:0:0:0:
428,216,206248,2,0,P|448:280|444:320,1,90,2|8,0:0|0:0,0:0:0:0:
512,192,206601,1,0,0:0:0:0:
356,280,206777,6,0,L|264:264,1,90,6|0,0:0|0:0,0:0:0:0:
296,360,207130,1,8,0:0:0:0:
144,216,207307,2,0,B|208:204|208:204|248:172|248:172|336:156,1,180,2|2,0:0|0:0,0:0:0:0:
310,160,207748,1,0,0:0:0:0:
310,160,207836,1,0,0:0:0:0:
112,72,208012,5,4,0:0:0:0:
88,304,208189,1,0,0:0:0:0:
144,216,208365,1,2,0:0:0:0:
56,160,208542,1,8,0:0:0:0:
0,248,208718,1,2,0:0:0:0:
0,248,209071,5,2,0:0:0:0:
232,280,209248,1,8,0:0:0:0:
56,160,209424,1,0,0:0:0:0:
176,368,209601,5,6,0:0:0:0:
248,188,209777,2,0,P|203:194|168:220,1,90,0|8,0:0|0:0,0:0:0:0:
344,328,210130,2,0,B|376:292|376:292|400:216|356:156,1,180,2|2,0:0|0:0,0:0:0:0:
362,165,210571,1,0,0:0:0:0:
362,165,210660,1,0,0:0:0:0:
68,144,210836,6,0,B|176:160|144:80|280:104,1,198.000006042481,4|2,0:0|0:0,0:0:0:0:
400,24,211365,2,0,P|352:20|296:-12,1,90,8|2,0:0|0:0,0:0:0:0:
368,188,211718,2,0,P|395:148|451:115,1,90,0|2,0:0|0:0,0:0:0:0:
255,100,212071,2,0,L|272:264,1,135,8|0,0:0|0:0,0:0:0:0:
320,292,212424,5,6,0:0:0:0:
140,164,212601,1,0,0:0:0:0:
368,188,212777,1,8,0:0:0:0:
92,268,212954,6,0,P|45:261|0:252,1,90,2|0,0:0|0:0,0:0:0:0:
124,72,213307,1,2,0:0:0:0:
236,232,213483,1,0,0:0:0:0:
72,168,213660,6,0,P|16:92|48:0,1,180,4|2,0:0|0:0,0:0:0:0:
228,52,214189,2,0,P|224:108|196:152,1,90,8|2,0:0|0:0,0:0:0:0:
64,256,214542,5,0,0:0:0:0:
184,176,214718,1,2,0:0:0:0:
292,184,214895,1,8,0:0:0:0:
364,236,215071,1,2,0:0:0:0:
400,308,215248,6,0,P|440:312|504:240,1,135.000005149842,4|0,0:0|0:0,0:0:0:0:
491,165,215777,2,0,B|455:95|378:111|353:145|353:145|343:161|343:161|328:176|328:176|318:194|318:194|301:210|301:210|273:256|213:292|125:262|65:118|289:54|228:185,1,607.500023174287
230,180,218071,5,4,0:0:0:0:
72,207,227745,6,4,P|67:168|58:116,1,90,12|0,1:2|0:0,1:2:0:0:
176,199,228115,2,0,P|169:238|162:298,1,90,2|0,0:0|0:0,0:0:0:0:
305,113,228486,1,8,0:0:0:0:
309,132,228578,1,0,0:0:0:0:
314,151,228671,1,0,0:0:0:0:
319,171,228763,1,0,0:0:0:0:
324,191,228856,6,0,P|403:183|505:171,1,180,4|8,0:0|0:0,0:0:0:0:
502,171,229412,1,0,0:0:0:0:
225,187,229597,2,0,P|186:190|135:200,1,90,2|0,0:0|0:0,0:0:0:0:
2,110,229967,2,0,P|41:106|92:99,1,90,8|0,0:0|0:0,0:0:0:0:
285,77,230337,6,0,P|320:146|302:247,1,180,2|8,0:0|0:0,0:0:0:0:
75,329,230893,2,0,P|39:259|56:162,1,180,2|0,0:0|0:0,0:0:0:0:
187,122,231449,2,0,P|148:115|94:100,1,90,8|0,0:0|0:0,0:0:0:0:
275,49,231819,6,0,P|285:88|293:141,1,90,2|0,0:0|0:0,0:0:0:0:
371,194,232189,2,0,P|382:153|388:105,1,90,8|0,0:0|0:0,0:0:0:0:
467,44,232560,2,0,P|477:83|484:138,1,90,2|0,0:0|0:0,0:0:0:0:
255,272,232930,2,0,B|208:252|208:252|193:226|205:147,1,135,8|0,0:0|0:0,0:0:0:0:
214,148,233300,6,0,L|304:131,1,90,6|0,0:0|0:0,0:0:0:0:
142,89,233671,1,8,0:0:0:0:
297,208,233856,2,0,L|386:190,1,90,2|0,0:0|0:0,0:0:0:0:
142,89,234226,1,0,0:0:0:0:
373,272,234412,2,0,L|466:253,1,90,8|0,0:0|0:0,0:0:0:0:
274,99,234782,6,0,P|255:175|271:275,1,180,4|8,0:0|0:0,0:0:0:0:
146,353,235337,2,0,L|166:265,1,90,2|0,0:0|0:0,0:0:0:0:
72,110,235708,2,0,L|53:204,1,90,2|8,0:0|0:0,0:0:0:0:
270,274,236078,2,0,P|349:282|451:289,1,180,2|0,0:0|0:0,0:0:0:0:
302,166,236634,5,8,0:0:0:0:
423,138,236819,1,2,0:0:0:0:
342,83,237004,1,2,0:0:0:0:
377,214,237189,1,0,0:0:0:0:
229,139,237375,2,0,P|185:116|99:115,1,135,8|0,0:0|0:0,0:0:0:0:
82,128,237745,6,0,L|68:38,1,90,4|0,0:0|0:0,0:0:0:0:
40,219,238115,1,8,0:0:0:0:
209,284,238300,2,0,P|170:274|117:270,1,90,2|0,0:0|0:0,0:0:0:0:
314,257,238671,2,0,P|304:295|299:350,1,90,2|8,0:0|0:0,0:0:0:0:
446,192,239041,2,0,L|269:159,1,180
60,206,239597,5,8,0:0:0:0:
52,334,239782,1,0,0:0:0:0:
277,287,239967,1,2,0:0:0:0:
269,159,240152,1,0,0:0:0:0:
456,94,240337,1,8,0:0:0:0:
456,94,240430,1,0,0:0:0:0:
456,94,240523,1,0,0:0:0:0:
456,94,240615,1,0,0:0:0:0:
456,94,240708,6,0,P|468:172|479:276,1,180,6|8,0:0|0:0,0:0:0:0:
419,352,241263,1,0,0:0:0:0:
264,236,241449,2,0,L|356:222,1,90,2|0,0:0|0:0,0:0:0:0:
191,348,241819,2,0,L|284:363,1,90,8|0,0:0|0:0,0:0:0:0:
88,234,242189,6,0,B|152:226|152:226|204:245|204:245|268:235,1,180,2|8,0:0|0:0,0:0:0:0:
263,235,242745,1,0,0:0:0:0:
344,128,242930,2,0,L|354:39,1,90
419,233,243300,2,0,L|429:139,1,90,8|0,0:0|0:0,0:0:0:0:
477,364,243671,6,0,P|419:334|351:332,1,135,4|0,0:0|0:0,0:0:0:0:
321,339,244041,2,0,L|299:246,1,90
201,289,244412,2,0,L|222:196,1,90,2|0,0:0|0:0,0:0:0:0:
111,175,244782,2,0,L|185:121,1,90,8|0,0:0|0:0,0:0:0:0:
423,196,245152,6,0,B|470:205|470:205|491:142|479:72,1,180,6|8,0:0|0:0,0:0:0:0:
396,275,245708,2,0,L|307:255,1,90
470,203,246078,1,0,0:0:0:0:
321,342,246263,2,0,L|228:321,1,90,8|0,0:0|0:0,0:0:0:0:
62,346,246634,6,0,P|44:260|69:167,1,180,4|8,0:0|0:0,0:0:0:0:
149,119,247189,2,0,P|156:159|163:209,1,90,0|2,0:0|0:0,0:0:0:0:
261,241,247560,2,0,P|267:201|276:150,1,90,0|8,0:0|0:0,0:0:0:0:
403,45,247930,6,0,P|440:115|453:220,1,180,2|0,0:0|0:0,0:0:0:0:
300,304,248486,2,0,P|335:286|391:276,1,90,8|0,0:0|0:0,0:0:0:0:
205,320,248856,2,0,P|193:283|191:229,1,90
81,250,249226,2,0,P|82:210|102:163,1,90,8|0,0:0|0:0,0:0:0:0:
167,105,249597,6,0,P|245:119|348:132,1,180,0|8,0:0|0:0,0:0:0:0:
454,294,250152,2,0,L|465:205,1,90,2|0,0:0|0:0,0:0:0:0:
298,268,250523,2,0,L|307:367,1,90,2|8,0:0|0:0,0:0:0:0:
131,321,250893,6,0,L|117:137,1,180,2|0,0:0|0:0,0:0:0:0:
184,66,251449,1,10,0:0:0:0:
326,146,251634,1,2,0:0:0:0:
454,39,251819,1,2,0:0:0:0:
454,39,251912,1,0,0:0:0:0:
454,39,252004,1,0,0:0:0:0:
454,39,252097,1,0,0:0:0:0:
454,39,252189,2,0,L|467:133,1,90,8|0,0:0|0:0,0:0:0:0:
473,262,252560,6,0,B|407:239|407:239|335:261,1,144,6|0,0:0|0:0,0:0:0:0:
337,261,253115,2,0,L|325:111,1,144,4|0,0:0|0:0,0:0:0:0:
325,117,253671,1,4,0:0:0:0:
124,111,254041,5,4,0:0:0:0:
248,80,254226,1,0,0:0:0:0:
248,80,254319,1,0,0:0:0:0:
248,80,254412,1,0,0:0:0:0:
280,204,254597,1,0,0:0:0:0:
280,204,254689,1,0,0:0:0:0:
280,204,254782,1,0,0:0:0:0:
156,235,254967,1,0,0:0:0:0:
166,354,255152,6,0,L|387:343,1,216,4|0,0:0|0:0,0:0:0:0:
454,295,255893,1,8,0:0:0:0:
380,128,256078,1,2,0:0:0:0:
287,260,256263,1,2,0:0:0:0:
159,165,256449,1,8,3:0:0:0:
79,307,256634,5,4,0:0:0:0:
256,192,256726,12,0,261263,0:0:0:0:
395,154,267375,6,0,L|378:243,1,90,6|0,0:0|0:0,0:0:0:0:
157,126,267616,2,0,L|177:28,1,90,8|0,0:0|0:0,0:0:0:0:
273,170,267858,2,0,L|233:358,1,180,2|8,0:0|0:0,0:0:0:0:
116,253,268221,1,0,0:0:0:0:
33,370,268342,6,0,P|80:371|139:354,1,90,2|0,0:0|0:0,0:0:0:0:
277,279,268584,1,8,0:0:0:0:
362,382,268705,2,0,P|395:347|426:198,1,180,2|2,0:0|0:0,0:0:0:0:
237,151,269068,2,0,P|210:190|200:238,1,90,8|0,0:0|0:0,0:0:0:0:
429,222,269310,6,0,L|331:207,1,90,6|0,0:0|0:0,0:0:0:0:
121,361,269552,2,0,L|216:349,1,90,8|0,0:0|0:0,0:0:0:0:
493,150,269794,2,0,L|392:135,1,90,6|0,0:0|0:0,0:0:0:0:
200,230,270036,1,8,0:0:0:0:
218,102,270157,2,0,B|200:231|200:231|131:200,1,180,6|8,0:0|0:0,0:0:0:0:
26,135,270520,6,0,P|65:119|130:114,1,90,6|0,0:0|0:0,0:0:0:0:
367,294,270762,2,0,P|321:293|273:275,1,90,12|0,0:0|0:0,0:0:0:0:
467,23,271004,2,0,L|446:176,1,135,6|0,0:0|0:0,0:0:0:0:
440,201,271245,6,0,B|388:206|388:206|336:169|256:188,1,180,6|8,0:0|0:0,0:0:0:0:
180,304,271608,1,0,0:0:0:0:
293,374,271729,2,0,P|312:323|309:275,1,90,2|0,0:0|0:0,0:0:0:0:
135,188,271971,1,8,0:0:0:0:
26,376,272092,2,0,P|98:370|189:283,1,180,2|0,0:0|0:0,0:0:0:0:
70,87,272455,6,0,P|34:135|36:255,1,180,8|2,0:0|0:0,0:0:0:0:
223,202,272818,2,0,L|115:184,1,90,0|8,0:0|0:0,0:0:0:0:
301,282,273060,2,0,P|392:274|465:202,1,180
493,369,273423,6,0,P|454:368|392:346,1,90,12|2,0:0|0:0,0:0:0:0:
342,159,273665,1,12,0:0:0:0:
477,37,273786,2,0,L|464:144,1,90,4|2,0:0|0:0,0:0:0:0:
271,285,274028,2,0,B|248:153|248:153|271:88,1,180,12|0,0:0|0:0,0:0:0:0:
377,28,274391,5,8,0:0:0:0:
466,126,274512,2,0,L|510:171,2,45,8|8|8,0:0|0:0|0:0,0:0:0:0:
272,17,274754,1,8,0:0:0:0:
218,25,274875,1,8,0:3:0:0:
180,63,274995,1,4,0:3:0:0:
162,114,275116,6,0,L|178:216,1,90,6|0,0:0|0:0,0:0:0:0:
56,337,275358,2,0,L|36:228,1,90,8|0,0:0|0:0,0:0:0:0:
272,17,275600,2,0,L|299:208,1,180,2|8,0:0|0:0,0:0:0:0:
331,371,275963,1,0,0:0:0:0:
497,295,276084,6,0,P|439:268|390:262,1,90,2|0,0:0|0:0,0:0:0:0:
226,300,276326,1,8,0:0:0:0:
331,371,276447,2,0,P|395:310|418:205,1,180
264,111,276810,2,0,L|105:138,1,135,8|0,0:0|0:0,0:0:0:0:
104,139,277052,6,0,L|209:154,1,90,6|0,0:0|0:0,0:0:0:0:
429,83,277294,2,0,L|322:68,1,90,8|0,0:0|0:0,0:0:0:0:
269,271,277536,2,0,P|293:234|305:180,1,90,6|0,0:0|0:0,0:0:0:0:
157,18,277778,2,0,P|119:73|103:138,1,135,12|0,0:0|0:0,0:0:0:0:
114,163,278020,6,0,P|129:208|131:255,1,90,6|8,0:0|0:0,0:0:0:0:
45,338,278262,2,0,P|114:282|200:260,1,180,6|8,0:0|0:0,0:0:0:0:
382,349,278625,1,8,0:3:0:0:
247,379,278745,2,0,P|199:373|149:347,1,90,4|0,0:3|0:0,0:0:0:0:
411,171,278987,6,0,L|379:367,1,180,6|8,0:0|0:0,0:0:0:0:
255,189,279350,1,0,0:0:0:0:
321,90,279471,2,0,P|356:62|406:47,1,90,2|8,0:0|0:0,0:0:0:0:
255,189,279713,2,0,L|99:166,1,135,12|0,0:0|0:0,0:0:0:0:
94,165,279955,5,10,0:0:0:0:
14,298,280076,2,0,L|109:285,1,90,12|8,0:0|0:3,0:0:0:0:
208,93,280318,1,8,0:0:0:0:
208,93,280439,1,4,0:3:0:0:
282,304,280560,2,0,L|81:283,1,180,12|2,0:0|0:0,0:0:0:0:
373,202,280923,6,0,L|471:180,1,90,12|2,0:0|0:0,0:0:0:0:
219,3,281165,2,0,L|204:121,1,90,12|2,0:0|0:0,0:0:0:0:
173,362,281407,1,12,0:0:0:0:
460,182,281770,1,2,0:0:0:0:
447,285,281891,6,0,P|405:289|351:276,1,90,8|8,0:0|0:0,0:0:0:0:
337,267,282254,6,0,P|290:274|215:368,1,135,8|0,0:0|0:0,0:0:0:0:
218,356,282495,2,0,P|267:243|222:151,1,225,8|0,0:0|0:0,0:0:0:0:
76,257,282858,1,6,0:0:0:0:
267,327,292416,5,6,0:0:0:0:
191,137,292581,1,2,0:0:0:0:
347,232,292746,2,0,P|395:225|439:201,1,90,8|0,0:0|0:0,0:0:0:0:
491,125,293075,5,2,0:0:0:0:
355,323,293240,1,2,0:0:0:0:
183,226,293405,2,0,P|186:182|192:124,1,90,8|0,0:0|0:0,0:0:0:0:
315,58,293735,5,2,0:0:0:0:
46,146,293899,1,2,0:0:0:0:
46,146,293982,1,2,0:0:0:0:
46,146,294064,1,8,0:0:0:0:
254,272,294229,1,0,0:0:0:0:
136,363,294394,6,0,P|90:345|56:312,1,90,2|2,0:0|0:0,0:0:0:0:
46,146,294724,2,0,P|91:107|200:114,1,135,8|0,0:0|0:0,0:0:0:0:
183,110,295053,1,2,0:0:0:0:
296,153,295218,1,2,0:0:0:0:
403,116,295383,2,0,L|510:79,1,90,8|0,0:0|0:0,0:0:0:0:
398,287,295713,5,2,0:0:0:0:
214,224,295877,1,2,0:0:0:0:
214,224,295960,1,2,0:0:0:0:
214,224,296042,1,8,0:0:0:0:
284,40,296207,1,0,0:0:0:0:
465,84,296372,1,2,0:0:0:0:
325,207,296537,1,2,0:0:0:0:
482,269,296702,2,0,P|477:228|467:172,1,90,8|0,0:0|0:0,0:0:0:0:
290,84,297031,6,0,P|212:126|115:140,1,180,2|8,0:0|0:0,0:0:0:0:
28,81,297526,1,2,0:0:0:0:
184,280,297691,2,0,P|209:323|218:368,1,90,6|2,0:0|0:0,0:0:0:0:
0,238,298020,2,0,P|43:226|108:230,1,90,8|0,0:0|0:0,0:0:0:0:
59,323,298350,5,2,0:0:0:0:
35,138,298515,1,2,0:0:0:0:
184,194,298680,2,0,P|255:249|351:271,1,180,8|2,0:0|0:0,0:0:0:0:
463,252,299174,1,2,0:0:0:0:
463,252,299257,1,2,0:0:0:0:
463,252,299339,1,8,0:0:0:0:
307,368,299504,1,0,0:0:0:0:
286,175,299669,6,0,P|282:133|277:86,1,90,2|2,0:0|0:0,0:0:0:0:
112,160,299998,2,0,P|82:198|86:305,1,135,8|0,0:0|0:0,0:0:0:0:
88,294,300328,2,0,P|130:274|191:262,1,90,2|0,0:0|0:0,0:0:0:0:
392,160,300658,2,0,P|350:180|289:192,1,90,8|0,0:0|0:0,0:0:0:0:
172,263,300987,5,2,0:0:0:0:
318,377,301152,1,2,0:0:0:0:
307,190,301317,2,0,P|300:146|299:98,1,90,8|0,0:0|0:0,0:0:0:0:
115,73,301647,5,6,0:0:0:0:
70,191,301811,1,2,0:0:0:0:
222,298,301976,5,12,0:0:0:0:
157,154,302141,1,2,0:0:0:0:
41,295,302306,5,12,0:0:0:0:
244,200,302471,1,2,0:0:0:0:
311,365,302636,6,0,L|256:361,1,45,8|0,0:0|0:0,0:0:0:0:
161,245,302800,2,0,P|147:265|141:298,1,45,0|2,3:0|3:0,0:0:0:0:
269,177,302965,2,0,P|355:180|462:145,1,180,6|8,0:0|0:0,0:0:0:0:
339,47,303460,1,0,0:0:0:0:
368,258,303625,1,2,0:0:0:0:
157,171,303789,1,2,0:0:0:0:
368,148,303954,2,0,P|414:138|464:141,1,90,8|0,0:0|0:0,0:0:0:0:
477,148,304202,1,8,0:0:0:0:
477,148,304284,2,0,L|472:57,1,90,2|2,0:0|0:0,0:0:0:0:
270,259,304614,5,8,0:0:0:0:
315,87,304778,1,0,0:0:0:0:
157,171,304943,2,0,P|112:181|45:182,1,90,2|2,0:0|0:0,0:0:0:0:
181,46,305273,2,0,P|222:82|246:170,1,135,8|0,0:0|0:0,0:0:0:0:
264,169,305603,6,0,P|309:179|376:180,1,90,2|2,0:0|0:0,0:0:0:0:
487,105,305932,1,8,0:0:0:0:
352,181,306097,1,0,0:0:0:0:
459,302,306262,2,0,P|466:258|473:201,1,90,2|2,0:0|0:0,0:0:0:0:
369,50,306592,1,8,0:0:0:0:
360,57,306921,6,0,P|353:101|346:158,1,90,2|2,0:0|0:0,0:0:0:0:
459,302,307251,2,0,P|421:288|360:274,1,90,8|0,0:0|0:0,0:0:0:0:
145,268,307581,1,2,0:0:0:0:
145,268,307746,1,2,0:0:0:0:
214,361,307910,2,0,P|253:310|246:220,1,135,8|0,0:0|0:0,0:0:0:0:
246,220,308240,5,6,0:0:0:0:
57,321,308405,1,2,0:0:0:0:
23,142,308570,2,0,P|68:150|120:177,1,90,8|0,0:0|0:0,0:0:0:0:
36,237,308899,5,2,0:0:0:0:
204,87,309064,1,2,0:0:0:0:
204,87,309147,1,2,0:0:0:0:
204,87,309229,1,8,0:0:0:0:
308,296,309394,1,0,0:0:0:0:
489,142,309559,2,0,P|444:150|392:177,1,90,6|2,0:0|0:0,0:0:0:0:
252,359,309888,1,8,0:0:0:0:
473,239,310053,1,2,0:0:0:0:
473,239,310136,1,2,0:0:0:0:
473,239,310218,5,8,0:0:0:0:
286,155,310383,1,2,0:0:0:0:
220,377,310548,2,0,L|206:282,1,90,8|0,0:0|0:0,0:0:0:0:
90,65,310877,2,0,B|25:27|7:109|66:171,1,161.999995056153,2|0,0:0|0:0,0:0:0:0:
195,162,311207,2,0,B|246:108|228:26|163:64,1,161.999995056153,8|0,0:0|0:0,0:0:0:0:
58,162,311537,2,0,B|103:185|123:225|123:225|148:184|200:160,1,188.999994232178,2|0,0:0|0:0,0:0:0:0:
264,267,311866,2,0,P|241:265|216:255,1,45,8|0,0:0|0:0,0:0:0:0:
395,162,312031,2,0,P|417:155|450:152,1,45,2|0,0:0|0:0,0:0:0:0:
195,162,312196,5,2,0:0:0:0:
358,261,312361,1,2,0:0:0:0:
195,162,312526,1,12,0:0:0:0:
402,42,312691,1,2,0:0:0:0:
364,296,312855,5,12,0:0:0:0:
154,170,313020,1,2,0:0:0:0:
336,127,313185,1,12,0:0:0:0:
237,335,313350,1,2,0:0:0:0:
237,335,313432,1,2,0:0:0:0:
237,335,313515,5,6,0:0:0:0:
32,243,313680,1,2,0:1:0:0:
154,170,313844,1,8,0:0:0:0:
150,318,314009,1,2,0:1:0:0:
12,251,314174,1,2,0:0:0:0:
166,157,314339,1,2,0:0:0:0:
236,332,314504,2,0,P|282:340|334:342,1,90,8|0,0:0|0:0,0:0:0:0:
449,202,314833,5,2,0:0:0:0:
325,342,314998,1,2,0:1:0:0:
504,312,315163,1,8,0:0:0:0:
346,216,315328,1,2,0:0:0:0:
493,92,315493,1,2,0:1:0:0:
449,202,315658,1,2,0:0:0:0:
279,108,315822,1,8,0:0:0:0:
412,305,315987,1,2,0:1:0:0:
383,54,316152,5,12,0:0:0:0:
383,54,316317,1,2,0:1:0:0:
254,204,316482,1,8,0:0:0:0:
413,127,316647,1,2,0:0:0:0:
255,23,316811,1,2,0:1:0:0:
216,222,316976,1,2,0:0:0:0:
337,71,317141,1,8,0:0:0:0:
129,110,317306,1,2,0:1:0:0:
316,247,317471,5,2,0:0:0:0:
234,121,317636,1,2,0:1:0:0:
122,283,317800,1,8,0:0:0:0:
216,222,317965,1,2,0:0:0:0:
348,348,318130,1,2,0:1:0:0:
464,220,318295,1,2,0:0:0:0:
249,318,318460,1,8,0:0:0:0:
438,318,318625,1,2,0:1:0:0:
350,109,318789,1,12,0:0:0:0:
304,209,330987,6,0,P|360:199|403:184,1,90,6|0,0:0|0:0,0:0:0:0:
197,147,331320,1,8,0:0:0:0:
190,285,331487,2,0,P|236:317|277:337,1,90,0|2,0:0|0:0,0:0:0:0:
148,63,331820,2,0,B|116:94|116:94|100:148,1,90,0|8,0:0|0:0,0:0:0:0:
266,332,332153,2,0,P|359:303|450:283,1,180
315,93,332653,2,0,P|300:145|290:190,1,90,8|0,0:0|0:0,0:0:0:0:
156,363,332987,2,0,P|141:311|131:266,1,90,2|0,0:0|0:0,0:0:0:0:
214,0,333320,2,0,B|243:38|243:38|228:79|215:137,1,135,8|0,0:0|0:0,0:0:0:0:
203,194,333653,6,0,P|256:186|306:176,1,90,2|0,0:0|0:0,0:0:0:0:
138,56,333987,1,8,0:0:0:0:
393,168,334153,2,0,P|374:237|359:268,1,90,0|2,0:0|0:0,0:0:0:0:
218,121,334487,1,0,0:0:0:0:
334,45,334653,1,10,0:0:0:0:
223,227,334820,2,0,P|161:211|44:193,1,180
89,302,335320,1,8,0:0:0:0:
218,121,335487,2,0,P|229:96|235:72,2,45,0|0|2,0:0|0:0|0:0,0:0:0:0:
110,227,335820,1,0,0:0:0:0:
55,80,335987,1,8,0:0:0:0:
301,161,336153,6,0,P|282:246|224:322,1,180
33,182,336653,2,0,P|77:198|112:230,2,90,8|0|2,0:0|0:0|0:0,0:0:0:0:
227,319,337153,2,0,P|268:305|306:271,1,90,0|8,0:0|0:0,0:0:0:0:
411,96,337487,2,0,P|320:100|263:176,1,180
425,293,337987,2,0,P|410:238|389:203,1,90,8|0,0:0|0:0,0:0:0:0:
224,66,338320,1,2,0:0:0:0:
217,302,338487,2,0,P|263:291|317:267,1,90,0|8,0:0|0:0,0:0:0:0:
190,157,338820,1,0,0:0:0:0:
190,157,338903,1,0,0:0:0:0:
190,157,338987,6,0,B|90:130|114:183|6:161,2,180,2|8|2,0:0|0:0|0:0,0:0:0:0:
190,157,339987,1,8,0:0:0:0:
383,238,340153,1,0,0:0:0:0:
383,238,340237,1,0,0:0:0:0:
383,238,340320,2,0,L|363:331,1,90,2|0,0:0|0:0,0:0:0:0:
275,260,340653,1,8,0:0:0:0:
384,131,340820,1,0,0:0:0:0:
450,301,340987,1,0,0:0:0:0:
275,260,341153,2,0,L|222:243,1,45,8|8,0:0|0:0,0:0:0:0:
144,172,341320,2,0,L|192:153,1,45,8|8,0:0|0:0,0:0:0:0:
304,126,341487,2,0,L|290:176,1,45,8|10,0:0|0:0,0:0:0:0:
268,352,341653,6,0,P|316:339|349:314,1,90,4|0,0:0|0:0,0:0:0:0:
460,200,341987,1,8,0:0:0:0:
232,90,342153,1,0,0:0:0:0:
373,234,342320,2,0,P|409:270|431:312,1,90,2|0,0:0|0:0,0:0:0:0:
268,352,342653,1,8,0:0:0:0:
460,200,342820,2,0,P|477:127|496:24,1,180
335,145,343320,2,0,P|272:130|245:123,1,90,8|0,0:0|0:0,0:0:0:0:
91,240,343653,2,0,P|149:229|189:217,1,90,2|0,0:0|0:0,0:0:0:0:
416,125,343987,2,0,P|413:182|352:227,1,135,8|0,0:0|0:0,0:0:0:0:
246,180,344320,5,2,0:0:0:0:
246,180,344653,1,8,0:0:0:0:
174,107,344820,2,0,P|214:81|258:75,1,90,0|2,0:0|0:0,0:0:0:0:
319,255,345153,2,0,P|279:281|235:287,1,90,0|8,0:0|0:0,0:0:0:0:
41,174,345487,2,0,B|144:147|109:215|226:177,1,180
244,26,345987,2,0,P|210:78|182:113,1,90,8|0,0:0|0:0,0:0:0:0:
338,277,346320,2,0,P|309:221|293:179,1,90,2|0,0:0|0:0,0:0:0:0:
370,61,346653,1,8,0:0:0:0:
488,225,346820,6,0,P|423:214|386:209,1,90,0|2,0:0|0:0,0:0:0:0:
200,348,347153,1,0,0:0:0:0:
200,348,347320,2,0,P|265:337|302:332,1,90,8|0,0:0|0:0,0:0:0:0:
510,138,347653,2,0,B|464:147|464:147|400:128|400:128|330:145,1,180,2|8,0:0|0:0,0:0:0:0:
183,180,348153,2,0,P|117:116|151:32,1,180
264,120,348653,1,8,0:0:0:0:
81,208,348820,1,0,0:0:0:0:
81,208,348903,1,0,0:0:0:0:
81,208,348987,2,0,P|26:239|0:256,1,90,2|0,0:0|0:0,0:0:0:0:
106,110,349320,1,8,0:0:0:0:
66,306,349487,1,0,0:0:0:0:
197,146,349653,6,0,P|264:130|348:200,1,180,2|8,0:0|0:0,0:0:0:0:
148,325,350153,1,0,0:0:0:0:
148,325,350320,2,0,P|79:315|26:220,1,180,2|8,0:0|0:0,0:0:0:0:
283,135,350820,1,2,0:0:0:0:
283,135,351320,1,8,0:0:0:0:
237,303,351487,1,0,0:0:0:0:
366,242,351653,2,0,L|322:232,3,45,4|4|4|4,3:0|3:0|3:0|3:0,0:0:0:0:
146,215,351987,2,0,L|162:268,1,45,8|4,3:2|3:0,0:0:0:0:
307,363,352153,2,0,L|322:306,1,45,4|0,3:0|0:0,0:0:0:0:
366,108,352320,6,0,P|278:126|233:201,1,180,0|0,3:0|0:0,0:0:0:0:
393,344,352820,1,8,3:0:0:0:
393,344,352987,2,0,P|459:333|488:329,1,90,0|4,0:0|3:0,0:0:0:0:
294,275,353320,2,0,P|274:342|265:375,1,90,8|0,3:0|0:0,0:0:0:0:
168,264,353653,5,2,0:0:0:0:
393,133,353987,1,2,0:0:0:0:
267,73,354320,1,2,0:0:0:0:
252,103,354403,1,2,0:0:0:0:
248,136,354486,1,2,0:0:0:0:
256,169,354569,1,2,0:0:0:0:
272,199,354653,1,10,0:0:0:0:
289,228,354736,1,0,0:0:0:0:
302,259,354819,1,2,0:0:0:0:
302,292,354903,1,2,0:0:0:0:
286,321,354986,5,6,0:0:0:0:0
341,197,366432,5,6,0:0:0:0:
414,278,366603,1,2,0:0:0:0:
333,374,366773,1,8,0:0:0:0:
506,324,366944,2,0,P|496:234|479:146,1,180,2|2,0:0|0:0,0:0:0:0:
413,69,367456,1,8,0:0:0:0:
341,197,367626,1,0,0:0:0:0:
235,119,367796,6,0,L|323:104,1,90,2|0,0:0|0:0,0:0:0:0:
413,69,368137,1,8,0:0:0:0:
212,23,368308,1,2,0:0:0:0:
235,119,368478,1,0,0:0:0:0:
130,89,368649,1,2,0:0:0:0:
234,236,368819,1,8,0:0:0:0:
334,149,368990,1,0,0:0:0:0:
121,74,369160,6,0,P|117:120|111:170,1,90,2|2,0:0|0:0,0:0:0:0:
72,344,369501,1,8,0:0:0:0:
14,271,369671,2,0,P|97:250|160:310,1,180,2|2,0:0|0:0,0:0:0:0:
439,285,370183,2,0,P|394:280|351:270,1,90,8|0,0:0|0:0,0:0:0:0:
250,165,370524,5,2,0:0:0:0:
290,352,370694,1,2,0:0:0:0:
373,249,370865,1,8,0:0:0:0:
265,362,371035,2,0,B|252:294|252:294|262:250|262:250|252:185,1,180,2|2,0:0|0:0,0:0:0:0:
88,132,371546,5,8,0:0:0:0:
183,242,371717,1,0,0:0:0:0:
29,70,371887,1,6,0:0:0:0:
42,302,372058,1,2,0:0:0:0:
162,167,372228,1,8,0:0:0:0:
29,70,372399,2,0,P|-1:150|52:217,1,180,2|2,0:0|0:0,0:0:0:0:
181,338,372910,2,0,P|247:328|314:318,1,135,8|0,0:0|0:0,0:0:0:0:
339,345,373251,6,0,P|344:300|352:256,1,90,6|2,0:0|0:0,0:0:0:0:
508,158,373592,1,8,0:0:0:0:
450,310,373762,2,0,P|433:221|423:132,1,180,2|2,0:0|0:0,0:0:0:0:
264,27,374274,2,0,P|255:71|251:115,1,90,8|0,0:0|0:0,0:0:0:0:
128,188,374615,6,0,B|194:178|194:178|239:201|239:201|278:194|311:189,1,180,6|8,0:0|0:0,0:0:0:0:
500,139,375126,2,0,P|465:61|381:64,1,180,6|2,0:0|0:0,0:0:0:0:
294,293,375637,1,8,0:0:0:0:
128,188,375808,6,0,B|194:178|194:178|239:201|239:201|278:194|311:189,1,180,4|8,0:0|0:0,0:0:0:0:
423,132,376319,1,4,0:3:0:0:
264,27,376490,1,8,0:0:0:0:
264,27,376575,1,8,0:0:0:0:
264,27,376660,1,10,0:0:0:0:
298,165,376831,1,8,0:0:0:0:
123,91,377001,2,0,P|170:93|225:105,1,90,10|4,0:0|0:3,0:0:0:0:
55,319,377342,5,6,0:0:0:0:
220,232,377512,1,2,0:0:0:0:
131,372,377683,1,8,0:0:0:0:
9,191,377853,2,2,P|93:180|127:257,1,180,2|2,0:0|0:0,0:1:0:0:
212,324,378365,1,8,0:0:0:0:
398,281,378535,1,0,0:0:0:0:
299,204,378706,6,0,P|301:248|304:293,1,90,2|2,0:0|0:0,0:0:0:0:
362,371,379046,1,8,0:0:0:0:
488,239,379217,1,2,0:0:0:0:
398,281,379387,1,2,0:1:0:0:
481,331,379558,1,2,0:0:0:0:
402,181,379728,1,8,0:0:0:0:
304,293,379899,1,0,0:0:0:0:
493,149,380069,6,0,P|490:193|487:238,1,90,2|2,0:0|0:0,0:0:0:0:
312,116,380410,1,8,0:0:0:0:
387,3,380581,2,0,B|399:52|399:52|392:98|392:98|401:136|401:180,1,180,2|2,0:0|0:0,0:0:0:0:
222,83,381092,2,0,P|250:48|290:29,1,90,8|0,0:0|0:0,0:0:0:0:
191,184,381433,5,2,0:0:0:0:
60,153,381603,1,2,0:0:0:0:
212,167,381774,1,8,0:0:0:0:
46,127,381944,2,0,B|55:203|55:203|49:241|49:241|61:309,1,180,2|2,0:0|0:0,0:0:0:0:
288,277,382456,1,8,0:0:0:0:
126,240,382626,1,0,0:0:0:0:
198,345,382796,6,0,B|209:280|209:280|203:242|203:242|212:166,1,180,6|8,0:0|0:0,0:0:0:0:
475,248,383308,2,0,P|490:188|398:122,1,180,6|2,0:0|0:0,0:0:0:0:
284,28,383819,2,0,P|291:72|303:115,1,90,8|0,0:0|0:0,0:0:0:0:
403,204,384160,5,4,0:0:0:0:
502,83,384331,1,8,0:0:0:0:
502,83,384416,1,8,0:0:0:0:
502,83,384501,1,8,0:0:0:0:
418,345,384671,5,6,0:0:0:0:
276,316,385012,5,2,0:0:0:0:
139,361,385353,6,0,P|79:371|37:266,1,180,6|0,0:0|0:0,0:0:0:0:
204,191,385865,2,0,L|193:280,1,90,8|0,0:0|0:0,0:0:0:0:
30,180,386206,1,2,0:0:0:0:
103,295,386376,1,8,0:3:0:0:
172,106,386546,1,4,0:3:0:0:
120,190,386717,1,2,0:0:0:0:
64,65,386887,5,6,0:0:0:0:
103,295,387569,1,4,0:0:0:0:
256,192,388251,1,4,0:0:0:0:
256,192,388336,12,0,390978,0:0:0:0:
42,250,398055,6,0,P|47:272|61:297,1,45,8|4,0:0|0:0,0:0:0:0:
140,336,398219,2,0,P|168:328|189:313,1,45,0|2,0:0|0:0,0:0:0:0:
270,262,398384,2,0,P|296:266|326:282,1,45,8|4,0:3|0:3,0:0:0:0:
403,330,398549,5,4,0:3:0:0:
436,340,398631,1,4,0:3:0:0:
468,356,398714,2,0,P|447:286|443:191,1,135,14|0,0:0|0:0,0:0:0:0:
448,184,399044,6,0,B|496:124|440:60|360:40|320:132,1,198.000006042481,8|2,0:0|0:0,0:0:0:0:
216,44,399538,5,2,0:0:0:0:
132,160,399703,2,0,P|76:156|24:144,1,99.0000030212403,8|0,0:0|0:0,0:0:0:0:
204,248,400033,5,2,0:0:0:0:
332,208,400197,1,0,0:0:0:0:
432,272,400362,6,0,P|444:324|492:392,1,99.0000030212403,8|0,0:0|0:0,0:0:0:0:
263,303,400692,2,0,P|294:263|315:189,1,99.0000030212403,2|2,0:0|0:0,0:0:0:0:
448,192,401022,2,0,P|371:189|257:135,2,198.000006042481,8|2|8,0:0|0:0|0:0,0:0:0:0:
408,336,401846,5,0,0:0:0:0:
408,336,402011,2,0,B|323:346|268:328|268:328|244:344|204:352,1,198.000006042481,2|8,0:0|0:0,0:0:0:0:
112,292,402505,2,0,B|144:268|168:260|168:260|176:229|200:194|200:194|234:186|280:165,1,198.000006042481,0|2,0:0|0:0,0:0:0:0:
180,100,403000,6,0,P|226:84|287:37,1,99.0000030212403,8|0,0:0|0:0,0:0:0:0:
56,152,403329,2,0,P|67:104|65:52,1,99.0000030212403,2|2,0:0|0:0,0:0:0:0:
180,100,403659,5,8,0:0:0:0:
56,296,403824,1,0,0:0:0:0:
56,296,403989,6,0,B|92:308|112:320|112:320|172:284|264:275,1,198.000006042481,2|8,0:0|0:0,0:0:0:0:
460,232,404483,2,0,B|404:207|340:197|340:197|322:169|283:143,1,198.000006042481
28,176,404978,6,0,B|92:200|152:168|104:96|214:96,1,198.000006042481,8|2,0:0|0:0,0:0:0:0:
364,120,405472,1,2,0:0:0:0:
288,16,405637,1,8,0:0:0:0:
264,192,405802,6,0,P|341:150|456:144,1,198.000006042481,0|2,0:0|0:0,0:0:0:0:
292,116,406296,2,0,P|244:104|196:80,1,99.0000030212403,8|0,0:0|0:0,0:0:0:0:
199,82,406626,5,2,0:0:0:0:
216,267,406791,1,2,0:0:0:0:
40,189,406956,1,8,0:0:0:0:
279,155,407120,5,0,0:0:0:0:
103,289,407285,1,2,0:0:0:0:
83,82,407450,1,2,0:0:0:0:
199,307,407615,6,0,P|125:290|45:292,1,99.0000030212403,8|0,0:0|0:0,0:0:0:0:
40,189,407945,5,8,0:0:0:0:
152,116,408109,1,2,0:0:0:0:
312,132,408274,1,8,0:0:0:0:
460,24,408439,1,4,0:3:0:0:
460,24,408522,1,4,0:3:0:0:
460,24,408604,1,6,0:3:0:0:
316,196,408769,5,12,0:0:0:0:
484,260,408934,1,4,0:0:0:0:
252,348,409098,1,4,0:0:0:0:
44,204,409263,6,0,B|81:209|124:198|124:198|165:233|246:261,1,198.000006042481,6|8,0:0|0:0,0:0:0:0:
360,208,409758,1,0,0:0:0:0:
428,324,409923,2,0,P|376:342|325:376,1,99.0000030212403,2|2,0:0|0:0,0:0:0:0:
124,312,410252,1,8,0:0:0:0:
124,312,410417,2,0,B|135:266|154:239|154:239|135:188|135:188|156:150|169:95,1,198.000006042481,0|2,0:0|0:0,0:0:0:0:
24,236,410912,5,8,0:0:0:0:
256,184,411076,1,2,0:0:0:0:
96,68,411241,2,0,P|145:86|228:104,1,99.0000030212403,0|2,0:0|0:0,0:0:0:0:
292,212,411571,2,0,B|404:209|369:140|499:150,1,198.000006042481,8|14,0:0|0:0,0:0:0:0:
280,344,412065,5,0,0:0:0:0:
280,344,412230,2,0,B|292:273|292:273|272:202|177:185,2,198.000006042481,8|2|8,0:0|0:0|0:0,0:0:0:0:
280,344,413055,5,2,0:0:0:0:
416,324,413219,1,0,0:0:0:0:
232,236,413384,5,2,0:0:0:0:
36,196,413549,1,12,0:0:0:0:
220,116,413713,1,0,0:0:0:0:
120,276,413878,6,0,P|132:204|108:80,1,198.000006042481,6|8,0:0|0:0,0:0:0:0:
40,344,414373,5,2,0:0:0:0:
40,344,414455,1,0,0:0:0:0:
40,344,414538,2,0,B|97:339|129:307|129:307|165:287|254:292,1,198.000006042481,6|2,0:0|0:0,0:0:0:0:
320,336,415033,2,0,B|380:384|444:328|456:248|384:216,1,198.000006042481,8|2,0:0|0:0,0:0:0:0:
364,156,415527,5,0,0:0:0:0:
364,156,415692,2,0,B|343:104|354:54|354:54|388:8|470:33,1,198.000006042481,8|8,0:0|0:0,0:0:0:0:
256,80,416186,5,0,0:0:0:0:
464,132,416351,1,4,0:0:0:0:
464,132,416434,1,4,0:3:0:0:
464,132,416516,2,0,B|456:176|455:236,1,99.0000030212403,8|4,0:3|0:0,0:0:0:0:
455,229,416845,1,12,0:0:0:0:
224,296,417011,2,0,P|229:236|234:173,1,99.0000030212403,8|6,0:0|0:0,0:0:0:0:
232,197,417340,5,2,0:0:0:0:
75,331,417505,2,0,P|175:332|272:343,1,198.000006042481,8|2,0:0|0:0,0:0:0:0:
412,312,417999,5,2,0:0:0:0:
436,164,418164,1,8,0:0:0:0:
284,112,418329,1,0,0:0:0:0:
184,32,418494,5,0,0:0:0:0:
169,72,418576,1,0,0:0:0:0:
163,115,418658,1,0,0:0:0:0:
173,158,418741,1,0,0:0:0:0:
193,198,418823,1,0,0:0:0:0:
229,226,418906,1,0,0:0:0:0:
254,262,418988,1,0,0:0:0:0:
260,306,419070,1,0,0:0:0:0:
244,348,419153,6,0,P|200:356|160:360,1,49.5000015106202,8|0,0:3|0:0,0:0:0:0:
344,256,419318,2,0,P|372:260|404:268,1,49.5000015106202,4|0,0:0|0:0,0:0:0:0:
144,228,419483,2,0,P|117:229|87:237,1,49.5000015106202,8|0,0:3|0:0,0:0:0:0:
360,132,419648,2,0,P|384:130|418:114,1,49.5000015106202,4|0,0:3|0:0,0:0:0:0:
204,48,419813,5,12,0:0:0:0:
133,26,430201,6,0,B|122:71|122:71|134:113|134:113|117:162|132:202,1,180
374,282,430701,1,0,0:0:0:0:
231,172,430867,1,0,0:0:0:0:
291,341,431034,1,0,0:0:0:0:
288,88,431201,5,0,0:0:0:0:
245,262,431367,1,0,0:0:0:0:
37,117,431534,5,0,0:0:0:0:
199,38,431701,1,0,0:0:0:0:
150,302,431867,5,0,0:0:0:0:
139,121,432034,1,0,0:0:0:0:
311,172,432201,6,0,P|317:198|322:229,1,45
358,199,432367,2,0,P|349:228|342:250,1,45
390,248,432534,6,0,L|358:292,1,45
401,309,432700,2,0,L|356:346,1,45
254,353,432867,6,0,P|165:335|76:321,1,180
94,67,433367,2,0,P|101:112|111:156,1,90
202,230,433701,1,0,0:0:0:0:
323,98,433867,2,0,L|234:115,1,90
313,279,434201,2,0,L|402:296,1,90
61,352,434534,2,0,P|43:285|69:202,1,135
68,197,434867,2,0,P|55:150|47:97,1,90
170,283,435201,2,0,P|180:239|191:177,1,90
294,18,435534,6,0,B|306:53|306:53|298:106|298:106|309:155|309:155|290:222,1,180
453,336,436034,1,0,0:0:0:0:
453,336,436117,1,0,0:0:0:0:
453,336,436201,2,0,P|390:310|320:300,1,135
297,306,436534,2,0,P|254:328|202:350,1,90
184,167,436867,2,0,P|141:155|75:132,1,90
404,35,437201,2,0,B|390:100|390:100|408:185,1,135
472,226,437534,2,0,L|453:323,1,90
298,197,437867,2,0,L|280:108,1,90
42,316,438201,6,0,B|76:322|102:335|102:335|153:326|153:326|179:342|221:345,1,180
97,29,438701,2,0,B|86:83|72:117|72:117|99:202,1,180
213,257,439201,1,0,0:0:0:0:
204,131,439367,1,0,0:0:0:0:
322,319,439534,6,0,B|358:309|358:309|469:329,1,135
460,235,439867,2,0,P|434:231|409:227,1,45
319,159,440034,2,0,P|341:156|364:153,1,45
435,97,440201,2,0,P|444:52|453:-9,1,90
215,240,440534,2,0,P|194:174|211:90,1,135
212,19,440867,6,0,B|164:24|132:48|132:48|86:50|30:22,1,180
0,203,441367,1,0,0:0:0:0:
0,203,441451,1,0,0:0:0:0:
0,203,441534,2,0,P|7:250|21:304,1,90
189,362,441867,2,0,P|199:318|206:273,1,90
286,71,442201,6,0,B|389:87|389:87|426:71,1,135
490,20,442534,2,0,P|468:83|473:171,1,135
489,238,442867,2,0,P|448:165|343:163,1,180
248,216,443367,2,0,L|256:265,1,45
182,314,443534,6,0,L|74:300,1,90
166,118,443867,1,0,0:0:0:0:
248,216,444034,2,0,L|361:233,1,90
154,28,444367,2,0,L|166:118,1,90
248,216,444701,1,0,0:0:0:0:
405,73,444867,6,0,P|387:137|373:204,1,135
445,258,445201,2,0,L|453:304,1,45
364,316,445367,2,0,L|371:360,1,45
296,254,445534,2,0,P|223:258|197:333,1,135
178,328,445867,2,0,L|89:313,1,90
242,157,446201,6,0,P|260:96|247:15,1,135
226,38,446534,2,0,L|138:24,1,90
296,254,446867,1,0,0:0:0:0:
411,200,447035,2,0,P|421:157|427:112,1,90
154,177,447367,1,0,0:0:0:0:
154,177,447451,1,0,0:0:0:0:
154,177,447534,6,0,L|243:156,1,90
405,356,447867,2,0,P|361:306|296:300,1,135
270,310,448201,2,0,L|169:293,1,90
120,174,448534,2,0,L|32:190,1,90
360,19,448867,6,0,B|360:36|352:54|352:54|369:95|359:151,1,135
428,210,449201,2,0,P|439:189|450:159,1,45
278,113,449367,2,0,L|184:133,1,90
333,242,449701,2,0,P|321:288|308:330,1,90
31,190,450034,5,0,0:0:0:0:
31,190,450117,1,0,0:0:0:0:
31,190,450201,1,0,0:0:0:0:
79,74,450367,1,0,0:0:0:0:
143,242,450534,2,0,L|231:260,1,90
429,194,450867,2,0,L|438:149,1,45
373,53,451034,2,0,L|364:97,1,45
279,129,451201,2,0,L|235:139,1,45
185,64,451367,2,0,L|141:53,1,45
109,185,451534,5,0,0:0:0:0:
235,138,451701,1,0,0:0:0:0:
141,53,451867,1,0,0:0:0:0:
202,241,452034,1,0,0:0:0:0:
202,241,452117,1,0,0:0:0:0:
202,241,452201,1,0,0:0:0:0:
429,194,452367,2,0,L|340:175,1,90
298,46,452701,1,0,0:0:0:0:
309,260,452867,5,0,0:0:0:0:
201,151,453034,1,0,0:0:0:0:
406,82,453201,1,0,0:0:0:0:
262,29,453367,1,0,0:0:0:0:
340,175,453534,2,0,L|327:246,1,45
265,315,453701,2,0,L|257:271,1,45
209,106,453867,2,0,L|196:177,1,45
87,350,454034,2,0,L|78:305,1,45
3,234,454201,6,0,P|48:206|102:207,1,107.999996704102
425,329,454701,6,0,B|441:283|424:242|424:242|442:188|442:188|421:145|440:80,1,233.999989288331
284,34,455201,2,0,L|326:18,1,45
211,101,455367,1,0,0:0:0:0:
211,101,455451,1,0,0:0:0:0:
211,101,455534,2,0,L|122:83,1,90
256,266,455867,2,0,L|355:286,1,90
150,207,456201,2,0,P|136:249|132:295,1,90
315,162,456534,2,0,P|327:117|332:73,1,90
32,28,456867,6,0,P|23:94|46:156,1,135
66,255,457201,2,0,L|48:320,1,45
150,207,457367,2,0,L|164:261,1,45
198,352,457534,2,0,B|229:359|229:359|257:351|257:351|311:364|311:364|384:348,1,180
416,111,458034,1,0,0:0:0:0:
500,205,458201,6,0,P|492:249|480:292,1,90
294,34,458534,2,0,P|283:100|301:165,1,135
302,191,458867,2,0,L|214:175,1,90
61,319,459201,2,0,L|149:335,1,90
57,24,459534,6,0,B|37:55|37:55|41:85|41:85|7:134|22:220,1,180
149,335,460034,2,0,B|185:296|185:296|319:280,1,180
414,352,460534,1,0,0:0:0:0:
311,280,460701,1,0,0:0:0:0:
463,185,460867,6,0,P|472:140|477:96,1,90
333,111,461200,2,0,P|324:84|311:49,1,45
238,25,461367,2,0,P|230:46|223:67,1,45
166,138,461534,2,0,P|119:126|58:115,1,90
25,337,461867,2,0,P|70:294|142:293,1,135
209,350,462201,6,0,B|178:292|189:219|189:219|243:231,1,180
405,92,462701,1,0,0:0:0:0:
405,92,462784,1,0,0:0:0:0:
405,92,462867,2,0,L|311:66,1,90
433,268,463200,2,0,L|347:245,1,90
217,37,463534,6,0,B|186:68|186:68|92:92,1,135
43,19,463867,2,0,P|11:77|28:148,1,135
99,194,464201,2,0,B|146:182|146:182|207:192|281:225,1,180
355,314,464700,2,0,L|364:357,1,45
433,268,464867,6,0,P|444:224|455:174,1,90
267,310,465201,1,0,0:0:0:0:
161,330,465367,2,0,L|72:311,1,90
23,141,465700,2,0,L|111:162,1,90
226,110,466034,1,0,0:0:0:0:
355,314,466201,6,0,P|376:256|369:176,1,135
314,113,466534,2,0,P|302:91|295:52,1,45
384,55,466700,2,0,P|388:33|400:5,1,45
281,202,466867,2,0,L|130:173,1,135
121,180,467201,2,0,P|111:135|105:91,1,90
30,349,467534,6,0,P|67:304|161:317,1,135
224,274,467867,2,0,P|232:302|238:329,1,45
318,355,468034,2,0,P|323:333|329:311,1,45
408,267,468201,2,0,P|394:221|383:159,1,90
452,52,468534,1,0,0:0:0:0:
297,163,468700,1,0,0:0:0:0:
297,163,468784,1,0,0:0:0:0:
297,163,468867,6,0,L|387:180,1,90
120,22,469201,2,0,P|111:89|136:150,1,135
202,210,469534,2,0,B|111:194|111:194|70:208,1,135
10,275,469867,2,0,L|21:323,1,45
98,363,470034,2,0,L|108:319,1,45
199,319,470201,6,0,L|310:304,1,90
326,75,470534,1,0,0:0:0:0:
463,190,470700,1,0,0:0:0:0:
463,190,470784,1,0,0:0:0:0:
463,190,470867,1,0,0:0:0:0:
348,243,471034,2,0,P|354:199|370:148,1,90
130,97,471367,1,0,0:0:0:0:
130,97,471450,1,0,0:0:0:0:
130,97,471534,1,0,0:0:0:0:
230,21,471700,5,0,0:0:0:0:
151,183,471867,2,0,P|137:141|130:97,1,90
326,75,472200,2,0,P|333:96|337:119,1,45
427,128,472367,2,0,P|420:149|410:170,1,45
468,239,472534,2,0,P|450:252|429:263,1,45
447,350,472700,2,0,P|424:350|401:346,1,45
301,255,472867,6,0,P|212:229|131:299,1,180
63,92,473367,1,0,0:0:0:0:
63,92,473450,1,0,0:0:0:0:
63,92,473534,1,0,0:0:0:0:
35,214,473700,1,0,0:0:0:0:
4,36,473867,1,0,0:0:0:0:
123,147,474034,2,0,L|113:191,1,45
202,103,474201,6,0,B|291:89|291:89|335:49,1,135
410,30,474534,2,0,B|382:38|382:38|315:27,1,90
264,199,474867,2,0,L|272:243,1,45
369,297,475034,2,0,L|362:253,1,45
234,159,475200,2,0,L|212:198,1,45
403,332,475367,2,0,L|424:292,1,45
354,150,475534,5,0,0:0:0:0:
290,327,475700,1,0,0:0:0:0:
430,200,475867,1,0,0:0:0:0:
212,287,476034,2,0,L|109:269,1,90
63,92,476367,2,0,L|151:107,1,90
444,288,476701,5,0,0:0:0:0:
444,288,476784,1,0,0:0:0:0:
444,288,476867,2,0,L|429:196,1,90
373,29,477201,2,0,L|359:117,1,90
212,287,477534,2,0,L|300:273,1,90
131,189,477867,2,0,L|42:175,1,90
189,70,478200,5,0,0:0:0:0:
131,189,478367,1,0,0:0:0:0:
212,287,478534,1,0,0:0:0:0:
66,82,478700,1,0,0:0:0:0:
66,82,478784,1,0,0:0:0:0:
66,82,478867,1,0,0:0:0:0:
226,163,479034,2,0,L|315:149,1,90
452,234,479367,1,0,0:0:0:0:
212,287,479534,5,0,0:0:0:0:
212,287,479617,1,0,0:0:0:0:
212,287,479700,1,0,0:0:0:0:
314,149,479867,1,0,0:0:0:0:
386,314,480034,1,0,0:0:0:0:
142,355,480200,1,0,0:0:0:0:
118,317,480283,1,0,0:0:0:0:
113,273,480366,1,0,0:0:0:0:
130,231,480449,1,0,0:0:0:0:
149,200,480534,2,0,P|157:166|161:117,1,72
153,12,480867,5,0,0:0:0:0:
258,64,481034,1,0,0:0:0:0:
160,129,481201,1,0,0:0:0:0:
349,98,481367,5,0,0:0:0:0:
238,153,481534,1,0,0:0:0:0:
342,222,481701,1,0,0:0:0:0:
380,66,481867,5,0,0:0:0:0:
287,192,482034,1,0,0:0:0:0:
439,161,482201,1,0,0:0:0:0:
258,64,482367,5,0,0:0:0:0:
166,193,482534,1,0,0:0:0:0:
319,225,482701,1,0,0:0:0:0:
105,129,482867,5,0,0:0:0:0:
197,287,483034,1,0,0:0:0:0:
288,129,483201,1,0,0:0:0:0:
105,255,483367,5,0,0:0:0:0:
258,160,483534,1,0,0:0:0:0:
228,351,483701,1,0,0:0:0:0:
134,128,483867,5,0,0:0:0:0:
319,225,484034,1,0,0:0:0:0:
228,34,484201,1,0,0:0:0:0:
74,224,484367,5,0,0:0:0:0:
257,129,484534,1,0,0:0:0:0:
317,317,484701,1,0,0:0:0:0:
135,98,484867,5,0,0:0:0:0:
409,254,485034,1,0,0:0:0:0:
74,192,485201,5,0,0:0:0:0:
379,98,485367,1,0,0:0:0:0:
74,319,485534,5,0,0:0:0:0:
255,34,485700,1,0,0:0:0:0:
438,319,485867,1,0,0:0:0:0:
44,193,486034,5,0,0:0:0:0:
