osu file format v14

[General]
AudioFilename: audio.mp3
AudioLeadIn: 0
PreviewTime: 101567
Countdown: 0
SampleSet: Normal
StackLeniency: 0.7
Mode: 0
LetterboxInBreaks: 0
WidescreenStoryboard: 0

[Editor]
DistanceSpacing: 1.9
BeatDivisor: 4
GridSize: 4
TimelineZoom: 1

[Metadata]
Title:Shuumatsu no Bishou
TitleUnicode:終末の微笑
Artist:Hana
ArtistUnicode:はな
Creator:PandaHero
Version:Through the Looking Glass
Source:素晴らしき日々~不連続存在~
Tags:SubaHibi Subarashiki Hibi ~Furenzoku Sonzai~ Wonderful Everyday ~Diskontinuierliches Dasein~ すかぢ SCA-ji visual novel vn eroge KeroQ szak
BeatmapID:1850982
BeatmapSetID:885621

[Difficulty]
HPDrainRate:6
CircleSize:4
OverallDifficulty:8
ApproachRate:9
SliderMultiplier:1.6
SliderTickRate:1

[Events]
//Background and Video events
0,0,"zakuro.jpg",0,0
//Break Periods
2,141610,142686
//Storyboard Layer 0 (Background)
//Storyboard Layer 1 (Fail)
//Storyboard Layer 2 (Pass)
//Storyboard Layer 3 (Foreground)
//Storyboard Sound Samples

[TimingPoints]
404,375,4,2,1,25,1,0
404,-142.857142857143,4,2,1,25,0,0
1154,387.096774193548,4,2,1,25,1,0
1541,363.636363636364,4,2,1,25,1,0
1722,387.096774193548,4,2,1,25,1,0
1722,-142.857142857143,4,2,1,25,0,0
2109,370.37037037037,4,2,1,25,1,0
2479,-142.857142857143,4,2,1,25,0,0
2849,387.096774193548,4,2,1,25,1,0
3429,377.358490566038,4,2,1,25,1,0
3617,-142.857142857143,4,2,1,30,0,0
4373,375,4,2,1,30,1,0
4748,-142.857142857143,4,2,1,30,0,0
5123,352.941176470588,4,2,1,30,1,0
5475,400,4,2,1,30,1,0
5475,-142.857142857143,4,2,1,30,0,0
5875,352.941176470588,4,2,1,30,1,0
6227,375,4,1,1,30,1,0
6414,375,4,1,1,50,1,0
6414,-100,4,1,1,50,0,0
6789,363.636363636364,4,1,1,50,1,0
7152,377.358490566038,4,1,1,50,1,0
7906,375,4,1,1,50,1,0
30031,400,4,1,1,50,1,0
30231,363.636363636364,4,1,1,50,1,0
30412,387.096774193548,4,2,1,30,1,0
30412,-200,4,2,1,30,0,0
30799,375,4,2,1,30,1,0
30799,-200,4,2,1,30,0,0
31736,387.096774193548,4,2,1,30,1,0
31736,-200,4,2,1,30,0,0
32123,375,4,2,1,30,1,0
32123,-200,4,2,1,30,0,0
34748,368.098159509202,4,2,1,30,1,0
35484,363.636363636364,4,2,1,30,1,0
35484,-200,4,2,1,30,0,0
35847,375,4,2,1,30,1,0
35847,-200,4,2,1,30,0,0
36597,408.163265306122,4,2,1,30,1,0
36801,375,4,2,1,30,1,0
36801,-200,4,2,1,30,0,0
36988,361.44578313253,4,2,1,30,1,0
37349,382.165605095541,4,2,1,30,1,0
37349,-200,4,2,1,30,0,0
38877,346.820809248555,4,2,1,30,1,0
38877,-200,4,2,1,30,0,0
39223,398.671096345515,4,2,1,30,1,0
39422,375,4,2,1,30,1,0
39422,-200,4,2,1,30,0,0
42047,-142.857142857143,4,2,1,30,0,0
43734,359.281437125748,4,2,1,30,1,0
43734,-142.857142857143,4,2,1,30,0,0
44093,371.517027863777,4,2,1,30,1,0
44650,387.096774193548,4,2,1,30,1,0
44650,-142.857142857143,4,2,1,30,0,0
45230,368.098159509202,4,2,1,30,1,0
45230,-142.857142857143,4,2,1,30,0,0
45782,384.615384615385,4,2,1,30,1,0
45782,-142.857142857143,4,2,1,30,0,0
46743,363.636363636364,4,2,1,30,1,0
46743,-142.857142857143,4,2,1,30,0,0
47470,375,4,2,1,30,1,0
47470,-142.857142857143,4,2,1,30,0,0
48407,375,4,2,1,30,1,0
48407,-142.857142857143,4,2,1,30,0,0
49153,400,4,2,1,30,1,0
49353,387.096774193548,4,2,1,30,1,0
49353,-142.857142857143,4,2,1,30,0,0
49546,375,4,2,1,30,1,0
49733,370.37037037037,4,2,1,30,1,0
49733,-142.857142857143,4,2,1,30,0,0
50658,387.096774193548,4,2,1,30,1,0
50658,-142.857142857143,4,2,1,30,0,0
51045,375,4,2,1,30,1,0
51045,-142.857142857143,4,2,1,30,0,0
51420,375,4,2,1,30,1,0
51795,-142.857142857143,4,2,1,30,0,0
54045,324.324324324324,4,2,1,30,1,0
54207,413.793103448276,4,2,1,30,1,0
54413,375,4,2,1,30,1,0
54413,-142.857142857143,4,2,1,30,0,0
55350,400,4,2,1,30,1,0
55750,363.636363636364,4,2,1,30,1,0
56113,368.098159509202,4,2,1,30,1,0
57033,387.096774193548,4,2,1,30,1,0
57226,375,4,2,1,30,1,0
57226,-142.857142857143,4,2,1,30,0,0
60038,387.096774193548,4,2,1,30,1,0
60038,-142.857142857143,4,2,1,30,0,0
60425,363.636363636364,4,2,1,30,1,0
60788,375,4,2,1,30,1,0
60975,387.096774193548,4,2,1,30,1,0
60975,-142.857142857143,4,2,1,30,0,0
61362,375,4,2,1,30,1,0
61737,-142.857142857143,4,2,1,30,0,0
61924,375,4,2,1,30,1,0
62486,368.098159509202,4,2,1,30,1,0
62486,-142.857142857143,4,2,1,30,0,0
63222,382.165605095541,4,2,1,30,1,0
63222,-142.857142857143,4,2,1,30,0,0
63413,382.165605095541,4,2,1,30,1,0
63986,375,4,2,1,30,1,0
63986,-142.857142857143,4,2,1,30,0,0
65298,359.281437125748,4,2,1,30,1,0
65298,-142.857142857143,4,2,1,30,0,0
65836,408.163265306122,4,2,1,30,1,0
66040,379.746835443038,4,2,1,30,1,0
66229,365.853658536585,4,2,1,30,1,0
66411,375,4,1,1,55,1,0
66411,-90.9090909090909,4,1,1,55,0,0
78411,-125,4,1,0,45,0,0
89661,-125,4,1,1,45,0,0
90411,-90.9090909090909,4,1,1,55,0,0
102411,-71.4285714285714,4,1,1,65,0,0
126504,-142.857142857143,4,2,1,20,0,0
129036,-142.857142857143,4,2,1,5,0,0
129223,-142.857142857143,4,2,1,35,0,0
143286,-142.857142857143,4,2,1,20,0,0
144223,-142.857142857143,4,2,1,35,0,0
147223,-142.857142857143,4,2,1,40,0,0
148723,-142.857142857143,4,2,1,45,0,0
149473,-142.857142857143,4,1,1,35,0,0
150411,-100,4,2,1,40,0,0
173286,-100,4,2,1,45,0,0
174411,-111.111111111111,4,1,1,55,0,0
198411,-111.111111111111,4,2,1,45,0,0
210411,-90.9090909090908,4,1,1,55,0,0
219411,387.096774193548,4,2,1,35,1,0
219411,-142.857142857143,4,2,1,35,0,0
220185,352.941176470588,4,2,1,35,1,0
220537,389.61038961039,4,2,1,35,1,0
221316,342.857142857143,4,2,1,35,1,0
221658,387.096774193548,4,2,1,35,1,0
222045,375,4,2,1,35,1,0
222420,413.793103448276,4,2,1,35,1,0
222833,433.212996389892,4,2,1,35,1,0
222833,-142.857142857143,4,2,1,25,0,0
222941,-142.857142857143,4,2,1,10,0,0
224999,-142.857142857143,4,2,1,5,0,0
225215,400,4,2,1,25,1,0
225215,-142.857142857143,4,2,1,25,0,0
225412,428.571428571429,4,2,1,25,1,0
225415,422.535211267606,4,2,1,25,1,0
225415,-250.000000000001,4,2,1,25,0,0
225626,375,4,2,1,25,1,0
226749,-142.857142857143,4,2,1,25,0,0
230501,363.636363636364,4,2,1,25,1,0
230501,-142.857142857143,4,2,1,25,0,0
230864,358.208955223881,4,2,1,25,1,0
231401,400,4,2,1,25,1,0
231601,375,4,2,1,25,1,0
232726,-142.857142857143,4,2,1,25,0,0
232913,375,4,2,1,25,1,0
233100,-142.857142857143,4,2,1,25,0,0
237225,-90.909090909091,4,1,1,35,0,0
237413,-90.909090909091,4,1,1,55,0,0
249413,-71.4285714285714,4,1,1,60,0,0
261413,-71.4285714285714,4,1,1,65,0,0
270413,-71.4285714285714,4,1,1,55,0,0
273413,-71.4285714285714,4,1,1,70,0,1
285319,-71.4285714285714,4,1,1,70,0,0
285413,-62.5,4,1,1,75,0,1
297413,-200,4,1,1,75,0,0
297506,-200,4,2,1,30,0,0
318413,-200,4,2,1,25,0,0
319913,-200,4,2,1,15,0,0
321413,-200,4,2,1,5,0,0

[Colours]
Combo1 : 148,67,125
Combo2 : 197,148,129
Combo3 : 148,67,67
Combo4 : 199,131,156

[HitObjects]
47,304,404,5,4,0:3:0:0:
126,258,591,1,2,0:0:0:0:
56,197,779,1,0,1:0:0:0:
118,245,966,1,2,0:0:0:0:
284,88,1347,5,2,0:0:0:0:
214,27,1541,1,0,1:0:0:0:
276,75,1722,2,0,L|401:69,1,111.999996582031,2|0,0:0|0:0,0:0:0:0:
387,69,2294,1,0,1:0:0:0:
290,167,2479,2,0,L|165:173,1,111.999996582031,2|0,0:0|0:0,0:0:0:0:
178,172,3042,1,0,1:0:0:0:
246,250,3236,1,2,0:0:0:0:
473,211,3617,5,2,0:0:0:0:
375,195,3806,1,0,1:0:0:0:
446,233,3995,1,2,0:0:0:0:
238,338,4373,5,2,0:0:0:0:
140,354,4560,1,0,1:0:0:0:
211,316,4748,2,0,L|213:189,1,111.999996582031,2|0,0:0|0:0,0:0:0:0:
145,135,5299,1,0,1:0:0:0:
145,135,5475,2,0,L|15:161,1,111.999996582031,2|0,0:0|0:0,0:0:0:0:
109,41,6051,1,0,1:0:0:0:
273,39,6227,1,8,0:0:0:0:
279,45,6289,1,8,0:0:0:0:
285,51,6352,1,8,0:0:0:0:
291,57,6414,6,0,P|341:78|380:84,1,80,4|0,0:0|0:0,0:0:0:0:
472,64,6789,1,8,0:0:0:0:
362,192,6970,1,8,0:3:0:0:
362,192,7061,1,8,0:3:0:0:
362,192,7152,2,0,P|351:246|353:301,1,80,4|4,0:3|0:3,0:0:0:0:
488,355,7529,2,0,P|485:315|476:276,1,80,8|8,0:0|0:3,0:0:0:0:
261,193,7906,6,0,P|213:221|149:230,1,120,4|0,0:3|0:0,0:0:0:0:
149,230,8281,2,0,P|86:224|41:231,1,80,8|8,0:0|0:3,0:0:0:0:
121,316,8656,1,4,0:3:0:0:
40,250,8843,1,4,0:3:0:0:
92,340,9031,2,0,P|154:345|199:338,1,80,8|8,0:0|0:3,0:0:0:0:
21,157,9406,6,0,P|31:75|122:33,1,160,4|8,0:3|0:0,0:0:0:0:
259,116,9968,1,8,0:3:0:0:
259,116,10062,1,8,0:3:0:0:
259,116,10156,2,0,P|247:59|222:10,1,80,4|4,0:3|0:3,0:0:0:0:
170,149,10531,1,8,0:0:0:0:
230,233,10718,1,8,0:3:0:0:
323,185,10906,6,0,P|368:174|421:173,1,80,4|0,0:3|0:0,0:0:0:0:
489,228,11281,1,8,0:0:0:0:
416,81,11468,1,8,0:3:0:0:
416,81,11562,1,8,0:3:0:0:
416,81,11656,2,0,P|371:92|318:93,1,80,4|4,0:3|0:3,0:0:0:0:
225,86,12031,1,8,0:0:0:0:
243,251,12218,5,8,0:3:0:0:
243,251,12312,1,8,0:3:0:0:
243,251,12406,2,0,P|248:297|246:352,1,80,4|0,0:3|0:0,0:0:0:0:
81,365,12781,1,8,0:0:0:0:
29,274,12968,1,8,0:3:0:0:
48,171,13156,2,0,P|57:132|76:96,1,80,4|4,0:3|0:3,0:0:0:0:
285,127,13531,1,8,0:0:0:0:
358,209,13718,1,8,0:3:0:0:
358,209,13812,1,8,0:3:0:0:
358,209,13906,6,0,P|442:218|496:205,1,120,4|0,0:3|0:0,0:0:0:0:
476,211,14281,2,0,L|467:307,1,80,8|8,0:0|0:3,0:0:0:0:
391,137,14656,2,0,L|400:41,1,80,4|4,0:3|0:3,0:0:0:0:
301,20,15031,1,8,0:0:0:0:
231,96,15218,1,8,0:3:0:0:
249,272,15406,5,4,0:3:0:0:
321,197,15593,1,0,0:0:0:0:
217,182,15781,1,8,0:0:0:0:
167,361,15968,1,8,0:3:0:0:
167,361,16062,1,8,0:3:0:0:
167,361,16156,2,0,P|211:361|273:365,1,80,4|4,0:3|0:3,0:0:0:0:
144,262,16531,2,0,P|100:262|38:258,1,80,8|8,0:0|0:3,0:0:0:0:
290,202,16906,5,4,0:3:0:0:
290,202,17093,1,4,0:3:0:0:
147,32,17281,1,8,0:0:0:0:
147,32,17468,1,4,0:3:0:0:
344,107,17656,1,8,0:0:0:0:
194,233,17843,1,8,0:0:0:0:
176,277,17937,1,8,0:0:0:0:
175,325,18031,1,8,0:0:0:0:
206,360,18124,1,4,0:3:0:0:
251,376,18218,1,8,0:3:0:0:
298,366,18312,1,4,0:3:0:0:
332,331,18406,6,0,P|373:322|496:339,1,160,4|8,1:0|0:0,0:0:0:0:
488,336,18968,1,8,0:3:0:0:
211,271,19156,1,4,0:3:0:0:
211,271,19343,1,4,0:3:0:0:
120,204,19531,1,8,0:0:0:0:
123,208,19718,1,8,0:3:0:0:
176,109,19906,1,4,0:3:0:0:
176,109,20093,1,4,0:3:0:0:
283,141,20281,1,8,0:0:0:0:
283,141,20468,1,8,0:3:0:0:
123,208,20656,5,4,0:3:0:0:
34,139,20843,1,4,0:3:0:0:
80,36,21031,1,8,0:0:0:0:
199,53,21218,5,8,0:3:0:0:
199,53,21312,1,8,0:3:0:0:
199,53,21406,1,4,0:3:0:0:
86,41,21593,1,8,0:3:0:0:
86,41,21781,1,8,0:0:0:0:
41,144,21968,1,4,0:3:0:0:
41,144,22156,1,4,0:3:0:0:
128,212,22343,1,4,0:3:0:0:
128,212,22531,1,8,0:0:0:0:
223,157,22718,5,4,0:3:0:0:
496,158,22906,1,8,0:0:0:0:
470,169,22999,1,8,0:0:0:0:
444,179,23093,1,8,0:0:0:0:
417,189,23187,1,8,0:0:0:0:
391,200,23281,1,8,0:0:0:0:
32,36,23562,5,8,0:0:0:0:
58,28,23656,1,8,0:0:0:0:
175,59,23843,1,8,0:0:0:0:
87,155,24031,1,8,0:0:0:0:
59,151,24124,1,8,0:0:0:0:
31,145,24218,1,8,0:0:0:0:
209,191,24406,6,0,P|204:271|209:366,1,160,4|8,0:0|0:0,0:0:0:0:
207,350,24968,1,8,0:3:0:0:
341,167,25156,1,4,0:3:0:0:
341,167,25343,1,4,0:3:0:0:
251,99,25531,1,8,0:0:0:0:
251,99,25718,1,8,0:3:0:0:
353,54,25906,1,4,0:3:0:0:
353,54,26093,1,4,0:3:0:0:
445,117,26281,1,8,0:0:0:0:
445,117,26468,1,8,0:3:0:0:
425,227,26656,5,4,0:3:0:0:
321,267,26843,1,4,0:3:0:0:
340,156,27031,1,8,0:0:0:0:
432,236,27218,5,8,0:3:0:0:
432,236,27312,1,8,0:3:0:0:
432,236,27406,1,4,0:3:0:0:
340,156,27593,1,8,0:3:0:0:
321,267,27781,1,8,0:0:0:0:
249,80,27968,5,4,0:3:0:0:
256,52,28062,1,8,0:0:0:0:
149,146,28249,1,8,0:0:0:0:
156,118,28343,1,4,0:3:0:0:
34,226,28531,5,8,0:0:0:0:
27,198,28624,1,4,0:3:0:0:
134,292,28812,1,4,0:3:0:0:
127,264,28906,1,8,0:0:0:0:
238,342,29093,1,4,0:3:0:0:
231,314,29187,1,8,0:0:0:0:
41,333,29374,1,8,0:0:0:0:
34,361,29468,1,6,0:3:0:0:
149,146,29656,5,8,0:0:0:0:
345,194,29843,1,8,0:0:0:0:
352,162,29937,1,8,0:0:0:0:
359,130,30031,1,8,0:0:0:0:
220,11,30231,1,4,0:3:0:0:
246,111,30412,1,4,1:2:0:0:
246,111,30799,6,0,L|250:162,1,40,0|2,0:0|0:0,0:0:0:0:
330,202,31361,2,0,L|316:251,2,40,2|0|2,0:0|1:0|0:0,0:0:0:0:
447,320,32123,5,2,0:0:0:0:
361,364,32498,1,2,0:0:0:0:
271,329,32873,2,0,L|229:303,2,40,2|0|2,0:0|1:0|0:0,0:0:0:0:
125,263,33623,6,0,L|167:237,2,40,2|0|2,0:0|1:0|0:0,0:0:0:0:
61,191,34373,2,0,L|72:139,2,40,2|0|2,0:0|1:0|0:0,0:0:0:0:
59,26,35116,1,2,0:0:0:0:
106,21,35300,1,0,1:0:0:0:
144,50,35484,1,2,0:0:0:0:
405,143,35847,5,2,0:0:0:0:
428,145,36034,1,0,1:0:0:0:
450,134,36222,2,0,P|409:112|365:103,1,80,2|2,0:0|0:0,0:0:0:0:
299,97,36801,6,0,L|295:148,1,40,0|2,1:0|0:0,0:0:0:0:
215,188,37349,2,0,L|228:237,2,40,2|0|2,0:0|1:0|0:0,0:0:0:0:
35,330,38113,5,2,0:0:0:0:
113,346,38495,1,2,0:0:0:0:
118,266,38877,2,0,L|66:253,2,40,2|0|2,0:0|1:0|0:0,0:0:0:0:
358,341,39609,6,0,L|410:328,2,40,2|0|2,0:0|1:0|0:0,0:0:0:0:
293,282,40359,2,0,L|303:233,2,40,2|0|2,0:0|1:0|0:0,0:0:0:0:
374,171,41109,1,2,0:0:0:0:
374,171,41297,2,0,L|412:180,1,40,0|2,1:0|0:0,0:0:0:0:
472,126,41859,1,2,0:0:0:0:
430,59,42047,6,0,P|373:39|268:242,1,335.999989746094,2|0,1:2|0:0,0:0:0:0:
319,267,43359,2,0,P|350:260|380:260,1,55.9999982910157,2|0,0:0|3:0,0:0:0:0:
320,352,43734,2,0,P|263:337|192:340,1,111.999996582031,2|0,0:0|0:0,0:0:0:0:
139,354,44278,1,0,3:0:0:0:
82,307,44464,1,2,0:0:0:0:
92,140,44650,6,0,L|139:16,1,111.999996582031,0|0,1:0|3:0,0:0:0:0:
204,33,45230,2,0,B|249:61|249:61|325:50,1,111.999996582031,2|0,0:0|0:0,0:0:0:0:
359,113,45782,1,0,3:0:0:0:
359,113,45974,2,0,L|485:105,1,111.999996582031,2|0,0:0|0:0,0:0:0:0:
320,342,46551,5,0,1:0:0:0:
320,342,46743,2,0,B|225:310|243:380|134:343,1,167.999994873047,2|0,1:2|3:0,0:0:0:0:
96,307,47470,2,0,P|103:257|124:184,1,111.999996582031,2|0,0:0|0:0,0:0:0:0:
197,120,48032,5,0,3:0:0:0:
268,135,48220,1,0,1:0:0:0:
132,28,48407,2,0,P|56:49|30:134,1,167.999994873047,0|2,1:0|0:0,0:0:0:0:
229,224,49353,2,0,L|285:218,1,55.9999982910157,2|0,0:0|3:0,0:0:0:0:
351,246,49733,2,0,L|336:371,2,111.999996582031,2|2|2,0:0|0:0|0:0,0:0:0:0:
373,40,50658,5,0,1:0:0:0:
373,40,51045,2,0,P|470:92|470:219,2,223.999993164063,0|2|0,1:0|1:2|1:0,0:0:0:0:
320,90,52732,2,0,L|198:80,1,111.999996582031,0|2,1:0|0:0,0:0:0:0:
231,218,53482,2,0,L|353:208,1,111.999996582031,2|2,0:0|0:0,0:0:0:0:
369,276,54045,1,0,3:0:0:0:
329,336,54207,1,2,0:0:0:0:
160,284,54413,6,0,P|53:302|37:364,1,167.999994873047,0|0,1:0|1:0,0:0:0:0:
250,329,55350,1,0,1:0:0:0:
194,22,55750,1,2,1:2:0:0:
109,207,56113,1,0,1:0:0:0:
326,163,56481,1,2,1:2:0:0:
109,207,57033,5,0,1:0:0:0:
192,201,57226,2,0,P|229:276|218:378,1,167.999994873047,2|0,1:2|1:0,0:0:0:0:
303,343,57976,2,0,L|436:324,1,111.999996582031,2|2,0:0|0:0,0:0:0:0:
479,359,58538,1,0,3:0:0:0:
489,287,58726,2,0,P|470:220|441:169,1,111.999996582031,2|2,0:0|0:0,0:0:0:0:
377,174,59288,1,0,3:0:0:0:
321,126,59476,2,0,P|340:59|369:8,1,111.999996582031,2|0,0:0|0:0,0:0:0:0:
222,146,60038,6,0,P|235:177|244:222,1,55.9999982910157,0|0,1:0|0:0,0:0:0:0:
168,85,60425,1,0,1:0:0:0:
29,288,60788,1,0,1:0:0:0:
122,215,60975,2,0,P|109:289|111:346,1,111.999996582031,0|2,1:2|0:0,0:0:0:0:
184,302,61549,1,0,3:0:0:0:
257,342,61737,2,0,P|315:370|371:372,1,111.999996582031,2|2,0:0|0:0,0:0:0:0:
444,365,62299,1,0,3:0:0:0:
336,277,62486,2,0,P|398:293|453:284,1,111.999996582031,2|2,0:0|0:0,0:0:0:0:
275,122,63038,5,0,1:0:0:0:
206,146,63222,2,0,P|145:127|141:22,1,167.999994873047,2|0,1:2|1:0,0:0:0:0:
201,9,63986,2,0,L|317:18,1,111.999996582031,2|2,0:0|0:0,0:0:0:0:
374,56,64548,1,0,3:0:0:0:
438,22,64736,1,2,0:0:0:0:
263,228,65111,1,2,0:0:0:0:
192,209,65298,2,0,L|116:220,2,55.9999982910157,0|2|0,3:0|0:0|0:0,0:0:0:0:
348,221,65836,5,4,1:3:0:0:
110,313,66040,1,8,1:0:0:0:
259,359,66229,1,4,1:3:0:0:
238,134,66411,6,0,P|188:47|85:23,1,176.000005371094,4|8,0:0|0:0,0:0:0:0:
120,21,66973,1,8,0:3:0:0:
25,167,67161,2,0,L|47:284,1,88.000002685547,4|4,0:3|0:3,0:0:0:0:
233,289,67536,2,0,L|212:184,1,88.000002685547,8|8,0:0|0:3,0:0:0:0:
147,327,67911,5,4,0:3:0:0:
109,128,68098,1,4,0:3:0:0:
131,227,68286,1,8,0:0:0:0:
311,152,68473,1,8,0:3:0:0:
311,152,68567,1,8,0:3:0:0:
311,152,68661,2,0,P|377:225|457:223,1,176.000005371094,4|8,0:2|0:0,0:0:0:0:
449,225,69223,1,8,0:3:0:0:
278,342,69411,6,0,L|118:303,1,132.00000402832,4|0,0:0|0:0,0:0:0:0:
136,333,69786,2,0,L|16:351,1,88.000002685547,8|8,0:0|0:3,0:0:0:0:
139,176,70161,1,4,0:3:0:0:
239,206,70348,1,4,0:3:0:0:
181,37,70536,2,0,L|57:70,1,88.000002685547,8|8,0:0|0:3,0:0:0:0:
241,107,70911,6,0,L|401:68,1,132.00000402832,4|0,0:3|0:0,0:0:0:0:
383,98,71286,2,0,L|503:116,1,88.000002685547,8|8,0:0|0:3,0:0:0:0:
405,226,71661,2,0,L|311:208,1,88.000002685547,4|4,0:3|0:3,0:0:0:0:
292,215,71942,1,8,0:3:0:0:
266,222,72036,1,8,0:0:0:0:
170,329,72223,1,8,0:3:0:0:
271,360,72411,6,0,L|241:187,1,176.000005371094,4|8,0:0|0:0,0:0:0:0:
240,186,72973,1,8,0:3:0:0:
93,33,73161,1,4,0:3:0:0:
126,161,73348,1,4,0:3:0:0:
222,67,73536,1,8,0:0:0:0:
48,232,73723,1,8,0:3:0:0:
48,232,73817,1,8,0:3:0:0:
48,232,73911,6,0,L|62:387,1,132.00000402832,4|0,0:3|0:0,0:0:0:0:
84,353,74286,2,0,L|195:344,1,88.000002685547,8|8,0:0|0:3,0:0:0:0:
335,235,74661,2,0,L|224:244,1,88.000002685547,4|4,0:2|0:3,0:0:0:0:
368,54,75036,1,8,0:0:0:0:
472,131,75223,1,8,0:3:0:0:
472,131,75317,1,8,0:3:0:0:
472,131,75411,6,0,P|455:221|450:328,1,176.000005371094,4|8,0:0|0:0,0:0:0:0:
310,226,75973,1,4,0:3:0:0:
310,226,76067,2,0,P|327:315|351:385,1,132.00000402832,8|4,0:0|0:3,0:0:0:0:
185,203,76536,1,8,0:0:0:0:
234,90,76723,1,4,0:3:0:0:
15,236,76911,5,4,0:0:0:0:
15,236,77004,1,0,0:0:0:0:
15,236,77098,1,0,0:0:0:0:
15,236,77192,1,0,0:0:0:0:
42,192,77286,5,8,0:0:0:0:
90,173,77379,1,0,0:0:0:0:
143,173,77473,1,0,0:0:0:0:
185,203,77567,1,0,0:0:0:0:
224,238,77661,5,8,3:0:0:0:
250,241,77754,1,8,3:0:0:0:
275,243,77848,1,8,3:0:0:0:
301,245,77942,1,8,3:0:0:0:
340,280,78036,5,4,3:0:0:0:
366,277,78129,1,4,3:0:0:0:
391,275,78223,1,4,3:0:0:0:
417,273,78317,1,4,3:0:0:0:
462,299,78411,5,4,0:0:0:0:
462,299,78786,2,0,L|464:209,1,64,0|2,0:0|3:0,0:0:0:0:
408,181,79161,1,0,0:0:0:0:
334,203,79348,1,0,3:0:0:0:
351,128,79536,1,0,0:0:0:0:
428,108,79723,1,2,3:0:0:0:
428,108,79911,2,0,P|370:49|306:31,1,128
328,33,80473,1,2,3:0:0:0:
248,75,80661,6,0,L|165:78,1,64,2|0,0:2|3:0,0:0:0:0:
143,157,81036,2,0,L|226:154,1,64,2|2,0:2|3:0,0:0:0:0:
282,203,81411,6,0,L|273:342,1,128
273,330,81973,1,2,3:0:0:0:
200,309,82161,2,0,L|123:318,2,64,0|0|0,0:0|3:0|0:0,0:0:0:0:
238,242,82723,1,2,3:0:0:0:
238,242,82911,2,0,L|386:226,1,128
365,228,83473,1,2,3:0:0:0:
447,192,83661,6,0,L|397:140,1,64,2|0,0:2|3:0,0:0:0:0:
432,61,84036,2,0,L|359:64,1,64,2|2,0:2|3:0,0:0:0:0:
280,85,84411,6,0,P|218:105|133:97,1,128
156,103,84973,1,2,3:0:0:0:
83,130,85161,2,0,L|78:213,1,64,0|0,0:0|3:0,0:0:0:0:
145,232,85536,1,0,0:0:0:0:
79,271,85723,1,2,3:0:0:0:
143,313,85911,2,0,L|276:295,1,128
269,295,86473,1,2,3:0:0:0:
358,300,86661,6,0,L|440:312,1,64,2|0,0:2|3:0,0:0:0:0:
458,227,87036,2,0,L|368:213,1,64,2|2,0:2|3:0,0:0:0:0:
303,195,87411,6,0,P|309:126|336:50,1,128
326,70,87973,1,2,3:0:0:0:
269,22,88161,2,0,P|195:39|133:32,1,128
143,34,88723,1,2,3:0:0:0:
43,144,88911,6,0,L|56:234,1,64,0|0,0:0|3:0,0:0:0:0:
66,111,89286,2,0,L|61:201,1,64,0|2,0:0|3:0,0:0:0:0:
104,85,89661,5,2,0:3:0:0:
87,241,89848,1,4,0:3:0:0:
205,182,90036,5,8,0:0:0:0:
188,338,90223,1,2,0:0:0:0:
268,85,90411,6,0,P|330:104|417:103,1,132.00000402832,4|0,0:0|0:0,0:0:0:0:
419,133,90786,2,0,P|470:119|519:120,1,88.000002685547,8|2,0:0|0:3,0:0:0:0:
418,268,91161,1,4,0:3:0:0:
316,239,91348,1,4,0:3:0:0:
358,336,91536,1,8,0:0:0:0:
324,154,91723,1,8,0:3:0:0:
207,199,91911,6,0,P|175:268|157:345,1,132.00000402832,4|0,0:3|0:0,0:0:0:0:
165,356,92286,2,0,P|98:325|61:317,1,88.000002685547,8|2,0:0|0:3,0:0:0:0:
34,78,92661,1,4,0:3:0:0:
131,117,92848,1,4,0:3:0:0:
323,38,93036,2,0,L|192:30,1,132.00000402832,8|0,0:0|0:0,0:0:0:0:
215,55,93411,6,0,P|220:145|214:250,1,176.000005371094,4|8,0:3|0:0,0:0:0:0:
216,230,93973,1,6,0:3:0:0:
137,301,94161,2,0,P|83:286|19:289,1,88.000002685547,4|4,0:3|0:3,0:0:0:0:
262,346,94536,2,0,P|231:270|211:239,1,88.000002685547,8|8,0:0|0:3,0:0:0:0:
435,69,94911,5,4,0:3:0:0:
411,192,95098,1,4,0:3:0:0:
299,42,95286,1,8,0:0:0:0:
269,134,95473,1,2,0:3:0:0:
355,111,95661,1,4,0:3:0:0:
299,42,95848,1,4,0:3:0:0:
244,260,96036,2,0,L|107:263,1,132.00000402832,8|0,0:0|0:0,0:0:0:0:
152,228,96411,6,0,L|333:227,1,176.000005371094,4|8,0:3|0:0,0:0:0:0:
327,227,96973,1,2,0:3:0:0:
465,145,97161,2,0,L|378:143,2,88.000002685547,4|4|8,0:3|0:3|0:0,0:0:0:0:
295,38,97723,1,8,0:3:0:0:
295,38,97911,2,0,P|187:83|193:157,1,176.000005371094,4|8,0:3|0:0,0:0:0:0:
232,221,98473,2,0,P|263:216|327:221,2,88.000002685547,2|4|4,0:3|0:3|0:3,0:0:0:0:
167,304,99036,2,0,P|135:302|73:285,1,88.000002685547,8|8,0:0|0:3,0:0:0:0:
268,364,99411,6,0,P|338:302|397:284,1,132.00000402832,4|0,0:2|0:0,0:0:0:0:
425,283,99786,2,0,P|414:233|411:186,1,88.000002685547,8|2,0:0|0:3,0:0:0:0:
408,19,100161,1,4,0:2:0:0:
485,90,100348,1,0,0:0:0:0:
314,123,100536,2,0,B|263:101|182:107,1,132.00000402832,8|0,0:0|0:0,0:0:0:0:
134,116,100911,5,4,0:0:0:0:
35,181,101098,1,8,0:3:0:0:
35,181,101192,1,8,0:3:0:0:
35,181,101286,1,8,0:0:0:0:
158,362,101473,1,2,0:0:0:0:
145,234,101661,5,4,0:3:0:0:
74,291,101848,1,4,3:0:0:0:
364,248,102036,1,8,0:3:0:0:
293,305,102223,1,4,3:0:0:0:
483,101,102411,6,2,P|379:121|292:86,1,167.999994873047,6|0,0:0|0:0,0:0:0:0:
283,79,102786,2,0,P|211:77|165:89,1,111.999996582031,8|2,0:0|0:3,0:0:0:0:
21,211,103161,1,4,0:3:0:0:
128,180,103348,1,4,0:3:0:0:
205,261,103536,1,8,0:0:0:0:
98,292,103723,1,2,0:0:0:0:
98,292,103817,1,0,0:0:0:0:
98,292,103911,6,2,P|115:210|155:110,1,167.999994873047,2|0,0:0|0:0,0:0:0:0:
184,110,104286,1,10,0:0:0:0:
386,179,104473,1,2,0:0:0:0:
276,203,104661,1,0,0:0:0:0:
325,102,104848,1,2,0:0:0:0:
372,261,105036,2,0,P|363:317|357:381,1,111.999996582031,8|2,0:0|0:0,0:0:0:0:
402,371,105317,1,0,0:0:0:0:
446,367,105411,6,2,P|454:292|459:189,1,167.999994873047,4|0,0:0|0:0,0:0:0:0:
463,154,105786,2,0,P|397:156|337:140,1,111.999996582031,8|2,0:0|0:3,0:0:0:0:
246,109,106161,1,4,0:3:0:0:
342,51,106348,1,4,0:3:0:0:
234,18,106536,1,8,0:0:0:0:
64,164,106723,1,2,0:0:0:0:
64,164,106817,1,0,0:0:0:0:
64,164,106911,6,2,P|61:243|71:353,1,167.999994873047,2|0,0:0|0:0,0:0:0:0:
119,311,107286,1,8,0:0:0:0:
225,343,107473,1,2,0:0:0:0:
204,232,107661,2,0,P|192:179|171:118,1,111.999996582031,0|2,0:2|0:0,0:0:0:0:
409,230,108036,1,8,0:0:0:0:
357,329,108223,5,10,0:0:0:0:
357,329,108317,1,8,0:0:0:0:
357,329,108411,1,4,0:0:0:0:
296,209,108598,1,2,0:0:0:0:
379,103,108786,2,0,P|451:127|513:129,1,111.999996582031,10|2,0:0|0:3,0:0:0:0:
212,27,109161,1,4,0:3:0:0:
165,152,109348,1,4,0:3:0:0:
33,116,109536,1,8,0:0:0:0:
167,118,109723,5,2,0:0:0:0:
32,159,109911,2,2,P|22:238|37:343,1,167.999994873047,2|0,0:0|0:0,0:0:0:0:
69,350,110286,1,8,0:0:0:0:
181,277,110473,1,2,0:0:0:0:
304,330,110661,2,0,P|372:349|439:355,1,111.999996582031,0|2,0:0|0:0,0:0:0:0:
486,240,111036,2,0,P|418:221|351:215,1,111.999996582031,8|0,0:0|0:0,0:0:0:0:
332,216,111317,1,0,0:0:0:0:
292,195,111411,6,2,P|297:110|330:13,1,167.999994873047,6|2,0:0|0:3,0:0:0:0:
355,60,111786,2,0,P|404:85|459:93,1,111.999996582031,8|2,0:0|0:3,0:0:0:0:
299,366,112161,2,2,P|294:281|261:184,1,167.999994873047,6|2,0:0|0:3,0:0:0:0:
236,231,112536,2,0,P|186:256|131:264,1,111.999996582031,8|2,0:0|0:3,0:0:0:0:
30,123,112911,6,0,L|54:59,3,55.9999982910157,6|8|2|8,0:0|0:3|0:3|0:3,0:0:0:0:
130,140,113286,2,0,L|92:181,3,55.9999982910157,8|0|8|8,0:0|0:3|0:3|0:3,0:0:0:0:
130,264,113661,5,10,0:0:0:0:
136,308,113754,1,8,0:0:0:0:
167,340,113848,1,0,0:0:0:0:
208,356,113942,1,8,0:0:0:0:
256,328,114036,1,8,0:0:0:0:
310,314,114129,1,0,0:0:0:0:
366,314,114223,1,8,0:0:0:0:
420,326,114317,1,8,0:0:0:0:
464,359,114411,6,2,P|474:243|491:169,1,167.999994873047,6|0,0:0|0:0,0:0:0:0:
486,147,114786,2,0,P|420:158|359:159,1,111.999996582031,8|2,0:0|0:3,0:0:0:0:
193,125,115161,1,4,0:3:0:0:
189,15,115348,1,4,0:3:0:0:
285,62,115536,1,8,0:0:0:0:
215,221,115723,1,2,0:0:0:0:
108,184,115911,6,2,P|66:245|100:338,1,167.999994873047,2|0,0:0|0:0,0:0:0:0:
135,324,116286,1,8,0:0:0:0:
188,226,116473,1,2,0:0:0:0:
411,176,116661,2,0,P|352:219|289:226,1,111.999996582031,0|2,0:0|0:0,0:0:0:0:
254,79,117036,2,0,P|313:36|376:29,1,111.999996582031,8|2,0:0|0:0,0:0:0:0:
395,28,117317,1,0,0:0:0:0:
433,50,117411,6,2,P|449:144|441:258,1,167.999994873047,4|0,0:0|0:0,0:0:0:0:
430,258,117786,2,0,P|375:241|296:242,1,111.999996582031,8|2,0:0|0:3,0:0:0:0:
245,321,118161,1,4,0:3:0:0:
355,340,118348,1,4,0:3:0:0:
329,146,118536,1,8,0:0:0:0:
227,193,118723,1,2,0:0:0:0:
39,149,118911,6,2,P|56:58|116:-12,1,167.999994873047,2|0,0:0|0:0,0:0:0:0:
145,3,119286,1,8,0:0:0:0:
253,81,119473,1,2,0:0:0:0:
178,193,119661,1,0,0:0:0:0:
156,106,119848,1,10,0:0:0:0:
156,106,119942,1,8,0:0:0:0:
156,106,120036,1,8,0:0:0:0:
375,219,120223,1,10,0:0:0:0:
375,219,120317,1,8,0:0:0:0:
375,219,120411,6,0,P|466:232|495:224,1,111.999996582031,4|2,0:0|0:0,0:0:0:0:
283,191,120786,2,0,P|266:265|282:355,1,167.999994873047,10|0,0:0|0:0,0:0:0:0:
238,342,121161,1,4,0:3:0:0:
137,292,121348,1,4,0:3:0:0:
52,366,121536,1,8,0:0:0:0:
148,153,121723,1,2,0:0:0:0:
148,153,121817,1,0,0:0:0:0:
148,153,121911,6,2,P|197:78|270:17,1,167.999994873047,6|0,0:0|0:0,0:0:0:0:
299,35,122286,1,8,0:0:0:0:
410,109,122473,1,2,0:0:0:0:
410,109,122567,1,0,0:3:0:0:
410,109,122661,1,0,0:0:0:0:
277,134,122848,1,2,0:0:0:0:
460,200,123036,2,0,P|463:276|457:370,1,167.999994873047,8|0,0:0|0:0,0:0:0:0:
424,337,123411,5,6,0:0:0:0:
266,362,123598,1,8,0:3:0:0:
266,362,123692,1,8,0:3:0:0:
266,362,123786,1,8,0:0:0:0:
331,271,123973,5,8,0:0:0:0:
331,271,124067,1,8,0:0:0:0:
331,271,124161,1,2,0:0:0:0:
139,310,124348,1,8,0:3:0:0:
139,310,124442,1,8,0:3:0:0:
139,310,124536,1,8,0:0:0:0:
218,232,124723,5,8,0:0:0:0:
218,232,124817,1,8,0:0:0:0:
218,232,124911,5,4,0:0:0:0:
236,191,125004,1,0,0:0:0:0:
219,149,125098,1,8,0:0:0:0:
175,160,125192,1,8,0:0:0:0:
137,135,125286,1,0,0:0:0:0:
146,91,125379,1,8,0:0:0:0:
179,61,125473,1,8,0:0:0:0:
155,22,125567,1,0,0:0:0:0:
99,30,125661,5,4,0:0:0:0:
135,71,125754,1,0,0:0:0:0:
190,81,125848,1,8,0:0:0:0:
245,69,125942,1,8,0:0:0:0:
280,25,126036,1,0,0:0:0:0:
335,21,126129,1,8,0:0:0:0:
387,39,126223,1,8,0:0:0:0:
415,87,126317,1,8,0:0:0:0:
403,141,126411,1,4,1:0:0:0:
256,192,126504,12,0,129036,0:0:0:0:
171,211,129223,6,0,L|140:216,3,18.6666660970052,0|0|0|2,0:0|0:0|0:0|0:0,0:0:0:0:
94,81,132223,6,0,L|61:87,3,18.6666660970052,0|0|0|2,0:0|0:0|0:0|0:0,0:0:0:0:
258,312,135223,6,0,L|225:317,3,18.6666660970052,0|0|0|2,0:0|0:0|0:0|0:0,0:0:0:0:
365,156,136723,6,0,L|397:160,3,18.6666660970052,0|0|0|2,0:0|0:0|0:0|0:0,0:0:0:0:
244,35,138223,6,0,L|217:39,3,18.6666660970052,0|0|0|2,0:0|0:0|0:0|0:0,0:0:0:0:
350,276,141223,6,0,L|378:281,3,18.6666660970052,0|0|0|2,0:0|0:0|0:0|0:0,0:0:0:0:
90,348,143286,5,2,0:3:0:0:
90,348,143473,5,2,0:3:0:0:
90,348,143848,5,2,0:3:0:0:
90,348,144036,5,2,0:3:0:0:
90,348,144223,6,0,L|54:345,3,18.6666660970052,0|0|0|2,0:0|0:0|0:0|0:0,0:0:0:0:
230,225,147223,6,0,L|265:227,3,18.6666660970052,0|0|0|2,0:0|0:0|0:0|0:0,0:0:0:0:
114,133,148723,6,0,L|79:134,3,18.6666660970052,0|0|0|2,0:0|0:0|0:0|0:0,0:0:0:0:
420,355,149473,1,0,0:0:0:0:
420,355,149567,1,0,0:0:0:0:
420,355,149661,1,8,0:0:0:0:
494,295,149848,1,8,0:0:0:0:
440,215,150036,1,8,0:3:0:0:
314,246,150223,1,2,0:2:0:0:
286,273,150317,1,0,0:0:0:0:
255,297,150411,6,0,L|201:288,7,40,4|0|8|0|0|0|0|0,0:0|0:0|0:0|0:0|0:0|0:0|1:0|0:0,0:0:0:0:
123,337,151161,2,0,L|59:341,7,40,8|0|0|0|0|0|0|0,0:0|0:0|0:0|0:0|1:0|0:0|0:0|0:0,0:0:0:0:
166,206,151911,2,0,L|230:210,7,40,0|0|8|0|0|0|0|0,1:0|0:0|0:0|0:0|0:0|0:0|1:0|0:0,0:0:0:0:
282,137,152661,2,0,L|349:140,5,40,8|0|0|0|0|0,0:0|0:0|0:0|0:0|1:0|0:0,0:0:0:0:
154,49,153223,5,0,1:0:0:0:
117,65,153317,1,0,1:0:0:0:
78,74,153411,2,0,L|42:59,3,40,4|0|0|0,1:2|0:0|0:0|0:0,0:0:0:0:
155,187,153786,6,0,L|194:181,3,40,2|0|0|0,0:0|0:0|1:0|0:0,0:0:0:0:
44,262,154161,2,0,L|83:267,3,40,8|0|0|0,0:0|0:0|0:0|0:0,0:0:0:0:
211,320,154536,2,0,L|172:326,7,40,2|0|0|0|0|0|8|0,0:0|0:0|0:0|0:0|1:0|0:0|0:0|0:0,0:0:0:0:
352,251,155286,6,0,L|392:254,3,40,0|0|0|0,0:0|0:0|1:0|0:0,0:0:0:0:
268,184,155661,2,0,L|211:189,3,40,8|0|0|0,0:0|0:0|0:0|0:0,0:0:0:0:
342,109,156036,2,0,L|397:113,3,40,2|0|0|0,0:0|0:0|0:0|0:0,0:0:0:0:
202,24,156411,6,0,L|155:29,11,40,4|0|8|0|0|0|0|0|8|0|0|0,1:2|0:0|0:0|0:0|0:0|0:0|1:0|0:0|0:0|0:0|0:0|0:0,0:0:0:0:
76,116,157536,2,0,L|138:116,11,40,2|0|0|0|0|0|8|0|0|0|0|0,0:0|0:0|0:0|0:0|1:0|0:0|0:0|0:0|0:0|0:0|1:0|0:0,0:0:0:0:
230,184,158661,2,0,L|178:186,7,40,8|0|0|0|0|0|0|0,0:0|0:0|0:0|0:0|1:0|0:0|0:0|0:0,0:0:0:0:
364,265,159411,6,0,L|419:264,11,40,4|0|0|0|0|0|0|0|8|0|0|0,1:2|0:0|0:0|0:0|1:0|0:0|1:0|0:0|0:0|0:0|0:0|0:0,0:0:0:0:
477,174,160536,2,0,L|422:173,11,40,2|0|0|0|0|0|8|0|0|0|0|0,0:0|0:0|0:0|0:0|1:0|0:0|0:0|0:0|0:0|0:0|1:0|0:0,0:0:0:0:
338,96,161661,2,0,L|397:92,3,40,8|0|0|0,1:2|0:0|0:0|0:0,0:0:0:0:
170,162,162036,5,8,0:0:0:0:
130,168,162129,1,0,0:0:0:0:
90,174,162223,1,0,1:0:0:0:
50,180,162317,1,0,1:0:0:0:
26,212,162411,6,0,L|19:266,7,40,4|0|0|0|0|0|0|0,1:2|0:0|0:0|0:0|1:0|0:0|1:0|0:0,0:0:0:0:
111,317,163161,2,0,L|104:371,7,40,8|0|0|0|0|0|0|0,0:0|0:0|0:0|0:0|1:0|0:0|0:0|0:0,0:0:0:0:
217,206,163911,2,0,L|224:152,7,40,0|0|0|0|0|0|0|0,1:0|0:0|1:0|0:0|0:0|0:0|1:0|0:0,0:0:0:0:
319,245,164661,2,0,L|326:191,5,40,8|0|0|0|0|0,0:0|0:0|0:0|0:0|1:0|0:0,0:0:0:0:
306,101,165223,5,0,1:0:0:0:
341,83,165317,1,0,1:0:0:0:
375,63,165411,2,0,L|377:14,3,40,4|0|0|0,1:2|0:0|0:0|0:0,0:0:0:0:
217,43,165786,6,0,L|177:41,3,40,2|0|0|0,0:0|0:0|1:0|0:0,0:0:0:0:
91,102,166161,2,0,L|90:164,3,40,8|0|0|0,0:0|0:0|0:0|0:0,0:0:0:0:
166,213,166536,2,0,L|230:216,7,40,2|0|0|0|0|0|8|0,0:0|0:0|0:0|0:0|1:0|0:0|0:0|0:0,0:0:0:0:
330,307,167286,6,0,L|327:368,3,40,0|0|0|0,1:0|0:0|0:0|0:0,0:0:0:0:
426,278,167661,2,0,L|428:223,3,40,8|0|0|0,0:0|0:0|0:0|0:0,0:0:0:0:
332,174,168036,2,0,L|330:246,3,40,2|0|0|0,0:0|0:0|0:0|0:0,0:0:0:0:
217,92,168411,6,0,L|219:51,11,40,4|0|0|0|0|0|0|0|8|0|0|0,1:2|0:0|0:0|0:0|1:0|0:0|1:0|0:0|0:0|0:0|0:0|0:0,0:0:0:0:
128,106,169536,2,0,L|139:153,11,40,2|0|0|0|0|0|8|0|0|0|0|0,0:0|0:0|0:0|0:0|1:0|0:0|0:0|0:0|0:0|0:0|1:0|0:0,0:0:0:0:
43,206,170661,2,0,L|47:161,5,40,8|0|0|0|0|0,0:0|0:0|0:0|0:0|1:0|0:0,0:0:0:0:
178,300,171223,1,0,1:0:0:0:
217,308,171317,1,0,1:0:0:0:
255,317,171411,6,0,L|265:272,9,40,4|0|0|0|0|0|0|0|8|0,1:2|0:0|0:0|0:0|1:0|0:0|1:0|0:0|0:0|0:0,0:0:0:0:
355,163,172348,1,0,1:0:0:0:
316,171,172442,1,0,1:0:0:0:
278,180,172536,6,0,L|268:135,7,40,4|0|0|0|0|0|8|0,1:2|0:0|0:0|0:0|1:0|0:0|0:0|0:0,0:0:0:0:
155,31,173286,2,0,L|147:71,3,40,4|0|0|0,1:0|0:0|1:0|1:0,0:0:0:0:
33,132,173661,2,0,L|42:172,3,40,8|0|8|0,1:0|0:0|1:3|0:0,0:0:0:0:
155,230,174036,2,0,L|147:270,3,40,4|0|0|0,1:3|0:0|0:0|0:0,0:0:0:0:
307,354,174411,6,0,P|374:332|445:342,1,143.999995605469,4|0,0:0|0:0,0:0:0:0:
445,342,174973,1,4,0:3:0:0:
294,257,175161,2,0,P|257:272|224:279,2,71.9999978027344,8|0|0,0:0|0:0|0:0,0:0:0:0:
400,163,175723,6,0,P|400:89|391:9,1,143.999995605469,4|8,0:3|0:0,0:0:0:0:
297,22,176286,2,0,P|262:26|227:34,1,71.9999978027344,0|4,0:0|0:3,0:0:0:0:
140,70,176661,2,0,P|103:65|54:55,2,71.9999978027344,8|0|0,0:0|0:0|0:0,0:0:0:0:
302,210,177223,1,0,0:0:0:0:
302,210,177317,1,0,0:0:0:0:
302,210,177411,6,0,P|310:284|309:337,1,107.999996704102,4|0,0:0|0:0,0:0:0:0:
283,356,177786,2,0,P|239:348|200:344,1,71.9999978027344,2|4,0:0|0:3,0:0:0:0:
77,259,178161,2,0,P|120:239|157:231,1,71.9999978027344,10|0,0:0|0:0,0:0:0:0:
306,123,178536,2,2,P|262:87|200:49,1,107.999996704102,2|0,0:0|0:0,0:0:0:0:
182,88,178911,6,0,L|83:88,1,71.9999978027344,4|8,0:3|0:0,0:0:0:0:
45,241,179286,1,2,0:0:0:0:
135,216,179473,1,4,0:3:0:0:
236,346,179661,2,0,L|132:334,1,71.9999978027344,10|0,0:0|0:0,0:0:0:0:
224,104,180036,5,2,0:0:0:0:
307,145,180223,1,8,0:0:0:0:
478,75,180411,2,2,P|410:44|316:20,1,143.999995605469,6|0,0:0|0:0,0:0:0:0:
343,24,180973,1,4,0:3:0:0:
296,221,181161,2,0,L|301:390,1,143.999995605469,8|2,0:0|0:0,0:0:0:0:
300,364,181723,1,4,0:3:0:0:
482,302,181911,2,0,L|459:223,2,71.9999978027344,0|8|0,0:0|0:0|0:0,0:0:0:0:
375,176,182473,1,4,0:3:0:0:
375,176,182661,6,0,L|390:92,1,71.9999978027344,10|0,0:0|0:0,0:0:0:0:
479,106,183036,2,0,L|488:28,1,71.9999978027344
266,28,183411,6,2,P|175:69|201:190,1,215.999993408203,6|4,0:0|0:3,0:0:0:0:
47,211,184161,2,0,L|61:107,1,71.9999978027344,8|0,0:0|0:0,0:0:0:0:
157,264,184536,2,0,L|143:368,1,71.9999978027344,8|0,0:0|0:0,0:0:0:0:
287,161,184911,5,4,1:3:0:0:
378,139,185098,1,8,0:0:0:0:
433,214,185286,1,0,0:0:0:0:
240,54,185473,5,8,0:0:0:0:
240,54,185567,1,8,0:0:0:0:
240,54,185661,1,8,0:0:0:0:
149,32,185848,1,8,0:0:0:0:
94,107,186036,1,4,0:3:0:0:
192,134,186223,1,8,0:3:0:0:
192,134,186317,1,8,0:3:0:0:
192,134,186411,6,2,P|205:216|206:278,1,143.999995605469,6|0,0:0|0:0,0:0:0:0:
206,276,186973,1,4,0:3:0:0:
51,263,187161,2,0,P|53:194|55:168,2,71.9999978027344,8|0|0,0:0|0:0|0:0,0:0:0:0:
201,374,187723,2,0,P|260:355|362:348,1,143.999995605469,4|8,0:3|0:0,0:0:0:0:
439,235,188286,2,0,P|390:231|346:224,1,71.9999978027344,0|4,0:0|0:3,0:0:0:0:
171,153,188661,5,8,0:0:0:0:
275,161,188848,1,4,0:3:0:0:
159,195,189036,1,0,0:0:0:0:
351,80,189223,1,8,0:0:0:0:
351,80,189317,1,8,0:0:0:0:
351,80,189411,6,0,P|277:49|225:40,1,107.999996704102,4|0,0:0|0:0,0:0:0:0:
202,40,189786,2,0,L|126:53,1,71.9999978027344,2|4,0:0|0:3,0:0:0:0:
18,174,190161,2,0,L|90:201,1,71.9999978027344,10|0,0:0|0:0,0:0:0:0:
282,221,190536,2,2,P|225:248|175:298,1,107.999996704102,10|0,0:0|0:0,0:0:0:0:
150,300,190911,6,0,L|164:391,1,71.9999978027344,0|8,0:0|0:0,0:0:0:0:
359,360,191286,1,2,0:0:0:0:
273,321,191473,1,4,0:3:0:0:
396,178,191661,2,0,L|494:201,1,71.9999978027344,10|8,0:0|2:1,0:0:0:0:
288,117,192036,1,8,0:3:0:0:
307,213,192223,1,4,0:3:0:0:
264,25,192411,6,2,P|180:45|92:46,1,143.999995605469,6|4,0:0|0:3,0:0:0:0:
122,47,192973,1,4,0:3:0:0:
15,194,193161,2,0,P|86:198|156:216,1,143.999995605469,10|2,0:0|0:0,0:0:0:0:
132,344,193723,2,0,P|64:349|32:346,2,71.9999978027344,2|0|10,0:0|0:0|0:0,0:0:0:0:
285,221,194286,2,0,L|386:227,1,71.9999978027344
481,118,194661,2,2,L|307:109,1,143.999995605469,10|0,0:0|0:0,0:0:0:0:
248,46,195223,1,8,0:0:0:0:
350,22,195411,5,12,0:0:0:0:
350,22,195598,1,8,0:0:0:0:
203,149,195786,2,0,L|109:131,1,71.9999978027344,4|4,0:3|0:3,0:0:0:0:
335,203,196161,5,8,0:0:0:0:
335,203,196348,1,8,0:0:0:0:
184,261,196536,1,8,0:3:0:0:
184,261,196723,1,8,0:3:0:0:
290,359,196911,5,12,0:0:0:0:
290,359,197098,1,4,0:3:0:0:
268,253,197286,1,8,0:0:0:0:
268,253,197473,1,4,0:3:0:0:
245,147,197661,1,8,0:0:0:0:
245,147,197848,1,8,0:3:0:0:
220,42,198036,1,8,0:3:0:0:
290,359,198223,1,8,0:0:0:0:
290,359,198317,1,8,0:0:0:0:
290,359,198411,6,0,B|230:344|230:344|125:367,1,143.999995605469,4|0,1:0|1:0,0:0:0:0:
149,361,198973,1,2,0:0:0:0:
26,312,199161,1,0,1:0:0:0:
119,274,199348,1,0,1:0:0:0:
26,312,199536,1,2,0:0:0:0:
119,274,199723,1,0,1:0:0:0:
26,312,199911,6,0,P|31:216|45:144,1,143.999995605469,2|0,1:2|1:0,0:0:0:0:
39,168,200473,1,0,1:0:0:0:
148,101,200661,2,0,P|186:111|235:115,1,71.9999978027344,2|0,1:2|0:0,0:0:0:0:
400,43,201036,2,0,P|362:33|313:29,1,71.9999978027344,0|0,1:0|0:0,0:0:0:0:
318,51,201317,1,0,1:0:0:0:
306,73,201411,6,0,L|299:238,1,143.999995605469,2|0,1:2|1:0,0:0:0:0:
299,216,201973,1,2,0:0:0:0:
210,265,202161,2,0,P|207:322|210:371,2,71.9999978027344,0|0|0,1:0|1:0|0:0,0:0:0:0:
331,334,202723,2,0,L|500:338,1,143.999995605469,2|2,1:2|0:0,0:0:0:0:
492,223,203286,5,0,1:0:0:0:
398,186,203473,1,2,0:0:0:0:
492,223,203661,1,0,1:0:0:0:
398,186,203848,1,0,1:0:0:0:
492,223,204036,1,2,0:0:0:0:
89,354,204317,1,0,1:0:0:0:
89,354,204411,6,0,B|73:301|73:301|102:207,1,143.999995605469,2|0,1:2|1:0,0:0:0:0:
99,216,204973,1,2,0:0:0:0:
217,130,205161,1,0,1:0:0:0:
129,79,205348,1,0,1:0:0:0:
217,130,205536,1,2,0:0:0:0:
129,79,205723,1,0,1:0:0:0:
217,130,205911,6,0,P|290:122|380:129,1,143.999995605469,2|0,0:0|1:0,0:0:0:0:
360,125,206473,1,2,0:0:0:0:
266,237,206661,2,0,P|225:235|164:238,1,71.9999978027344,0|0,1:0|1:0,0:0:0:0:
354,317,207036,2,0,P|395:315|456:318,1,71.9999978027344,2|0,1:2|0:0,0:0:0:0:
445,331,207317,1,0,1:0:0:0:
464,347,207411,6,0,L|477:194,1,143.999995605469,2|0,1:2|1:0,0:0:0:0:
476,203,207973,1,2,0:0:0:0:
339,116,208161,2,0,L|344:206,2,71.9999978027344,0|0|2,1:0|1:0|0:0,0:0:0:0:
392,30,208723,1,0,1:0:0:0:
232,113,208911,2,0,L|75:117,1,143.999995605469,2|2,0:0|1:3,0:0:0:0:
32,350,209473,5,0,1:0:0:0:
32,350,209567,1,8,1:0:0:0:
32,350,209661,1,8,1:0:0:0:
153,302,209848,1,8,1:0:0:0:
153,302,209942,1,8,1:0:0:0:
153,302,210036,1,8,1:0:0:0:
267,361,210223,1,8,1:0:0:0:
458,170,210411,6,0,P|385:161|299:177,1,132.00000402832,4|0,0:0|2:0,0:0:0:0:
303,194,210786,2,0,L|231:197,1,44.0000013427735,8|0,0:0|0:0,0:0:0:0:
196,24,211067,1,8,0:0:0:0:
196,24,211161,1,8,0:0:0:0:
314,57,211348,1,2,0:0:0:0:
163,125,211536,1,4,0:3:0:0:
45,92,211723,1,2,0:3:0:0:
144,352,211911,5,4,0:3:0:0:
144,352,212004,1,8,0:0:0:0:
30,303,212192,1,4,0:3:0:0:
30,303,212286,1,8,0:0:0:0:
350,245,212473,5,8,0:0:0:0:
380,251,212567,1,8,0:0:0:0:
410,256,212661,1,8,0:0:0:0:
439,261,212754,1,8,0:0:0:0:
243,184,212942,1,8,0:0:0:0:
243,184,213036,1,4,0:3:0:0:
242,295,213223,1,4,0:3:0:0:
386,158,213411,6,0,P|375:83|357:9,1,132.00000402832,4|0,0:0|2:0,0:0:0:0:
391,37,213786,2,0,P|434:44|493:54,1,88.000002685547,8|4,0:0|0:3,0:0:0:0:
245,146,214161,1,10,0:0:0:0:
150,78,214348,1,4,0:3:0:0:
150,78,214442,1,8,0:0:0:0:
150,78,214536,1,8,0:0:0:0:
263,238,214723,2,0,L|259:309,1,44.0000013427735,8|0,0:0|0:0,0:0:0:0:
191,344,214911,6,0,P|119:331|45:329,1,132.00000402832,4|0,0:3|2:0,0:0:0:0:
29,328,215286,2,0,L|63:229,1,88.000002685547,8|4,0:0|0:3,0:0:0:0:
190,77,215661,2,0,P|264:100|338:104,1,132.00000402832,8|8,0:0|0:0,0:0:0:0:
349,121,216036,2,0,L|392:117,1,44.0000013427735,8|0,0:0|2:0,0:0:0:0:
324,209,216223,2,0,L|267:205,1,44.0000013427735,8|0,0:0|2:0,0:0:0:0:
426,211,216411,6,0,P|421:286|426:353,1,132.00000402832,4|0,0:0|2:0,0:0:0:0:
451,357,216786,2,0,L|509:342,1,44.0000013427735,8|0,0:0|0:0,0:0:0:0:
495,141,217067,1,8,0:0:0:0:
495,141,217161,2,0,P|464:62|419:11,1,132.00000402832,8|0,0:0|0:0,0:0:0:0:
408,41,217536,1,8,0:0:0:0:
378,51,217629,1,8,0:0:0:0:
348,60,217723,1,2,0:0:0:0:
118,118,217911,6,0,P|212:140|246:168,1,132.00000402832,0|0,0:0|2:0,0:0:0:0:
242,191,218286,2,0,L|232:284,1,88.000002685547,8|8,0:0|0:0,0:0:0:0:
100,357,218661,2,0,L|93:284,1,44.0000013427735,8|0,0:0|0:0,0:0:0:0:
24,254,218848,2,0,L|17:181,1,44.0000013427735,8|0,0:0|0:0,0:0:0:0:
87,26,219036,1,8,0:3:0:0:
117,31,219129,1,8,0:3:0:0:
147,36,219223,1,10,0:3:0:0:
177,41,219317,1,8,0:3:0:0:
207,46,219411,6,0,B|266:50|266:50|325:24,2,111.999996582031,4|2|2,1:0|0:0|0:0,0:0:0:0:
53,204,220449,5,0,0:0:0:0:
53,204,220537,1,4,0:2:0:0:
140,253,220926,1,2,0:0:0:0:
135,152,221316,1,2,0:0:0:0:
462,296,221573,5,0,0:0:0:0:
462,296,221658,1,4,0:2:0:0:
375,247,222045,1,2,0:0:0:0:
380,348,222326,1,0,0:0:0:0:
380,348,222420,1,2,0:0:0:0:
362,231,222833,1,0,0:0:0:0:
256,192,222941,12,0,224999,0:0:0:0:
243,141,225215,6,0,L|278:140,2,27.9999991455078
71,95,225626,5,2,0:0:0:0:
169,79,225813,1,0,1:0:0:0:
98,117,226001,1,2,0:0:0:0:
422,229,226376,5,2,0:0:0:0:
324,213,226563,1,0,1:0:0:0:
395,251,226751,2,0,L|382:373,1,111.999996582031,2|2,0:0|0:0,0:0:0:0:
383,362,227313,1,0,1:0:0:0:
494,262,227501,2,0,L|481:140,1,111.999996582031,2|2,0:0|0:0,0:0:0:0:
483,150,228063,1,0,1:0:0:0:
393,75,228251,1,2,0:0:0:0:
241,252,228626,5,2,0:0:0:0:
217,348,228813,1,0,1:0:0:0:
210,268,229001,1,2,0:0:0:0:
39,130,229376,5,2,0:0:0:0:
63,34,229563,1,0,1:0:0:0:
70,114,229751,2,0,L|201:127,1,111.999996582031,2|2,0:0|0:0,0:0:0:0:
251,257,230313,1,0,1:0:0:0:
251,257,230501,2,0,L|120:244,1,111.999996582031,2|2,0:0|0:0,0:0:0:0:
139,245,231043,1,0,1:0:0:0:
59,316,231222,1,2,0:0:0:0:
403,184,231601,5,2,0:0:0:0:
305,182,231788,1,0,1:0:0:0:
381,157,231976,1,2,0:0:0:0:
127,47,232351,5,2,0:0:0:0:
225,49,232538,1,0,1:0:0:0:
149,74,232726,2,0,L|148:203,1,111.999996582031,2|2,0:0|0:0,0:0:0:0:
148,185,233288,1,0,1:0:0:0:
34,297,233475,2,0,L|35:168,1,111.999996582031,2|2,0:0|0:0,0:0:0:0:
34,185,234038,1,0,1:0:0:0:
72,84,234225,1,2,0:0:0:0:
204,333,234600,5,2,0:0:0:0:
302,335,234788,1,0,1:0:0:0:
226,360,234975,1,2,0:0:0:0:
447,231,235350,5,2,0:0:0:0:
349,229,235538,1,0,1:0:0:0:
425,204,235725,2,0,L|426:87,1,111.999996582031,2|2,0:0|0:0,0:0:0:0:
313,30,236288,1,0,1:0:0:0:
313,30,236475,2,0,L|184:52,1,111.999996582031,2|2,0:0|0:0,0:0:0:0:
87,36,237038,1,0,1:0:0:0:
214,189,237225,1,8,0:0:0:0:
219,196,237288,1,8,0:0:0:0:
222,203,237350,1,8,0:0:0:0:
230,213,237413,6,0,P|224:282|223:360,1,132.00000402832,4|0,0:0|0:0,0:0:0:0:
222,344,237788,2,0,L|331:324,1,88.000002685547,8|8,0:0|0:3,0:0:0:0:
442,353,238163,1,4,0:3:0:0:
370,275,238350,1,4,0:3:0:0:
475,264,238538,1,8,0:0:0:0:
385,185,238725,1,8,0:3:0:0:
385,185,238819,1,8,0:3:0:0:
385,185,238913,6,0,P|474:127|474:67,1,176.000005371094,4|8,0:3|0:0,0:0:0:0:
370,44,239475,1,8,0:3:0:0:
370,44,239569,1,8,0:3:0:0:
370,44,239663,1,4,0:3:0:0:
299,122,239850,1,4,0:3:0:0:
403,139,240038,1,8,0:0:0:0:
299,122,240225,1,8,0:3:0:0:
220,226,240413,6,0,P|242:310|239:392,1,132.00000402832,4|0,0:3|0:0,0:0:0:0:
243,354,240788,2,0,L|144:339,1,88.000002685547,8|8,0:0|0:3,0:0:0:0:
31,335,241163,1,4,0:3:0:0:
110,264,241350,1,4,0:3:0:0:
50,153,241538,2,0,L|7:241,1,88.000002685547,8|8,0:0|0:3,0:0:0:0:
154,149,241913,6,0,L|197:61,1,88.000002685547,4|4,0:3|0:3,0:0:0:0:
330,24,242288,1,8,0:0:0:0:
412,90,242475,1,8,0:3:0:0:
412,90,242569,1,8,0:3:0:0:
412,90,242663,1,4,0:3:0:0:
361,183,242850,1,4,0:3:0:0:
260,151,243038,1,8,0:0:0:0:
483,183,243225,5,8,0:3:0:0:
483,183,243319,1,8,0:3:0:0:
483,183,243413,2,0,L|469:280,1,88.000002685547,4|0,0:2|2:0,0:0:0:0:
376,116,243788,2,0,L|380:213,1,88.000002685547,12|0,0:0|2:0,0:0:0:0:
100,108,244163,6,0,L|114:205,1,88.000002685547,4|0,0:2|2:0,0:0:0:0:
207,41,244538,2,0,L|202:138,1,88.000002685547,12|0,0:0|2:0,0:0:0:0:
111,356,244913,6,0,L|14:342,1,88.000002685547,4|0,0:2|2:0,0:0:0:0:
196,262,245288,2,0,L|98:266,1,88.000002685547,12|0,0:0|2:0,0:0:0:0:
378,131,245663,6,0,L|475:117,1,88.000002685547,4|0,0:2|2:0,0:0:0:0:
293,37,246038,2,0,L|390:41,1,88.000002685547,12|0,0:0|2:0,0:0:0:0:
424,287,246413,5,4,0:0:0:0:
288,357,246600,1,8,0:0:0:0:
288,357,246694,1,8,0:0:0:0:
288,357,246788,1,8,0:0:0:0:
221,213,246975,1,8,0:0:0:0:
221,213,247069,1,8,0:0:0:0:
221,213,247163,1,8,0:0:0:0:
368,150,247350,1,8,0:0:0:0:
368,150,247444,1,8,0:0:0:0:
368,150,247538,1,8,0:0:0:0:
325,257,247725,1,8,0:0:0:0:
267,137,247913,5,4,0:0:0:0:
267,101,248006,1,0,0:0:0:0:
267,65,248100,1,0,0:0:0:0:
269,29,248194,1,0,0:0:0:0:
236,40,248288,5,8,0:0:0:0:
204,58,248381,1,0,0:0:0:0:
173,76,248475,1,2,0:3:0:0:
141,93,248569,1,0,0:0:0:0:
100,126,248663,5,4,0:0:0:0:
145,152,248756,1,0,0:0:0:0:
194,182,248850,1,0,0:0:0:0:
237,210,248944,1,0,0:0:0:0:
282,236,249038,5,8,0:0:0:0:
237,264,249131,1,0,0:0:0:0:
190,289,249225,1,2,0:3:0:0:
144,315,249319,1,0,0:0:0:0:
101,345,249413,6,0,L|239:360,1,111.999996582031,4|0,0:0|0:0,0:0:0:0:
394,194,249788,2,0,P|379:280|405:390,1,167.999994873047,8|2,0:0|0:3,0:0:0:0:
436,360,250163,1,4,0:3:0:0:
500,268,250350,1,4,0:3:0:0:
424,185,250538,1,8,0:0:0:0:
248,255,250725,1,2,0:3:0:0:
248,255,250819,1,0,0:0:0:0:
248,255,250913,6,2,P|132:250|62:215,1,167.999994873047,2|2,0:0|0:3,0:0:0:0:
54,197,251288,1,8,0:0:0:0:
147,134,251475,1,2,0:0:0:0:
147,134,251569,1,0,0:0:0:0:
147,134,251663,1,0,0:0:0:0:
46,84,251850,1,2,0:0:0:0:
142,27,252038,1,8,0:0:0:0:
239,194,252225,1,2,0:0:0:0:
239,194,252319,1,0,0:0:0:0:
239,194,252413,6,2,P|246:277|243:370,1,167.999994873047,4|2,0:0|0:3,0:0:0:0:
287,351,252788,2,0,P|337:338|408:344,1,111.999996582031,8|2,0:0|0:3,0:0:0:0:
485,378,253163,1,4,0:3:0:0:
506,267,253350,1,4,0:3:0:0:
377,207,253538,2,0,P|306:222|261:218,1,111.999996582031,8|2,0:0|0:0,0:0:0:0:
221,219,253819,1,0,0:0:0:0:
182,196,253913,6,2,P|197:99|231:33,1,167.999994873047,2|2,0:0|0:3,0:0:0:0:
271,27,254288,1,8,0:0:0:0:
371,113,254475,2,0,P|469:117|499:112,2,111.999996582031,2|0|2,0:0|0:0|0:0,0:0:0:0:
241,159,255038,1,8,0:0:0:0:
72,256,255225,1,2,0:0:0:0:
72,256,255319,1,0,0:0:0:0:
72,256,255413,6,0,P|65:336|72:393,1,111.999996582031,4|2,0:0|0:0,0:0:0:0:
154,175,255788,2,2,P|116:63|1:40,1,223.999993164063,10|4,0:0|0:3,0:0:0:0:
22,34,256350,1,4,0:3:0:0:
47,170,256538,1,8,0:0:0:0:
183,313,256725,1,2,0:0:0:0:
183,313,256819,1,0,0:0:0:0:
183,313,256913,6,2,P|256:304|356:353,1,167.999994873047,2|0,0:0|0:0,0:0:0:0:
382,357,257288,1,8,0:0:0:0:
471,289,257475,1,2,0:0:0:0:
340,159,257663,1,0,0:0:0:0:
387,260,257850,1,2,0:0:0:0:
472,187,258038,2,0,P|461:91|441:51,1,111.999996582031,10|0,0:0|0:0,0:0:0:0:
422,45,258319,1,0,0:0:0:0:
378,38,258413,6,2,P|288:65|195:51,1,167.999994873047,6|2,0:0|0:3,0:0:0:0:
176,80,258788,2,0,P|96:70|51:79,1,111.999996582031,8|2,0:0|0:3,0:0:0:0:
219,184,259163,1,6,0:0:0:0:
330,168,259350,1,0,0:0:0:0:
404,251,259538,2,0,L|394:382,1,111.999996582031,8|2,0:0|0:3,0:0:0:0:
105,339,259913,6,0,L|49:345,3,55.9999982910157,6|8|2|8,0:0|0:3|0:3|0:3,0:0:0:0:
247,271,260288,2,0,L|192:265,3,55.9999982910157,8|0|8|8,0:0|0:0|0:3|0:3,0:0:0:0:
138,248,260663,5,6,0:0:0:0:
108,200,260756,1,8,0:0:0:0:
130,148,260850,1,0,0:0:0:0:
182,131,260944,1,8,0:0:0:0:
237,141,261038,1,8,0:0:0:0:
267,93,261131,1,0,0:0:0:0:
245,41,261225,1,8,0:0:0:0:
193,24,261319,1,8,0:0:0:0:
140,43,261413,6,0,P|86:58|14:51,1,111.999996582031,4|0,0:0|0:0,0:0:0:0:
237,141,261788,2,0,P|311:124|435:132,1,167.999994873047,8|2,0:0|0:3,0:0:0:0:
439,150,262163,1,4,0:3:0:0:
343,209,262350,1,4,0:3:0:0:
449,242,262538,2,0,L|428:377,1,111.999996582031,8|2,0:0|0:0,0:0:0:0:
393,329,262819,1,0,0:0:0:0:
348,328,262913,6,2,B|262:302|273:368|167:345,1,167.999994873047,2|2,0:0|0:3,0:0:0:0:
140,353,263288,1,8,0:0:0:0:
66,267,263475,1,2,0:0:0:0:
176,249,263663,1,0,0:0:0:0:
24,347,263850,1,2,0:0:0:0:
176,249,264038,1,8,0:0:0:0:
27,150,264225,1,2,0:0:0:0:
27,150,264319,1,0,0:0:0:0:
27,150,264413,6,2,L|28:24,1,111.999996582031,4|0,0:0|0:0,0:0:0:0:
213,200,264788,2,0,L|199:383,1,167.999994873047,8|2,0:0|0:3,0:0:0:0:
242,351,265163,2,0,P|296:340|358:348,1,111.999996582031,4|4,0:3|0:3,0:0:0:0:
462,367,265538,1,8,0:0:0:0:
340,212,265725,1,2,0:3:0:0:
340,212,265819,1,0,0:0:0:0:
340,212,265913,6,2,P|428:191|455:98,1,167.999994873047,2|0,0:0|0:0,0:0:0:0:
449,81,266288,1,10,0:0:0:0:
252,118,266475,1,2,0:0:0:0:
162,50,266663,1,0,0:0:0:0:
272,31,266850,1,8,0:0:0:0:
272,31,266944,1,8,0:0:0:0:
272,31,267038,1,8,0:0:0:0:
142,269,267225,1,10,0:0:0:0:
142,269,267319,1,8,0:0:0:0:
142,269,267413,6,0,P|76:253|19:258,1,111.999996582031,4|2,0:0|0:0,0:0:0:0:
232,200,267788,2,0,P|228:280|230:378,1,167.999994873047,10|2,0:0|0:3,0:0:0:0:
274,370,268163,1,4,0:3:0:0:
359,297,268350,1,4,0:3:0:0:
455,353,268538,1,8,0:0:0:0:
324,101,268725,1,2,0:0:0:0:
324,101,268819,1,0,0:0:0:0:
324,101,268913,6,2,P|230:128|146:113,1,167.999994873047,2|2,0:0|0:3,0:0:0:0:
119,133,269288,1,8,0:0:0:0:
85,35,269475,1,2,0:0:0:0:
13,171,269663,2,0,P|19:227|23:300,1,111.999996582031,0|2,0:0|0:0,0:0:0:0:
161,367,270038,2,0,P|161:276|162:197,1,167.999994873047,8|0,0:0|2:0,0:0:0:0:
202,179,270413,5,4,0:3:0:0:
246,178,270506,1,8,0:3:0:0:
282,203,270600,1,2,0:3:0:0:
314,233,270694,1,8,0:3:0:0:
348,261,270788,1,8,0:3:0:0:
391,271,270881,1,8,0:3:0:0:
435,264,270975,1,8,0:3:0:0:
464,230,271069,1,8,0:3:0:0:
465,185,271163,5,4,0:3:0:0:
434,152,271256,1,8,0:3:0:0:
389,148,271350,1,2,0:3:0:0:
347,162,271444,1,8,0:3:0:0:
306,180,271538,1,8,0:3:0:0:
262,189,271631,1,8,0:3:0:0:
217,186,271725,1,8,0:3:0:0:
175,170,271819,1,0,0:3:0:0:
159,127,271913,5,4,0:3:0:0:
159,82,272006,1,8,0:3:0:0:
185,45,272100,1,2,0:3:0:0:
226,28,272194,1,8,0:3:0:0:
268,41,272288,1,8,0:3:0:0:
283,83,272381,1,8,0:3:0:0:
250,114,272475,1,8,0:3:0:0:
205,110,272569,1,8,0:3:0:0:
159,82,272663,5,4,0:0:0:0:
103,77,272756,1,8,0:3:0:0:
55,106,272850,1,2,0:3:0:0:
29,155,272944,1,8,0:3:0:0:
20,210,273038,1,4,0:3:0:0:
44,260,273131,1,8,0:3:0:0:
89,293,273225,1,4,0:3:0:0:
144,295,273319,1,8,0:3:0:0:
194,271,273413,6,2,P|254:257|319:255,1,111.999996582031,6|0,0:0|0:0,0:0:0:0:
442,332,273788,2,0,P|382:346|317:348,1,111.999996582031,10|0,0:0|0:0,0:0:0:0:
261,164,274163,5,2,0:0:0:0:
367,129,274350,1,2,0:3:0:0:
459,192,274538,1,10,0:0:0:0:
357,240,274725,1,2,0:3:0:0:
357,240,274819,1,0,0:0:0:0:
357,240,274913,6,2,P|370:157|405:56,1,167.999994873047,2|2,0:0|0:3,0:0:0:0:
436,58,275288,1,8,0:0:0:0:
266,142,275475,1,2,0:0:0:0:
154,146,275663,2,0,P|145:89|133:26,1,111.999996582031,0|2,0:0|0:0,0:0:0:0:
247,35,276038,1,8,0:0:0:0:
211,258,276225,5,2,0:3:0:0:
211,258,276319,1,0,0:0:0:0:
211,258,276413,2,0,P|197:313|190:378,1,111.999996582031,6|0,0:0|0:0,0:0:0:0:
49,166,276788,2,0,P|74:238|90:295,1,111.999996582031,8|0,0:0|0:0,0:0:0:0:
199,49,277163,1,4,0:3:0:0:
255,146,277350,1,4,0:3:0:0:
361,111,277538,1,8,0:0:0:0:
478,251,277725,1,2,0:3:0:0:
478,251,277819,1,0,0:0:0:0:
478,251,277913,6,2,P|363:244|304:251,1,167.999994873047,2|0,0:0|0:0,0:0:0:0:
281,284,278288,2,0,P|217:288|161:278,1,111.999996582031,10|2,0:0|0:0,0:0:0:0:
35,342,278663,1,8,0:0:0:0:
84,135,278850,1,0,0:0:0:0:
83,240,279038,1,8,0:0:0:0:
181,78,279225,1,2,0:3:0:0:
181,78,279319,1,0,0:0:0:0:
181,78,279413,6,0,P|251:106|318:107,1,111.999996582031,6|0,0:0|0:0,0:0:0:0:
470,159,279788,2,0,P|448:49|376:35,1,167.999994873047,10|2,0:0|0:3,0:0:0:0:
386,72,280163,2,0,L|384:203,1,111.999996582031,2|0,0:0|0:0,0:0:0:0:
293,357,280538,2,0,L|285:240,1,111.999996582031,10|0,0:0|0:0,0:0:0:0:
245,224,280819,1,0,0:0:0:0:
200,231,280913,6,2,B|99:208|129:274|33:253,1,167.999994873047,2|2,0:0|0:3,0:0:0:0:
16,215,281288,1,8,0:0:0:0:
88,58,281475,1,2,0:0:0:0:
186,111,281663,2,0,P|239:135|314:140,1,111.999996582031,0|2,0:0|0:0,0:0:0:0:
457,38,282038,2,0,P|382:17|288:11,1,167.999994873047,8|0,0:0|2:0,0:0:0:0:
309,52,282413,6,2,P|330:126|331:265,1,167.999994873047,6|2,0:0|0:3,0:0:0:0:
301,245,282788,1,8,0:0:0:0:
195,207,282975,1,2,0:0:0:0:
40,138,283163,6,0,P|19:212|18:351,1,167.999994873047,6|2,0:0|0:3,0:0:0:0:
48,331,283538,1,8,0:0:0:0:
154,293,283725,1,2,0:0:0:0:
354,332,283913,6,0,L|409:339,3,55.9999982910157,6|8|2|8,0:0|0:3|0:3|0:3,0:0:0:0:
278,241,284288,2,0,L|334:234,3,55.9999982910157,8|2|8|8,0:0|0:3|0:3|0:3,0:0:0:0:
390,235,284663,5,4,0:0:0:0:
444,221,284756,1,8,0:0:0:0:
485,183,284850,1,2,0:3:0:0:
491,127,284944,1,8,0:0:0:0:
475,72,285038,1,8,0:0:0:0:
433,33,285131,1,2,0:3:0:0:
378,22,285225,1,8,0:0:0:0:
324,38,285319,1,8,0:0:0:0:
321,94,285413,6,0,P|330:144|338:241,1,128,6|2,0:0|0:3,0:0:0:0:
124,336,285788,2,0,P|115:286|107:189,1,128,10|2,0:0|0:3,0:0:0:0:
353,311,286163,1,2,0:0:0:0:
232,350,286350,1,2,0:3:0:0:
151,120,286538,1,10,0:0:0:0:
274,86,286725,1,2,0:3:0:0:
274,86,286819,1,0,0:0:0:0:
274,86,286913,6,2,P|354:113|465:90,1,192,6|2,0:0|0:3,0:0:0:0:
488,53,287288,1,10,0:0:0:0:
364,20,287475,1,2,0:0:0:0:
375,255,287663,1,0,0:0:0:0:
499,227,287850,1,2,0:0:0:0:
408,135,288038,1,8,0:0:0:0:
293,346,288225,1,2,0:0:0:0:
293,346,288319,1,0,0:0:0:0:
293,346,288413,6,0,P|225:335|161:335,1,128,6|2,0:0|0:3,0:0:0:0:
50,192,288788,2,0,P|118:203|182:203,1,128,10|2,0:0|0:3,0:0:0:0:
271,116,289163,1,2,0:0:0:0:
191,16,289350,1,2,0:3:0:0:
113,118,289538,1,10,0:0:0:0:
338,179,289725,1,2,0:3:0:0:
338,179,289819,1,0,0:0:0:0:
338,179,289913,6,0,P|349:274|342:383,1,192,6|2,0:0|0:3,0:0:0:0:
292,366,290288,1,10,0:0:0:0:
203,195,290475,1,2,0:0:0:0:
203,195,290569,1,8,0:0:0:0:
203,195,290663,1,8,0:0:0:0:
69,271,290850,1,10,0:0:0:0:
69,271,290944,1,8,0:0:0:0:
69,271,291038,1,8,0:0:0:0:
157,66,291225,1,10,0:0:0:0:
157,66,291319,1,8,0:0:0:0:
157,66,291413,6,0,P|235:44|297:35,1,128,6|2,0:0|0:3,0:0:0:0:
462,108,291788,2,0,P|384:130|322:139,1,128,10|2,0:0|0:3,0:0:0:0:
121,147,292163,1,2,0:0:0:0:
48,251,292350,1,2,0:3:0:0:
134,345,292538,1,10,0:0:0:0:
225,255,292725,1,2,0:3:0:0:
225,255,292819,1,0,0:0:0:0:
225,255,292913,6,2,P|215:168|182:57,1,192,6|2,0:0|0:3,0:0:0:0:
151,30,293288,2,0,P|90:59|23:61,1,128,8|2,0:0|0:0,0:0:0:0:
249,132,293663,1,0,0:0:0:0:
369,99,293850,1,2,0:0:0:0:
479,171,294038,6,0,P|487:276|483:377,1,192,10|0,0:0|2:0,0:0:0:0:
428,348,294413,5,4,0:0:0:0:
390,354,294506,1,8,0:3:0:0:
352,360,294600,1,2,0:3:0:0:
313,363,294694,1,8,0:3:0:0:
284,348,294788,5,8,0:3:0:0:
246,354,294881,1,0,0:3:0:0:
208,360,294975,1,8,0:3:0:0:
169,363,295069,1,8,0:3:0:0:
196,312,295163,5,4,0:0:0:0:
234,306,295256,1,8,0:3:0:0:
272,300,295350,1,2,0:3:0:0:
311,297,295444,1,8,0:3:0:0:
329,270,295538,5,8,0:3:0:0:
367,264,295631,1,0,0:0:0:0:
405,258,295725,1,8,0:3:0:0:
444,255,295819,1,8,0:3:0:0:
425,200,295913,5,4,0:0:0:0:
374,189,296006,1,8,0:3:0:0:
324,178,296100,1,2,0:3:0:0:
273,169,296194,1,8,0:3:0:0:
254,195,296288,5,8,0:3:0:0:
203,204,296381,1,0,0:0:0:0:
153,216,296475,1,8,0:3:0:0:
102,224,296569,1,8,0:3:0:0:
62,173,296663,5,4,0:0:0:0:
70,109,296756,1,8,0:0:0:0:
117,67,296850,1,2,0:3:0:0:
181,69,296944,1,8,0:0:0:0:
237,99,297038,1,8,0:3:0:0:
287,138,297131,1,8,0:0:0:0:
350,135,297225,1,8,0:0:0:0:
394,88,297319,1,8,0:0:0:0:
381,25,297413,6,0,L|367:150,1,120,4|2,0:0|0:0,0:0:0:0:
139,227,298350,1,0,0:0:0:0:
136,303,298538,1,2,0:0:0:0:
201,341,298725,2,0,B|275:328|253:355|331:345,1,120,2|0,0:0|3:0,0:0:0:0:
319,346,300413,5,0,0:0:0:0:
475,358,300788,1,2,0:0:0:0:
487,283,300975,2,0,P|487:239|483:195,1,80,2|0,0:0|0:0,0:0:0:0:
424,155,301538,1,2,0:0:0:0:
353,174,301725,2,0,P|319:193|261:205,1,80,2|0,0:0|0:0,0:0:0:0:
206,181,302288,2,0,L|219:15,1,160,2|0,0:0|0:0,0:0:0:0:
105,126,303413,5,2,0:0:0:0:
166,264,303788,1,2,0:0:0:0:
222,213,303975,2,0,P|259:208|309:206,1,80,2|0,0:0|0:0,0:0:0:0:
371,237,304538,1,2,0:0:0:0:
371,237,304725,2,0,P|431:257|493:257,1,120,2|0,0:0|3:0,0:0:0:0:
487,257,306413,6,0,P|481:213|471:170,1,80,2|2,0:0|0:0,0:0:0:0:
412,132,306975,1,2,0:0:0:0:
261,155,307350,1,2,0:0:0:0:
225,87,307538,1,0,0:0:0:0:
281,36,307725,2,0,P|317:34|360:36,1,80,2|0,0:0|0:0,0:0:0:0:
371,112,308288,2,0,L|351:275,1,160,2|0,0:0|0:0,0:0:0:0:
235,368,309413,6,0,P|203:356|148:348,1,80,2|2,0:0|0:0,0:0:0:0:
83,356,309975,1,2,0:0:0:0:
127,210,310350,2,0,L|177:211,1,40,2|0,0:0|0:0,0:0:0:0:
227,163,310725,2,0,P|220:102|206:32,1,120,2|0,0:0|3:0,0:0:0:0:
208,44,312413,5,2,0:0:0:0:
244,191,312788,1,2,0:0:0:0:
308,220,312975,2,0,P|353:206|390:202,1,80,2|0,0:0|0:0,0:0:0:0:
449,244,313538,1,2,0:0:0:0:
449,244,313725,2,0,L|439:324,1,80,2|2,0:0|0:0,0:0:0:0:
363,333,314288,2,0,B|273:302|292:365|193:328,1,160,2|0,0:0|0:0,0:0:0:0:
135,198,315413,5,2,0:0:0:0:
271,132,315788,1,2,0:0:0:0:
271,132,315975,2,0,P|328:146|356:148,1,80,2|2,0:0|0:0,0:0:0:0:
401,92,316538,1,2,0:0:0:0:
354,32,316725,1,2,0:0:0:0:
256,192,316819,12,0,323475,0:0:0:0:
