osu file format v14

[General]
AudioFilename: audio.mp3
AudioLeadIn: 0
PreviewTime: 64060
Countdown: 0
SampleSet: None
StackLeniency: 0.7
Mode: 3
LetterboxInBreaks: 0
SpecialStyle: 0
WidescreenStoryboard: 1

[Editor]
Bookmarks: 10393,24060,40060,45393
DistanceSpacing: 0.8
BeatDivisor: 4
GridSize: 32
TimelineZoom: 2.4

[Metadata]
Title:Sakura no Uta
TitleUnicode:Sakura no Uta
Artist:Hana
ArtistUnicode:Hana
Creator:chouyaa
Version:hitsound
Source:サクラノ詩 -櫻の森の上を舞う-
Tags:Sakura no uta -Sakura no Mori no Ue o Mau- opening Eroge Metrowing Makura 枕 Another Lie
BeatmapID:1534621
BeatmapSetID:608361

[Difficulty]
HPDrainRate:8.5
CircleSize:7
OverallDifficulty:8.5
ApproachRate:5
SliderMultiplier:1.4
SliderTickRate:1

[Events]
//Background and Video events
0,0,"BG.jpg",0,0
//Break Periods
//Storyboard Layer 0 (Background)
//Storyboard Layer 1 (Fail)
//Storyboard Layer 2 (Pass)
//Storyboard Layer 3 (Foreground)
//Storyboard Sound Samples

[TimingPoints]
1394,333.333333333333,4,2,2,25,1,0
10393,-100,4,2,1,45,0,0
66727,-100,4,2,1,100,0,1
98560,-100,4,2,1,60,0,0

[HitObjects]
109,192,10393,5,0,0:0:0:70:hat.wav
182,192,10560,5,2,0:0:0:0:
36,192,10727,1,4,0:0:0:0:
329,192,10727,1,8,0:0:0:0:
182,192,10893,5,2,0:0:0:0:
36,192,11060,1,4,0:0:0:0:
329,192,11060,1,8,0:0:0:0:
182,192,11227,5,2,0:0:0:0:
36,192,11393,1,4,0:0:0:0:
329,192,11393,1,8,0:0:0:0:
329,192,11560,5,8,0:0:0:0:
329,192,11727,5,8,0:0:0:0:
329,192,11893,5,8,0:0:0:0:
36,192,12060,1,4,0:0:0:0:
182,192,12060,1,2,0:0:0:0:
329,192,12393,1,8,0:0:0:0:
36,192,12393,1,4,0:0:0:0:
36,192,12727,1,4,0:0:0:0:
329,192,12727,1,8,0:0:0:0:
329,192,13060,1,8,0:0:0:0:
36,192,13060,1,4,0:0:0:0:
329,192,13393,1,8,0:0:0:0:
36,192,13393,1,4,0:0:0:0:
36,192,13727,1,4,0:0:0:0:
329,192,13727,1,8,0:0:0:0:
329,192,14060,1,8,0:0:0:0:
36,192,14060,1,4,0:0:0:0:
36,192,14393,1,4,0:0:0:0:
329,192,14393,1,8,0:0:0:0:
329,192,14727,1,8,0:0:0:0:
329,192,15060,1,8,0:0:0:0:
36,192,15060,1,4,0:0:0:0:
36,192,15393,1,4,0:0:0:0:
329,192,15393,1,8,0:0:0:0:
329,192,15727,1,8,0:0:0:0:
36,192,15727,1,4,0:0:0:0:
36,192,16060,1,4,0:0:0:0:
329,192,16060,1,8,0:0:0:0:
36,192,16393,1,4,0:0:0:0:
329,192,16393,1,8,0:0:0:0:
36,192,16727,1,4,0:0:0:0:
329,192,16727,1,8,0:0:0:0:
36,192,17060,1,4,0:0:0:0:
329,192,17060,1,8,0:0:0:0:
329,192,17393,1,8,0:0:0:0:
36,192,17393,1,4,0:0:0:0:
329,192,17727,1,8,0:0:0:0:
36,192,17727,1,4,0:0:0:0:
329,192,18060,1,8,0:0:0:0:
36,192,18060,1,4,0:0:0:0:
36,192,18393,1,4,0:0:0:0:
329,192,18393,1,8,0:0:0:0:
36,192,18727,1,4,0:0:0:0:
329,192,18727,1,8,0:0:0:0:
36,192,19060,1,4,0:0:0:0:
329,192,19060,1,8,0:0:0:0:
329,192,19393,1,8,0:0:0:0:
36,192,19393,1,4,0:0:0:0:
329,192,19727,1,8,0:0:0:0:
36,192,19727,1,4,0:0:0:0:
329,192,20060,1,8,0:0:0:0:
36,192,20060,1,4,0:0:0:0:
36,192,20393,1,4,0:0:0:0:
329,192,20393,1,8,0:0:0:0:
329,192,20727,1,8,0:0:0:0:
329,192,21060,1,8,0:0:0:0:
36,192,21060,1,4,0:0:0:0:
475,192,21393,1,0,0:0:0:70:LR_Drum Hit Open.wav
329,192,21727,1,8,0:0:0:0:
329,192,22060,1,8,0:0:0:0:
329,192,22227,1,8,0:0:0:0:
329,192,22310,1,8,0:0:0:0:
329,192,22393,1,8,0:0:0:0:
329,192,22477,1,8,0:0:0:0:
329,192,22560,1,8,0:0:0:0:
329,192,22643,1,8,0:0:0:0:
329,192,22727,1,8,0:0:0:0:
475,192,24060,1,0,0:0:0:70:LR_Drum Hit Open.wav
182,192,24060,1,2,0:0:0:0:
256,192,24227,1,0,0:0:0:70:hat.wav
329,192,24393,1,0,0:0:0:70:LR2_HatCM.wav
182,192,24393,1,2,0:0:0:0:
256,192,24560,1,0,0:0:0:70:hat.wav
182,192,24727,1,2,0:0:0:0:
329,192,24727,1,0,0:0:0:70:LR2_HatCM.wav
256,192,24893,1,0,0:0:0:70:hat.wav
182,192,25060,1,2,0:0:0:0:
329,192,25060,1,0,0:0:0:70:LR2_HatCM.wav
256,192,25227,1,0,0:0:0:70:hat.wav
182,192,25393,1,2,0:0:0:0:
329,192,25393,1,0,0:0:0:70:LR2_HatCM.wav
256,192,25560,1,0,0:0:0:70:hat.wav
182,192,25727,1,2,0:0:0:0:
329,192,25727,1,0,0:0:0:70:LR2_HatCM.wav
256,192,25893,1,0,0:0:0:70:hat.wav
182,192,26060,1,2,0:0:0:0:
329,192,26060,1,0,0:0:0:70:LR2_HatCM.wav
256,192,26227,1,0,0:0:0:70:hat.wav
182,192,26393,1,2,0:0:0:0:
329,192,26393,1,0,0:0:0:70:LR2_HatCM.wav
256,192,26560,1,0,0:0:0:70:hat.wav
182,192,26727,1,2,0:0:0:0:
329,192,26727,1,0,0:0:0:70:LR2_HatCM.wav
256,192,26893,1,0,0:0:0:70:hat.wav
182,192,27060,1,2,0:0:0:0:
329,192,27060,1,0,0:0:0:70:LR2_HatCM.wav
256,192,27227,1,0,0:0:0:70:hat.wav
182,192,27393,1,2,0:0:0:0:
329,192,27393,1,0,0:0:0:70:LR2_HatCM.wav
256,192,27560,1,0,0:0:0:70:hat.wav
182,192,27727,1,2,0:0:0:0:
329,192,27727,1,0,0:0:0:70:LR2_HatCM.wav
256,192,27893,1,0,0:0:0:70:hat.wav
182,192,28060,1,2,0:0:0:0:
329,192,28060,1,0,0:0:0:70:LR2_HatCM.wav
256,192,28227,1,0,0:0:0:70:hat.wav
182,192,28393,1,2,0:0:0:0:
329,192,28393,1,0,0:0:0:70:LR2_HatCM.wav
256,192,28560,1,0,0:0:0:70:hat.wav
182,192,28727,1,2,0:0:0:0:
329,192,28727,1,0,0:0:0:70:LR2_HatCM.wav
256,192,28893,1,0,0:0:0:70:hat.wav
182,192,28893,1,2,0:0:0:0:
402,192,29060,1,8,0:0:0:0:
329,192,29060,1,0,0:0:0:70:LR2_HatCM.wav
256,192,29227,1,0,0:0:0:70:hat.wav
182,192,29393,1,2,0:0:0:0:
329,192,29393,1,0,0:0:0:70:LR2_HatCM.wav
256,192,29560,1,0,0:0:0:70:hat.wav
182,192,29727,1,2,0:0:0:0:
329,192,29727,1,0,0:0:0:70:LR2_HatCM.wav
256,192,29893,1,0,0:0:0:70:hat.wav
182,192,30060,1,2,0:0:0:0:
329,192,30060,1,0,0:0:0:70:LR2_HatCM.wav
256,192,30227,1,0,0:0:0:70:hat.wav
182,192,30393,1,2,0:0:0:0:
329,192,30393,1,0,0:0:0:70:LR2_HatCM.wav
256,192,30560,1,0,0:0:0:70:hat.wav
329,192,30727,1,0,0:0:0:70:LR2_HatCM.wav
182,192,30727,1,2,0:0:0:0:
256,192,30893,1,0,0:0:0:70:hat.wav
329,192,31060,1,0,0:0:0:70:LR2_HatCM.wav
182,192,31060,1,2,0:0:0:0:
256,192,31227,1,0,0:0:0:70:hat.wav
329,192,31393,1,0,0:0:0:70:LR2_HatCM.wav
182,192,31393,1,2,0:0:0:0:
256,192,31560,1,0,0:0:0:70:hat.wav
329,192,31727,1,0,0:0:0:70:LR2_HatCM.wav
182,192,31727,1,2,0:0:0:0:
256,192,31893,1,0,0:0:0:70:hat.wav
182,192,32060,1,2,0:0:0:0:
329,192,32060,1,0,0:0:0:70:LR2_HatCM.wav
256,192,32227,1,0,0:0:0:70:hat.wav
182,192,32393,1,2,0:0:0:0:
329,192,32393,1,0,0:0:0:70:LR2_HatCM.wav
256,192,32560,1,0,0:0:0:70:hat.wav
182,192,32727,1,2,0:0:0:0:
329,192,32727,1,0,0:0:0:70:LR2_HatCM.wav
256,192,32893,1,0,0:0:0:70:hat.wav
182,192,33060,1,2,0:0:0:0:
329,192,33060,1,0,0:0:0:70:LR2_HatCM.wav
256,192,33227,1,0,0:0:0:70:hat.wav
329,192,33393,1,0,0:0:0:70:LR2_HatCM.wav
182,192,33393,1,2,0:0:0:0:
256,192,33560,1,0,0:0:0:70:hat.wav
329,192,33727,1,0,0:0:0:70:LR2_HatCM.wav
182,192,33727,1,2,0:0:0:0:
256,192,33893,1,0,0:0:0:70:hat.wav
329,192,34060,1,0,0:0:0:70:LR2_HatCM.wav
182,192,34060,1,2,0:0:0:0:
256,192,34227,1,0,0:0:0:70:hat.wav
402,192,34227,1,8,0:0:0:0:
329,192,34393,1,0,0:0:0:70:LR2_HatCM.wav
182,192,34393,1,2,0:0:0:0:
256,192,34560,1,0,0:0:0:70:hat.wav
402,192,34560,1,8,0:0:0:0:
475,192,34727,1,0,0:0:0:70:LR_Drum Hit Open.wav
182,192,34727,1,2,0:0:0:0:
256,192,34893,1,0,0:0:0:70:hat.wav
329,192,35060,1,0,0:0:0:70:LR2_HatCM.wav
182,192,35060,1,2,0:0:0:0:
256,192,35227,1,0,0:0:0:70:hat.wav
182,192,35393,1,2,0:0:0:0:
329,192,35393,1,0,0:0:0:70:LR2_HatCM.wav
256,192,35560,1,0,0:0:0:70:hat.wav
182,192,35727,1,2,0:0:0:0:
329,192,35727,1,0,0:0:0:70:LR2_HatCM.wav
256,192,35893,1,0,0:0:0:70:hat.wav
182,192,36060,1,2,0:0:0:0:
329,192,36060,1,0,0:0:0:70:LR2_HatCM.wav
256,192,36227,1,0,0:0:0:70:hat.wav
182,192,36393,1,2,0:0:0:0:
329,192,36393,1,0,0:0:0:70:LR2_HatCM.wav
256,192,36560,1,0,0:0:0:70:hat.wav
329,192,36727,1,0,0:0:0:70:LR2_HatCM.wav
182,192,36727,1,2,0:0:0:0:
256,192,36893,1,0,0:0:0:70:hat.wav
329,192,37060,1,0,0:0:0:70:LR2_HatCM.wav
182,192,37060,1,2,0:0:0:0:
256,192,37227,1,0,0:0:0:70:hat.wav
182,192,37393,1,2,0:0:0:0:
329,192,37393,1,0,0:0:0:70:LR2_HatCM.wav
256,192,37560,1,0,0:0:0:70:hat.wav
182,192,37727,1,2,0:0:0:0:
329,192,37727,1,0,0:0:0:70:LR2_HatCM.wav
256,192,37893,1,0,0:0:0:70:hat.wav
329,192,38060,1,0,0:0:0:70:LR2_HatCM.wav
182,192,38060,1,2,0:0:0:0:
256,192,38227,1,0,0:0:0:70:hat.wav
329,192,38393,1,0,0:0:0:70:LR2_HatCM.wav
182,192,38393,1,2,0:0:0:0:
256,192,38560,1,0,0:0:0:70:hat.wav
182,192,38727,1,2,0:0:0:0:
329,192,38727,1,0,0:0:0:70:LR2_HatCM.wav
256,192,38893,1,0,0:0:0:70:hat.wav
182,192,39060,1,2,0:0:0:0:
329,192,39060,1,0,0:0:0:70:LR2_HatCM.wav
256,192,39227,1,0,0:0:0:70:hat.wav
402,192,39227,1,8,0:0:0:0:
329,192,39393,1,0,0:0:0:70:LR2_HatCM.wav
182,192,39393,1,2,0:0:0:0:
256,192,39560,1,0,0:0:0:70:hat.wav
182,192,39560,1,2,0:0:0:0:
329,192,39727,1,0,0:0:0:70:LR2_HatCM.wav
182,192,39727,1,2,0:0:0:0:
256,192,39893,1,0,0:0:0:70:hat.wav
402,192,39893,1,8,0:0:0:0:
475,192,40060,1,0,0:0:0:70:LR_Drum Hit Open.wav
182,192,40060,1,2,0:0:0:0:
182,192,40393,1,2,0:0:0:0:
182,192,40727,1,2,0:0:0:0:
182,192,41060,1,2,0:0:0:0:
182,192,41393,1,2,0:0:0:0:
475,192,41393,1,0,0:0:0:70:LR_Drum Hit Open.wav
182,192,41727,1,2,0:0:0:0:
182,192,42060,1,2,0:0:0:0:
182,192,42227,1,2,0:0:0:0:
329,192,42393,1,8,0:0:0:0:
182,192,42560,1,2,0:0:0:0:
329,192,42727,1,8,0:0:0:0:
475,192,42727,1,0,0:0:0:70:LR_Drum Hit Open.wav
182,192,43060,1,2,0:0:0:0:
182,192,43393,1,2,0:0:0:0:
329,192,43727,1,8,0:0:0:0:
182,192,44060,1,2,0:0:0:0:
475,192,44060,1,0,0:0:0:70:LR_Drum Hit Open.wav
475,192,44560,1,0,0:0:0:70:LR_Drum Hit Open.wav
182,192,44727,1,2,0:0:0:0:
182,192,44893,1,2,0:0:0:0:
329,192,45060,1,8,0:0:0:0:
182,192,45227,1,2,0:0:0:0:
182,192,45393,1,2,0:0:0:0:
182,192,45560,1,2,0:0:0:0:
182,192,45727,1,2,0:0:0:0:
329,192,45893,1,8,0:0:0:0:
36,192,45893,1,4,0:0:0:0:
182,192,46227,1,2,0:0:0:0:
182,192,46393,1,2,0:0:0:0:
329,192,46560,1,8,0:0:0:0:
36,192,46560,1,4,0:0:0:0:
182,192,46727,1,2,0:0:0:0:
182,192,46893,1,2,0:0:0:0:
182,192,47227,1,2,0:0:0:0:
182,192,47393,1,2,0:0:0:0:
36,192,47393,1,4,0:0:0:0:
329,192,47560,1,8,0:0:0:0:
182,192,47727,1,2,0:0:0:0:
182,192,47893,1,2,0:0:0:0:
329,192,48060,1,8,0:0:0:0:
36,192,48060,1,4,0:0:0:0:
182,192,48393,1,2,0:0:0:0:
182,192,48560,1,2,0:0:0:0:
329,192,48727,1,8,0:0:0:0:
182,192,48893,1,2,0:0:0:0:
475,192,49060,1,0,0:0:0:70:LR_Drum Hit Open.wav
182,192,49393,1,2,0:0:0:0:
36,192,49393,1,4,0:0:0:0:
329,192,49727,1,8,0:0:0:0:
182,192,50060,1,2,0:0:0:0:
182,192,50227,1,2,0:0:0:0:
329,192,50393,1,8,0:0:0:0:
475,192,50727,1,0,0:0:0:70:LR_Drum Hit Open.wav
182,192,50727,1,2,0:0:0:0:
329,192,51060,1,8,0:0:0:0:
182,192,51393,1,2,0:0:0:0:
182,192,51560,1,2,0:0:0:0:
329,192,51727,1,8,0:0:0:0:
182,192,52060,1,2,0:0:0:0:
36,192,52060,1,4,0:0:0:0:
329,192,52393,1,8,0:0:0:0:
36,192,52393,1,4,0:0:0:0:
182,192,52727,1,2,0:0:0:0:
182,192,52893,1,2,0:0:0:0:
329,192,53060,1,8,0:0:0:0:
36,192,53060,1,4,0:0:0:0:
182,192,53393,1,2,0:0:0:0:
475,192,53393,1,0,0:0:0:70:LR_Drum Hit Open.wav
329,192,53727,1,8,0:0:0:0:
182,192,54060,1,2,0:0:0:0:
182,192,54227,1,2,0:0:0:0:
329,192,54393,1,8,0:0:0:0:
475,192,54727,1,0,0:0:0:70:LR_Drum Hit Open.wav
182,192,54727,1,2,0:0:0:0:
329,192,55060,1,8,0:0:0:0:
182,192,55393,1,2,0:0:0:0:
182,192,55560,1,2,0:0:0:0:
329,192,55727,1,8,0:0:0:0:
475,192,56060,1,0,0:0:0:70:LR_Drum Hit Open.wav
182,192,56227,1,2,0:0:0:0:
182,192,56393,1,2,0:0:0:0:
475,192,56560,1,0,0:0:0:70:LR_Drum Hit Open.wav
329,192,56560,1,8,0:0:0:0:
36,192,56727,1,4,0:0:0:0:
182,192,56727,1,2,0:0:0:0:
182,192,56893,1,2,0:0:0:0:
36,192,57060,1,4,0:0:0:0:
329,192,57060,1,8,0:0:0:0:
182,192,57227,1,2,0:0:0:0:
36,192,57393,1,4,0:0:0:0:
182,192,57393,1,2,0:0:0:0:
329,192,57560,1,8,0:0:0:0:
475,192,57727,1,0,0:0:0:70:LR_Drum Hit Open.wav
182,192,57727,1,2,0:0:0:0:
182,192,57893,1,2,0:0:0:0:
329,192,58060,1,8,0:0:0:0:
182,192,58227,1,2,0:0:0:0:
36,192,58393,1,4,0:0:0:0:
182,192,58393,1,2,0:0:0:0:
329,192,58560,1,8,0:0:0:0:
182,192,58727,1,2,0:0:0:0:
36,192,59393,1,4,0:0:0:0:
182,192,59560,1,2,0:0:0:0:
182,192,59893,1,2,0:0:0:0:
475,192,60060,1,0,0:0:0:70:LR_Drum Hit Open.wav
329,192,60227,1,8,0:0:0:0:
329,192,60393,1,8,0:0:0:0:
329,192,60560,1,8,0:0:0:0:
36,192,60727,1,4,0:0:0:0:
329,192,60727,1,8,0:0:0:0:
329,192,60893,1,8,0:0:0:0:
329,192,61060,1,8,0:0:0:0:
329,192,61227,1,8,0:0:0:0:
36,192,61393,1,4,0:0:0:0:
329,192,61393,1,8,0:0:0:0:
182,192,62060,1,2,0:0:0:0:
329,192,62393,1,8,0:0:0:0:
36,192,62727,1,4,0:0:0:0:
182,192,62727,1,2,0:0:0:0:
182,192,62893,1,2,0:0:0:0:
329,192,63060,1,8,0:0:0:0:
182,192,63393,1,2,0:0:0:0:
182,192,63560,1,2,0:0:0:0:
329,192,63727,1,8,0:0:0:0:
475,192,64060,1,0,0:0:0:70:LR_Drum Hit Open.wav
475,192,64560,1,0,0:0:0:70:LR_Drum Hit Open.wav
475,192,65060,1,0,0:0:0:70:LR_Drum Hit Open.wav
475,192,65393,1,0,0:0:0:70:LR_Drum Hit Open.wav
182,192,65393,1,2,0:0:0:0:
329,192,65560,1,8,0:0:0:0:
475,192,65727,1,0,0:0:0:70:LR_Drum Hit Open.wav
182,192,65727,1,2,0:0:0:0:
329,192,65893,1,8,0:0:0:0:
182,192,66060,1,2,0:0:0:0:
329,192,66227,1,8,0:0:0:0:
182,192,66393,1,2,0:0:0:0:
329,192,66560,1,8,0:0:0:0:
475,192,66727,1,0,0:0:0:70:LR_Drum Hit Open.wav
182,192,66727,1,2,0:0:0:0:
329,192,67060,1,8,0:0:0:0:
36,192,67060,1,4,0:0:0:0:
182,192,67393,1,2,0:0:0:0:
36,192,67393,1,4,0:0:0:0:
182,192,67560,1,2,0:0:0:0:
329,192,67727,1,8,0:0:0:0:
36,192,67727,1,4,0:0:0:0:
182,192,67893,1,2,0:0:0:0:
36,192,68060,1,4,0:0:0:0:
182,192,68227,1,2,0:0:0:0:
329,192,68393,1,8,0:0:0:0:
36,192,68393,1,4,0:0:0:0:
182,192,68727,1,2,0:0:0:0:
36,192,68727,1,4,0:0:0:0:
182,192,68893,1,2,0:0:0:0:
329,192,69060,1,8,0:0:0:0:
36,192,69060,1,4,0:0:0:0:
182,192,69393,1,2,0:0:0:0:
36,192,69393,1,4,0:0:0:0:
329,192,69727,1,8,0:0:0:0:
36,192,69727,1,4,0:0:0:0:
182,192,70060,1,2,0:0:0:0:
36,192,70060,1,4,0:0:0:0:
182,192,70227,1,2,0:0:0:0:
329,192,70393,1,8,0:0:0:0:
36,192,70393,1,4,0:0:0:0:
182,192,70560,1,2,0:0:0:0:
36,192,70727,1,4,0:0:0:0:
182,192,70893,5,2,0:0:0:0:
329,192,71060,1,8,0:0:0:0:
36,192,71060,1,4,0:0:0:0:
182,192,71393,1,2,0:0:0:0:
36,192,71393,1,4,0:0:0:0:
182,192,71560,1,2,0:0:0:0:
329,192,71727,1,8,0:0:0:0:
36,192,71727,1,4,0:0:0:0:
475,192,72060,5,0,0:0:0:70:LR_Drum Hit Open.wav
182,192,72060,1,2,0:0:0:0:
329,192,72393,1,8,0:0:0:0:
36,192,72393,1,4,0:0:0:0:
182,192,72727,1,2,0:0:0:0:
36,192,72727,1,4,0:0:0:0:
182,192,72893,1,2,0:0:0:0:
329,192,73060,1,8,0:0:0:0:
36,192,73060,1,4,0:0:0:0:
182,192,73227,1,2,0:0:0:0:
36,192,73393,1,4,0:0:0:0:
182,192,73560,1,2,0:0:0:0:
329,192,73727,1,8,0:0:0:0:
36,192,73727,1,4,0:0:0:0:
182,192,74060,1,2,0:0:0:0:
36,192,74060,1,4,0:0:0:0:
182,192,74227,1,2,0:0:0:0:
329,192,74393,1,8,0:0:0:0:
36,192,74393,1,4,0:0:0:0:
182,192,74727,1,2,0:0:0:0:
36,192,74727,1,4,0:0:0:0:
329,192,75060,1,8,0:0:0:0:
36,192,75060,1,4,0:0:0:0:
182,192,75393,1,2,0:0:0:0:
36,192,75393,1,4,0:0:0:0:
182,192,75560,1,2,0:0:0:0:
329,192,75727,1,8,0:0:0:0:
36,192,75727,1,4,0:0:0:0:
182,192,75893,1,2,0:0:0:0:
36,192,76060,1,4,0:0:0:0:
182,192,76227,1,2,0:0:0:0:
329,192,76393,1,8,0:0:0:0:
36,192,76393,1,4,0:0:0:0:
182,192,76727,1,2,0:0:0:0:
36,192,76727,1,4,0:0:0:0:
182,192,76893,1,2,0:0:0:0:
329,192,77060,1,8,0:0:0:0:
36,192,77060,1,4,0:0:0:0:
182,192,77393,1,2,0:0:0:0:
36,192,77393,1,4,0:0:0:0:
329,192,77727,1,8,0:0:0:0:
36,192,77727,1,4,0:0:0:0:
182,192,78060,1,2,0:0:0:0:
36,192,78060,1,4,0:0:0:0:
182,192,78227,1,2,0:0:0:0:
329,192,78393,1,8,0:0:0:0:
36,192,78393,1,4,0:0:0:0:
182,192,78560,1,2,0:0:0:0:
36,192,78727,1,4,0:0:0:0:
182,192,78893,1,2,0:0:0:0:
329,192,79060,1,8,0:0:0:0:
36,192,79060,1,4,0:0:0:0:
182,192,79393,1,2,0:0:0:0:
36,192,79393,1,4,0:0:0:0:
182,192,79560,1,2,0:0:0:0:
329,192,79727,1,8,0:0:0:0:
36,192,79727,1,4,0:0:0:0:
182,192,80060,1,2,0:0:0:0:
36,192,80060,1,4,0:0:0:0:
329,192,80393,1,8,0:0:0:0:
36,192,80393,1,4,0:0:0:0:
182,192,80727,1,2,0:0:0:0:
36,192,80727,1,4,0:0:0:0:
182,192,80893,1,2,0:0:0:0:
329,192,81060,1,8,0:0:0:0:
36,192,81060,1,4,0:0:0:0:
182,192,81227,1,2,0:0:0:0:
36,192,81393,1,4,0:0:0:0:
182,192,81560,1,2,0:0:0:0:
329,192,81727,1,8,0:0:0:0:
36,192,81727,1,4,0:0:0:0:
182,192,82060,1,2,0:0:0:0:
36,192,82060,1,4,0:0:0:0:
182,192,82227,1,2,0:0:0:0:
329,192,82393,1,8,0:0:0:0:
36,192,82393,1,4,0:0:0:0:
182,192,82727,1,2,0:0:0:0:
36,192,82727,1,4,0:0:0:0:
329,192,83060,1,8,0:0:0:0:
36,192,83060,1,4,0:0:0:0:
182,192,83393,1,2,0:0:0:0:
36,192,83393,1,4,0:0:0:0:
182,192,83560,1,2,0:0:0:0:
329,192,83727,1,8,0:0:0:0:
36,192,83727,1,4,0:0:0:0:
182,192,83893,1,2,0:0:0:0:
36,192,84060,1,4,0:0:0:0:
182,192,84227,1,2,0:0:0:0:
329,192,84393,1,8,0:0:0:0:
36,192,84393,1,4,0:0:0:0:
182,192,84727,1,2,0:0:0:0:
36,192,84727,1,4,0:0:0:0:
182,192,84893,1,2,0:0:0:0:
329,192,85060,1,8,0:0:0:0:
36,192,85060,1,4,0:0:0:0:
182,192,85393,1,2,0:0:0:0:
36,192,85393,1,4,0:0:0:0:
329,192,85727,5,8,0:0:0:0:
36,192,85727,1,4,0:0:0:0:
182,192,86060,1,2,0:0:0:0:
36,192,86060,1,4,0:0:0:0:
182,192,86227,1,2,0:0:0:0:
329,192,86393,1,8,0:0:0:0:
36,192,86393,1,4,0:0:0:0:
182,192,86560,1,2,0:0:0:0:
475,192,86727,5,0,0:0:0:70:LR_Drum Hit Open.wav
182,192,86893,1,2,0:0:0:0:
329,192,87060,1,8,0:0:0:0:
36,192,87060,1,4,0:0:0:0:
182,192,87393,1,2,0:0:0:0:
36,192,87393,1,4,0:0:0:0:
182,192,87560,1,2,0:0:0:0:
329,192,87727,1,8,0:0:0:0:
36,192,87727,1,4,0:0:0:0:
475,192,88060,1,0,0:0:0:70:LR_Drum Hit Open.wav
182,192,88060,1,2,0:0:0:0:
329,192,88393,1,8,0:0:0:0:
36,192,88393,1,4,0:0:0:0:
182,192,88727,1,2,0:0:0:0:
36,192,88727,1,4,0:0:0:0:
182,192,88893,1,2,0:0:0:0:
329,192,89060,1,8,0:0:0:0:
36,192,89060,1,4,0:0:0:0:
182,192,89227,1,2,0:0:0:0:
36,192,89393,1,4,0:0:0:0:
182,192,89560,1,2,0:0:0:0:
329,192,89727,1,8,0:0:0:0:
36,192,89727,1,4,0:0:0:0:
182,192,90060,1,2,0:0:0:0:
36,192,90060,1,4,0:0:0:0:
182,192,90227,1,2,0:0:0:0:
329,192,90393,1,8,0:0:0:0:
36,192,90393,1,4,0:0:0:0:
182,192,90727,1,2,0:0:0:0:
36,192,90727,1,4,0:0:0:0:
329,192,91060,1,8,0:0:0:0:
36,192,91060,1,4,0:0:0:0:
182,192,91393,1,2,0:0:0:0:
36,192,91393,1,4,0:0:0:0:
182,192,91560,1,2,0:0:0:0:
329,192,91727,1,8,0:0:0:0:
36,192,91727,1,4,0:0:0:0:
182,192,91893,1,2,0:0:0:0:
36,192,92060,1,4,0:0:0:0:
182,192,92227,5,2,0:0:0:0:
329,192,92393,1,8,0:0:0:0:
36,192,92393,1,4,0:0:0:0:
182,192,92727,1,2,0:0:0:0:
36,192,92727,1,4,0:0:0:0:
182,192,92893,1,2,0:0:0:0:
329,192,93060,1,8,0:0:0:0:
36,192,93060,1,4,0:0:0:0:
475,192,93393,5,0,0:0:0:70:LR_Drum Hit Open.wav
182,192,93393,1,2,0:0:0:0:
182,192,93560,1,2,0:0:0:0:
329,192,93727,1,8,0:0:0:0:
182,192,93893,1,2,0:0:0:0:
182,192,94060,1,2,0:0:0:0:
329,192,94227,1,8,0:0:0:0:
182,192,94393,1,2,0:0:0:0:
182,192,94560,1,2,0:0:0:0:
329,192,94727,1,8,0:0:0:0:
182,192,94893,1,2,0:0:0:0:
182,192,95060,1,2,0:0:0:0:
329,192,95227,1,8,0:0:0:0:
182,192,95393,1,2,0:0:0:0:
182,192,95560,1,2,0:0:0:0:
329,192,95727,1,8,0:0:0:0:
182,192,95893,1,2,0:0:0:0:
182,192,96060,1,2,0:0:0:0:
182,192,96227,1,2,0:0:0:0:
182,192,96393,1,2,0:0:0:0:
182,192,96560,1,2,0:0:0:0:
182,192,96727,1,2,0:0:0:0:
182,192,96893,1,2,0:0:0:0:
182,192,97060,1,2,0:0:0:0:
182,192,97227,1,2,0:0:0:0:
182,192,97393,5,2,0:0:0:0:
182,192,97560,1,2,0:0:0:0:
182,192,97727,1,2,0:0:0:0:
182,192,97893,1,2,0:0:0:0:
182,192,98060,1,2,0:0:0:0:
182,192,98227,1,2,0:0:0:0:
182,192,98393,1,2,0:0:0:0:
475,192,98560,5,0,0:0:0:70:LR_Drum Hit Open.wav
182,192,98560,1,2,0:0:0:0:
