osu file format v14

[General]
AudioFilename: audio.mp3
AudioLeadIn: 0
PreviewTime: 64060
Countdown: 0
SampleSet: Soft
StackLeniency: 0.7
Mode: 3
LetterboxInBreaks: 0
SpecialStyle: 0
WidescreenStoryboard: 1

[Editor]
DistanceSpacing: 0.8
BeatDivisor: 4
GridSize: 32
TimelineZoom: 1.4

[Metadata]
Title:Sakura no Uta
TitleUnicode:Sakura no Uta
Artist:Hana
ArtistUnicode:Hana
Creator:chouyaa
Version:Hard
Source:サクラノ詩 -櫻の森の上を舞う-
Tags:Sakura no uta -Sakura no Mori no Ue o Mau- opening Eroge Metrowing Makura 枕 Another Lie
BeatmapID:1469718
BeatmapSetID:608361

[Difficulty]
HPDrainRate:8
CircleSize:4
OverallDifficulty:7.5
ApproachRate:5
SliderMultiplier:1.4
SliderTickRate:1

[Events]
//Background and Video events
0,0,"BG.jpg",0,0
//Break Periods
//Storyboard Layer 0 (Background)
//Storyboard Layer 1 (Fail)
//Storyboard Layer 2 (Pass)
//Storyboard Layer 3 (Foreground)
//Storyboard Sound Samples
Sample,24393,0,"LR2_HatCM.wav",70
Sample,24727,0,"LR2_HatCM.wav",70
Sample,25393,0,"LR2_HatCM.wav",70
Sample,26060,0,"LR2_HatCM.wav",70
Sample,26393,0,"LR2_HatCM.wav",70
Sample,27060,0,"LR2_HatCM.wav",70
Sample,27393,0,"LR2_HatCM.wav",70
Sample,28060,0,"LR2_HatCM.wav",70
Sample,29727,0,"LR2_HatCM.wav",70
Sample,30060,0,"LR2_HatCM.wav",70
Sample,30727,0,"LR2_HatCM.wav",70
Sample,31060,0,"LR2_HatCM.wav",70
Sample,31393,0,"LR2_HatCM.wav",70
Sample,31727,0,"LR2_HatCM.wav",70
Sample,32393,0,"LR2_HatCM.wav",70
Sample,32727,0,"LR2_HatCM.wav",70
Sample,33060,0,"LR2_HatCM.wav",70
Sample,33393,0,"LR2_HatCM.wav",70
Sample,33727,0,"LR2_HatCM.wav",70
Sample,34060,0,"LR2_HatCM.wav",70
Sample,34393,0,"LR2_HatCM.wav",70
Sample,35060,0,"LR2_HatCM.wav",70
Sample,35393,0,"LR2_HatCM.wav",70
Sample,36060,0,"LR2_HatCM.wav",70
Sample,36727,0,"LR2_HatCM.wav",70
Sample,37060,0,"LR2_HatCM.wav",70
Sample,37727,0,"LR2_HatCM.wav",70
Sample,38060,0,"LR2_HatCM.wav",70
Sample,38727,0,"LR2_HatCM.wav",70
Sample,39060,0,"LR2_HatCM.wav",70
Sample,39393,0,"LR2_HatCM.wav",70
Sample,39560,0,"hat.wav",70
Sample,39727,0,"LR2_HatCM.wav",70
Sample,65393,0,"LR_Drum Hit Open.wav",70

[TimingPoints]
1394,333.333333333333,4,2,2,70,1,0
10393,-100,4,2,1,70,0,0
66727,-100,4,2,1,70,0,1
77393,-100,4,2,1,70,0,1
92727,-100,4,2,1,70,0,1
93393,-100,4,2,1,70,0,1
98560,-100,4,2,1,70,0,0

[HitObjects]
64,192,1394,128,0,1893:0:0:0:0:
192,192,1394,1,0,0:0:0:0:
448,192,1893,1,0,0:0:0:0:
192,192,2060,1,0,0:0:0:0:
320,192,2060,1,0,0:0:0:0:
64,192,2227,1,0,0:0:0:0:
320,192,2393,128,0,3060:0:0:0:0:
448,192,2393,1,0,0:0:0:0:
64,192,3060,1,0,0:0:0:0:
192,192,3060,1,0,0:0:0:0:
448,192,3227,1,0,0:0:0:0:
192,192,3393,1,0,0:0:0:0:
320,192,3393,1,0,0:0:0:0:
64,192,3560,1,0,0:0:0:0:
320,192,3727,1,0,0:0:0:0:
448,192,3727,1,0,0:0:0:0:
192,192,3893,1,0,0:0:0:0:
64,192,4060,128,0,4393:0:0:0:0:
448,192,4060,1,0,0:0:0:0:
320,192,4393,1,0,0:0:0:0:
192,192,4560,128,0,4893:0:0:0:0:
448,192,4560,1,0,0:0:0:0:
64,192,5060,1,0,0:0:0:0:
320,192,5060,128,0,5560:0:0:0:0:
192,192,5560,1,0,0:0:0:0:
64,192,5727,1,0,0:0:0:0:
448,192,5727,128,0,6060:0:0:0:0:
320,192,5893,1,0,0:0:0:0:
64,192,6060,128,0,6393:0:0:0:0:
192,192,6060,1,0,0:0:0:0:
448,192,6227,1,0,0:0:0:0:
192,192,6393,128,0,6727:0:0:0:0:
320,192,6393,1,0,0:0:0:0:
64,192,6560,1,0,0:0:0:0:
320,192,6727,1,0,0:0:0:0:
448,192,6727,1,0,0:0:0:0:
192,192,6893,1,0,0:0:0:0:
64,192,7060,1,0,0:0:0:0:
448,192,7060,1,0,0:0:0:0:
320,192,7227,1,0,0:0:0:0:
64,192,7393,1,0,0:0:0:0:
192,192,7393,1,0,0:0:0:0:
320,192,7560,1,0,0:0:0:0:
192,192,7727,1,0,0:0:0:0:
448,192,7727,128,0,8227:0:0:0:0:
64,192,8227,1,0,0:0:0:0:
192,192,8393,1,0,0:0:0:0:
320,192,8393,1,0,0:0:0:0:
448,192,8560,1,0,0:0:0:0:
64,192,8727,1,0,0:0:0:0:
192,192,8727,1,0,0:0:0:0:
320,192,8893,1,0,0:0:0:0:
64,192,9060,128,0,9393:0:0:0:0:
448,192,9060,1,0,0:0:0:0:
192,192,9393,1,0,0:0:0:0:
320,192,9393,128,0,9893:0:0:0:0:
192,192,9893,128,0,10393:0:0:0:0:
448,192,9893,1,0,0:0:0:0:
320,192,10393,1,0,0:0:0:70:soft-hitnormal2.wav
64,192,10393,128,0,10727:0:0:0:70:hat.wav
192,192,10560,1,2,0:0:0:0:
448,192,10560,1,0,0:0:0:70:soft-hitnormal2.wav
192,192,10727,1,0,0:0:0:70:LR_Drum Hit Open.wav
320,192,10727,1,8,0:0:0:70:soft-hitnormal2.wav
64,192,10893,1,2,0:0:0:0:
448,192,10893,1,0,0:0:0:70:soft-hitnormal2.wav
64,192,11060,1,0,0:0:0:70:LR_Drum Hit Open.wav
192,192,11060,1,8,0:0:0:70:soft-hitnormal2.wav
192,192,11227,1,2,0:0:0:0:
448,192,11227,1,0,0:0:0:70:soft-hitnormal2.wav
320,192,11393,1,0,0:0:0:70:LR_Drum Hit Open.wav
448,192,11393,1,8,0:0:0:70:soft-hitnormal2.wav
64,192,11560,1,8,0:0:0:0:
192,192,11560,1,0,0:0:0:70:soft-hitnormal2.wav
64,192,11727,1,8,0:0:0:0:
448,192,11727,1,0,0:0:0:70:soft-hitnormal2.wav
192,192,11810,1,0,0:0:0:70:soft-hitnormal2.wav
320,192,11893,1,8,0:0:0:0:
448,192,11893,1,0,0:0:0:70:soft-hitnormal2.wav
64,192,12060,1,0,0:0:0:70:LR_Drum Hit Open.wav
448,192,12060,1,2,0:0:0:70:soft-hitnormal2.wav
192,192,12060,1,0,0:0:0:0:
64,192,12393,1,8,0:0:0:0:
320,192,12393,1,4,0:0:0:70:soft-hitnormal2.wav
192,192,12727,1,8,0:0:0:0:
448,192,12727,1,0,0:0:0:70:soft-hitnormal2.wav
64,192,12893,1,0,0:0:0:70:soft-hitnormal2.wav
320,192,13060,1,8,0:0:0:0:
448,192,13060,1,4,0:0:0:70:soft-hitnormal2.wav
192,192,13393,1,8,0:0:0:0:
320,192,13393,1,4,0:0:0:70:soft-hitnormal2.wav
64,192,13727,128,8,14060:0:0:0:0:
448,192,13727,1,0,0:0:0:70:soft-hitnormal2.wav
192,192,14060,1,8,0:0:0:0:
320,192,14060,128,4,14393:0:0:0:70:soft-hitnormal2.wav
192,192,14393,128,8,14727:0:0:0:0:
448,192,14393,1,0,0:0:0:70:soft-hitnormal2.wav
64,192,14727,1,8,0:0:0:0:
448,192,14727,128,0,15060:0:0:0:70:soft-hitnormal2.wav
64,192,15060,1,8,0:0:0:0:
192,192,15060,1,0,0:0:0:70:soft-hitnormal2.wav
320,192,15227,1,0,0:0:0:70:soft-hitnormal2.wav
64,192,15393,1,0,0:0:0:70:soft-hitnormal2.wav
448,192,15393,1,8,0:0:0:0:
192,192,15560,1,0,0:0:0:70:soft-hitnormal2.wav
320,192,15727,1,8,0:0:0:0:
448,192,15727,1,0,0:0:0:70:soft-hitnormal2.wav
192,192,16060,1,0,0:0:0:70:soft-hitnormal2.wav
320,192,16060,1,8,0:0:0:0:
64,192,16393,128,0,16727:0:0:0:70:soft-hitnormal2.wav
192,192,16393,1,8,0:0:0:0:
320,192,16727,1,0,0:0:0:70:soft-hitnormal2.wav
448,192,16727,128,8,17060:0:0:0:0:
192,192,17060,128,0,17393:0:0:0:70:soft-hitnormal2.wav
320,192,17060,1,8,0:0:0:0:
64,192,17393,1,8,0:0:0:0:
448,192,17393,1,0,0:0:0:70:soft-hitnormal2.wav
320,192,17560,1,0,0:0:0:70:soft-hitnormal2.wav
64,192,17727,1,8,0:0:0:0:
192,192,17727,1,0,0:0:0:70:soft-hitnormal2.wav
320,192,17893,1,0,0:0:0:70:soft-hitnormal2.wav
64,192,18060,1,8,0:0:0:0:
448,192,18060,1,0,0:0:0:70:soft-hitnormal2.wav
192,192,18227,1,0,0:0:0:70:soft-hitnormal2.wav
320,192,18393,128,0,18727:0:0:0:70:soft-hitnormal2.wav
448,192,18393,1,8,0:0:0:0:
64,192,18727,1,0,0:0:0:70:soft-hitnormal2.wav
192,192,18727,1,8,0:0:0:0:
448,192,18893,1,0,0:0:0:70:soft-hitnormal2.wav
64,192,19060,1,0,0:0:0:70:soft-hitnormal2.wav
320,192,19060,1,8,0:0:0:0:
192,192,19227,1,0,0:0:0:70:soft-hitnormal2.wav
320,192,19393,1,8,0:0:0:0:
448,192,19393,1,0,0:0:0:70:soft-hitnormal2.wav
192,192,19560,1,0,0:0:0:70:soft-hitnormal2.wav
64,192,19727,1,8,0:0:0:0:
448,192,19727,128,0,20060:0:0:0:70:soft-hitnormal2.wav
192,192,20060,1,8,0:0:0:0:
320,192,20060,1,0,0:0:0:70:soft-hitnormal2.wav
64,192,20393,1,0,0:0:0:70:soft-hitnormal2.wav
192,192,20393,1,8,0:0:0:0:
320,192,20560,1,0,0:0:0:70:soft-hitnormal2.wav
192,192,20727,1,8,0:0:0:0:
448,192,20727,1,0,0:0:0:70:soft-hitnormal2.wav
64,192,20893,1,0,0:0:0:70:soft-hitnormal2.wav
320,192,21060,128,8,21393:0:0:0:0:
448,192,21060,1,0,0:0:0:70:soft-hitnormal2.wav
64,192,21393,1,0,0:0:0:70:LR_Drum Hit Open.wav
192,192,21393,1,0,0:0:0:0:
448,192,21393,1,0,0:0:0:70:soft-hitnormal2.wav
192,192,21727,128,8,22060:0:0:0:0:
320,192,21727,1,0,0:0:0:70:soft-hitnormal2.wav
320,192,22060,1,8,0:0:0:0:
448,192,22060,1,0,0:0:0:70:soft-hitnormal2.wav
64,192,22143,1,0,0:0:0:20:soft-hitwhistle.wav
192,192,22227,1,0,0:0:0:20:soft-hitwhistle.wav
320,192,22310,1,0,0:0:0:20:soft-hitwhistle.wav
64,192,22393,1,8,0:0:0:0:
448,192,22393,1,0,0:0:0:70:soft-hitnormal2.wav
192,192,22477,1,0,0:0:0:20:soft-hitwhistle.wav
320,192,22560,1,0,0:0:0:20:soft-hitwhistle.wav
448,192,22643,1,0,0:0:0:20:soft-hitwhistle.wav
192,192,22727,1,0,0:0:0:70:soft-hitnormal2.wav
64,192,22727,1,8,0:0:0:0:
320,192,22893,1,0,0:0:0:70:soft-hitnormal2.wav
448,192,23060,1,0,0:0:0:70:soft-hitnormal2.wav
64,192,23227,1,0,0:0:0:70:soft-hitnormal2.wav
320,192,23227,1,0,0:0:0:70:soft-hitnormal2.wav
192,192,23393,1,0,0:0:0:70:soft-hitnormal2.wav
64,192,23560,1,0,0:0:0:70:soft-hitnormal2.wav
448,192,23727,1,0,0:0:0:70:soft-hitnormal2.wav
320,192,23893,1,0,0:0:0:70:soft-hitnormal2.wav
64,192,24060,1,2,0:0:0:0:
192,192,24060,1,0,0:0:0:70:LR_Drum Hit Open.wav
448,192,24060,1,0,0:0:0:0:
320,192,24227,1,0,0:0:0:70:hat.wav
64,192,24393,1,2,0:0:0:0:
448,192,24560,1,0,0:0:0:70:hat.wav
64,192,24727,1,2,0:0:0:0:
192,192,24893,1,0,0:0:0:70:hat.wav
320,192,25060,1,2,0:0:0:0:
448,192,25060,128,0,25393:0:0:0:70:LR2_HatCM.wav
64,192,25227,1,0,0:0:0:70:hat.wav
320,192,25393,1,2,0:0:0:0:
192,192,25560,1,0,0:0:0:70:hat.wav
64,192,25727,128,2,26060:0:0:0:0:
320,192,25727,1,0,0:0:0:70:LR2_HatCM.wav
448,192,25893,1,0,0:0:0:70:hat.wav
192,192,26060,1,2,0:0:0:0:
448,192,26227,1,0,0:0:0:70:hat.wav
192,192,26393,1,2,0:0:0:0:
320,192,26560,1,0,0:0:0:70:hat.wav
64,192,26727,1,2,0:0:0:0:
192,192,26727,128,0,27060:0:0:0:70:LR2_HatCM.wav
448,192,26893,1,0,0:0:0:70:hat.wav
320,192,27060,1,2,0:0:0:0:
64,192,27227,1,0,0:0:0:70:hat.wav
448,192,27227,128,0,27393:0:0:0:70:soft-hitnormal2.wav
320,192,27393,1,2,0:0:0:0:
192,192,27560,1,0,0:0:0:70:hat.wav
64,192,27727,1,2,0:0:0:0:
320,192,27727,128,0,28060:0:0:0:70:LR2_HatCM.wav
448,192,27893,1,0,0:0:0:70:hat.wav
192,192,28060,1,2,0:0:0:0:
320,192,28227,1,0,0:0:0:70:hat.wav
64,192,28393,128,2,28560:0:0:0:0:
448,192,28393,1,0,0:0:0:70:LR2_HatCM.wav
192,192,28560,1,0,0:0:0:70:hat.wav
320,192,28727,1,2,0:0:0:0:
448,192,28727,128,0,28893:0:0:0:70:LR2_HatCM.wav
64,192,28893,1,2,0:0:0:0:
192,192,28893,1,0,0:0:0:70:hat.wav
64,192,29060,128,8,29393:0:0:0:0:
448,192,29060,1,0,0:0:0:70:LR2_HatCM.wav
192,192,29393,1,2,0:0:0:0:
320,192,29393,1,0,0:0:0:70:LR2_HatCM.wav
64,192,29560,1,0,0:0:0:70:hat.wav
320,192,29727,1,2,0:0:0:0:
192,192,29893,1,0,0:0:0:70:hat.wav
320,192,30060,1,2,0:0:0:0:
448,192,30227,1,0,0:0:0:70:hat.wav
64,192,30393,1,2,0:0:0:0:
192,192,30393,1,0,0:0:0:70:LR2_HatCM.wav
448,192,30560,1,0,0:0:0:70:hat.wav
64,192,30727,1,2,0:0:0:0:
320,192,30893,1,0,0:0:0:70:hat.wav
64,192,31060,1,2,0:0:0:0:
448,192,31227,1,0,0:0:0:70:hat.wav
192,192,31393,1,2,0:0:0:0:
448,192,31560,1,0,0:0:0:70:hat.wav
192,192,31727,1,2,0:0:0:0:
320,192,31893,1,0,0:0:0:70:hat.wav
64,192,32060,1,2,0:0:0:0:
448,192,32060,1,0,0:0:0:70:LR2_HatCM.wav
192,192,32227,1,0,0:0:0:70:hat.wav
320,192,32393,1,2,0:0:0:0:
448,192,32560,1,0,0:0:0:70:hat.wav
192,192,32727,1,2,0:0:0:0:
64,192,32893,1,0,0:0:0:70:hat.wav
320,192,33060,1,2,0:0:0:0:
448,192,33227,128,0,33393:0:0:0:70:hat.wav
192,192,33393,1,2,0:0:0:0:
64,192,33560,128,0,33727:0:0:0:70:hat.wav
320,192,33727,1,2,0:0:0:0:
192,192,33893,128,0,34060:0:0:0:70:hat.wav
448,192,34060,1,2,0:0:0:0:
64,192,34227,1,8,0:0:0:0:
320,192,34227,1,0,0:0:0:70:hat.wav
192,192,34393,1,2,0:0:0:0:
320,192,34560,1,8,0:0:0:0:
448,192,34560,1,0,0:0:0:70:hat.wav
64,192,34727,1,2,0:0:0:0:
192,192,34727,1,0,0:0:0:70:LR_Drum Hit Open.wav
448,192,34893,1,0,0:0:0:70:hat.wav
64,192,35060,1,2,0:0:0:0:
320,192,35227,1,0,0:0:0:70:hat.wav
64,192,35393,1,2,0:0:0:0:
192,192,35560,1,0,0:0:0:70:hat.wav
320,192,35727,1,2,0:0:0:0:
448,192,35727,128,0,36227:0:0:0:70:LR2_HatCM.wav
192,192,35893,1,0,0:0:0:70:hat.wav
64,192,36060,1,2,0:0:0:0:
320,192,36227,1,0,0:0:0:70:hat.wav
64,192,36393,1,2,0:0:0:0:
192,192,36393,128,0,36893:0:0:0:70:LR2_HatCM.wav
448,192,36560,1,0,0:0:0:70:hat.wav
320,192,36727,1,2,0:0:0:0:
64,192,36893,1,0,0:0:0:70:hat.wav
320,192,37060,1,2,0:0:0:0:
192,192,37227,1,0,0:0:0:70:hat.wav
64,192,37393,1,2,0:0:0:0:
320,192,37393,128,0,37727:0:0:0:70:LR2_HatCM.wav
448,192,37560,1,0,0:0:0:70:hat.wav
64,192,37727,1,2,0:0:0:0:
192,192,37893,128,0,38227:0:0:0:70:hat.wav
320,192,38060,1,2,0:0:0:0:
448,192,38227,1,0,0:0:0:70:hat.wav
64,192,38393,128,2,38727:0:0:0:0:
320,192,38393,1,0,0:0:0:70:LR2_HatCM.wav
192,192,38560,1,0,0:0:0:70:hat.wav
448,192,38727,1,2,0:0:0:0:
192,192,38893,1,0,0:0:0:70:hat.wav
320,192,39060,128,2,39393:0:0:0:0:
64,192,39227,1,8,0:0:0:0:
448,192,39227,1,0,0:0:0:70:hat.wav
192,192,39393,128,2,39727:0:0:0:0:
320,192,39560,1,2,0:0:0:0:
64,192,39727,128,2,40060:0:0:0:0:
320,192,39893,1,8,0:0:0:0:
448,192,39893,1,0,0:0:0:70:hat.wav
192,192,40060,1,2,0:0:0:0:
448,192,40060,1,0,0:0:0:70:LR_Drum Hit Open.wav
320,192,40227,1,0,0:0:0:70:hat.wav
192,192,40393,1,2,0:0:0:0:
448,192,40560,1,0,0:0:0:70:hat.wav
192,192,40727,1,2,0:0:0:0:
320,192,40893,1,0,0:0:0:70:hat.wav
64,192,41060,1,2,0:0:0:0:
448,192,41227,1,0,0:0:0:70:hat.wav
64,192,41393,1,2,0:0:0:0:
192,192,41393,1,0,0:0:0:70:LR_Drum Hit Open.wav
320,192,41560,1,0,0:0:0:70:hat.wav
64,192,41727,1,2,0:0:0:0:
448,192,41893,1,0,0:0:0:70:hat.wav
192,192,42060,1,2,0:0:0:0:
320,192,42060,1,0,0:0:0:70:soft-hitnormal2.wav
192,192,42227,1,2,0:0:0:0:
320,192,42227,1,0,0:0:0:70:soft-hitnormal2.wav
64,192,42393,1,8,0:0:0:0:
448,192,42393,1,0,0:0:0:70:soft-hitnormal2.wav
192,192,42560,1,2,0:0:0:0:
320,192,42727,128,8,43727:0:0:0:0:
448,192,42727,128,0,43227:0:0:0:70:LR_Drum Hit Open.wav
64,192,43060,1,2,0:0:0:0:
192,192,43060,1,0,0:0:0:70:soft-hitnormal2.wav
192,192,43227,128,0,43727:0:0:0:70:soft-hitnormal2.wav
448,192,43393,1,2,0:0:0:0:
64,192,43560,1,0,0:0:0:70:soft-hitnormal2.wav
64,192,43727,128,8,44393:0:0:0:0:
448,192,43727,1,0,0:0:0:70:soft-hitnormal2.wav
192,192,44060,1,2,0:0:0:0:
320,192,44060,1,0,0:0:0:70:LR_Drum Hit Open.wav
320,192,44393,128,0,44727:0:0:0:70:soft-hitnormal2.wav
192,192,44727,128,2,45060:0:0:0:0:
64,192,45060,1,8,0:0:0:0:
448,192,45060,1,0,0:0:0:70:soft-hitnormal2.wav
320,192,45143,1,0,0:0:0:20:soft-hitwhistle.wav
192,192,45227,1,0,0:0:0:20:soft-hitwhistle.wav
64,192,45310,1,0,0:0:0:20:soft-hitwhistle.wav
320,192,45393,128,2,45560:0:0:0:0:
448,192,45393,128,0,45560:0:0:0:70:soft-hitnormal2.wav
64,192,45560,1,2,0:0:0:0:
192,192,45727,1,2,0:0:0:0:
64,192,45893,128,8,46060:0:0:0:0:
448,192,45893,128,0,46060:0:0:0:70:soft-hitnormal2.wav
320,192,46227,1,2,0:0:0:0:
64,192,46393,128,2,46560:0:0:0:0:
192,192,46393,128,0,46560:0:0:0:70:soft-hitnormal2.wav
448,192,46560,1,8,0:0:0:0:
320,192,46727,1,2,0:0:0:0:
64,192,46893,128,2,47060:0:0:0:0:
448,192,46893,128,0,47060:0:0:0:70:soft-hitnormal2.wav
192,192,47227,1,2,0:0:0:0:
320,192,47393,128,2,47727:0:0:0:0:
448,192,47393,128,0,47893:0:0:0:70:soft-hitnormal2.wav
64,192,47560,1,8,0:0:0:0:
192,192,47727,128,0,47893:0:0:0:70:soft-hitnormal2.wav
320,192,47893,128,2,48060:0:0:0:0:
64,192,48060,1,8,0:0:0:0:
448,192,48060,1,0,0:0:0:70:soft-hitnormal2.wav
192,192,48060,1,0,0:0:0:70:LR_Drum Hit Open.wav
320,192,48393,1,2,0:0:0:0:
448,192,48393,1,0,0:0:0:70:soft-hitnormal2.wav
192,192,48560,1,2,0:0:0:0:
64,192,48893,1,2,0:0:0:0:
192,192,49060,1,0,0:0:0:70:LR_Drum Hit Open.wav
448,192,49060,1,8,0:0:0:0:
320,192,49227,1,0,0:0:0:70:soft-hitnormal2.wav
64,192,49393,1,2,0:0:0:0:
448,192,49393,1,4,0:0:0:70:soft-hitnormal2.wav
448,192,49560,1,2,0:0:0:0:
64,192,49727,1,8,0:0:0:0:
192,192,49727,1,0,0:0:0:70:soft-hitnormal2.wav
192,192,50060,1,2,0:0:0:0:
320,192,50060,1,0,0:0:0:70:soft-hitnormal2.wav
192,192,50227,1,2,0:0:0:0:
64,192,50393,128,8,50560:0:0:0:0:
448,192,50393,128,0,50560:0:0:0:70:soft-hitnormal2.wav
64,192,50727,1,2,0:0:0:0:
192,192,50727,1,0,0:0:0:70:LR_Drum Hit Open.wav
448,192,50727,1,0,0:0:0:70:soft-hitnormal2.wav
320,192,51060,1,8,0:0:0:0:
448,192,51060,1,0,0:0:0:70:soft-hitnormal2.wav
192,192,51227,1,2,0:0:0:0:
64,192,51560,1,2,0:0:0:0:
320,192,51727,1,8,0:0:0:0:
448,192,51727,1,0,0:0:0:70:soft-hitnormal2.wav
192,192,51893,1,0,0:0:0:70:soft-hitnormal2.wav
64,192,52060,1,2,0:0:0:0:
448,192,52060,1,0,0:0:0:70:soft-hitnormal2.wav
448,192,52227,1,2,0:0:0:0:
192,192,52393,1,8,0:0:0:0:
320,192,52393,1,0,0:0:0:70:soft-hitnormal2.wav
64,192,52560,1,0,0:0:0:70:soft-hitnormal2.wav
192,192,52727,1,2,0:0:0:0:
448,192,52727,1,0,0:0:0:20:soft-hitnormal2.wav
448,192,52893,1,2,0:0:0:0:
64,192,53060,1,8,0:0:0:0:
320,192,53060,1,0,0:0:0:20:soft-hitnormal2.wav
192,192,53227,1,0,0:0:0:20:soft-hitnormal2.wav
320,192,53393,1,2,0:0:0:0:
448,192,53393,128,0,54060:0:0:0:70:LR_Drum Hit Open.wav
64,192,53727,1,8,0:0:0:0:
192,192,53727,1,0,0:0:0:70:soft-hitnormal2.wav
64,192,54060,1,2,0:0:0:0:
320,192,54060,128,0,54727:0:0:0:70:soft-hitnormal2.wav
64,192,54227,1,2,0:0:0:0:
192,192,54393,1,8,0:0:0:0:
448,192,54393,1,0,0:0:0:70:soft-hitnormal2.wav
64,192,54560,1,0,0:0:0:70:soft-hitnormal2.wav
192,192,54727,128,2,55393:0:0:0:0:
448,192,54727,1,0,0:0:0:70:LR_Drum Hit Open.wav
448,192,54893,1,2,0:0:0:0:
64,192,55060,1,8,0:0:0:0:
320,192,55060,1,0,0:0:0:70:soft-hitnormal2.wav
64,192,55393,1,2,0:0:0:0:
320,192,55393,1,0,0:0:0:70:soft-hitnormal2.wav
448,192,55560,1,2,0:0:0:20:soft-hitnormal2.wav
320,192,55643,1,2,0:0:0:20:soft-hitnormal2.wav
192,192,55727,1,8,0:0:0:0:
448,192,55810,1,2,0:0:0:20:soft-hitnormal2.wav
64,192,55893,1,2,0:0:0:20:soft-hitnormal2.wav
192,192,55977,1,2,0:0:0:20:soft-hitnormal2.wav
448,192,56060,128,8,56227:0:0:0:0:
320,192,56060,128,0,56227:0:0:0:70:soft-hitnormal2.wav
64,192,56227,1,2,0:0:0:0:
192,192,56393,1,2,0:0:0:0:
64,192,56560,128,8,56727:0:0:0:0:
448,192,56560,128,0,56727:0:0:0:70:LR_Drum Hit Open.wav
320,192,56727,1,2,0:0:0:0:
192,192,56893,1,2,0:0:0:0:
192,192,57060,128,8,57227:0:0:0:0:
64,192,57060,128,0,57227:0:0:0:70:soft-hitnormal2.wav
448,192,57227,1,2,0:0:0:0:
320,192,57393,1,2,0:0:0:0:
64,192,57560,128,8,57727:0:0:0:0:
448,192,57560,128,0,57727:0:0:0:70:soft-hitnormal2.wav
192,192,57727,1,2,0:0:0:0:
320,192,57727,1,0,0:0:0:70:LR_Drum Hit Open.wav
192,192,58060,128,0,58227:0:0:0:70:soft-hitnormal2.wav
64,192,58227,1,2,0:0:0:0:
320,192,58393,1,0,0:0:0:70:soft-hitwhistle.wav
448,192,58393,1,2,0:0:0:0:
192,192,58560,1,2,0:0:0:0:
64,192,58727,1,2,0:0:0:0:
448,192,58727,1,0,0:0:0:70:LR_Drum Hit Open.wav
192,192,59060,1,8,0:0:0:0:
320,192,59060,1,0,0:0:0:70:soft-hitnormal2.wav
64,192,59393,1,0,0:0:0:70:LR2_HatCM.wav
320,192,59560,1,2,0:0:0:0:
64,192,59727,1,8,0:0:0:0:
192,192,59727,1,0,0:0:0:70:soft-hitnormal2.wav
320,192,59893,1,2,0:0:0:0:
448,192,60060,1,0,0:0:0:70:LR_Drum Hit Open.wav
192,192,60227,1,8,0:0:0:0:
64,192,60393,1,8,0:0:0:0:
320,192,60393,1,0,0:0:0:70:soft-hitnormal2.wav
448,192,60560,1,8,0:0:0:0:
192,192,60727,1,8,0:0:0:0:
192,192,61060,1,8,0:0:0:0:
448,192,61060,1,0,0:0:0:70:soft-hitnormal2.wav
320,192,61227,1,8,0:0:0:0:
64,192,61393,1,0,0:0:0:70:soft-hitnormal2.wav
192,192,61393,128,8,61893:0:0:0:0:
64,192,61727,1,8,0:0:0:0:
448,192,61727,1,0,0:0:0:70:soft-hitnormal2.wav
320,192,61893,128,0,62393:0:0:0:70:soft-hitnormal2.wav
448,192,62060,1,2,0:0:0:0:
192,192,62227,1,2,0:0:0:0:
64,192,62393,1,8,0:0:0:0:
448,192,62393,1,0,0:0:0:70:soft-hitnormal2.wav
320,192,62560,1,0,0:0:0:70:soft-hitnormal2.wav
64,192,62727,128,0,63227:0:0:0:70:soft-hitnormal2.wav
192,192,62727,1,2,0:0:0:0:
448,192,62893,1,2,0:0:0:0:
192,192,63060,1,8,0:0:0:0:
320,192,63060,1,0,0:0:0:70:soft-hitnormal2.wav
448,192,63227,128,0,63727:0:0:0:70:soft-hitnormal2.wav
192,192,63393,1,2,0:0:0:0:
320,192,63560,1,2,0:0:0:0:
64,192,63727,1,0,0:0:0:20:soft-hitwhistle.wav
192,192,63810,1,0,0:0:0:20:soft-hitwhistle.wav
320,192,63893,1,0,0:0:0:20:soft-hitwhistle.wav
448,192,63977,1,0,0:0:0:20:soft-hitwhistle.wav
64,192,64060,1,0,0:0:0:20:LR_Drum Hit Open.wav
192,192,64060,1,8,0:0:0:0:
320,192,64060,1,0,0:0:0:0:
64,192,64227,1,0,0:0:0:70:soft-hitnormal2.wav
192,192,64393,1,2,0:0:0:0:
448,192,64393,1,0,0:0:0:20:soft-hitnormal2.wav
320,192,64560,1,0,0:0:0:20:soft-hitnormal2.wav
64,192,64560,1,0,0:0:0:70:LR_Drum Hit Open.wav
448,192,64560,1,8,0:0:0:0:
320,192,64727,1,0,0:0:0:20:soft-hitnormal2.wav
192,192,64893,1,2,0:0:0:0:
448,192,64893,1,0,0:0:0:20:soft-hitnormal2.wav
64,192,65060,1,0,0:0:0:70:LR_Drum Hit Open.wav
192,192,65060,1,8,0:0:0:0:
320,192,65060,1,0,0:0:0:20:soft-hitnormal2.wav
64,192,65227,1,2,0:0:0:0:
320,192,65393,1,0,0:0:0:70:soft-hitnormal2.wav
192,192,65560,1,2,0:0:0:0:
448,192,65560,1,0,0:0:0:70:soft-hitnormal2.wav
64,192,65727,1,8,0:0:0:0:
320,192,65727,1,0,0:0:0:70:LR_Drum Hit Open.wav
448,192,65727,1,0,0:0:0:20:soft-hitnormal2.wav
192,192,65893,1,8,0:0:0:0:
64,192,66060,1,2,0:0:0:0:
448,192,66060,1,0,0:0:0:20:soft-hitnormal2.wav
320,192,66227,1,0,0:0:0:20:soft-hitwhistle.wav
448,192,66310,1,0,0:0:0:20:soft-hitwhistle.wav
192,192,66393,1,2,0:0:0:0:
64,192,66393,1,0,0:0:0:20:soft-hitnormal2.wav
320,192,66560,1,0,0:0:0:20:soft-hitwhistle.wav
64,192,66727,128,2,68060:0:0:0:0:
448,192,66727,1,0,0:0:0:70:LR_Drum Hit Open.wav
320,192,67060,1,8,0:0:0:0:
192,192,67060,1,0,0:0:0:70:soft-hitnormal2.wav
192,192,67393,1,2,0:0:0:0:
448,192,67393,1,0,0:0:0:70:soft-hitnormal2.wav
448,192,67560,1,2,0:0:0:0:
192,192,67727,1,8,0:0:0:0:
320,192,67727,1,0,0:0:0:70:soft-hitnormal2.wav
448,192,67893,1,2,0:0:0:0:
192,192,68227,1,2,0:0:0:0:
320,192,68227,1,0,0:0:0:70:soft-hitnormal2.wav
64,192,68393,1,8,0:0:0:0:
448,192,68393,128,0,68727:0:0:0:70:soft-hitnormal2.wav
192,192,68727,1,2,0:0:0:0:
320,192,68727,128,4,69060:0:0:0:70:soft-hitnormal2.wav
64,192,68893,1,2,0:0:0:0:
192,192,69060,128,8,69393:0:0:0:0:
448,192,69060,1,0,0:0:0:70:soft-hitnormal2.wav
320,192,69227,1,0,0:0:0:70:soft-hitnormal2.wav
64,192,69393,1,2,0:0:0:0:
448,192,69393,128,0,69893:0:0:0:70:soft-hitnormal2.wav
320,192,69560,1,0,0:0:0:70:soft-hitnormal2.wav
64,192,69727,1,8,0:0:0:0:
192,192,69727,1,12,0:0:0:70:soft-hitnormal2.wav
320,192,69893,128,0,70393:0:0:0:70:soft-hitnormal2.wav
192,192,70060,1,2,0:0:0:0:
448,192,70060,1,0,0:0:0:70:soft-hitnormal2.wav
192,192,70227,1,2,0:0:0:0:
64,192,70393,128,8,70727:0:0:0:0:
448,192,70393,1,0,0:0:0:70:soft-hitnormal2.wav
320,192,70560,1,2,0:0:0:0:
192,192,70727,128,0,71060:0:0:0:70:soft-hitnormal2.wav
320,192,71060,128,8,71393:0:0:0:0:
448,192,71060,1,0,0:0:0:70:soft-hitnormal2.wav
64,192,71393,128,2,71727:0:0:0:0:
192,192,71393,1,0,0:0:0:70:soft-hitnormal2.wav
320,192,71560,1,2,0:0:0:0:
192,192,71727,1,8,0:0:0:0:
448,192,71727,1,0,0:0:0:70:soft-hitnormal2.wav
64,192,72060,1,2,0:0:0:0:
320,192,72060,1,0,0:0:0:70:LR_Drum Hit Open.wav
448,192,72060,128,0,72560:0:0:0:70:soft-hitnormal2.wav
192,192,72560,128,0,73060:0:0:0:70:soft-hitnormal2.wav
320,192,72727,1,2,0:0:0:0:
64,192,72893,1,2,0:0:0:0:
320,192,73060,1,8,0:0:0:0:
448,192,73060,1,0,0:0:0:70:soft-hitnormal2.wav
64,192,73393,1,2,0:0:0:0:
192,192,73393,1,0,0:0:0:70:soft-hitnormal2.wav
320,192,73560,1,2,0:0:0:0:
192,192,73727,1,8,0:0:0:0:
448,192,73727,1,0,0:0:0:70:soft-hitnormal2.wav
64,192,73893,1,0,0:0:0:70:soft-hitnormal2.wav
320,192,74060,1,2,0:0:0:0:
448,192,74060,1,0,0:0:0:70:soft-hitnormal2.wav
448,192,74227,1,2,0:0:0:0:
64,192,74393,1,8,0:0:0:0:
192,192,74393,1,0,0:0:0:70:soft-hitnormal2.wav
320,192,74727,128,2,75227:0:0:0:0:
448,192,74727,1,0,0:0:0:70:soft-hitnormal2.wav
192,192,75060,1,8,0:0:0:0:
448,192,75060,1,0,0:0:0:70:soft-hitnormal2.wav
64,192,75227,128,0,75727:0:0:0:70:soft-hitnormal2.wav
192,192,75393,1,2,0:0:0:0:
320,192,75393,1,0,0:0:0:70:soft-hitnormal2.wav
192,192,75560,1,2,0:0:0:0:
320,192,75727,1,8,0:0:0:0:
448,192,75727,128,0,76060:0:0:0:70:soft-hitnormal2.wav
64,192,75893,1,2,0:0:0:0:
320,192,76060,128,0,76393:0:0:0:70:soft-hitnormal2.wav
64,192,76227,1,2,0:0:0:0:
192,192,76393,128,8,76727:0:0:0:0:
448,192,76393,1,0,0:0:0:70:soft-hitnormal2.wav
64,192,76727,128,2,77060:0:0:0:0:
320,192,76727,1,0,0:0:0:70:soft-hitnormal2.wav
448,192,76893,1,2,0:0:0:0:
192,192,77060,1,8,0:0:0:0:
320,192,77060,1,0,0:0:0:70:soft-hitnormal2.wav
448,192,77227,1,2,0:0:0:0:
64,192,77393,1,2,0:0:0:0:
192,192,77393,1,0,0:0:0:70:soft-hitnormal2.wav
448,192,77393,1,0,0:0:0:70:LR_Drum Hit Open.wav
320,192,77560,1,0,0:0:0:70:soft-hitnormal2.wav
192,192,77727,1,8,0:0:0:0:
448,192,77727,1,0,0:0:0:70:soft-hitnormal2.wav
64,192,78060,1,2,0:0:0:0:
320,192,78060,1,0,0:0:0:70:soft-hitnormal2.wav
320,192,78227,1,2,0:0:0:0:
192,192,78393,1,8,0:0:0:0:
448,192,78393,1,0,0:0:0:70:soft-hitnormal2.wav
64,192,78727,128,0,79060:0:0:0:70:soft-hitnormal2.wav
448,192,78893,1,2,0:0:0:0:
192,192,79060,1,8,0:0:0:0:
320,192,79060,1,0,0:0:0:70:soft-hitnormal2.wav
192,192,79393,1,2,0:0:0:0:
448,192,79393,1,0,0:0:0:70:soft-hitnormal2.wav
64,192,79560,1,2,0:0:0:0:
320,192,79727,1,8,0:0:0:0:
448,192,79727,1,0,0:0:0:70:soft-hitnormal2.wav
64,192,80060,1,2,0:0:0:0:
320,192,80060,128,0,80393:0:0:0:70:soft-hitnormal2.wav
192,192,80393,1,8,0:0:0:0:
448,192,80393,1,0,0:0:0:70:soft-hitnormal2.wav
64,192,80727,1,2,0:0:0:0:
192,192,80727,1,0,0:0:0:70:soft-hitnormal2.wav
64,192,80893,1,2,0:0:0:0:
320,192,81060,1,8,0:0:0:0:
448,192,81060,1,0,0:0:0:70:soft-hitnormal2.wav
192,192,81227,1,2,0:0:0:0:
64,192,81393,128,0,81727:0:0:0:70:soft-hitnormal2.wav
448,192,81560,1,2,0:0:0:0:
192,192,81727,1,8,0:0:0:0:
320,192,81727,1,0,0:0:0:70:soft-hitnormal2.wav
320,192,82060,1,2,0:0:0:0:
448,192,82060,128,0,82393:0:0:0:70:soft-hitnormal2.wav
320,192,82227,1,2,0:0:0:0:
64,192,82393,128,8,82727:0:0:0:0:
192,192,82393,1,0,0:0:0:70:soft-hitnormal2.wav
448,192,82560,1,2,0:0:0:0:
192,192,82727,1,2,0:0:0:0:
320,192,82727,1,0,0:0:0:70:LR_Drum Hit Open.wav
448,192,82727,1,0,0:0:0:70:soft-hitnormal2.wav
320,192,83060,1,8,0:0:0:0:
448,192,83060,1,0,0:0:0:70:soft-hitnormal2.wav
192,192,83227,1,0,0:0:0:70:soft-hitnormal2.wav
64,192,83393,1,2,0:0:0:0:
320,192,83393,1,0,0:0:0:70:soft-hitnormal2.wav
64,192,83560,1,2,0:0:0:0:
192,192,83727,1,8,0:0:0:0:
448,192,83727,1,0,0:0:0:70:soft-hitnormal2.wav
320,192,83893,1,2,0:0:0:0:
64,192,84060,1,4,0:0:0:70:soft-hitnormal2.wav
448,192,84227,1,2,0:0:0:0:
64,192,84393,1,8,0:0:0:0:
320,192,84393,1,0,0:0:0:70:soft-hitnormal2.wav
192,192,84727,1,2,0:0:0:0:
448,192,84727,1,0,0:0:0:70:soft-hitnormal2.wav
192,192,84893,1,2,0:0:0:0:
64,192,85060,1,8,0:0:0:0:
320,192,85060,1,0,0:0:0:70:soft-hitnormal2.wav
320,192,85393,1,2,0:0:0:0:
448,192,85393,1,0,0:0:0:70:soft-hitnormal2.wav
192,192,85727,1,8,0:0:0:0:
448,192,85727,1,0,0:0:0:70:soft-hitnormal2.wav
64,192,86060,1,2,0:0:0:0:
320,192,86060,1,0,0:0:0:70:soft-hitnormal2.wav
320,192,86227,1,2,0:0:0:0:
192,192,86393,1,8,0:0:0:0:
448,192,86393,1,0,0:0:0:70:soft-hitnormal2.wav
64,192,86727,1,2,0:0:0:0:
320,192,86727,1,0,0:0:0:70:LR_Drum Hit Open.wav
448,192,86727,1,0,0:0:0:70:soft-hitnormal2.wav
64,192,86893,1,2,0:0:0:0:
192,192,87060,1,8,0:0:0:0:
448,192,87060,1,0,0:0:0:70:soft-hitnormal2.wav
320,192,87227,1,2,0:0:0:0:
64,192,87393,1,2,0:0:0:0:
192,192,87393,1,0,0:0:0:70:soft-hitnormal2.wav
448,192,87560,1,2,0:0:0:0:
64,192,87727,1,8,0:0:0:0:
320,192,87727,1,0,0:0:0:70:soft-hitnormal2.wav
192,192,87893,1,8,0:0:0:0:
448,192,87893,1,0,0:0:0:70:soft-hitnormal2.wav
64,192,88060,1,2,0:0:0:0:
320,192,88060,1,0,0:0:0:70:LR_Drum Hit Open.wav
448,192,88060,1,0,0:0:0:70:soft-hitnormal2.wav
192,192,88393,1,8,0:0:0:0:
448,192,88393,1,0,0:0:0:70:soft-hitnormal2.wav
64,192,88727,1,2,0:0:0:0:
320,192,88727,1,0,0:0:0:70:soft-hitnormal2.wav
64,192,88893,1,2,0:0:0:0:
192,192,89060,1,8,0:0:0:0:
448,192,89060,1,0,0:0:0:70:soft-hitnormal2.wav
320,192,89227,1,2,0:0:0:0:
64,192,89393,1,0,0:0:0:70:soft-hitnormal2.wav
448,192,89560,1,2,0:0:0:0:
64,192,89727,1,8,0:0:0:0:
192,192,89727,1,0,0:0:0:70:soft-hitnormal2.wav
320,192,90060,1,2,0:0:0:0:
448,192,90060,1,0,0:0:0:70:soft-hitnormal2.wav
64,192,90393,1,8,0:0:0:0:
320,192,90393,1,0,0:0:0:70:soft-hitnormal2.wav
192,192,90727,1,2,0:0:0:0:
448,192,90727,1,0,0:0:0:70:soft-hitnormal2.wav
192,192,91060,1,8,0:0:0:0:
64,192,91060,1,0,0:0:0:70:soft-hitnormal2.wav
320,192,91393,1,2,0:0:0:0:
448,192,91393,1,0,0:0:0:70:soft-hitnormal2.wav
192,192,91560,1,2,0:0:0:0:
64,192,91727,1,8,0:0:0:0:
448,192,91727,1,0,0:0:0:70:soft-hitnormal2.wav
320,192,91893,1,2,0:0:0:0:
192,192,92060,1,2,0:0:0:0:
448,192,92060,1,0,0:0:0:70:soft-hitnormal2.wav
320,192,92227,1,2,0:0:0:0:
64,192,92393,1,8,0:0:0:0:
192,192,92393,1,0,0:0:0:70:soft-hitnormal2.wav
320,192,92560,1,2,0:0:0:0:
64,192,92727,1,0,0:0:0:20:soft-hitwhistle.wav
192,192,92810,1,0,0:0:0:20:soft-hitwhistle.wav
448,192,92893,1,0,0:0:0:20:soft-hitwhistle.wav
320,192,92977,1,0,0:0:0:20:soft-hitwhistle.wav
64,192,93060,1,8,0:0:0:0:
192,192,93060,1,0,0:0:0:70:soft-hitnormal2.wav
320,192,93227,1,2,0:0:0:0:
64,192,93393,1,2,0:0:0:0:
448,192,93393,1,0,0:0:0:70:LR_Drum Hit Open.wav
192,192,93560,1,2,0:0:0:0:
320,192,93727,1,8,0:0:0:0:
64,192,93893,1,2,0:0:0:0:
192,192,93893,1,0,0:0:0:70:soft-hitnormal2.wav
448,192,94060,1,2,0:0:0:0:
192,192,94227,1,8,0:0:0:0:
320,192,94393,1,2,0:0:0:0:
448,192,94393,1,0,0:0:0:70:soft-hitnormal2.wav
64,192,94560,1,2,0:0:0:0:
320,192,94727,1,8,0:0:0:0:
64,192,94893,1,2,0:0:0:0:
192,192,94893,1,0,0:0:0:70:soft-hitnormal2.wav
448,192,95060,1,2,0:0:0:0:
192,192,95227,1,8,0:0:0:0:
64,192,95393,1,2,0:0:0:0:
448,192,95393,1,0,0:0:0:70:soft-hitnormal2.wav
320,192,95560,1,2,0:0:0:0:
192,192,95727,1,8,0:0:0:0:
320,192,95893,1,2,0:0:0:0:
448,192,95893,1,0,0:0:0:70:soft-hitnormal2.wav
64,192,96060,1,2,0:0:0:0:
192,192,96227,1,2,0:0:0:0:
64,192,96393,1,2,0:0:0:0:
448,192,96393,1,0,0:0:0:70:soft-hitnormal2.wav
320,192,96560,1,2,0:0:0:0:
64,192,96727,1,2,0:0:0:0:
192,192,96893,1,2,0:0:0:0:
320,192,96893,1,0,0:0:0:70:soft-hitnormal2.wav
448,192,97060,1,2,0:0:0:0:
192,192,97227,1,2,0:0:0:0:
64,192,97393,1,8,0:0:0:0:
448,192,97393,1,0,0:0:0:70:LR_Drum Hit Open.wav
320,192,97560,1,2,0:0:0:0:
64,192,97727,1,8,0:0:0:0:
192,192,97727,1,0,0:0:0:70:LR_Drum Hit Open.wav
320,192,97893,1,2,0:0:0:0:
192,192,98060,1,2,0:0:0:0:
448,192,98060,1,0,0:0:0:70:soft-hitnormal2.wav
64,192,98227,1,0,0:0:0:70:soft-hitnormal2.wav
320,192,98227,1,2,0:0:0:0:
192,192,98393,1,0,0:0:0:70:soft-hitnormal2.wav
64,192,98393,1,2,0:0:0:0:
448,192,98560,128,2,102727:0:0:0:0:
320,192,98560,128,0,101393:0:0:0:70:LR_Drum Hit Open.wav
