osu file format v14

[General]
AudioFilename: audio.mp3
AudioLeadIn: 0
PreviewTime: 173576
Countdown: 0
SampleSet: Soft
StackLeniency: 0.7
Mode: 0
LetterboxInBreaks: 0
WidescreenStoryboard: 0

[Editor]
DistanceSpacing: 1.3
BeatDivisor: 4
GridSize: 16
TimelineZoom: 2.5

[Metadata]
Title:Sakura no Uta
TitleUnicode:櫻ノ詩
Artist:Hana
ArtistUnicode:はな
Creator:Zekk
Version:Blossom
Source:サクラノ詩 -櫻の森の上を舞う-
Tags:sakura no mori no ue o mau sakuuta video game visual novel eroge vn galgame japanese pop jpop j-pop subahibi kowari koldnoodl didah asukow grazuko
BeatmapID:3364972
BeatmapSetID:1648596

[Difficulty]
HPDrainRate:6
CircleSize:4
OverallDifficulty:9
ApproachRate:9.1
SliderMultiplier:1.66
SliderTickRate:1

[Events]
//Background and Video events
0,0,"de437835d0d4488e6eed385c63452785502c272b_s2_n2.jpg",0,0
//Break Periods
2,111151,132700
//Storyboard Layer 0 (Background)
//Storyboard Layer 1 (Fail)
//Storyboard Layer 2 (Pass)
//Storyboard Layer 3 (Foreground)
//Storyboard Layer 4 (Overlay)
//Storyboard Sound Samples

[TimingPoints]
285,333.333333333333,4,2,1,30,1,0
285,-125,4,2,1,30,0,0
9784,-100,4,2,1,50,0,0
10951,-95.2380952380952,4,2,1,60,0,0
32284,-125,4,2,1,55,0,0
33618,-117.647058823529,4,2,1,50,0,0
54951,-106.382978723404,4,2,1,60,0,0
57618,-100,4,2,1,60,0,0
73618,-100,4,2,10,65,0,0
73784,-100,4,2,1,65,0,0
74284,-100,4,2,11,65,0,0
74451,-100,4,2,1,65,0,0
74868,-100,4,2,11,65,0,0
74951,-100,4,2,10,65,0,0
75118,-100,4,2,1,65,0,0
75618,-100,4,2,15,65,0,0
75701,-100,4,2,1,65,0,0
76284,-90.9090909090909,4,2,10,80,0,1
76618,-90.9090909090909,4,2,1,80,0,1
77951,-90.9090909090909,4,2,11,80,0,1
78284,-90.9090909090909,4,2,12,80,0,1
78451,-90.9090909090909,4,2,1,80,0,1
78618,-90.9090909090909,4,2,13,80,0,1
78784,-90.9090909090909,4,2,1,80,0,1
78951,-90.9090909090909,4,2,12,80,0,1
79284,-90.9090909090909,4,2,1,80,0,1
79451,-90.9090909090909,4,2,14,80,0,1
79618,-90.9090909090909,4,2,1,80,0,1
80618,-90.9090909090909,4,2,15,80,0,1
80951,-90.9090909090909,4,2,10,80,0,1
81118,-90.9090909090909,4,2,1,80,0,1
81284,-90.9090909090909,4,2,11,80,0,1
81951,-90.9090909090909,4,2,1,80,0,1
82118,-90.9090909090909,4,2,12,80,0,1
82284,-90.9090909090909,4,2,1,80,0,1
82951,-90.9090909090909,4,2,13,80,0,1
83451,-90.9090909090909,4,2,12,80,0,1
83618,-90.9090909090909,4,2,1,80,0,1
83951,-90.9090909090909,4,2,11,80,0,1
84284,-90.9090909090909,4,2,10,80,0,1
84618,-90.9090909090909,4,2,1,80,0,1
84784,-90.9090909090909,4,2,11,80,0,1
84951,-90.9090909090909,4,2,1,80,0,1
85284,-90.9090909090909,4,2,12,80,0,1
85618,-90.9090909090909,4,2,10,80,0,1
85784,-90.9090909090909,4,2,1,80,0,1
85951,-90.9090909090909,4,2,11,80,0,1
86618,-90.9090909090909,4,2,1,80,0,1
86951,-90.9090909090909,4,2,10,80,0,1
87951,-90.9090909090909,4,2,1,80,0,1
88118,-90.9090909090909,4,2,11,80,0,1
88284,-90.9090909090909,4,2,1,80,0,1
88618,-90.9090909090909,4,2,11,80,0,1
88951,-90.9090909090909,4,2,15,80,0,1
89284,-90.9090909090909,4,2,10,80,0,1
89618,-90.9090909090909,4,2,13,80,0,1
89951,-90.9090909090909,4,2,12,80,0,1
90118,-90.9090909090909,4,2,11,80,0,1
90284,-90.9090909090909,4,2,1,80,0,1
90451,-90.9090909090909,4,2,12,80,0,1
90618,-90.9090909090909,4,2,1,80,0,1
90784,-90.9090909090909,4,2,13,80,0,1
90951,-90.9090909090909,4,2,1,80,0,1
91284,-90.9090909090909,4,2,12,80,0,1
91618,-90.9090909090909,4,2,1,80,0,1
92284,-90.9090909090909,4,2,10,80,0,1
92951,-90.9090909090909,4,2,1,80,0,1
93118,-90.9090909090909,4,2,11,80,0,1
93284,-90.9090909090909,4,2,1,80,0,1
93451,-90.9090909090909,4,2,11,80,0,1
93618,-90.9090909090909,4,2,1,80,0,1
93784,-90.9090909090909,4,2,10,80,0,1
93951,-90.9090909090909,4,2,12,80,0,1
94284,-90.9090909090909,4,2,1,80,0,1
94951,-90.9090909090909,4,2,10,80,0,1
95618,-90.9090909090909,4,2,1,80,0,1
95784,-90.9090909090909,4,2,11,80,0,1
95951,-90.9090909090909,4,2,1,80,0,1
96118,-90.9090909090909,4,2,15,80,0,1
96618,-90.9090909090909,4,2,10,80,0,1
96784,-90.9090909090909,4,2,1,80,0,1
96951,-90.9090909090909,4,2,13,80,0,1
97118,-90.9090909090909,4,2,1,80,0,1
97284,-90.9090909090909,4,2,12,80,0,1
97451,-90.9090909090909,4,2,1,80,0,1
97618,-100,4,2,11,70,0,0
97784,-100,4,2,1,70,0,0
98118,-100,4,2,12,70,0,0
98451,-100,4,2,1,70,0,0
98618,-125,4,2,1,45,0,0
102951,-125,4,2,1,50,0,0
108784,-312.5,4,2,1,40,0,0
110951,-312.5,4,2,1,60,0,0
133618,-111.111111111111,4,2,1,50,0,0
154951,-106.382978723404,4,2,1,60,0,0
157618,-100,4,2,1,60,0,0
173618,-100,4,2,10,65,0,0
173784,-100,4,2,1,65,0,0
174284,-100,4,2,11,65,0,0
174951,-100,4,2,10,65,0,0
175118,-100,4,2,1,65,0,0
175618,-100,4,2,15,65,0,0
175701,-100,4,2,1,65,0,0
176284,-90.9090909090909,4,2,10,80,0,1
176618,-90.9090909090909,4,2,1,80,0,1
177951,-90.9090909090909,4,2,11,80,0,1
178284,-90.9090909090909,4,2,12,80,0,1
178451,-90.9090909090909,4,2,1,80,0,1
178618,-90.9090909090909,4,2,13,80,0,1
178784,-90.9090909090909,4,2,1,80,0,1
178951,-90.9090909090909,4,2,12,80,0,1
179284,-90.9090909090909,4,2,1,80,0,1
179451,-90.9090909090909,4,2,14,80,0,1
179618,-90.9090909090909,4,2,1,80,0,1
180618,-90.9090909090909,4,2,15,80,0,1
180951,-90.9090909090909,4,2,10,80,0,1
181118,-90.9090909090909,4,2,1,80,0,1
181284,-90.9090909090909,4,2,11,80,0,1
181951,-90.9090909090909,4,2,1,80,0,1
182118,-90.9090909090909,4,2,12,80,0,1
182284,-90.9090909090909,4,2,1,80,0,1
182951,-90.9090909090909,4,2,13,80,0,1
183451,-90.9090909090909,4,2,12,80,0,1
183618,-90.9090909090909,4,2,1,80,0,1
183951,-90.9090909090909,4,2,11,80,0,1
184284,-90.9090909090909,4,2,10,80,0,1
184618,-90.9090909090909,4,2,1,80,0,1
184784,-90.9090909090909,4,2,11,80,0,1
184951,-90.9090909090909,4,2,1,80,0,1
185284,-90.9090909090909,4,2,12,80,0,1
185618,-90.9090909090909,4,2,10,80,0,1
185784,-90.9090909090909,4,2,1,80,0,1
185951,-90.9090909090909,4,2,11,80,0,1
186618,-90.9090909090909,4,2,1,80,0,1
186951,-90.9090909090909,4,2,10,80,0,1
187951,-90.9090909090909,4,2,1,80,0,1
188118,-90.9090909090909,4,2,11,80,0,1
188284,-90.9090909090909,4,2,1,80,0,1
188618,-90.9090909090909,4,2,11,80,0,1
188951,-90.9090909090909,4,2,15,80,0,1
189284,-90.9090909090909,4,2,10,80,0,1
189618,-90.9090909090909,4,2,13,80,0,1
189951,-90.9090909090909,4,2,12,80,0,1
190118,-90.9090909090909,4,2,11,80,0,1
190284,-90.9090909090909,4,2,1,80,0,1
190451,-90.9090909090909,4,2,12,80,0,1
190618,-90.9090909090909,4,2,1,80,0,1
190784,-90.9090909090909,4,2,13,80,0,1
190951,-90.9090909090909,4,2,1,80,0,1
191284,-90.9090909090909,4,2,12,80,0,1
191618,-90.9090909090909,4,2,1,80,0,1
192284,-90.9090909090909,4,2,10,80,0,1
192951,-90.9090909090909,4,2,1,80,0,1
193118,-90.9090909090909,4,2,11,80,0,1
193284,-90.9090909090909,4,2,1,80,0,1
193451,-90.9090909090909,4,2,11,80,0,1
193618,-90.9090909090909,4,2,1,80,0,1
193784,-90.9090909090909,4,2,10,80,0,1
193951,-90.9090909090909,4,2,12,80,0,1
194284,-90.9090909090909,4,2,1,80,0,1
194951,-90.9090909090909,4,2,10,80,0,1
195618,-90.9090909090909,4,2,1,80,0,1
195784,-90.9090909090909,4,2,11,80,0,1
195951,-90.9090909090909,4,2,1,80,0,1
196118,-90.9090909090909,4,2,15,80,0,1
196284,-90.9090909090909,4,2,1,80,0,1
196618,-90.9090909090909,4,2,10,80,0,1
196784,-90.9090909090909,4,2,1,80,0,1
196951,-90.9090909090909,4,2,13,80,0,1
197118,-90.9090909090909,4,2,1,80,0,1
197284,-90.9090909090909,4,2,12,80,0,1
197451,-90.9090909090909,4,2,1,80,0,1
197618,-90.9090909090909,4,2,11,80,0,1
197784,-90.9090909090909,4,2,1,80,0,1
198118,-90.9090909090909,4,2,12,80,0,1
198451,-90.9090909090909,4,2,1,80,0,1
198784,-90.9090909090909,4,2,10,80,0,1
198951,-90.9090909090909,4,2,1,80,0,1
199284,-90.9090909090909,4,2,11,80,0,1
199618,-90.9090909090909,4,2,13,80,0,1
199951,-90.9090909090909,4,2,12,80,0,1
200284,-90.9090909090909,4,2,11,80,0,1
200618,-90.9090909090909,4,2,12,80,0,1
200784,-90.9090909090909,4,2,14,80,0,1
200951,-90.9090909090909,4,2,1,80,0,1
201951,-90.9090909090909,4,2,15,80,0,1
202284,-90.9090909090909,4,2,10,80,0,1
202451,-90.9090909090909,4,2,1,80,0,1
202618,-90.9090909090909,4,2,11,80,0,1
203284,-90.9090909090909,4,2,1,80,0,1
203451,-90.9090909090909,4,2,12,80,0,1
203618,-90.9090909090909,4,2,1,80,0,1
204284,-90.9090909090909,4,2,13,80,0,1
204784,-90.9090909090909,4,2,12,80,0,1
204951,-90.9090909090909,4,2,1,80,0,1
205284,-90.9090909090909,4,2,11,80,0,1
205451,-90.9090909090909,4,2,1,80,0,1
205618,-90.9090909090909,4,2,10,80,0,1
205951,-90.9090909090909,4,2,1,80,0,1
206118,-90.9090909090909,4,2,11,80,0,1
206284,-90.9090909090909,4,2,1,80,0,1
206618,-90.9090909090909,4,2,12,80,0,1
206784,-90.9090909090909,4,2,1,80,0,1
206951,-90.9090909090909,4,2,10,80,0,1
207118,-90.9090909090909,4,2,1,80,0,1
207284,-90.9090909090909,4,2,11,80,0,1
207784,-90.9090909090909,4,2,1,80,0,1
208284,-90.9090909090909,4,2,10,80,0,1
208951,-90.9090909090909,4,2,1,80,0,1
209118,-90.9090909090909,4,2,10,80,0,1
209284,-90.9090909090909,4,2,1,80,0,1
209451,-90.9090909090909,4,2,11,80,0,1
209618,-90.9090909090909,4,2,1,80,0,1
209951,-90.9090909090909,4,2,11,80,0,1
210118,-90.9090909090909,4,2,1,80,0,1
210284,-90.9090909090909,4,2,15,80,0,1
210451,-90.9090909090909,4,2,1,80,0,1
210618,-90.9090909090909,4,2,10,80,0,1
210951,-90.9090909090909,4,2,13,80,0,1
211284,-90.9090909090909,4,2,12,80,0,1
211451,-90.9090909090909,4,2,11,80,0,1
211618,-90.9090909090909,4,2,1,80,0,1
211784,-90.9090909090909,4,2,12,80,0,1
211951,-90.9090909090909,4,2,1,80,0,1
212118,-90.9090909090909,4,2,13,80,0,1
212284,-90.9090909090909,4,2,1,80,0,1
212618,-90.9090909090909,4,2,12,80,0,1
212951,-90.9090909090909,4,2,1,80,0,1
213618,-90.9090909090909,4,2,10,80,0,1
214284,-90.9090909090909,4,2,1,80,0,1
214451,-90.9090909090909,4,2,11,80,0,1
214618,-90.9090909090909,4,2,1,80,0,1
214784,-90.9090909090909,4,2,11,80,0,1
214951,-90.9090909090909,4,2,1,80,0,1
215118,-90.9090909090909,4,2,10,80,0,1
215201,-90.9090909090909,4,2,1,80,0,1
215284,-90.9090909090909,4,2,12,80,0,1
215618,-90.9090909090909,4,2,1,80,0,1
216284,-90.9090909090909,4,2,10,80,0,1
216618,-90.9090909090909,4,2,1,80,0,1
216784,-90.9090909090909,4,2,10,80,0,1
216951,-90.9090909090909,4,2,1,80,0,1
217118,-90.9090909090909,4,2,11,80,0,1
217284,-90.9090909090909,4,2,1,80,0,1
217451,-90.9090909090909,4,2,15,80,0,1
217618,-90.9090909090909,4,2,1,80,0,1
217951,-90.9090909090909,4,2,10,80,0,1
218118,-90.9090909090909,4,2,1,80,0,1
218284,-90.9090909090909,4,2,13,80,0,1
218451,-90.9090909090909,4,2,1,80,0,1
218618,-90.9090909090909,4,2,12,80,0,1
218951,-90.9090909090909,4,2,10,80,0,1
219618,-90.9090909090909,4,2,1,80,0,1
219784,-90.9090909090909,4,2,11,80,0,1
219951,-90.9090909090909,4,2,1,80,0,1
220118,-90.9090909090909,4,2,11,80,0,1
220284,-90.9090909090909,4,2,1,80,0,1
220451,-90.9090909090909,4,2,10,80,0,1
220618,-90.9090909090909,4,2,12,80,0,1
220951,-90.9090909090909,4,2,1,80,0,1
221618,-90.9090909090909,4,2,10,80,0,1
222284,-90.9090909090909,4,2,1,80,0,1
222451,-90.9090909090909,4,2,11,80,0,1
222618,-90.9090909090909,4,2,1,80,0,1
222784,-90.9090909090909,4,2,14,80,0,1
222951,-90.9090909090909,4,2,1,80,0,1
223284,-90.9090909090909,4,2,15,80,0,1
223451,-90.9090909090909,4,2,1,80,0,1
223618,-90.9090909090909,4,2,13,80,0,1
223701,-90.9090909090909,4,2,1,80,0,1
223951,-90.9090909090909,4,2,12,80,0,1
224118,-90.9090909090909,4,2,1,80,0,1
224284,-100,4,2,11,80,0,0
224451,-100,4,2,1,80,0,0
224618,-100,4,2,10,80,0,0
224784,-100,4,2,12,80,0,0
224951,-100,4,2,1,80,0,0
229451,-157.48031496063,4,2,1,60,0,0
234201,-157.48031496063,4,2,1,5,0,0

[Colours]
Combo1 : 192,192,192
Combo2 : 155,255,155
Combo3 : 177,201,239
Combo4 : 233,177,239
Combo5 : 146,146,201
Combo6 : 128,128,128

[HitObjects]
512,213,285,70,0,B|534:228|534:240|534:240|489:239|451:182,1,132.8,2|0,0:2|0:0,0:0:0:0:
395,119,784,1,2,0:2:0:0:
338,191,951,1,2,0:2:0:0:
386,89,1118,1,2,0:2:0:0:
245,145,1284,6,0,P|211:118|113:118,1,132.8,2|0,0:2|0:0,0:0:0:0:
33,225,1951,2,0,P|37:258|56:295,1,66.4,2|0,0:2|0:0,0:0:0:0:
138,344,2284,1,2,0:2:0:0:
221,279,2451,1,0,0:0:0:0:
125,247,2618,1,2,0:2:0:0:
245,287,2784,1,0,0:0:0:0:
69,366,2951,70,0,B|100:324|158:322|158:322|144:342|130:348,1,132.8,2|0,0:2|0:0,0:0:0:0:
245,287,3451,2,0,P|286:318|391:325,1,132.8,2|0,0:2|0:0,0:0:0:0:
476,180,3951,6,0,B|449:145|406:149|406:149|371:218|436:272,1,199.2,2|0,0:2|0:0,0:0:0:0:
280,236,4618,70,0,P|241:244|194:247,1,66.4,2|0,0:2|0:0,0:0:0:0:
136,201,4951,1,2,0:2:0:0:
97,102,5118,1,0,0:0:0:0:
132,222,5284,1,2,0:2:0:0:
175,78,5451,1,0,0:0:0:0:
245,140,5618,5,2,0:2:0:0:
316,187,5784,1,2,0:2:0:0:
398,160,5951,1,2,0:2:0:0:
416,75,6118,1,2,0:2:0:0:
351,18,6284,1,2,0:2:0:0:
330,101,6451,1,2,0:2:0:0:
330,101,6618,1,2,0:2:0:0:
442,350,7118,69,2,0:2:0:0:
442,350,7284,1,2,0:2:0:0:
377,292,7451,1,2,0:2:0:0:
290,285,7618,1,2,0:2:0:0:
227,343,7784,1,2,0:2:0:0:
128,253,7951,1,2,0:2:0:0:
128,253,8284,6,0,B|81:220|93:165|93:165|110:175|114:201,1,132.8,2|0,0:2|0:0,0:0:0:0:
227,343,8784,2,0,B|226:295|286:270|286:270|285:290|260:300,1,132.8,2|0,0:2|0:0,0:0:0:0:
378,210,9284,69,2,0:2:0:0:
228,144,9451,1,0,1:2:0:0:
334,57,9618,5,8,0:2:0:0:
220,260,9784,1,2,1:2:0:0:
210,19,9951,69,8,0:2:0:0:
227,289,10118,1,2,1:2:0:0:
119,97,10284,5,8,0:2:0:0:
357,293,10451,1,8,0:2:0:0:
373,255,10534,1,8,0:0:0:0:
369,214,10617,1,8,2:3:0:0:
344,181,10701,1,8,0:3:0:0:
307,165,10784,2,0,L|246:180,1,41.5,4|0,2:3|0:0,0:0:0:0:
72,317,10951,70,0,B|119:337|119:337|165:280|230:289,1,174.299994680786,6|8,1:2|0:2,0:0:0:0:
304,359,11451,1,0,0:0:0:0:
169,137,11618,1,10,0:2:0:0:
373,255,11784,1,2,1:2:0:0:
158,351,11951,70,0,P|136:281|212:210,1,174.299994680786,10|8,0:2|0:2,0:0:0:0:
373,255,12451,1,0,0:0:0:0:
310,41,12618,70,0,P|296:93|292:135,1,87.1499973403932,10|0,0:2|0:0,0:0:0:0:
480,231,12951,2,0,P|467:189|462:145,1,87.1499973403932,10|0,0:2|1:2,0:0:0:0:
286,294,13284,1,10,0:2:0:0:
286,294,13618,6,0,B|241:305|212:333|212:333|143:328|128:270,1,174.299994680786,10|10,0:2|0:2,0:0:0:0:
223,165,14118,2,0,P|224:72|156:37,1,174.299994680786,2|0,1:2|0:0,0:0:0:0:
10,168,14618,2,0,P|63:152|123:146,1,87.1499973403932,10|0,0:2|0:0,0:0:0:0:
74,65,14951,1,8,0:2:0:0:
1,254,15118,1,0,1:2:0:0:
161,38,15284,70,0,P|168:80|181:122,1,87.1499973403932,10|0,0:2|0:0,0:0:0:0:
323,202,15618,2,0,P|336:160|343:117,1,87.1499973403932,10|0,0:2|1:2,0:0:0:0:
210,339,15951,1,10,0:2:0:0:
210,339,16284,5,6,1:2:0:0:
422,197,16451,1,2,0:2:0:0:
168,213,16618,1,10,0:2:0:0:
382,341,16784,1,2,0:2:0:0:
245,117,16951,1,10,0:2:0:0:
422,197,17118,1,2,1:2:0:0:
168,213,17284,70,0,B|132:263|70:254|70:254|15:194,1,174.299994680786,10|8,0:2|0:2,0:0:0:0:
176,73,17784,1,2,1:2:0:0:
275,260,17951,1,10,0:2:0:0:
96,135,18118,1,2,0:2:0:0:
307,177,18284,1,10,0:2:0:0:
139,302,18451,1,0,1:2:0:0:
151,265,18534,1,0,1:0:0:0:
165,228,18618,1,10,0:2:0:0:
295,384,18784,1,0,0:0:0:0:
487,269,18951,6,0,B|506:194|441:162|441:162|372:197,1,174.299994680786,10|8,0:2|0:2,0:0:0:0:
275,260,19451,1,2,0:0:0:0:
291,20,19618,2,0,P|307:66|312:124,1,87.1499973403932,8|0,0:0|1:2,0:0:0:0:
152,239,19951,2,0,P|166:198|173:155,1,87.1499973403932,10|0,0:2|1:2,0:0:0:0:
0,0,20284,70,0,P|-24:42|38:132,1,130.72499601059,6|0,1:2|0:0,0:0:0:0:
48,128,20618,2,0,P|83:120|133:98,1,87.1499973403932,10|0,0:2|1:2,0:0:0:0:
246,1,20951,1,8,0:2:0:0:
351,103,21118,1,8,0:2:0:0:
364,124,21201,1,8,0:2:0:0:
372,149,21284,1,4,2:3:0:0:
372,176,21367,1,4,2:3:0:0:
365,201,21451,1,4,2:3:0:0:
352,223,21534,1,4,2:3:0:0:
332,243,21618,6,0,B|299:208|240:216|240:216|223:251|170:275,1,174.299994680786,6|10,1:0|0:2,0:0:0:0:
234,384,22118,1,0,1:2:0:0:
95,180,22284,1,8,0:2:0:0:
282,313,22451,1,2,1:2:0:0:
27,384,22618,70,0,P|22:308|102:263,1,174.299994680786,10|10,0:2|0:2,0:0:0:0:
236,175,23118,1,0,0:0:0:0:
64,53,23284,2,0,P|111:75|163:85,1,87.1499973403932,10|2,0:2|0:2,0:0:0:0:
256,283,23618,2,0,P|209:305|157:315,1,87.1499973403932,10|0,0:2|1:2,0:0:0:0:
327,44,23951,2,0,P|379:97|359:165,1,130.72499601059,10|0,0:2|0:0,0:0:0:0:
338,177,24284,5,10,0:0:0:0:
466,54,24451,1,0,0:0:0:0:
288,113,24618,1,10,0:2:0:0:
480,222,24784,1,2,1:2:0:0:
339,339,24951,2,0,P|349:283|369:239,1,87.1499973403932,10|0,0:2|1:2,0:0:0:0:
511,384,25284,1,10,0:2:0:0:
511,384,25618,70,0,P|462:366|425:358,1,87.1499973403932,8|0,0:2|1:2,0:0:0:0:
280,201,25951,2,0,P|322:191|363:175,1,87.1499973403932,10|0,0:2|0:0,0:0:0:0:
194,384,26284,2,0,P|209:343|219:300,1,87.1499973403932,10|0,0:2|1:2,0:0:0:0:
63,159,26618,2,0,P|72:201|88:242,1,87.1499973403932,10|0,0:2|1:2,0:0:0:0:
14,372,26951,5,14,0:2:0:0:
209,189,27118,1,2,0:2:0:0:
5,268,27284,1,10,0:2:0:0:
231,370,27451,1,2,0:2:0:0:
63,159,27618,1,10,0:2:0:0:
271,258,27784,1,2,1:2:0:0:
212,28,27951,70,0,P|159:61|146:179,1,174.299994680786,10|8,0:2|0:2,0:0:0:0:
271,258,28451,1,2,1:2:0:0:
114,347,28618,2,0,P|126:302|144:259,1,87.1499973403932,10|2,0:2|0:2,0:0:0:0:
319,147,28951,1,10,0:2:0:0:
212,335,29118,1,2,1:2:0:0:
448,266,29284,2,0,P|402:256|338:230,1,87.1499973403932,10|0,0:2|1:2,0:0:0:0:
194,73,29618,6,0,B|229:81|262:115|262:115|303:122|349:64,1,174.299994680786,14|8,0:2|0:2,0:0:0:0:
485,196,30118,2,0,P|500:262|440:353,1,174.299994680786,2|0,0:2|1:2,0:0:0:0:
280,266,30618,2,0,P|326:256|390:230,1,87.1499973403932,10|0,0:2|0:0,0:0:0:0:
265,176,30951,1,6,1:2:0:0:
265,176,31118,1,2,1:2:0:0:
325,362,31284,70,0,P|279:352|215:326,1,87.1499973403932,10|0,0:2|1:2,0:0:0:0:
114,373,31618,1,0,1:2:0:0:
168,256,31784,1,8,0:2:0:0:
173,230,31867,1,8,0:2:0:0:
171,204,31950,1,8,2:3:0:0:
160,180,32034,1,4,2:3:0:0:
143,161,32117,1,4,2:3:0:0:
120,149,32200,1,4,2:3:0:0:
94,144,32284,5,6,1:2:0:0:
23,177,32451,1,2,0:2:0:0:
78,117,32618,1,2,0:2:0:0:
37,203,32784,1,2,0:2:0:0:
143,161,32951,2,0,P|179:154|218:134,1,66.4,2|2,0:2|0:2,0:0:0:0:
246,62,33284,1,2,0:2:0:0:
294,165,33451,1,2,0:2:0:0:
367,77,33618,6,0,P|411:67|482:148,1,141.100002691269,6|0,1:2|1:2,0:0:0:0:
429,210,34118,2,0,B|422:246|445:279|445:279|478:292|489:347,1,141.100002691269
393,384,34618,2,0,P|356:383|317:356,1,70.5500013456345,0|0,1:2|0:0,0:0:0:0:
414,293,34951,1,0,1:2:0:0:
245,347,35284,22,0,P|229:308|304:231,1,141.100002691269,2|2,1:2|1:2,0:0:0:0:
333,291,35784,1,0,0:0:0:0:
203,263,35951,2,0,P|168:255|119:249,1,70.5500013456345,2|0,1:2|0:0,0:0:0:0:
37,182,36284,6,0,P|28:134|74:95,1,105.825002018452,2|0,1:2|0:0,0:0:0:0:
107,82,36618,2,0,P|141:86|176:94,1,70.5500013456345,2|0,1:2|0:0,0:0:0:0:
246,12,36951,2,0,P|259:44|269:78,1,70.5500013456345,2|0,1:2|0:0,0:0:0:0:
241,178,37284,1,2,1:2:0:0:
241,178,37618,70,0,P|284:148|358:159,1,105.825002018452,0|0,1:2|0:0,0:0:0:0:
360,186,37951,2,0,P|350:219|336:252,1,70.5500013456345,2|0,1:2|0:0,0:0:0:0:
292,350,38284,1,2,1:2:0:0:
403,311,38451,1,0,1:2:0:0:
292,350,38618,2,0,L|176:316,1,105.825002018452,10|0,0:2|0:0,0:0:0:0:
121,365,38951,6,0,L|108:289,1,70.5500013456345,6|0,1:2|0:0,0:0:0:0:
222,196,39284,2,0,P|196:216|149:232,1,70.5500013456345,2|0,1:2|0:0,0:0:0:0:
46,195,39618,2,0,P|19:149|46:94,1,105.825002018452,2|0,1:2|0:0,0:0:0:0:
86,83,39951,2,0,P|112:103|159:119,1,70.5500013456345,2|0,1:2|0:0,0:0:0:0:
297,237,40284,70,0,P|304:174|241:124,1,141.100002691269,0|2,1:2|1:2,0:0:0:0:
128,191,40784,1,0,0:0:0:0:
127,49,40951,2,0,P|139:76|146:124,1,70.5500013456345,2|0,1:2|0:0,0:0:0:0:
297,237,41284,2,0,P|310:204|315:169,1,70.5500013456345,2|0,1:2|0:0,0:0:0:0:
68,284,41618,6,0,B|141:272|138:316|213:301,1,141.100002691269,2|0,1:2|1:2,0:0:0:0:
323,384,42118,2,0,L|312:340,1,35.2750006728172,2|0,1:2|0:0,0:0:0:0:
370,301,42284,2,0,L|278:320,1,70.5500013456345,2|0,1:2|0:0,0:0:0:0:
484,384,42618,2,0,B|498:352|498:352|481:300,1,70.5500013456345,2|0,1:2|0:0,0:0:0:0:
434,218,42951,70,0,B|418:183|439:149|439:149|474:136|481:84,1,141.100002691269,0|2,1:2|1:2,0:0:0:0:
414,39,43451,1,0,0:0:0:0:
334,124,43618,2,0,P|297:117|253:101,1,70.5500013456345,2|8,1:2|0:2,0:0:0:0:
307,40,43951,1,8,0:3:0:0:
328,197,44118,1,4,2:3:0:0:
192,82,44284,6,0,P|136:84|81:151,1,141.100002691269,6|0,1:2|1:2,0:0:0:0:
0,245,44784,2,0,B|35:250|59:278|59:278|106:277|133:237,1,141.100002691269
210,338,45284,1,0,1:2:0:0:
210,338,45618,70,0,P|211:302|224:256,1,70.5500013456345,0|0,1:2|0:0,0:0:0:0:
362,184,45951,2,0,P|330:202|280:210,1,70.5500013456345,2|0,1:2|0:0,0:0:0:0:
170,114,46284,2,0,P|195:138|213:168,1,70.5500013456345,2|0,1:2|0:0,0:0:0:0:
325,24,46618,1,2,1:2:0:0:
296,118,46784,1,0,0:0:0:0:
512,85,46951,6,0,P|448:73|383:49,1,105.825002018452,2|0,1:2|0:0,0:0:0:0:
409,60,47284,2,0,P|397:101|393:132,1,70.5500013456345,0|0,1:2|0:0,0:0:0:0:
512,242,47618,2,0,P|501:208|495:173,1,70.5500013456345,2|0,1:2|0:0,0:0:0:0:
366,254,47951,2,0,P|330:302|347:365,1,105.825002018452,2|0,1:2|0:0,0:0:0:0:
416,326,48284,70,0,L|261:290,1,141.100002691269,0|2,1:2|1:2,0:0:0:0:
194,202,48784,2,0,L|199:247,1,35.2750006728172,8|0,0:0|0:0,0:0:0:0:
124,260,48951,2,0,B|108:229|108:229|122:182,1,70.5500013456345,2|0,1:2|0:0,0:0:0:0:
248,134,49284,1,8,0:3:0:0:
160,61,49451,1,8,0:0:0:0:
248,134,49618,6,0,B|311:118|323:166|391:137,1,141.100002691269,6|0,1:2|1:2,0:0:0:0:
417,296,50118,2,0,L|408:262,1,35.2750006728172,2|0,1:2|0:0,0:0:0:0:
446,211,50284,2,0,P|402:228|347:229,1,70.5500013456345,0|0,1:2|0:0,0:0:0:0:
317,363,50618,2,0,P|361:380|416:381,1,70.5500013456345,0|0,1:2|0:0,0:0:0:0:
263,257,50951,70,0,B|216:272|216:272|158:247|180:187,1,141.100002691269,6|0,1:2|1:2,0:0:0:0:
303,73,51451,2,0,L|286:124,1,35.2750006728172,2|0,1:2|0:0,0:0:0:0:
325,187,51618,1,0,1:2:0:0:
214,47,51784,1,0,1:0:0:0:
377,119,51951,1,10,0:2:0:0:
176,199,52118,1,8,2:3:0:0:
359,302,52284,6,0,P|370:230|297:182,1,141.100002691269,6|8,1:2|0:2,0:0:0:0:
231,301,52784,2,0,B|195:310|169:334|169:334|133:338|100:289,1,141.100002691269,2|0,0:2|0:0,0:0:0:0:
165,132,53284,2,0,P|174:170|177:211,1,70.5500013456345,8|0,0:2|0:0,0:0:0:0:
111,47,53618,1,4,1:2:0:0:
256,142,53784,1,0,1:0:0:0:
256,142,53868,1,0,1:0:0:0:
256,142,53951,70,0,P|286:137|340:121,1,70.5500013456345,10|0,0:0|0:0,0:0:0:0:
425,50,54284,1,2,1:2:0:0:
345,226,54451,1,8,0:2:0:0:
502,296,54618,1,8,0:2:0:0:
512,262,54701,1,8,0:2:0:0:
507,227,54784,1,8,0:2:0:0:
489,198,54868,1,8,0:2:0:0:
459,179,54951,37,6,1:2:0:0:
345,226,55118,1,0,1:2:0:0:
225,278,55284,1,0,1:2:0:0:
311,41,55451,1,10,0:2:0:0:
311,41,55784,1,0,1:2:0:0:
151,151,55951,70,0,L|211:163,1,39.0099994047547,10|0,0:2|0:0,0:0:0:0:
256,207,56118,2,0,B|271:169|271:169|259:126,1,78.0199988095093,2|0,0:2|0:0,0:0:0:0:
70,292,56451,1,10,0:2:0:0:
70,292,56784,1,0,1:2:0:0:
204,370,56951,5,10,0:2:0:0:
113,174,57118,1,0,1:2:0:0:
305,313,57284,69,10,0:2:0:0:
95,162,57451,1,0,0:0:0:0:
303,211,57618,6,0,L|201:230,1,83,6|0,1:2|0:0,0:0:0:0:
414,372,57951,2,0,L|405:321,1,41.5,10|0,0:2|0:0,0:0:0:0:
480,301,58118,2,0,B|501:335|501:335|482:387,1,83,2|0,0:2|0:0,0:0:0:0:
303,211,58451,1,2,1:0:0:0:
370,105,58618,70,0,B|418:117|445:146|445:146|483:143|518:98,1,166,8|2,0:2|0:2,0:0:0:0:
256,4,59118,2,0,P|268:45|276:99,1,83,0|8,1:2|0:2,0:0:0:0:
179,157,59451,1,0,0:0:0:0:
383,192,59618,2,0,P|342:198|302:210,1,83,2|0,1:2|1:0,0:0:0:0:
173,331,59951,2,0,P|213:337|253:349,1,83,8|0,0:2|0:0,0:0:0:0:
179,157,60284,6,0,P|130:208|27:189,1,166,6|10,1:2|0:2,0:0:0:0:
253,349,60784,2,0,P|245:298|218:237,1,83,2|0,0:0|0:0,0:0:0:0:
405,113,61118,2,0,P|399:154|382:193,1,83,2|8,1:2|0:2,0:0:0:0:
266,77,61451,1,2,1:2:0:0:
330,253,61618,70,0,P|392:234|499:225,2,166,2|8|0,1:2|0:2|1:2,0:0:0:0:
331,121,62451,1,0,0:0:0:0:
233,222,62618,2,0,B|231:291|261:273|257:374,1,124.5,10|0,0:2|0:0,0:0:0:0:
292,353,62951,6,0,P|332:348|379:329,1,83,6|0,1:2|0:0,0:0:0:0:
153,248,63284,2,0,P|113:243|66:224,1,83,8|0,0:2|0:0,0:0:0:0:
295,70,63618,1,2,0:2:0:0:
233,222,63784,2,0,L|221:156,1,41.5,0|0,1:2|0:0,0:0:0:0:
295,70,63951,2,0,B|315:107|315:107|297:153,1,83,8|0,0:2|1:2,0:0:0:0:
174,17,64284,69,14,0:2:0:0:
405,54,64451,1,0,1:2:0:0:
140,94,64618,5,8,0:2:0:0:
413,137,64785,1,0,0:0:0:0:
111,201,64951,70,0,L|171:188,1,41.5,8|8,0:2|0:2,0:0:0:0:
383,216,65118,1,8,0:2:0:0:
400,253,65201,1,8,0:2:0:0:
399,294,65284,1,8,0:2:0:0:
380,330,65367,1,8,0:2:0:0:
346,353,65451,2,0,L|286:340,1,41.5,8|8,0:2|0:2,0:0:0:0:
238,156,65618,5,6,1:2:0:0:
214,261,65784,1,0,1:2:0:0:
184,375,65951,1,0,1:2:0:0:
41,167,66118,1,10,0:2:0:0:
41,167,66451,1,0,1:2:0:0:
214,261,66618,70,0,L|312:244,1,83,10|2,0:2|0:2,0:0:0:0:
372,80,66951,2,0,L|360:133,1,41.5
436,151,67118,2,0,B|456:118|456:118|442:45,1,83,10|4,0:2|0:0,0:0:0:0:
250,171,67451,1,0,1:2:0:0:
444,301,67618,6,0,P|433:247|413:204,1,83,10|0,0:2|1:2,0:0:0:0:
271,91,67951,2,0,P|260:145|240:188,1,83,10|0,0:2|0:0,0:0:0:0:
127,303,68284,70,0,B|169:309|204:348|204:348|253:342|282:290,1,166,6|10,1:2|0:2,0:0:0:0:
100,195,68784,2,0,P|70:208|6:220,1,83,2|0,0:2|0:0,0:0:0:0:
125,0,69118,2,0,P|155:13|219:25,1,83,2|8,1:0|0:2,0:0:0:0:
50,118,69451,1,2,0:2:0:0:
221,227,69618,6,0,L|211:169,1,41.5,2|0,0:2|0:0,0:0:0:0:
171,152,69784,2,0,L|266:135,1,83,0|8,1:2|0:2,0:0:0:0:
381,4,70118,70,0,L|374:58,1,41.5
440,91,70284,2,0,B|461:56|461:56|446:5,1,83,2|0,1:2|0:0,0:0:0:0:
329,188,70618,1,10,0:2:0:0:
510,137,70784,1,0,1:2:0:0:
435,205,70951,6,0,B|410:236|420:280|420:280|455:322|447:372,1,166,6|8,1:2|0:2,0:0:0:0:
200,384,71451,2,0,P|236:330|335:345,1,166,2|0,0:2|1:2,0:0:0:0:
120,178,71951,1,8,0:2:0:0:
120,178,72284,70,0,B|213:165|199:221|294:196,1,166,6|8,1:2|0:2,0:0:0:0:
242,91,72784,1,2,0:2:0:0:
129,297,72951,2,0,L|139:236,1,41.5,0|0,1:2|0:0,0:0:0:0:
111,54,73118,2,0,L|104:94,1,41.5,0|0,1:2|0:0,0:0:0:0:
281,199,73284,5,8,0:2:0:0:
321,206,73367,1,8,0:2:0:0:
361,195,73450,1,8,0:2:0:0:
391,168,73533,1,8,0:2:0:0:
406,130,73617,69,14,0:2:0:0:
202,247,73784,1,0,1:2:0:0:
280,0,73951,1,0,1:2:0:0:
287,351,74118,5,8,0:2:0:0:
168,126,74284,1,2,1:2:0:0:
423,235,74451,1,0,1:2:0:0:
147,378,74618,70,0,P|155:335|174:281,1,83,8|0,0:2|1:2,0:0:0:0:
206,269,74868,1,0,1:2:0:0:
206,269,74951,1,10,0:2:0:0:
19,165,75118,1,0,1:2:0:0:
204,0,75284,2,0,P|216:39|223:80,1,83,8|0,0:2|1:2,0:0:0:0:
63,270,75618,5,10,0:2:0:0:
77,228,75701,1,8,0:2:0:0:
109,197,75784,1,8,0:2:0:0:
150,185,75867,1,8,0:2:0:0:
194,193,75951,1,8,0:2:0:0:
386,364,76118,1,8,0:2:0:0:
386,364,76201,1,8,0:2:0:0:
386,364,76284,70,0,P|431:315|388:211,1,182.60000557251,6|10,1:2|0:2,0:0:0:0:
194,193,76784,1,0,0:0:0:0:
351,81,76951,1,0,1:2:0:0:
254,267,77118,1,0,1:2:0:0:
158,36,77284,6,0,P|212:57|268:69,1,91.300002786255,8|0,0:2|1:2,0:0:0:0:
396,216,77618,2,0,P|330:285|248:262,1,182.60000557251,2|10,1:2|0:2,0:0:0:0:
114,164,78118,1,0,1:2:0:0:
114,164,78201,1,0,1:2:0:0:
114,164,78284,1,2,1:2:0:0:
183,380,78451,1,0,1:2:0:0:
7,288,78618,2,0,P|50:278|101:259,1,91.300002786255,10|0,0:2|1:2,0:0:0:0:
220,119,78951,70,0,B|237:39|171:13|171:13|105:44,1,182.60000557251,2|8,1:2|0:0,0:0:0:0:
296,241,79451,2,0,P|336:189|458:192,1,182.60000557251,2|0,0:2|1:2,0:0:0:0:
403,384,79951,2,0,P|389:336|381:275,1,91.300002786255,8|0,0:2|0:0,0:0:0:0:
511,384,80284,1,2,1:2:0:0:
511,384,80618,5,10,0:2:0:0:
368,219,80784,1,0,0:0:0:0:
268,384,80951,1,2,1:2:0:0:
474,264,81118,1,0,1:2:0:0:
282,136,81284,1,10,0:2:0:0:
174,247,81451,1,0,1:0:0:0:
174,247,81534,1,0,1:0:0:0:
174,247,81618,70,0,B|120:249|81:291|81:291|31:283|14:238,1,182.60000557251,6|8,1:2|0:2,0:0:0:0:
146,50,82118,2,0,P|137:101|122:160,1,91.300002786255,2|0,0:2|1:2,0:0:0:0:
0,113,82451,1,0,1:2:0:0:
174,247,82618,2,0,P|218:236|262:221,1,91.300002786255,8|0,0:2|0:0,0:0:0:0:
405,331,82951,5,2,0:2:0:0:
330,111,83118,1,2,1:2:0:0:
512,217,83284,1,10,0:2:0:0:
275,319,83451,70,0,B|220:345|220:345|146:319|182:219,1,182.60000557251,2|0,0:0|0:0,0:0:0:0:
119,79,83951,2,0,P|52:77|3:125,1,136.950004179382,10|0,0:2|0:0,0:0:0:0:
69,175,84284,6,0,B|84:108|84:108|68:67|68:67|87:0,1,182.60000557251,2|8,1:2|0:2,0:0:0:0:
198,181,84784,2,0,P|260:193|349:101,1,182.60000557251,2|0,0:0|0:0,0:0:0:0:
206,0,85284,2,0,P|216:46|232:99,1,91.300002786255,10|0,0:2|0:0,0:0:0:0:
442,108,85618,69,2,0:0:0:0:
198,181,85784,1,0,1:2:0:0:
490,194,85951,5,10,0:2:0:0:
228,189,86118,1,0,0:0:0:0:
468,328,86284,69,2,1:2:0:0:
261,196,86451,1,0,0:0:0:0:
302,384,86618,2,0,L|320:320,1,45.6500013931275,8|0,0:2|0:0,0:0:0:0:
361,176,86784,1,0,0:0:0:0:
179,336,86951,5,6,1:2:0:0:
361,176,87118,1,2,1:2:0:0:
361,176,87201,1,0,1:2:0:0:
361,176,87284,1,10,0:2:0:0:
176,231,87451,2,0,P|132:220|80:194,1,91.300002786255,2|0,0:0|0:0,0:0:0:0:
328,24,87784,2,0,P|286:43|242:54,1,91.300002786255,2|8,1:2|0:2,0:0:0:0:
343,277,88118,1,2,0:0:0:0:
446,61,88284,70,0,P|497:88|493:217,1,182.60000557251,2|10,1:2|0:2,0:0:0:0:
350,284,88784,1,0,1:0:0:0:
350,284,88868,1,0,1:0:0:0:
350,284,88951,2,0,P|398:268|454:260,1,91.300002786255,2|0,1:2|0:0,0:0:0:0:
280,32,89284,2,0,P|288:76|302:120,1,91.300002786255,10|0,0:2|0:0,0:0:0:0:
203,286,89618,6,0,B|160:254|160:254|85:246|39:319,1,182.60000557251,2|10,1:2|0:2,0:0:0:0:
100,19,90118,2,0,P|115:69|123:123,1,91.300002786255,2|0,0:2|1:2,0:0:0:0:
223,187,90451,1,2,0:0:0:0:
49,306,90618,2,0,P|57:261|70:217,1,91.300002786255,8|2,0:2|1:2,0:0:0:0:
223,362,90951,70,0,P|324:365|378:307,1,182.60000557251,2|10,1:2|0:2,0:0:0:0:
482,198,91451,1,0,1:0:0:0:
482,198,91534,1,0,1:0:0:0:
482,198,91618,2,0,P|425:189|377:172,1,91.300002786255,0|0,1:2|0:0,0:0:0:0:
347,88,91951,1,8,0:2:0:0:
272,294,92118,1,0,0:0:0:0:
73,23,92284,5,6,1:2:0:0:
242,152,92451,1,2,0:2:0:0:
43,240,92618,1,10,0:2:0:0:
172,313,92784,2,0,P|164:265|146:211,1,91.300002786255,2|0,0:2|1:0,0:0:0:0:
272,294,93118,1,2,1:2:0:0:
71,139,93284,69,8,0:2:0:0:
314,225,93451,1,2,0:0:0:0:
83,370,93618,1,0,1:2:0:0:
242,152,93784,1,2,1:2:0:0:
39,252,93951,1,10,0:2:0:0:
248,372,94118,1,0,0:0:0:0:
146,128,94284,1,0,1:2:0:0:
360,258,94451,1,0,0:0:0:0:
148,384,94618,2,0,P|161:329|178:279,1,91.300002786255,8|0,0:0|0:0,0:0:0:0:
372,115,94951,5,2,1:2:0:0:
160,218,95118,1,2,0:2:0:0:
262,0,95284,1,10,0:2:0:0:
61,107,95451,2,0,P|105:117|152:132,1,91.300002786255,2|0,0:2|1:2,0:0:0:0:
265,249,95784,1,2,1:2:0:0:
165,0,95951,2,0,P|189:38|211:82,1,91.300002786255,8|2,0:0|0:0,0:0:0:0:
439,246,96284,69,0,1:2:0:0:
189,325,96451,1,0,1:2:0:0:
189,325,96534,1,0,1:0:0:0:
189,325,96618,1,10,0:2:0:0:
300,64,96784,1,0,1:2:0:0:
106,202,96951,6,0,L|164:216,1,45.6500013931275,10|0,0:0|0:0,0:0:0:0:
342,384,97118,1,0,1:2:0:0:
366,346,97201,1,0,1:2:0:0:
369,301,97284,1,2,1:2:0:0:
349,260,97367,1,0,1:0:0:0:
311,235,97451,1,8,0:2:0:0:
83,384,97618,6,0,P|90:344|106:289,1,83,6|0,1:2|1:2,0:0:0:0:
203,136,97951,1,0,1:2:0:0:
18,146,98118,6,0,P|63:205|172:200,1,166,10|2,0:0|0:2,0:0:0:0:
335,63,98618,70,0,P|307:80|277:94,1,66.4,2|2,0:2|0:2,0:0:0:0:
398,211,98951,2,0,P|405:178|415:147,1,66.4,0|8,1:2|0:3,0:0:0:0:
319,174,99284,1,4,0:3:0:0:
476,263,99451,6,0,P|485:317|427:380,1,132.8,6|2,1:2|0:2,0:0:0:0:
341,304,99951,1,2,0:2:0:0:
341,304,100284,70,0,P|301:312|251:328,1,66.4,2|2,1:2|0:2,0:0:0:0:
193,180,100618,1,10,0:2:0:0:
286,235,100784,1,2,1:2:0:0:
122,383,100951,2,0,P|121:319|171:280,1,132.8,2|2,0:2|0:2,0:0:0:0:
211,349,101451,1,8,0:2:0:0:
59,237,101618,6,0,P|99:226|133:210,1,66.4,2|8,1:2|0:2,0:0:0:0:
190,123,101951,2,0,P|150:112|116:96,1,66.4,2|2,1:2|1:2,0:0:0:0:
21,19,102284,1,2,0:2:0:0:
51,117,102451,1,8,2:3:0:0:
54,18,102618,1,2,0:2:0:0:
27,142,102784,1,2,0:2:0:0:
136,59,102951,70,0,P|187:53|236:122,1,132.8,6|8,1:2|0:2,0:0:0:0:
294,175,103451,2,0,B|330:177|356:204|356:204|396:201|411:172,1,132.8,2|2,1:2|0:2,0:0:0:0:
364,109,103951,1,2,0:2:0:0:
343,237,104118,1,2,0:2:0:0:
474,185,104284,6,0,P|435:178|401:175,1,66.4,2|2,1:2|0:2,0:0:0:0:
294,175,104618,1,8,0:2:0:0:
432,371,104784,70,0,P|452:317|418:247,1,132.8,2|2,1:2|0:2,0:0:0:0:
277,321,105284,1,2,0:2:0:0:
355,384,105451,1,2,0:2:0:0:
266,303,105618,5,2,1:2:0:0:
209,354,105784,1,0,0:2:0:0:
137,321,105951,1,10,0:2:0:0:
144,247,106118,1,2,1:2:0:0:
265,158,106284,70,0,P|285:123|296:85,1,66.4,2|2,0:2|0:2,0:0:0:0:
230,19,106618,1,2,0:2:0:0:
145,45,106784,1,2,0:2:0:0:
115,187,106951,6,0,P|126:218|143:246,1,66.4,2|2,1:2|0:2,0:0:0:0:
236,291,107284,1,10,0:2:0:0:
321,237,107451,1,2,1:2:0:0:
408,283,107618,1,2,0:2:0:0:
412,379,107784,1,2,1:2:0:0:
412,379,107951,1,2,0:2:0:0:
331,323,108118,1,8,2:3:0:0:
460,219,108284,70,0,B|470:158|433:133|433:133|422:156|443:179,1,132.8,10|0,0:2|1:2,0:0:0:0:
249,87,108784,6,0,B|271:29|316:27|316:27|314:52|291:57,1,132.8,10|0,0:2|0:0,0:0:0:0:
176,267,110951,69,6,1:2:0:0:
308,200,133284,5,10,0:2:0:0:
406,75,133451,1,2,1:2:0:0:
406,75,133534,1,0,1:2:0:0:
406,75,133618,38,0,B|391:113|353:125|353:125|281:97,1,149.399995440674,6|8,1:2|0:2,0:0:0:0:
180,26,134118,37,0,0:0:0:0:
192,179,134284,2,0,P|205:140|212:88,1,74.699997720337,0|0,1:2|0:0,0:0:0:0:
50,227,134618,1,8,0:2:0:0:
50,227,134951,38,0,P|91:278|161:277,1,112.049996580505,0|0,1:2|0:0,0:0:0:0:
174,291,135284,38,0,P|217:283|255:271,1,74.699997720337,10|0,0:2|0:0,0:0:0:0:
368,384,135618,38,0,P|325:376|287:364,1,74.699997720337,2|0,1:2|0:0,0:0:0:0:
428,245,135951,1,10,0:2:0:0:
428,245,136284,38,0,B|413:194|413:194|426:160|426:160|406:95,1,149.399995440674,2|10,1:2|0:2,0:0:0:0:
451,17,136784,2,0,P|407:61|316:57,1,149.399995440674
212,14,137284,2,0,P|226:61|233:105,1,74.699997720337,10|0,0:2|0:0,0:0:0:0:
152,175,137618,1,0,1:2:0:0:
152,175,137951,38,0,B|89:159|88:202|-13:175,1,149.399995440674,10|2,0:2|1:2,0:0:0:0:
107,6,138451,2,0,L|99:55,1,37.3499988601685,0|0,1:2|0:0,0:0:0:0:
39,91,138618,2,0,L|156:72,1,112.049996580505,10|0,0:2|0:0,0:0:0:0:
212,14,138951,38,0,P|267:21|297:111,1,149.399995440674,6|10,1:2|0:2,0:0:0:0:
242,229,139451,1,0,1:0:0:0:
242,229,139534,1,0,1:0:0:0:
242,229,139618,2,0,P|284:219|329:199,1,74.699997720337,2|0,1:2|0:0,0:0:0:0:
409,58,139951,2,0,P|372:49|337:36,1,74.699997720337,10|0,0:2|0:0,0:0:0:0:
435,160,140284,38,0,P|495:200|493:272,1,149.399995440674,0|10,1:2|0:2,0:0:0:0:
399,355,140784,1,0,1:0:0:0:
399,355,140868,1,0,1:0:0:0:
399,355,140951,2,0,L|308:335,1,74.699997720337,2|0,1:2|0:0,0:0:0:0:
232,155,141284,2,0,P|236:199|246:246,1,74.699997720337,10|0,0:2|0:0,0:0:0:0:
159,340,141618,38,0,B|132:350|114:369|114:369|62:368|28:317,1,149.399995440674,2|8,1:2|0:2,0:0:0:0:
85,237,142118,2,0,P|83:178|-5:175,1,149.399995440674,2|0,0:2|0:0,0:0:0:0:
171,260,142618,1,10,0:2:0:0:
171,260,142951,38,0,P|237:249|308:225,1,112.049996580505,0|0,1:2|0:0,0:0:0:0:
311,229,143284,2,0,L|296:321,1,74.699997720337,10|0,0:2|0:0,0:0:0:0:
410,190,143618,1,2,1:2:0:0:
323,100,143784,1,8,0:2:0:0:
410,190,143951,2,0,P|450:184|487:172,1,74.699997720337,8|4,2:3|2:3,0:0:0:0:
362,13,144284,54,0,P|297:61|218:52,1,149.399995440674,6|8,1:2|0:2,0:0:0:0:
104,0,144784,2,0,B|133:31|118:72|118:72|84:95|91:152,1,149.399995440674
0,211,145284,2,0,P|36:227|91:233,1,74.699997720337,8|0,0:2|0:0,0:0:0:0:
179,138,145618,1,0,1:2:0:0:
179,138,145951,6,0,P|206:204|161:279,1,149.399995440674,10|2,0:2|1:2,0:0:0:0:
88,346,146451,1,0,0:0:0:0:
88,346,146534,1,0,0:0:0:0:
88,346,146618,2,0,P|54:333|16:328,1,74.699997720337,10|0,0:2|0:0,0:0:0:0:
238,234,146951,70,0,B|260:266|288:278|288:278|321:241|385:241,1,149.399995440674,2|8,1:2|0:2,0:0:0:0:
480,262,147451,2,0,P|507:327|463:384,1,149.399995440674
363,319,147951,1,10,0:2:0:0:
363,319,148284,6,0,L|214:340,1,149.399995440674,0|10,1:2|0:2,0:0:0:0:
277,175,148784,2,0,L|284:225,1,37.3499988601685,0|0,1:0|0:0,0:0:0:0:
356,226,148951,2,0,B|365:189|365:189|339:133,1,74.699997720337,2|0,1:2|0:0,0:0:0:0:
218,80,149284,2,0,L|279:93,1,37.3499988601685,10|0,0:2|0:0,0:0:0:0:
376,7,149451,1,0,1:0:0:0:
370,39,149534,1,0,1:0:0:0:
364,72,149618,70,0,B|294:54|297:108|211:78,1,149.399995440674,6|8,1:2|0:2,0:0:0:0:
104,15,150118,2,0,B|54:24|49:70|49:70|71:92|87:141,1,149.399995440674,2|0,0:2|0:0,0:0:0:0:
70,237,150618,2,0,P|36:253|1:263,1,74.699997720337,8|0,0:2|0:0,0:0:0:0:
174,342,150951,6,0,P|243:348|292:270,1,149.399995440674,6|8,1:2|0:2,0:0:0:0:
341,182,151451,2,0,B|342:235|400:247|400:247|460:223,1,149.399995440674,2|0,0:2|0:0,0:0:0:0:
483,41,151951,1,10,0:2:0:0:
417,152,152118,1,8,2:3:0:0:
315,32,152284,70,0,B|271:41|243:57|243:57|208:18|149:22,1,149.399995440674,6|8,1:2|0:2,0:0:0:0:
77,96,152784,2,0,P|57:155|120:228,1,149.399995440674,2|0,0:2|0:0,0:0:0:0:
252,95,153284,1,8,0:2:0:0:
252,95,153618,5,0,1:2:0:0:
321,321,153784,1,0,0:0:0:0:
375,116,153951,69,10,0:0:0:0:
437,288,154118,1,0,0:0:0:0:
186,197,154284,6,0,P|228:212|281:222,1,74.699997720337,2|8,1:2|0:2,0:0:0:0:
316,172,154534,1,0,0:0:0:0:
345,193,154617,1,8,0:2:0:0:
363,226,154700,1,8,0:2:0:0:
364,263,154784,1,8,0:2:0:0:
349,297,154867,1,8,0:2:0:0:
320,320,154950,5,6,1:2:0:0:
206,348,155118,1,0,1:2:0:0:
86,380,155284,1,0,1:2:0:0:
193,113,155451,1,10,0:2:0:0:
193,113,155784,1,0,1:2:0:0:
81,217,155951,6,0,L|131:227,1,39.0099994047547,10|0,0:2|0:0,0:0:0:0:
259,284,156118,2,0,L|237:187,1,78.0199988095093,2|0,0:2|0:0,0:0:0:0:
81,54,156451,1,10,0:2:0:0:
81,54,156784,1,0,1:2:0:0:
292,111,156951,69,10,0:2:0:0:
81,217,157118,1,0,1:2:0:0:
340,179,157284,5,10,0:2:0:0:
113,210,157451,1,0,0:0:0:0:
246,366,157618,70,0,L|262:259,1,83,6|0,1:2|0:0,0:0:0:0:
448,327,157951,2,0,L|390:344,1,41.5,10|0,0:2|0:0,0:0:0:0:
353,288,158118,2,0,B|337:246|337:246|358:185,1,83,2|0,0:2|0:0,0:0:0:0:
438,123,158451,1,2,1:0:0:0:
265,194,158618,6,0,B|226:209|201:233|201:233|145:234|131:167,1,166,12|2,0:2|0:2,0:0:0:0:
229,0,159118,2,0,P|253:50|202:124,1,124.5,0|0,1:2|0:0,0:0:0:0:
156,108,159451,2,0,L|88:96,1,41.5
0,0,159618,70,0,L|17:90,1,83,2|0,1:2|1:0,0:0:0:0:
0,187,159951,1,8,0:2:0:0:
156,108,160118,1,0,0:0:0:0:
96,352,160284,6,0,P|82:281|151:228,1,166,6|10,1:2|0:2,0:0:0:0:
254,322,160784,2,0,P|296:341|345:351,1,83,2|0,0:0|0:0,0:0:0:0:
437,187,161118,2,0,P|395:206|346:216,1,83,2|8,1:2|0:2,0:0:0:0:
233,121,161451,69,2,1:2:0:0:
233,121,161534,1,0,1:2:0:0:
233,121,161618,2,0,P|226:63|329:25,2,166,2|8|0,1:2|0:2|1:2,0:0:0:0:
359,214,162451,1,0,0:0:0:0:
199,296,162618,6,0,P|122:273|47:265,1,124.5,10|0,0:2|0:0,0:0:0:0:
46,243,162951,2,0,P|56:197|73:157,1,83,6|0,1:2|0:0,0:0:0:0:
188,30,163284,2,0,P|196:70|211:109,1,83,8|0,0:2|0:0,0:0:0:0:
328,290,163618,1,2,0:2:0:0:
175,207,163784,2,0,L|228:196,1,41.5,0|0,1:2|0:0,0:0:0:0:
378,128,163951,2,0,L|289:111,1,83,8|0,0:2|1:2,0:0:0:0:
368,31,164284,69,14,0:2:0:0:
416,245,164451,1,0,1:2:0:0:
288,37,164618,5,8,0:2:0:0:
240,275,164784,1,0,0:0:0:0:
188,30,164951,70,0,L|164:105,1,41.5,8|8,0:2|0:2,0:0:0:0:
42,287,165118,1,8,0:2:0:0:
12,258,165201,1,8,0:2:0:0:
0,219,165284,1,8,0:2:0:0:
10,179,165368,1,8,0:2:0:0:
38,149,165451,2,0,L|88:163,1,41.5,8|8,0:2|0:2,0:0:0:0:
207,384,165618,5,6,1:2:0:0:
174,264,165784,1,0,1:2:0:0:
146,136,165951,1,0,1:2:0:0:
340,267,166118,1,10,0:2:0:0:
340,267,166451,1,0,1:2:0:0:
224,373,166618,70,0,L|241:289,1,83,10|2,0:2|0:2,0:0:0:0:
391,181,166951,2,0,L|340:190,1,41.5
292,138,167118,2,0,B|276:103|276:103|291:44,1,83,10|4,0:2|0:0,0:0:0:0:
469,172,167451,1,0,1:2:0:0:
271,219,167618,6,0,P|232:208|184:185,1,83,10|0,0:2|1:2,0:0:0:0:
97,42,167951,2,0,P|136:31|184:8,1,83,10|0,0:2|0:0,0:0:0:0:
35,288,168284,70,0,P|6:216|71:152,1,166,6|10,1:2|0:2,0:0:0:0:
210,298,168784,1,2,0:2:0:0:
102,378,168951,2,0,P|112:329|136:278,1,83,0|2,0:0|1:0,0:0:0:0:
270,163,169284,2,0,P|277:203|292:242,1,83,8|2,0:2|0:2,0:0:0:0:
436,384,169618,6,0,L|439:337,1,41.5,6|0,0:2|0:0,0:0:0:0:
296,317,169784,2,0,L|382:294,1,83,0|8,1:2|0:2,0:0:0:0:
489,124,170118,70,0,L|439:114,1,41.5
375,60,170284,2,0,B|352:98|352:98|366:149,1,83,2|0,1:2|0:0,0:0:0:0:
449,217,170618,1,10,0:2:0:0:
487,35,170784,1,0,1:2:0:0:
300,100,170951,6,0,B|261:113|231:133|231:133|175:125|143:68,1,166,6|8,1:2|0:2,0:0:0:0:
13,7,171451,2,0,B|48:36|49:82|49:82|7:111|10:161,1,166,2|0,0:2|1:2,0:0:0:0:
162,262,171951,1,8,0:2:0:0:
162,262,172284,70,0,P|94:273|-17:305,1,166,6|8,1:2|0:2,0:0:0:0:
258,214,172784,1,2,0:2:0:0:
143,368,172951,1,0,1:2:0:0:
127,170,173118,1,0,1:2:0:0:
339,236,173284,1,8,0:2:0:0:
362,269,173367,1,8,0:2:0:0:
370,310,173450,1,8,0:2:0:0:
362,350,173534,1,8,0:2:0:0:
338,383,173617,5,14,0:2:0:0:
207,96,173784,1,0,1:2:0:0:
476,239,173951,1,0,1:2:0:0:
197,320,174118,69,8,0:2:0:0:
363,76,174284,1,2,1:2:0:0:
127,170,174451,1,0,1:2:0:0:
344,384,174618,6,0,P|335:339|317:292,1,83,8|0,0:2|1:2,0:0:0:0:
287,276,174868,1,0,1:2:0:0:
287,276,174951,1,10,0:2:0:0:
448,127,175118,1,0,1:2:0:0:
211,37,175284,2,0,P|198:76|190:117,1,83,8|0,0:2|1:2,0:0:0:0:
364,218,175534,69,0,0:0:0:0:
323,207,175617,1,10,0:2:0:0:
284,216,175700,1,8,0:2:0:0:
255,246,175784,1,8,0:2:0:0:
229,279,175867,1,8,0:2:0:0:
196,303,175950,1,8,0:2:0:0:
156,310,176034,1,8,0:0:0:0:
117,299,176118,2,0,L|105:237,1,41.5,8|8,0:2|0:2,0:0:0:0:
0,122,176284,6,0,P|37:133|100:159,1,91.300002786255,6|0,1:2|0:0,0:0:0:0:
298,7,176618,2,0,P|255:24|212:37,1,91.300002786255,10|0,0:2|0:0,0:0:0:0:
336,303,176951,1,0,1:2:0:0:
161,184,177118,1,0,1:2:0:0:
394,44,177284,2,0,P|379:91|362:152,1,91.300002786255,8|0,0:2|1:2,0:0:0:0:
362,329,177618,70,0,P|450:330|513:266,1,182.60000557251,2|10,1:2|0:2,0:0:0:0:
367,131,178117,1,0,1:0:0:0:
367,131,178200,1,0,1:0:0:0:
367,131,178284,1,2,1:2:0:0:
223,312,178451,1,0,1:2:0:0:
407,247,178618,2,0,P|364:233|305:208,1,91.300002786255,10|0,0:2|1:2,0:0:0:0:
84,377,178951,6,0,P|138:305|237:322,1,182.60000557251,6|8,1:2|0:0,0:0:0:0:
19,83,179451,2,0,B|38:151|38:151|22:192|22:192|37:259,1,182.60000557251,2|0,0:2|1:2,0:0:0:0:
255,181,179951,2,0,P|213:199|169:210,1,91.300002786255,8|0,0:2|0:0,0:0:0:0:
169,384,180284,69,2,1:2:0:0:
169,384,180618,1,10,0:2:0:0:
255,181,180784,1,0,0:0:0:0:
79,275,180951,1,2,1:2:0:0:
318,357,181118,1,0,1:2:0:0:
143,130,181284,1,10,0:2:0:0:
305,36,181451,1,0,1:0:0:0:
305,36,181534,1,0,1:0:0:0:
305,36,181618,6,0,P|324:81|246:183,1,182.60000557251,6|8,1:2|0:2,0:0:0:0:
36,5,182118,2,0,P|78:22|122:31,1,91.300002786255,2|0,0:2|1:2,0:0:0:0:
255,181,182451,1,0,1:2:0:0:
76,294,182618,2,0,P|84:249|97:205,1,91.300002786255,8|0,0:2|0:0,0:0:0:0:
342,6,182951,70,0,P|354:49|363:94,1,91.300002786255,2|0,0:2|1:2,0:0:0:0:
230,186,183284,1,10,0:2:0:0:
428,262,183451,2,0,P|383:270|339:283,1,91.300002786255,2|0,0:0|1:2,0:0:0:0:
172,371,183784,1,0,1:0:0:0:
172,371,183868,1,0,1:0:0:0:
172,371,183951,2,0,P|143:295|203:234,1,136.950004179382,10|0,0:2|0:0,0:0:0:0:
230,186,184284,6,0,B|211:254|211:254|227:295|227:295|209:373,1,182.60000557251,6|8,1:2|0:2,0:0:0:0:
480,180,184784,2,0,B|447:109|369:122|369:122|325:168,1,182.60000557251,2|0,0:0|0:0,0:0:0:0:
432,356,185284,2,0,P|421:304|402:249,1,91.300002786255,10|0,0:2|0:0,0:0:0:0:
272,25,185618,69,6,0:0:0:0:
481,180,185784,1,0,1:2:0:0:
206,98,185951,5,10,0:2:0:0:
457,171,186118,1,0,0:0:0:0:
166,242,186284,69,6,1:2:0:0:
434,161,186451,1,0,0:0:0:0:
304,384,186618,2,0,L|315:321,1,45.6500013931275,8|0,0:2|0:0,0:0:0:0:
335,216,186784,1,0,0:0:0:0:
512,331,186951,5,6,1:2:0:0:
335,216,187118,1,2,1:2:0:0:
335,216,187201,1,0,1:2:0:0:
335,216,187284,1,10,0:2:0:0:
457,72,187451,2,0,P|448:116|434:160,1,91.300002786255,2|0,0:0|0:0,0:0:0:0:
246,268,187784,2,0,P|231:224|223:179,1,91.300002786255,2|8,1:2|0:2,0:0:0:0:
411,281,188118,1,2,0:0:0:0:
360,23,188284,70,0,B|333:90|258:92|258:92|210:47,1,182.60000557251,6|10,1:2|0:2,0:0:0:0:
37,0,188784,1,0,1:0:0:0:
37,0,188868,1,0,1:0:0:0:
37,0,188951,2,0,P|40:52|54:92,1,91.300002786255,2|0,1:2|0:0,0:0:0:0:
223,179,189284,2,0,P|176:155|134:147,1,91.300002786255,10|0,0:2|0:0,0:0:0:0:
33,347,189618,6,0,P|73:274|34:185,1,182.60000557251,6|10,1:2|0:2,0:0:0:0:
180,351,190118,2,0,P|227:340|284:316,1,91.300002786255,2|0,0:2|1:2,0:0:0:0:
345,136,190451,2,0,P|328:183|324:228,1,91.300002786255,2|8,0:0|0:2,0:0:0:0:
487,377,190784,69,2,1:2:0:0:
487,377,190868,1,0,1:0:0:0:
487,377,190951,2,0,B|515:290|436:259|436:259|386:295,1,182.60000557251,6|10,1:2|0:2,0:0:0:0:
313,384,191451,1,0,0:0:0:0:
211,271,191618,6,0,B|226:204|226:204|210:163|210:163|229:95,1,182.60000557251,0|8,1:2|0:2,0:0:0:0:
324,224,192118,1,0,0:0:0:0:
114,302,192284,69,6,1:2:0:0:
114,302,192618,1,10,0:2:0:0:
224,368,192784,2,0,P|311:376|387:314,1,182.60000557251,2|2,0:2|1:2,0:0:0:0:
228,95,193284,2,0,P|238:146|257:202,1,91.300002786255,8|2,0:2|0:0,0:0:0:0:
484,303,193618,5,0,1:2:0:0:
326,122,193784,1,2,1:2:0:0:
509,217,193951,1,10,0:2:0:0:
297,331,194118,1,0,0:0:0:0:
447,90,194284,1,0,1:2:0:0:
249,183,194451,1,0,0:0:0:0:
433,384,194618,2,0,P|416:330|402:277,1,91.300002786255,8|0,0:0|0:0,0:0:0:0:
228,95,194951,69,6,1:2:0:0:
122,299,195118,1,2,0:2:0:0:
139,51,195284,1,10,0:2:0:0:
15,234,195451,2,0,P|60:218|115:206,1,91.300002786255,2|0,0:2|1:2,0:0:0:0:
0,102,195784,1,2,1:2:0:0:
184,9,195951,2,0,P|174:53|162:97,1,91.300002786255,8|2,0:0|1:2,0:0:0:0:
298,349,196284,5,4,1:2:0:0:
425,134,196451,1,0,1:2:0:0:
191,228,196618,1,10,0:2:0:0:
440,356,196784,1,0,1:2:0:0:
283,108,196951,69,14,0:0:0:0:
293,78,197034,1,0,1:0:0:0:
306,46,197118,1,0,1:2:0:0:
506,233,197284,2,0,P|460:240|397:257,1,91.300002786255,2|8,1:2|0:2,0:0:0:0:
360,202,197534,1,8,0:0:0:0:
360,202,197618,5,6,0:2:0:0:
440,356,197784,1,0,1:2:0:0:
238,217,197951,1,0,1:2:0:0:
429,49,198118,70,0,B|403:121|333:116|333:116|272:58,1,182.60000557251,14|0,0:0|1:2,0:0:0:0:
163,200,198618,1,8,0:2:0:0:
364,280,198784,1,2,1:2:0:0:
220,384,198951,6,0,P|236:351|248:281,1,91.300002786255,2|0,0:2|0:0,0:0:0:0:
83,159,199284,2,0,P|120:184|163:200,1,91.300002786255,10|0,0:2|0:0,0:0:0:0:
341,95,199618,2,0,P|303:121|274:155,1,91.300002786255,2|0,1:2|0:0,0:0:0:0:
477,384,199951,70,0,P|508:316|479:252,1,136.950004179382,10|0,0:2|0:0,0:0:0:0:
448,246,200284,6,0,B|404:250|361:293|361:293|316:290|294:248,1,182.60000557251,6|10,1:2|0:2,0:0:0:0:
138,384,200784,2,0,B|187:322|132:263|132:263|82:283,1,182.60000557251,2|0,0:0|1:2,0:0:0:0:
6,120,201284,2,0,P|56:139|118:156,1,91.300002786255,8|0,0:2|0:0,0:0:0:0:
252,119,201618,70,0,P|257:41|151:8,1,182.60000557251,6|10,1:2|0:2,0:0:0:0:
280,237,202118,1,0,1:0:0:0:
280,237,202201,1,0,1:0:0:0:
280,237,202284,2,0,P|325:224|378:214,1,91.300002786255,2|0,1:2|1:2,0:0:0:0:
456,133,202618,1,10,0:2:0:0:
372,334,202784,1,0,0:0:0:0:
252,119,202951,6,0,P|162:125|109:212,1,182.60000557251,6|10,1:2|0:2,0:0:0:0:
188,384,203451,1,2,1:2:0:0:
188,384,203534,1,0,1:2:0:0:
188,384,203618,2,0,P|171:341|153:270,1,91.300002786255,0|0,1:2|0:0,0:0:0:0:
353,186,203951,2,0,P|310:203|239:221,1,91.300002786255,10|0,0:2|0:0,0:0:0:0:
430,350,204284,69,6,1:2:0:0:
304,117,204451,1,2,0:2:0:0:
512,222,204618,1,10,0:2:0:0:
284,326,204784,2,0,B|200:296|208:372|92:328,1,182.60000557251,2|0,0:2|0:0,0:0:0:0:
187,101,205284,1,10,0:2:0:0:
187,101,205618,5,6,1:2:0:0:
319,271,205784,1,0,0:0:0:0:
320,42,205951,1,8,0:2:0:0:
454,169,206118,1,2,1:2:0:0:
454,169,206201,1,0,1:2:0:0:
454,169,206284,2,0,P|411:187|367:197,1,91.300002786255,0|0,1:2|0:0,0:0:0:0:
203,48,206618,2,0,P|234:80|265:130,1,91.300002786255,10|0,0:2|1:2,0:0:0:0:
201,379,206951,69,14,0:2:0:0:
336,128,207118,1,0,1:2:0:0:
126,281,207284,5,10,0:2:0:0:
365,115,207451,1,0,0:0:0:0:
81,158,207618,69,2,1:2:0:0:
398,108,207784,1,0,1:2:0:0:
168,0,207951,2,0,L|181:64,1,45.6500013931275,10|0,0:2|0:0,0:0:0:0:
203,203,208118,1,0,0:0:0:0:
68,36,208284,5,6,1:2:0:0:
203,203,208451,1,2,1:2:0:0:
203,203,208534,1,0,1:2:0:0:
203,203,208618,1,10,0:2:0:0:
0,148,208784,2,0,P|44:136|97:116,1,91.300002786255,2|0,0:0|1:2,0:0:0:0:
211,330,209118,2,0,P|167:318|114:298,1,91.300002786255,2|8,1:2|0:2,0:0:0:0:
267,118,209451,1,2,1:2:0:0:
390,299,209618,70,0,P|451:298|512:196,1,182.60000557251,6|10,1:2|0:2,0:0:0:0:
363,75,210118,1,0,1:2:0:0:
363,75,210201,1,0,1:2:0:0:
363,75,210284,2,0,P|373:126|391:187,1,91.300002786255,2|0,1:2|1:2,0:0:0:0:
211,330,210618,2,0,P|226:283|253:226,1,91.300002786255,10|0,0:2|0:0,0:0:0:0:
487,318,210951,6,0,B|441:328|406:367|406:367|357:361|328:309,1,182.60000557251,6|10,1:2|0:2,0:0:0:0:
191,125,211451,2,0,P|239:151|297:167,1,91.300002786255,2|0,1:2|1:2,0:0:0:0:
106,330,211784,2,0,P|58:356|0:372,1,91.300002786255,2|8,0:2|0:2,0:0:0:0:
94,100,212118,1,2,0:0:0:0:
338,374,212284,70,0,P|360:304|257:243,1,182.60000557251,6|10,1:2|0:2,0:0:0:0:
106,330,212784,1,0,0:0:0:0:
16,125,212951,6,0,B|67:129|109:169|109:169|159:161|176:116,1,182.60000557251,2|8,1:2|0:2,0:0:0:0:
329,14,213451,69,0,1:2:0:0:
329,14,213534,1,0,1:2:0:0:
329,14,213618,1,6,1:2:0:0:
434,246,213784,1,2,0:2:0:0:
234,51,213951,1,10,0:2:0:0:
486,144,214118,2,0,P|431:153|363:173,1,91.300002786255,2|0,0:2|1:2,0:0:0:0:
247,316,214451,1,2,0:0:0:0:
305,98,214618,2,0,L|317:160,1,45.6500013931275,8|0,0:2|0:0,0:0:0:0:
443,369,214784,6,0,P|395:353|340:340,1,91.300002786255,2|0,1:2|1:2,0:0:0:0:
161,131,215118,1,2,1:2:0:0:
171,154,215201,1,0,1:2:0:0:
181,180,215284,1,10,0:2:0:0:
124,349,215451,1,0,0:0:0:0:
290,231,215618,2,0,P|306:185|317:127,1,91.300002786255,0|0,1:2|0:0,0:0:0:0:
95,11,215951,2,0,P|110:54|119:98,1,91.300002786255,8|0,0:2|1:2,0:0:0:0:
0,305,216284,70,0,B|20:239|97:227|97:227|147:273,1,182.60000557251,6|8,1:2|0:2,0:0:0:0:
271,380,216784,1,2,1:2:0:0:
271,380,216868,1,0,1:2:0:0:
271,380,216951,1,0,1:2:0:0:
192,157,217118,1,2,1:2:0:0:
395,271,217284,2,0,P|341:280|293:296,1,91.300002786255,8|2,0:2|0:2,0:0:0:0:
436,128,217618,5,6,1:2:0:0:
389,367,217784,1,0,1:2:0:0:
259,102,217951,69,10,0:0:0:0:
311,377,218118,1,0,1:2:0:0:
69,149,218284,5,6,1:2:0:0:
306,290,218451,1,0,1:2:0:0:
306,290,218534,1,0,1:2:0:0:
306,290,218618,1,10,0:2:0:0:
65,382,218784,1,0,0:0:0:0:
259,102,218951,69,6,1:2:0:0:
60,248,219118,1,2,0:2:0:0:
128,19,219284,1,10,0:2:0:0:
239,193,219451,2,0,P|284:213|328:224,1,91.300002786255,2|0,0:2|1:2,0:0:0:0:
445,0,219784,2,0,P|400:20|356:31,1,91.300002786255,2|8,1:2|0:2,0:0:0:0:
239,193,220118,1,2,1:2:0:0:
456,261,220284,6,0,P|468:183|376:137,1,182.60000557251,4|10,1:2|0:2,0:0:0:0:
246,319,220784,1,0,1:0:0:0:
246,319,220868,1,0,1:0:0:0:
246,319,220951,2,0,P|287:310|348:286,1,91.300002786255,0|0,1:2|0:0,0:0:0:0:
192,119,221284,1,8,0:2:0:0:
89,323,221451,1,0,0:0:0:0:
108,51,221618,69,6,1:2:0:0:
282,227,221784,1,2,0:2:0:0:
223,0,221951,1,10,0:2:0:0:
360,148,222118,6,0,P|320:134|253:118,1,91.300002786255,2|0,0:2|1:2,0:0:0:0:
450,55,222451,1,2,1:2:0:0:
339,292,222618,1,8,0:2:0:0:
512,144,222784,1,2,0:2:0:0:
360,148,222951,70,0,L|415:167,1,45.6500013931275,12|8,0:2|0:2,0:0:0:0:
485,285,223118,1,2,1:2:0:0:
347,57,223284,5,2,1:2:0:0:
431,358,223451,1,0,1:2:0:0:
191,230,223618,69,14,0:2:0:0:
172,188,223701,1,0,1:2:0:0:
181,144,223784,1,0,1:2:0:0:
213,113,223868,1,0,1:2:0:0:
258,107,223951,1,2,1:2:0:0:
485,285,224118,1,8,0:2:0:0:
133,293,224284,5,14,0:2:0:0:
314,168,224451,1,0,1:2:0:0:
296,384,224618,1,0,1:2:0:0:
141,82,224784,69,10,0:0:0:0:
312,258,224951,1,0,1:2:0:0:
334,23,225118,1,0,1:2:0:0:
195,251,225284,5,10,0:2:0:0:
228,0,225451,1,2,1:2:0:0:
4,112,225618,1,2,1:2:0:0:
312,258,225784,69,10,0:2:0:0:
90,140,225951,1,2,1:2:0:0:
117,384,226118,1,2,1:2:0:0:
317,93,226284,5,14,0:2:0:0:
41,256,226451,1,2,1:2:0:0:
41,256,226534,1,0,1:0:0:0:
41,256,226618,1,2,1:2:0:0:
259,16,226784,69,14,0:2:0:0:
248,358,226951,1,2,1:2:0:0:
239,325,227034,1,2,1:2:0:0:
230,292,227118,1,2,1:2:0:0:
378,61,227284,5,14,0:2:0:0:
132,219,227451,1,2,1:2:0:0:
402,354,227618,1,2,1:2:0:0:
150,48,227784,69,14,0:2:0:0:
312,315,227951,1,2,1:2:0:0:
35,223,228118,1,2,1:2:0:0:
274,8,228284,6,0,L|257:78,1,41.5,14|0,0:2|0:0,0:0:0:0:
193,327,228451,1,2,1:2:0:0:
416,132,228618,70,0,L|351:146,1,41.5,14|0,0:2|0:0,0:0:0:0:
104,384,228784,1,8,1:2:0:0:
90,345,228867,1,8,0:0:0:0:
93,304,228950,1,10,0:2:0:0:
112,267,229034,1,10,0:2:0:0:
145,242,229117,1,10,0:2:0:0:
381,384,229284,1,10,0:2:0:0:
256,192,229451,6,0,B|319:149|358:89|314:13|314:13|226:46|224:123|224:123|171:52|101:87|101:87|104:167|174:192|174:192|97:215|91:301|91:301|172:316|226:260|226:260|212:335|294:379|294:379|337:320|313:250|313:250|377:280|449:212|449:212|380:126|300:172,1,1528.44498833889,14|0,0:2|0:0,0:0:0:0:
