osu file format v14

[General]
AudioFilename: audio.mp3
AudioLeadIn: 0
PreviewTime: 0
Countdown: 0
SampleSet: Soft
StackLeniency: 0.5
Mode: 0
LetterboxInBreaks: 0
WidescreenStoryboard: 0

[Editor]
DistanceSpacing: 1.4
BeatDivisor: 4
GridSize: 4
TimelineZoom: 5.299997

[Metadata]
Title:Sakura no Uta
TitleUnicode:櫻ノ詩
Artist:Hana
ArtistUnicode:はな
Creator:Ultimate Madoka
Version:V.Insane
Source:サクラノ詩 -櫻の森の上を舞う-
Tags:sakura no uta - sakura no mori no ue o mau - metrowing makura 枕 eroge galgame
BeatmapID:997926
BeatmapSetID:440068

[Difficulty]
HPDrainRate:6
CircleSize:4.3
OverallDifficulty:7
ApproachRate:9
SliderMultiplier:1.4
SliderTickRate:1

[Events]
//Background and Video events
0,0,"5.jpg",0,0
//Break Periods
2,100525,110392
//Storyboard Layer 0 (Background)
//Storyboard Layer 1 (Fail)
//Storyboard Layer 2 (Pass)
//Storyboard Layer 3 (Foreground)
//Storyboard Sound Samples

[TimingPoints]
326,333.333333333333,4,2,1,40,1,0
1325,-200,4,2,1,40,0,0
1992,-100,4,2,1,40,0,0
2992,-200,4,2,1,40,0,0
4659,-100,4,2,1,40,0,0
9492,-100,4,2,1,20,0,0
9659,-100,4,2,1,55,0,0
10992,-100,4,2,1,55,0,1
11075,-100,4,2,1,55,0,0
20325,-100,4,2,1,55,0,0
21659,-100,4,2,1,55,0,1
21742,-100,4,2,1,55,0,0
32992,-100,4,2,1,45,0,0
33159,-100,4,2,1,40,0,0
33325,-100,4,2,2,40,0,0
33659,-100,4,2,1,40,0,0
33992,-100,4,2,2,40,0,0
38992,-100,4,2,1,40,0,0
39159,-100,4,2,2,40,0,0
44325,-100,4,2,1,40,0,0
44659,-100,4,2,2,40,0,0
49659,-100,4,2,1,40,0,0
49992,-100,4,2,2,40,0,0
50159,-100,4,2,1,40,0,0
50659,-100,4,2,2,40,0,0
50992,-100,4,2,1,40,0,0
51325,-100,4,2,2,40,0,0
51492,-100,4,2,1,40,0,0
53992,-100,4,2,1,45,0,0
76325,-100,4,2,3,60,0,1
97075,-100,4,2,3,45,0,1
97659,-100,4,2,1,55,0,0
100325,-100,4,2,1,35,0,0
110992,-100,4,2,1,55,0,0
133825,-100,4,2,2,40,0,0
137991,-100,4,2,1,40,0,0
139158,-100,4,2,2,40,0,0
143658,-100,4,2,1,40,0,0
144491,-100,4,2,2,40,0,0
148991,-100,4,2,1,40,0,0
149659,-100,4,2,1,40,0,0
149992,-100,4,2,2,40,0,0
150158,-100,4,2,1,40,0,0
150325,-100,4,2,2,40,0,0
150991,-100,4,2,1,40,0,0
151325,-100,4,2,2,40,0,0
151491,-100,4,2,1,40,0,0
151825,-100,4,2,2,40,0,0
151991,-100,4,2,1,40,0,0
152325,-100,4,2,1,55,0,0
173158,-100,4,2,1,35,0,0
173658,-100,4,2,1,55,0,0
176325,-80,4,2,3,60,0,1
192325,-80,4,2,3,65,0,1
208325,-80,4,2,3,70,0,1
218992,-80,4,2,3,75,0,1
221659,-80,4,2,3,80,0,1
224325,-80,4,2,3,90,0,1
224659,-80,4,2,3,90,0,0
229492,-80,4,2,1,30,0,0

[Colours]
Combo1 : 255,0,128
Combo2 : 255,193,224
Combo3 : 255,89,255

[HitObjects]
256,192,326,5,2,0:0:0:0:
104,48,825,1,2,0:0:0:0:
48,112,992,1,2,0:0:0:0:
128,127,1159,1,2,0:0:0:0:
104,48,1325,2,0,L|256:40,1,140,2|2,0:0|0:0,0:0:0:0:
386,71,2325,5,2,0:0:0:0:
456,192,2659,1,2,0:0:0:0:
416,328,2992,2,0,P|368:344|336:344,1,70,2|0,0:0|0:0,0:0:0:0:
283,319,3492,2,0,P|235:319|211:311,1,70,2|0,0:0|0:0,0:0:0:0:
181,250,3992,2,0,L|29:234,1,140,2|2,0:0|0:0,0:0:0:0:
194,142,4825,5,0,0:0:0:0:
56,66,4992,1,2,0:0:0:0:
127,8,5159,1,0,0:0:0:0:
213,46,5325,1,2,0:0:0:0:
98,155,5492,1,0,0:0:0:0:
340,152,5659,6,0,P|372:168|420:168,1,70,2|0,0:0|0:0,0:0:0:0:
467,112,5992,2,0,P|435:96|387:96,1,70,2|0,0:0|0:0,0:0:0:0:
352,30,6325,2,0,P|320:54|296:94,2,70,2|0|2,0:0|0:0|0:0,0:0:0:0:
352,30,7159,5,0,0:0:0:0:
270,8,7326,1,2,0:0:0:0:
186,10,7492,1,2,0:0:0:0:
105,35,7659,1,2,0:0:0:0:
53,101,7826,1,0,0:0:0:0:
40,183,7992,2,0,L|24:343,1,140,2|2,0:0|0:0,0:0:0:0:
188,367,8659,5,0,0:0:0:0:
198,283,8825,2,0,L|212:144,1,140,2|0,0:0|0:0,0:0:0:0:
311,199,9325,1,2,0:0:0:0:
320,115,9492,1,8,0:0:0:0:
384,326,9659,6,0,L|392:254,1,70,10|2,0:0|0:0,0:0:0:0:
199,284,9992,2,0,L|191:353,1,70,10|2,0:0|0:0,0:0:0:0:
27,320,10325,1,10,0:0:0:0:
109,173,10492,1,2,0:0:0:0:
109,173,10575,1,0,0:0:0:0:
109,173,10659,1,10,0:0:0:0:
274,145,10825,1,2,0:0:0:0:
406,250,10992,6,0,P|442:193|443:122,2,140,12|8|10,0:0|0:0|0:0,0:0:0:0:
340,197,11825,1,2,0:0:0:0:
274,145,11992,2,0,L|178:153,2,70,10|0|8,0:0|0:0|0:0,0:0:0:0:
340,93,12492,1,0,0:0:0:0:
475,244,12659,6,0,L|406:250,1,70,10|0,0:0|0:0,0:0:0:0:
330,287,12992,2,0,L|260:292,1,70,10|0,0:0|0:0,0:0:0:0:
184,329,13325,2,0,L|114:334,1,70,10|0,0:0|0:0,0:0:0:0:
125,165,13659,6,0,L|264:152,1,140,10|8,0:0|0:0,0:0:0:0:
423,281,14158,1,2,0:0:0:0:
423,281,14492,1,0,0:0:0:0:
333,145,14659,2,0,L|264:152,2,70,10|0|8,0:0|0:0|0:0,0:0:0:0:
423,281,15159,5,0,0:0:0:0:
272,290,15325,2,0,L|132:303,1,140,10|10,0:0|0:0,0:0:0:0:
264,152,15825,2,0,L|333:145,2,70,0|10|0,0:0|0:0|0:0,0:0:0:0:
157,4,16325,5,14,0:0:0:0:
65,29,16492,1,2,0:0:0:0:
217,70,16658,1,10,0:0:0:0:
165,152,16825,1,2,0:0:0:0:
157,4,16992,1,10,0:0:0:0:
65,29,17159,1,2,0:0:0:0:
71,126,17325,2,0,L|56:292,1,140,10|10,0:0|0:0,0:0:0:0:
203,324,17825,6,0,L|209:254,2,70,2|10|2,0:0|0:0|0:0,0:0:0:0:
332,227,18325,2,0,L|326:297,1,70,10|2,0:0|0:0,0:0:0:0:
455,200,18659,2,0,L|449:270,1,70,10|0,0:0|0:0,0:0:0:0:
449,270,18992,5,12,0:0:0:0:
470,47,19325,1,8,0:0:0:0:
470,47,19492,1,2,0:0:0:0:
470,47,19659,1,8,0:0:0:0:
267,142,19992,1,10,0:0:0:0:
267,142,20159,1,0,0:0:0:0:
170,151,20325,6,0,L|186:95,4,35,12|0|0|0|10,2:0|0:0|2:0|0:0|0:0,0:0:0:0:
120,235,20825,1,0,0:0:0:0:
176,315,20992,2,0,L|128:323,3,35,12|0|0|0,0:0|0:0|0:0|0:0,0:0:0:0:
92,322,21325,2,0,L|36:322,3,35,8|0|0|0,0:0|0:0|0:0|0:0,0:0:0:0:
7,319,21659,1,14,0:0:0:0:
68,133,21992,6,0,P|116:133|156:141,1,70,8|0,0:0|0:0,0:0:0:0:
259,206,22326,2,0,P|224:208|189:203,1,70,10|2,0:0|0:0,0:0:0:0:
318,150,22659,2,0,P|387:155|456:168,2,140,10|8|10,0:0|0:0|0:0,0:0:0:0:
72,240,23659,1,10,0:0:0:0:
240,336,23992,1,10,0:0:0:0:
432,320,24325,6,0,P|448:240|448:160,1,140,10|8,0:0|0:0,0:0:0:0:
329,73,24825,2,0,P|330:107|327:142,2,70,2|10|0,0:0|0:0|0:0,0:0:0:0:
182,73,25325,2,0,P|181:107|184:142,2,70,10|0|8,0:0|0:0|0:0,0:0:0:0:
182,73,25825,1,0,0:0:0:0:
62,181,25992,6,0,P|65:251|71:284,1,70,10|0,0:0|0:0,0:0:0:0:
212,309,26325,1,10,0:0:0:0:
61,347,26492,1,0,0:0:0:0:
159,226,26659,1,10,0:0:0:0:
159,226,26825,1,0,0:0:0:0:
152,384,26992,5,14,0:0:0:0:
212,309,27159,1,2,0:0:0:0:
308,297,27325,1,10,0:0:0:0:
393,345,27492,1,2,0:0:0:0:
333,172,27659,1,10,0:0:0:0:
212,309,27825,1,2,0:0:0:0:
393,345,27992,1,10,0:0:0:0:
440,68,28325,5,10,0:0:0:0:
344,48,28492,2,0,L|275:32,1,70,2|10,0:0|0:0,0:0:0:0:
228,120,28825,2,0,L|141:146,1,70,2|10,0:0|0:0,0:0:0:0:
184,236,29159,2,0,L|122:302,2,70,2|10|0,0:0|0:0|0:0,0:0:0:0:
232,368,29659,6,0,P|276:376|372:368,1,140,14|8,0:0|0:0,0:0:0:0:
460,246,30159,2,0,P|426:249|394:264,2,70,2|8|0,0:0|0:0|0:0,0:0:0:0:
465,142,30659,2,0,P|454:110|431:84,1,70,10|0,0:0|0:0,0:0:0:0:
336,144,30992,6,0,L|400:136,2,35,14|0|2,0:0|0:0|0:0,0:0:0:0:
275,221,31325,1,10,0:0:0:0:
275,221,31492,1,2,0:0:0:0:
325,305,31659,2,0,L|317:341,2,35,14|0|0,0:0|0:0|0:0,0:0:0:0:
424,304,31992,1,8,0:0:0:0:
424,304,32159,1,0,0:0:0:0:
424,304,32325,5,6,0:0:0:0:
473,238,32492,1,2,0:0:0:0:
424,170,32658,1,2,0:0:0:0:
344,196,32825,1,2,0:0:0:0:
344,280,32992,1,2,0:0:0:0:
264,304,33159,1,2,0:0:0:0:
208,240,33325,6,0,P|168:232|112:256,1,70,2|2,0:0|0:0,0:0:0:0:
79,295,33659,2,0,P|64:229|95:168,2,140,4|4|6,0:0|0:0|0:0,0:0:0:0:
120,368,34492,1,0,0:0:0:0:
120,368,34659,2,0,P|154:361|208:328,1,70,6|0,0:0|0:0,0:0:0:0:
268,330,34992,2,0,P|341:346|351:351,1,70,6|0,0:0|0:0,0:0:0:0:
364,178,35325,6,0,P|450:148|517:151,2,140,6|6|6,0:0|0:0|0:0,0:0:0:0:
404,252,36159,1,0,0:0:0:0:
281,192,36325,2,0,P|290:225|317:248,1,70,6|0,0:0|0:0,0:0:0:0:
308,115,36659,2,0,P|281:93|247:90,1,70,6|0,0:0|0:0,0:0:0:0:
171,52,36992,2,0,P|190:23|222:10,1,70,6|0,0:0|0:0,0:0:0:0:
88,46,37325,2,0,P|109:111|171:137,1,140,6|4,0:0|0:0,0:0:0:0:
171,52,37825,5,0,0:0:0:0:
247,90,37992,1,6,0:0:0:0:
171,137,38159,1,0,0:0:0:0:
111,298,38325,5,14,0:0:0:0:
252,203,38492,1,0,0:0:0:0:
83,195,38658,1,8,0:0:0:0:
214,302,38825,1,8,0:0:0:0:
382,297,38992,6,0,L|461:267,1,70,6|0,0:0|0:0,0:0:0:0:
393,190,39325,2,0,L|427:112,1,70,6|2,0:0|0:0,0:0:0:0:
325,104,39659,2,0,L|300:38,1,70,6|0,0:0|0:0,0:0:0:0:
172,40,39992,6,0,P|124:100|104:180,1,140,6|4,0:0|0:0,0:0:0:0:
104,284,40492,1,0,0:0:0:0:
191,331,40659,2,0,L|216:232,1,70,6|0,0:0|0:0,0:0:0:0:
303,238,40992,2,0,L|328:139,1,70,6|0,0:0|0:0,0:0:0:0:
415,145,41325,2,0,L|440:46,1,70,6|0,0:0|0:0,0:0:0:0:
488,16,41659,5,6,0:0:0:0:
408,0,41825,1,2,0:0:0:0:
328,8,41992,1,6,0:0:0:0:
256,48,42159,1,2,0:0:0:0:
192,104,42325,1,6,0:0:0:0:
112,136,42492,1,2,0:0:0:0:
24,136,42659,2,0,L|16:216,2,70,6|0|4,0:0|0:0|0:0,0:0:0:0:
112,136,43159,5,0,0:0:0:0:
192,104,43325,1,6,0:0:0:0:
276,104,43492,1,2,0:0:0:0:
276,104,43575,1,0,0:0:0:0:
276,104,43659,1,6,0:0:0:0:
360,132,43825,1,10,0:0:0:0:
420,192,43992,1,10,0:0:0:0:
456,264,44159,1,10,0:0:0:0:
456,264,44325,6,0,L|304:296,2,140,4|4|6,0:0|0:0|0:0,0:0:0:0:
456,264,45325,2,0,L|504:320,2,70,4|2|4,0:0|0:0|0:0,0:0:0:0:
505,195,45825,1,0,0:0:0:0:
456,128,45992,6,0,P|461:98|451:55,1,70,6|0,0:0|0:0,0:0:0:0:
376,154,46325,2,0,P|349:139|305:136,1,70,6|0,0:0|0:0,0:0:0:0:
376,237,46659,2,0,P|351:262|338:295,1,70,6|0,0:0|0:0,0:0:0:0:
421,309,46992,1,6,0:0:0:0:
91,309,47325,5,6,0:0:0:0:
157,257,47492,2,0,L|223:277,2,70,0|6|0,0:0|0:0|0:0,0:0:0:0:
160,176,47992,1,6,0:0:0:0:
160,176,48325,6,0,L|56:144,1,70,6|0,0:0|0:0,0:0:0:0:
12,128,48659,1,6,0:0:0:0:
76,79,48825,1,8,0:0:0:0:
93,155,48992,1,6,0:0:0:0:
12,128,49159,1,0,0:0:0:0:
64,272,49325,1,10,0:0:0:0:
195,191,49492,1,8,0:0:0:0:
247,335,49659,6,0,P|319:343|407:327,1,140,6|4,0:0|0:0,0:0:0:0:
484,352,50159,2,0,P|504:312|508:284,2,70,6|0|0,0:0|0:0|0:0,0:0:0:0:
431,267,50659,2,0,P|424:233|428:199,1,70,4|0,0:0|0:0,0:0:0:0:
380,36,50992,6,0,P|244:36|212:44,1,140,6|4,0:0|0:0,0:0:0:0:
116,80,51492,2,0,P|68:112|44:144,2,70,6|0|0,0:0|0:0|0:0,0:0:0:0:
138,231,51992,2,0,P|186:199|210:167,1,70,8|8,0:0|0:0,0:0:0:0:
368,56,52325,6,0,P|424:112|448:192,1,140,4|8,0:0|0:0,0:0:0:0:
360,220,52825,2,0,P|344:308|304:364,1,140,4|0,0:0|0:0,0:0:0:0:
224,320,53325,2,0,P|176:336|128:336,1,70,12|0,0:0|0:0,0:0:0:0:
88,268,53659,2,0,P|40:260|0:236,1,70,12|0,0:0|0:0,0:0:0:0:
20,152,53992,5,12,0:0:0:0:
79,56,54159,1,0,0:0:0:0:
184,20,54325,1,12,0:0:0:0:
295,29,54492,1,0,0:0:0:0:
381,99,54659,1,12,0:0:0:0:
381,99,54742,1,8,0:0:0:0:
381,99,54825,1,10,0:0:0:0:
381,99,54909,1,8,0:0:0:0:
381,99,54992,6,0,L|373:259,1,140,14|10,0:0|0:0,0:0:0:0:
374,238,55492,1,10,0:0:0:0:
92,190,55992,2,0,L|84:350,1,140,14|2,0:0|0:0,0:0:0:0:
85,330,56492,1,10,0:0:0:0:
85,330,56992,6,0,L|184:320,1,70,10|0,0:0|0:0,0:0:0:0:
224,370,57326,2,2,L|312:362,1,70,8|2,0:0|0:0,0:0:0:0:
376,352,57659,2,0,P|445:348|510:322,1,140,6|10,0:0|0:0,0:0:0:0:
510,322,58159,1,2,0:0:0:0:
510,62,58492,5,2,0:0:0:0:
510,62,58659,1,8,0:0:0:0:
510,62,58825,2,0,P|441:34|363:33,1,140,6|0,0:0|0:0,0:0:0:0:
281,4,59325,2,0,P|249:12|201:44,1,70,10|0,0:0|0:0,0:0:0:0:
118,38,59659,2,0,P|94:70|86:118,1,70,2|2,0:0|0:0,0:0:0:0:
11,162,59992,6,0,P|28:200|65:230,1,70,10|0,0:0|0:0,0:0:0:0:
143,197,60325,2,0,P|231:173|304:197,1,140,6|10,0:0|0:0,0:0:0:0:
350,246,60825,2,0,P|370:217|374:182,1,70,2|0,0:0|0:0,0:0:0:0:
326,96,61159,2,0,P|329:61|349:32,2,70,2|10|6,0:0|0:0|0:0,0:0:0:0:
424,97,61659,5,0,0:0:0:0:
473,181,61825,1,0,0:0:0:0:
424,266,61992,1,10,0:0:0:0:
326,96,62159,1,2,0:0:0:0:
473,181,62325,1,2,0:0:0:0:
325,265,62492,1,2,0:0:0:0:
325,265,62659,6,0,L|234:266,1,70,10|0,0:0|0:0,0:0:0:0:
208,352,62992,2,0,P|128:344|64:288,1,140,6|10,0:0|0:0,0:0:0:0:
80,212,63492,1,0,0:0:0:0:
80,212,63659,2,0,P|64:180|64:116,1,70,6|0,0:0|0:0,0:0:0:0:
152,120,63992,2,0,P|160:80|184:32,1,70,10|0,0:0|0:0,0:0:0:0:
256,100,64325,5,14,0:0:0:0:
280,76,64409,1,0,0:0:0:0:
312,60,64492,1,0,0:0:0:0:
344,52,64575,1,0,0:0:0:0:
376,52,64659,1,14,0:0:0:0:
352,136,64825,5,0,0:0:0:0:
412,212,64992,2,0,P|420:228|428:252,4,35,12|0|2|0|8,0:0|0:0|0:0|0:0|0:0,0:0:0:0:
428,336,65492,1,2,0:0:0:0:
428,336,65659,5,12,0:0:0:0:
180,380,65992,2,0,L|188:300,1,70,10|10,0:0|0:0,0:0:0:0:
33,90,66659,2,0,L|40:160,1,70,6|10,0:0|0:0,0:0:0:0:
143,87,66992,2,0,L|150:17,2,70,10|2|10,0:0|0:0|0:0,0:0:0:0:
143,87,67492,1,10,0:0:0:0:
369,87,67659,6,0,L|362:17,2,70,14|0|10,0:0|0:0|0:0,0:0:0:0:
369,87,68159,1,0,0:0:0:0:
456,56,68325,2,0,P|480:128|480:208,1,140,12|8,0:0|0:0,0:0:0:0:
400,208,68825,2,0,P|400:256|416:296,1,70,2|0,0:0|0:0,0:0:0:0:
484,311,69159,2,0,P|462:339|433:357,1,70,2|10,0:0|0:0,0:0:0:0:
351,338,69492,1,2,0:0:0:0:
351,338,69659,6,0,L|263:346,1,70,2|2,0:0|0:0,0:0:0:0:
211,296,69992,2,0,L|130:288,1,70,10|2,0:0|0:0,0:0:0:0:
56,281,70325,2,0,P|78:218|144:204,1,140,2|14,0:0|0:0,0:0:0:0:
57,60,70825,5,0,0:0:0:0:
57,60,70992,2,0,P|86:41|120:33,1,70,6|0,0:0|0:0,0:0:0:0:
149,113,71325,2,0,P|213:89|237:65,1,70,8|4,0:0|0:0,0:0:0:0:
279,34,71659,2,0,P|359:26|439:34,1,140,2|10,0:0|0:0,0:0:0:0:
474,93,72159,1,0,0:0:0:0:
440,256,72325,6,0,P|304:256|288:248,1,140,4|8,0:0|0:0,0:0:0:0:
216,288,72825,2,0,P|144:240|120:176,1,140,6|2,0:0|0:0,0:0:0:0:
40,144,73325,1,8,0:0:0:0:
48,104,73409,1,8,0:0:0:0:
72,72,73492,1,10,0:0:0:0:
104,48,73575,1,8,0:0:0:0:
144,40,73659,6,0,L|224:32,1,70,14|2,0:0|0:0,0:0:0:0:
336,24,73992,1,10,0:0:0:0:
500,156,74159,2,0,L|430:150,1,70,2|12,0:0|0:0,0:0:0:0:
320,140,74492,1,2,0:0:0:0:
424,272,74659,2,0,L|344:280,1,70,12|0,0:0|0:0,0:0:0:0:
243,362,74992,6,0,L|174:355,1,70,12|0,0:0|0:0,0:0:0:0:
96,268,75325,2,0,L|16:268,1,70,10|0,0:0|0:0,0:0:0:0:
96,116,75659,2,0,L|26:116,1,70,14|10,0:0|0:0,0:0:0:0:
243,22,75992,2,0,L|174:29,1,70,14|8,0:0|0:0,0:0:0:0:
352,56,76325,6,0,P|417:76|456:133,2,140,14|8|2,0:0|0:0|0:0,0:0:0:0:
179,114,77158,1,2,0:0:0:0:
351,167,77325,1,10,0:0:0:0:
243,22,77492,1,2,0:0:0:0:
248,206,77659,1,2,0:0:0:0:
352,56,77825,1,0,0:0:0:0:
248,206,77992,6,0,P|272:240|280:288,1,70,14|2,0:0|0:0,0:0:0:0:
141,178,78325,2,0,P|116:211|72:233,1,70,2|2,0:0|0:0,0:0:0:0:
138,64,78659,2,0,P|98:50|63:16,1,70,10|2,0:0|0:0,0:0:0:0:
319,68,78992,6,0,P|380:33|449:28,1,140,6|8,0:0|0:0,0:0:0:0:
429,195,79492,2,0,P|454:218|488:227,2,70,2|2|2,0:0|0:0|0:0,0:0:0:0:
328,304,79992,2,0,P|335:337|356:365,2,70,10|2|2,0:0|0:0|0:0,0:0:0:0:
159,304,80492,1,0,0:0:0:0:
68,162,80659,5,14,0:0:0:0:
166,28,80825,1,0,0:0:0:0:
68,59,80992,1,14,0:0:0:0:
166,194,81159,1,0,0:0:0:0:
68,162,81325,1,14,0:0:0:0:
226,111,81492,1,2,0:0:0:0:
388,69,81659,6,0,P|432:126|439:202,1,140,6|8,0:0|0:0,0:0:0:0:
328,201,82159,2,0,P|330:272|291:338,1,140,6|0,0:0|0:0,0:0:0:0:
187,324,82659,2,0,P|152:323|117:331,1,70,8|0,0:0|0:0,0:0:0:0:
328,201,82992,6,0,P|364:197|420:209,2,70,6|2|10,0:0|0:0|0:0,0:0:0:0:
215,213,83492,2,0,P|147:225|83:199,1,140,6|0,0:0|0:0,0:0:0:0:
49,40,83992,6,0,P|44:74|49:109,1,70,14|0,0:0|0:0,0:0:0:0:
217,124,84325,2,0,P|221:89|217:54,1,70,6|2,0:0|0:0,0:0:0:0:
127,190,84659,2,0,P|122:224|127:259,1,70,8|6,0:0|0:0,0:0:0:0:
295,274,84992,2,0,P|299:239|295:204,1,70,2|2,0:0|0:0,0:0:0:0:
128,328,85325,1,14,0:0:0:0:
128,328,85492,1,0,0:0:0:0:
128,328,85659,6,0,L|127:259,1,70,14|0,0:0|0:0,0:0:0:0:
295,344,85992,2,0,L|295:272,1,70,14|0,0:0|0:0,0:0:0:0:
472,344,86325,2,0,L|476:200,1,140,14|10,0:0|0:0,0:0:0:0:
324,132,86825,1,0,0:0:0:0:
461,34,86992,6,0,P|426:28|392:28,2,70,6|2|10,0:0|0:0|0:0,0:0:0:0:
280,24,87492,2,0,P|243:23|178:32,1,70,6|0,0:0|0:0,0:0:0:0:
98,39,87825,2,0,P|53:50|15:69,1,70,6|8,0:0|0:0,0:0:0:0:
104,198,88159,1,2,0:0:0:0:
104,198,88242,1,0,0:0:0:0:
104,198,88325,1,2,0:0:0:0:
31,324,88492,6,0,P|63:337|98:345,2,70,2|14|0,0:0|0:0|0:0,0:0:0:0:
210,358,88992,2,0,P|245:361|280:360,1,70,6|0,0:0|0:0,0:0:0:0:
392,355,89325,2,0,P|427:354|462:349,1,70,10|0,0:0|0:0,0:0:0:0:
500,100,89659,6,0,P|420:92|348:100,1,140,6|10,0:0|0:0,0:0:0:0:
236,88,90159,2,0,P|204:120|192:156,1,70,4|2,0:0|0:0,0:0:0:0:
80,196,90492,2,0,P|68:256|88:336,1,140,2|4,0:0|0:0,0:0:0:0:
85,331,90992,5,2,0:0:0:0:
240,92,91325,1,14,0:0:0:0:
240,92,91492,1,0,0:0:0:0:
240,92,91659,1,2,0:0:0:0:
436,316,91992,1,10,0:0:0:0:
436,316,92159,1,2,0:0:0:0:
270,334,92325,6,0,L|340:328,1,70,6|2,0:0|0:0,0:0:0:0:
404,204,92659,2,0,L|474:207,2,70,10|6|0,0:0|0:0|0:0,0:0:0:0:
268,164,93159,2,0,L|188:160,1,70,6|10,0:0|0:0,0:0:0:0:
200,20,93492,2,0,L|108:16,1,70,6|0,0:0|0:0,0:0:0:0:
49,118,93825,1,0,0:0:0:0:
49,118,93992,1,14,0:0:0:0:
392,203,94325,5,2,0:0:0:0:
392,203,94492,1,2,0:0:0:0:
460,271,94659,2,0,L|452:359,1,70,10|2,0:0|0:0,0:0:0:0:
144,336,94992,5,6,0:0:0:0:
88,256,95159,1,2,0:0:0:0:
144,176,95325,1,10,0:0:0:0:
88,96,95492,2,0,L|144:32,1,70,14|0,0:0|0:0,0:0:0:0:
258,24,95825,5,6,0:0:0:0:
415,83,95992,1,8,0:0:0:0:
415,83,96076,1,2,0:0:0:0:
415,83,96159,2,0,L|407:13,1,70,6|8,0:0|0:0,0:0:0:0:
500,215,96491,1,0,0:0:0:0:
500,215,96575,1,0,0:0:0:0:
500,215,96659,2,0,L|492:284,1,70,14|2,0:0|0:0,0:0:0:0:
306,348,96992,6,0,L|258:372,3,35,14|0|2|0,0:0|0:0|0:0|0:0,0:0:0:0:
234,372,97325,1,8,0:0:0:0:
194,380,97409,1,0,0:0:0:0:
154,380,97492,1,2,0:0:0:0:
114,372,97575,1,0,0:0:0:0:
74,372,97659,1,14,0:0:0:0:
256,192,97825,12,6,100325,0:0:0:0:
256,192,110992,5,10,0:0:0:0:
185,42,111325,5,8,0:0:0:0:
268,31,111492,2,0,P|332:27|369:34,2,70,2|10|0,0:0|0:0|0:0,0:0:0:0:
431,71,111992,2,0,P|439:37|433:2,1,70,10|0,0:0|0:0,0:0:0:0:
336,140,112325,2,0,P|328:173|334:208,1,70,8|0,0:0|0:0,0:0:0:0:
441,341,112659,6,0,P|371:345|301:341,1,140,10|10,0:0|0:0,0:0:0:0:
102,282,113159,1,0,0:0:0:0:
188,272,113326,1,10,0:0:0:0:
216,352,113492,1,0,0:0:0:0:
160,192,113659,6,0,L|129:108,1,70,10|0,0:0|0:0,0:0:0:0:
247,138,113992,2,0,L|216:54,1,70,10|2,0:0|0:0,0:0:0:0:
334,84,114325,2,0,L|303:0,2,70,8|2|10,0:0|0:0|0:0,0:0:0:0:
430,347,114992,5,8,0:0:0:0:
430,347,115159,1,0,0:0:0:0:
348,348,115325,2,0,P|304:340|272:320,1,70,10|0,0:0|0:0,0:0:0:0:
196,336,115659,2,0,P|165:303|150:268,1,70,10|0,0:0|0:0,0:0:0:0:
72,280,115992,2,0,P|55:239|58:187,1,70,10|0,0:0|0:0,0:0:0:0:
165,214,116325,5,14,0:0:0:0:
264,169,116492,1,2,0:0:0:0:
184,59,116659,1,10,0:0:0:0:
264,33,116825,1,2,0:0:0:0:
184,143,116992,1,10,0:0:0:0:
313,101,117159,1,2,0:0:0:0:
408,193,117325,2,0,L|495:197,2,70,10|0|8,0:0|0:0|0:0,0:0:0:0:
264,169,117825,5,2,0:0:0:0:
173,305,117992,1,10,0:0:0:0:
326,245,118158,1,2,0:0:0:0:
167,205,118325,1,10,0:0:0:0:
167,205,118492,1,2,0:0:0:0:
271,333,118659,1,10,0:0:0:0:
264,169,118825,1,2,0:0:0:0:
203,313,118992,6,0,L|271:333,1,70,12|2,0:0|0:0,0:0:0:0:
122,290,119325,1,8,0:0:0:0:
167,205,119492,2,0,L|249:209,1,70,2|8,0:0|0:0,0:0:0:0:
76,204,119825,1,2,0:0:0:0:
116,116,119992,2,0,L|205:114,1,70,10|0,0:0|0:0,0:0:0:0:
25,126,120325,5,12,0:0:0:0:
63,51,120492,1,2,0:0:0:0:
63,51,120575,1,2,0:0:0:0:
63,51,120659,1,10,0:0:0:0:
146,43,120825,1,0,0:0:0:0:
226,17,120992,1,14,0:0:0:0:
259,6,121075,1,0,0:0:0:0:
295,4,121159,1,0,0:0:0:0:
329,11,121242,1,0,0:0:0:0:
359,28,121325,1,8,0:0:0:0:
423,82,121492,1,0,0:0:0:0:
400,248,121659,6,0,P|366:239|332:248,1,70,12|0,0:0|0:0,0:0:0:0:
367,324,121992,2,0,P|346:352|316:368,1,70,8|2,0:0|0:0,0:0:0:0:
265,300,122325,2,0,P|230:296|201:278,1,70,10|2,0:0|0:0,0:0:0:0:
175,197,122659,2,0,P|140:194|108:207,1,70,10|0,0:0|0:0,0:0:0:0:
44,262,122992,6,0,P|25:197|59:137,1,140,8|10,0:0|0:0,0:0:0:0:
120,60,123492,2,0,P|154:66|189:71,1,70,0|10,0:0|0:0,0:0:0:0:
355,58,123825,2,0,P|320:52|285:46,2,70,0|10|0,0:0|0:0|0:0,0:0:0:0:
435,33,124325,5,10,0:0:0:0:
416,116,124492,1,2,0:0:0:0:
355,58,124659,1,10,0:0:0:0:
477,174,124825,1,2,0:0:0:0:
416,116,124992,2,0,P|392:172|396:200,1,70,8|0,0:0|0:0,0:0:0:0:
438,250,125325,2,0,P|371:258|316:217,1,140,10|10,0:0|0:0,0:0:0:0:
240,252,125825,5,0,0:0:0:0:
156,264,125992,2,0,P|96:268|60:256,1,70,10|0,0:0|0:0,0:0:0:0:
104,184,126325,2,0,P|58:144|41:110,1,70,10|0,0:0|0:0,0:0:0:0:
128,96,126659,2,0,P|124:36|136:0,1,70,10|0,0:0|0:0,0:0:0:0:
386,26,126992,5,14,0:0:0:0:
386,26,127159,1,2,0:0:0:0:
416,133,127325,1,10,0:0:0:0:
416,133,127492,1,2,0:0:0:0:
368,228,127659,2,0,P|348:264|300:296,1,70,10|2,0:0|0:0,0:0:0:0:
242,270,127992,2,0,P|199:323|132:330,1,140,10|8,0:0|0:0,0:0:0:0:
161,252,128492,6,0,P|149:220|125:195,1,70,2|10,0:0|0:0,0:0:0:0:
72,127,128825,1,2,0:0:0:0:
71,127,128992,2,0,P|48:152|37:185,1,70,10|2,0:0|0:0,0:0:0:0:
78,266,129325,2,0,P|66:298|44:325,1,70,10|0,0:0|0:0,0:0:0:0:
43,325,129659,5,14,0:0:0:0:
184,144,129992,1,8,0:0:0:0:
184,144,130159,1,2,0:0:0:0:
184,144,130325,1,8,0:0:0:0:
400,192,130659,1,10,0:0:0:0:
400,192,130825,1,0,0:0:0:0:
449,124,130992,5,14,0:0:0:0:
400,56,131159,1,0,0:0:0:0:
400,56,131242,1,0,0:0:0:0:
400,56,131325,1,10,0:0:0:0:
320,82,131492,1,0,0:0:0:0:
320,166,131659,1,14,0:0:0:0:
320,166,131742,1,0,0:2:0:0:
320,166,131826,1,0,0:2:0:0:
320,166,131909,1,0,0:0:0:0:
320,166,131992,1,2,0:2:0:0:
400,192,132159,1,0,0:2:0:0:
392,288,132325,5,6,0:0:0:0:
304,336,132492,1,2,0:0:0:0:
216,288,132659,1,2,0:0:0:0:
208,192,132825,1,2,0:0:0:0:
120,144,132992,1,2,0:0:0:0:
32,192,133159,1,2,0:0:0:0:
16,288,133325,6,0,P|42:304|100:303,1,70,2|0,0:0|0:0,0:0:0:0:
216,288,133659,2,0,L|384:304,2,140,4|10|0,0:0|0:0|0:0,0:0:0:0:
216,288,134492,1,0,0:0:0:0:
176,200,134659,2,0,P|160:168|120:136,1,70,10|0,0:0|0:0,0:0:0:0:
120,280,134992,2,0,P|95:306|80:355,1,70,2|0,0:0|0:0,0:0:0:0:
216,288,135325,6,0,P|251:290|299:271,1,70,10|0,0:0|0:0,0:0:0:0:
255,119,135659,2,0,P|263:153|296:193,1,70,2|0,0:0|0:0,0:0:0:0:
428,105,135992,2,0,P|397:124|370:167,1,70,10|0,0:0|0:0,0:0:0:0:
216,288,136325,5,2,0:0:0:0:
216,288,136659,2,0,P|251:290|299:271,1,70,10|0,0:0|0:0,0:0:0:0:
363,378,136993,2,0,P|376:344|373:293,1,70,2|0,0:0|0:0,0:0:0:0:
494,265,137325,2,0,P|466:242|416:229,1,70,10|0,0:0|0:0,0:0:0:0:
377,310,137659,5,2,0:0:0:0:
434,230,137825,1,0,0:0:0:0:
377,151,137992,1,10,0:0:0:0:
283,181,138159,1,2,0:0:0:0:
284,280,138325,5,2,0:0:0:0:
434,230,138492,1,10,0:0:0:0:
283,181,138659,1,8,0:0:0:0:
377,310,138825,1,8,0:0:0:0:
377,151,138992,6,0,P|376:100|364:68,1,70,6|0,0:0|0:0,0:0:0:0:
276,56,139325,2,0,P|231:31|197:25,1,70,10|2,0:0|0:0,0:0:0:0:
128,76,139659,2,0,P|84:102|62:128,1,70,2|0,0:0|0:0,0:0:0:0:
88,212,139992,2,0,P|88:264|136:344,1,140,10|2,0:0|0:0,0:0:0:0:
240,356,140492,5,0,0:0:0:0:
352,352,140659,2,0,L|380:272,1,70,10|0,0:0|0:0,0:0:0:0:
296,204,140992,2,0,L|308:112,1,70,2|0,0:0|0:0,0:0:0:0:
196,110,141325,2,0,L|168:42,1,70,10|0,0:0|0:0,0:0:0:0:
84,180,141659,5,2,0:0:0:0:
22,103,141825,1,2,0:0:0:0:
75,21,141992,1,10,0:0:0:0:
170,46,142158,1,2,0:0:0:0:
173,145,142325,1,2,0:0:0:0:
84,180,142492,1,2,0:0:0:0:
170,46,142659,1,10,0:0:0:0:
170,46,142742,1,0,0:0:0:0:
170,46,142825,1,0,0:0:0:0:
315,98,142992,6,0,L|411:106,1,70,2|0,0:0|0:0,0:0:0:0:
473,229,143325,2,0,L|403:234,1,70,10|2,0:0|0:0,0:0:0:0:
302,351,143659,2,0,L|238:347,3,35,10|0|2|0,0:0|0:0|0:0|0:0,0:0:0:0:
224,346,143992,2,0,L|172:350,3,35,10|0|10|0,0:0|0:0|0:0|0:0,0:0:0:0:
151,340,144325,6,0,L|3:340,2,140,6|10|2,0:0|0:0|0:0,0:0:0:0:
228,280,145159,1,2,0:0:0:0:
138,242,145325,2,0,P|142:194|174:154,1,70,10|0,0:0|0:0,0:0:0:0:
231,116,145659,2,0,P|247:161|235:210,1,70,2|2,0:0|0:0,0:0:0:0:
227,279,145992,6,0,P|295:265|340:213,1,140,10|2,0:0|0:0,0:0:0:0:
360,116,146492,2,0,P|396:136|416:164,2,70,0|10|0,0:0|0:0|0:0,0:0:0:0:
276,60,146992,2,0,P|306:31|338:21,1,70,2|0,0:0|0:0,0:0:0:0:
176,84,147326,2,0,P|158:46|158:12,1,70,10|2,0:0|0:0,0:0:0:0:
168,188,147659,2,0,P|127:192|88:180,1,70,2|2,0:0|0:0,0:0:0:0:
40,108,147992,5,10,0:0:0:0:
0,196,148159,1,2,0:0:0:0:
20,292,148325,1,2,0:0:0:0:
100,348,148492,1,0,0:0:0:0:
200,348,148659,5,10,0:0:0:0:
239,266,148825,1,0,0:0:0:0:
328,244,148992,1,10,0:0:0:0:
200,348,149159,1,2,0:0:0:0:
328,244,149325,1,10,0:0:0:0:
168,188,149492,1,10,0:0:0:0:
328,244,149659,6,0,P|391:270|459:257,1,140,6|8,0:0|0:0,0:0:0:0:
303,147,150159,2,0,P|271:162|246:186,2,70,4|0|0,0:0|0:0|0:0,0:0:0:0:
403,148,150659,2,0,P|398:113|380:83,1,70,10|0,0:0|0:0,0:0:0:0:
241,32,150992,6,0,P|172:38|124:87,1,140,4|8,0:0|0:0,0:0:0:0:
247,186,151492,2,0,P|237:152|214:127,2,70,6|0|0,0:0|0:0|0:0,0:0:0:0:
125,264,151992,2,0,P|124:229|140:198,1,70,8|8,0:0|0:0,0:0:0:0:
42,338,152325,6,0,P|105:366|174:365,1,140,4|8,0:0|0:0,0:0:0:0:
240,292,152825,2,0,P|309:290|372:319,1,140,14|0,0:0|0:0,0:0:0:0:
468,348,153325,2,0,P|480:316|480:268,1,70,14|0,0:0|0:0,0:0:0:0:
416,208,153659,2,0,P|408:188|408:156,2,35,12|0|8,0:0|0:0|0:0,0:0:0:0:
479,90,153992,5,6,0:0:0:0:
391,44,154159,1,0,0:0:0:0:
296,20,154325,2,0,P|228:12|124:28,1,140,6|6,0:0|0:0,0:0:0:0:
157,19,154825,1,0,0:0:0:0:
137,177,154992,5,14,0:0:0:0:
60,37,155159,1,2,0:0:0:0:
204,104,155325,1,10,0:0:0:0:
49,136,155492,1,10,0:0:0:0:
49,136,155992,5,14,0:0:0:0:
157,19,156158,1,2,0:0:0:0:
320,12,156325,1,10,0:0:0:0:
444,116,156492,1,10,0:0:0:0:
444,116,156825,5,2,0:0:0:0:
444,116,156992,2,0,L|348:112,1,70,14|0,0:0|0:0,0:0:0:0:
313,36,157325,2,0,L|217:32,1,70,14|0,0:0|0:0,0:0:0:0:
105,119,157659,6,0,P|177:124|269:148,1,140,14|14,0:0|0:0,0:0:0:0:
178,212,158159,2,0,P|216:235|240:268,1,70
207,349,158492,1,6,0:0:0:0:
207,349,158659,1,10,0:0:0:0:
302,326,158825,6,0,P|367:335|440:323,1,140,4|2,0:0|0:0,0:0:0:0:
402,232,159325,2,0,P|435:224|479:194,1,70,10|2,0:0|0:0,0:0:0:0:
443,110,159659,1,2,0:0:0:0:
443,110,159992,5,10,0:0:0:0:
344,110,160159,1,0,0:0:0:0:
284,32,160325,2,0,P|228:24|124:36,1,140,4|10,0:0|0:0,0:0:0:0:
47,43,160825,2,0,P|58:77|80:104,1,70,2|0,0:0|0:0,0:0:0:0:
180,110,161159,2,0,P|172:144|152:173,2,70,2|8|2,0:0|0:0|0:0,0:0:0:0:
236,191,161659,5,2,0:0:0:0:
331,160,161826,1,2,0:0:0:0:
331,62,161993,1,10,0:0:0:0:
240,35,162159,1,2,0:0:0:0:
180,111,162325,1,2,0:0:0:0:
80,104,162492,1,0,0:0:0:0:
80,104,162659,1,14,0:0:0:0:
236,191,162825,1,0,0:0:0:0:
413,46,162992,6,0,P|458:98|461:167,1,140,6|10,0:0|0:0,0:0:0:0:
448,280,163492,1,2,0:0:0:0:
292,360,163659,1,6,0:0:0:0:
292,360,163825,2,0,P|253:365|206:348,1,70,2|10,0:0|0:0,0:0:0:0:
116,248,164159,1,2,0:0:0:0:
116,248,164325,6,2,P|78:237|40:204,1,70,6|2,0:0|0:0,0:0:0:0:
136,64,164659,1,14,0:0:0:0:
136,64,164825,1,2,0:0:0:0:
312,60,164992,2,0,P|328:60|348:56,3,35,12|0|2|0,0:0|0:0|0:0|0:0,0:0:0:0:
388,32,165325,2,0,P|416:24|448:20,3,35,8|0|2|0,0:0|0:0|0:0|0:0,0:0:0:0:
472,20,165659,5,14,0:0:0:0:
156,16,165992,1,14,0:0:0:0:
156,16,166159,1,2,0:0:0:0:
104,280,166659,1,14,0:0:0:0:
104,280,166825,1,2,0:0:0:0:
104,280,166992,1,8,0:0:0:0:
256,356,167159,1,6,0:0:0:0:
256,356,167325,1,8,0:0:0:0:
428,320,167492,1,2,0:0:0:0:
428,320,167659,6,0,P|400:280|392:240,1,70,14|0,0:0|0:0,0:0:0:0:
451,163,167992,2,0,P|473:191|485:223,1,70,14|0,0:0|0:0,0:0:0:0:
470,66,168325,2,0,P|403:78|358:130,1,140,6|10,0:0|0:0,0:0:0:0:
256,116,168825,1,2,0:0:0:0:
300,204,168992,2,0,P|288:244|300:292,2,70,0|2|10,0:0|0:0|0:0,0:0:0:0:
316,40,169492,5,2,0:0:0:0:
316,40,169659,2,0,P|247:28|182:51,1,140,6|10,0:0|0:0,0:0:0:0:
112,120,170159,2,0,P|91:92|84:58,2,70,0|2|0,0:0|0:0|0:0,0:0:0:0:
112,120,170659,5,12,0:0:0:0:
73,210,170825,1,0,0:0:0:0:
147,274,170992,1,6,0:0:0:0:
231,224,171159,1,2,0:0:0:0:
209,128,171325,1,10,0:0:0:0:
293,78,171492,2,0,P|392:100|448:144,1,140,6|0,0:0|0:0,0:0:0:0:
364,216,171992,2,0,P|388:252|396:312,1,70,10|0,0:0|0:0,0:0:0:0:
284,300,172325,5,6,0:0:0:0:
206,382,172492,1,2,0:0:0:0:
105,335,172659,1,10,0:0:0:0:
118,224,172825,1,6,0:0:0:0:
228,202,172992,2,0,P|288:144|316:136,1,70,10|8,0:0|0:0,0:0:0:0:
375,103,173325,2,0,P|355:73|328:52,1,70,8|8,0:0|0:0,0:0:0:0:
136,36,173659,5,6,0:0:0:0:
18,81,173825,1,2,0:0:0:0:
18,81,173909,1,0,0:0:0:0:
18,81,173992,1,2,0:0:0:0:
28,208,174158,1,10,0:0:0:0:
150,238,174325,1,6,0:0:0:0:
216,131,174492,1,2,0:0:0:0:
216,131,174575,1,2,0:0:0:0:
216,131,174659,1,8,0:0:0:0:
136,36,174825,1,8,0:0:0:0:
316,34,174992,6,0,P|360:4|384:4,1,70,6|8,0:0|0:0,0:0:0:0:
440,100,175325,2,0,P|482:132|489:155,1,70,14|8,0:0|0:0,0:0:0:0:
417,238,175659,2,0,P|399:288|379:302,1,70,14|8,0:0|0:0,0:0:0:0:
277,257,175992,2,0,P|223:255|204:241,1,70,14|8,0:0|0:0,0:0:0:0:
51,135,176325,6,0,P|133:107|216:131,2,175,6|10|2,0:0|0:0|0:0,0:0:0:0:
136,200,177159,1,0,0:0:0:0:
216,132,177325,2,0,L|312:48,1,87.5,10|0,0:0|0:0,0:0:0:0:
366,135,177659,2,0,P|417:71|364:9,1,175,2|14,0:0|0:0,0:0:0:0:
366,135,178159,5,2,0:0:0:0:
216,131,178325,2,0,P|219:175|246:209,1,87.5,2|2,0:0|0:0,0:0:0:0:
123,24,178659,2,0,P|91:54|80:95,1,87.5,10|2,0:0|0:0,0:0:0:0:
431,95,178992,2,0,P|420:54|388:24,1,87.5,6|0,0:0|0:0,0:0:0:0:
499,162,179325,2,0,P|467:192|424:197,1,87.5,10|0,0:0|0:0,0:0:0:0:
336,142,179659,2,0,P|335:228|387:296,2,175,2|10|2,0:0|0:0|0:0,0:0:0:0:
500,80,180492,1,2,0:0:0:0:
500,80,180659,6,0,L|408:100,1,87.5,14|0,0:0|0:0,0:0:0:0:
316,60,180992,2,0,L|240:120,1,87.5,6|0,0:0|0:0,0:0:0:0:
142,114,181325,1,10,0:0:0:0:
142,114,181409,1,0,0:0:0:0:
142,114,181492,1,2,0:0:0:0:
142,114,181575,1,0,0:0:0:0:
142,114,181659,6,0,P|106:194|146:270,1,175,6|10,0:0|0:0,0:0:0:0:
232,216,182159,2,0,P|268:296|228:372,1,175,6|0,0:0|0:0,0:0:0:0:
232,216,182659,2,0,P|268:192|344:184,1,87.5,10|0,0:0|0:0,0:0:0:0:
480,324,182992,5,6,0:0:0:0:
464,220,183159,2,0,L|452:124,1,87.5,2|14,0:0|0:0,0:0:0:0:
340,24,183492,2,0,L|320:136,2,87.5,2|6|0,0:0|0:0|0:0,0:0:0:0:
184,4,183992,1,14,0:0:0:0:
184,4,184159,1,2,0:0:0:0:
28,24,184325,6,0,L|32:212,1,175,6|10,0:0|0:0,0:0:0:0:
184,236,184825,2,0,L|184:140,2,87.5,2|6|0,0:0|0:0|0:0,0:0:0:0:
184,376,185325,1,10,0:0:0:0:
184,376,185492,1,2,0:0:0:0:
184,376,185659,6,0,L|308:368,1,87.5,14|0,0:0|0:0,0:0:0:0:
424,280,185992,2,0,L|511:274,1,87.5,14|0,0:0|0:0,0:0:0:0:
507,129,186325,2,0,L|420:124,1,87.5,14|0,0:0|0:0,0:0:0:0:
267,33,186659,2,0,L|180:28,1,87.5,14|0,0:0|0:0,0:0:0:0:
35,181,186992,5,6,0:0:0:0:
89,271,187159,1,2,0:0:0:0:
89,271,187325,1,10,0:0:0:0:
143,180,187492,2,0,L|243:196,1,87.5,6|0,0:0|0:0,0:0:0:0:
237,298,187825,2,0,L|421:290,1,175,6|8,0:0|0:0,0:0:0:0:
507,245,188325,6,0,P|483:209|444:190,1,87.5,2|0,0:0|0:0,0:0:0:0:
339,181,188659,2,0,P|349:138|379:108,1,87.5,14|0,0:0|0:0,0:0:0:0:
483,93,188992,2,0,P|429:26|346:8,1,175,14|10,0:0|0:0,0:0:0:0:
208,27,189492,1,2,0:0:0:0:
208,27,189659,6,0,L|84:19,2,87.5,6|0|10,0:0|0:0|0:0,0:0:0:0:
326,135,190159,2,0,L|201:136,1,87.5,14|0,0:0|0:0,0:0:0:0:
436,188,190492,2,0,P|468:268|432:352,1,175,14|10,0:0|0:0,0:0:0:0:
332,344,190992,5,6,0:0:0:0:
332,344,191325,2,0,L|208:340,1,87.5,12|0,0:0|0:0,0:0:0:0:
140,336,191659,1,2,0:0:0:0:
80,228,191825,1,2,0:0:0:0:
112,92,191992,1,10,0:0:0:0:
256,28,192159,1,2,0:0:0:0:
432,20,192325,5,6,0:0:0:0:
336,120,192492,1,0,0:0:0:0:
336,120,192575,1,0,0:0:0:0:
336,120,192659,2,0,L|348:224,2,87.5,10|6|0,0:0|0:0|0:0,0:0:0:0:
221,39,193159,1,2,0:0:0:0:
221,39,193325,1,8,0:0:0:0:
104,120,193492,5,12,0:0:0:0:
94,154,193575,1,0,0:0:0:0:
96,191,193659,1,2,0:0:0:0:
194,227,193825,1,0,0:0:0:0:
194,263,193909,1,0,0:0:0:0:
202,295,193992,1,12,0:0:0:0:
306,295,194159,1,0,0:0:0:0:
314,263,194242,1,0,0:0:0:0:
314,227,194326,1,8,0:0:0:0:
416,191,194492,1,0,0:0:0:0:
418,154,194576,1,0,0:0:0:0:
408,120,194659,1,8,0:0:0:0:
408,120,194825,1,0,0:0:0:0:
334,21,194992,5,14,0:0:0:0:
211,9,195159,1,2,0:0:0:0:
93,42,195325,1,10,0:0:0:0:
53,158,195492,1,14,0:0:0:0:
53,158,195575,1,0,0:0:0:0:
53,158,195659,2,0,L|73:286,1,87.5,0|2,0:0|0:0,0:0:0:0:
80,348,195992,1,8,0:0:0:0:
328,384,196159,5,4,0:0:0:0:
344,280,196325,2,0,L|357:193,1,87.5,2|0,0:0|0:0,0:0:0:0:
192,211,196659,2,0,L|179:125,1,87.5,14|2,0:0|0:0,0:0:0:0:
452,188,196992,2,0,L|465:101,1,87.5,10|0,0:0|0:0,0:0:0:0:
272,62,197325,1,14,0:0:0:0:
228,50,197409,1,0,0:0:0:0:
184,50,197492,1,0,0:0:0:0:
144,66,197575,1,0,0:0:0:0:
112,94,197659,6,0,P|60:158|32:278,1,175,14|8,0:0|0:0,0:0:0:0:
264,370,198159,2,0,P|316:306|344:186,1,175,14|0,0:0|0:0,0:0:0:0:
413,140,198659,1,10,0:0:0:0:
394,37,198825,6,0,P|437:27|480:36,2,87.5,14|0|0,0:0|0:0|0:0,0:0:0:0:
223,94,199325,2,0,P|240:54|272:24,1,87.5,14|2,0:0|0:0,0:0:0:0:
302,183,199658,2,0,P|284:224|253:254,1,87.5,14|2,0:0|0:0,0:0:0:0:
198,344,199992,2,0,P|166:314|149:274,1,87.5,14|2,0:0|0:0,0:0:0:0:
420,144,200325,5,14,0:0:0:0:
420,144,200659,2,0,L|432:230,1,87.5,10|6,0:0|0:0,0:0:0:0:
268,340,200992,2,0,L|255:253,1,87.5,2|0,0:0|0:0,0:0:0:0:
84,292,201325,2,0,L|71:205,1,87.5,10|0,0:0|0:0,0:0:0:0:
140,44,201659,1,2,0:0:0:0:
140,44,201742,1,0,0:0:0:0:
140,44,201825,1,0,0:0:0:0:
312,8,201992,5,14,0:0:0:0:
312,8,202075,1,0,0:0:0:0:
312,8,202159,1,0,0:0:0:0:
312,8,202242,1,0,0:0:0:0:
312,8,202325,2,0,P|384:20|416:44,1,87.5,2|0,0:0|0:0,0:0:0:0:
461,130,202659,2,0,P|420:146|377:148,1,87.5,14|0,0:0|0:0,0:0:0:0:
192,76,202992,6,0,P|100:96|40:168,1,175,14|8,0:0|0:0,0:0:0:0:
164,188,203492,2,0,P|148:280|192:363,1,175,6|0,0:0|0:0,0:0:0:0:
296,312,203992,2,0,P|344:336|400:340,1,87.5,8|0,0:0|0:0,0:0:0:0:
460,248,204325,5,6,0:0:0:0:
460,124,204492,1,2,0:0:0:0:
372,36,204659,1,10,0:0:0:0:
252,24,204825,2,0,L|128:40,1,87.5,6|2,0:0|0:0,0:0:0:0:
112,144,205159,1,2,0:0:0:0:
112,144,205242,1,0,0:0:0:0:
112,144,205325,2,0,L|232:160,1,87.5,14|0,0:0|0:0,0:0:0:0:
406,182,205659,6,0,L|320:172,2,87.5,6|0|10,0:0|0:0|0:0,0:0:0:0:
506,68,206159,2,0,L|419:83,2,87.5,6|2|0,0:0|0:0|0:0,0:0:0:0:
296,28,206659,2,0,L|209:43,1,87.5,14|0,0:0|0:0,0:0:0:0:
56,184,206992,1,14,0:0:0:0:
108,92,207159,1,2,0:0:0:0:
240,256,207325,1,14,0:0:0:0:
224,152,207492,1,0,0:0:0:0:
356,316,207659,1,14,0:0:0:0:
388,200,207825,1,8,0:0:0:0:
420,84,207992,1,10,0:0:0:0:
356,316,208325,6,0,P|396:332|440:328,2,87.5,6|2|14,0:0|0:0|0:0,0:0:0:0:
269,225,208825,2,0,P|240:258|232:301,1,87.5,2|0,0:0|0:0,0:0:0:0:
388,200,209159,2,0,P|376:152|336:116,1,87.5,6|8,0:0|0:0,0:0:0:0:
102,59,209492,2,0,P|111:102|139:135,2,87.5,6|2|0,0:0|0:0|0:0,0:0:0:0:
257,30,209992,1,14,0:0:0:0:
138,134,210159,1,0,0:0:0:0:
132,292,210325,2,0,P|175:293|214:274,1,87.5,6|2,0:0|0:0,0:0:0:0:
293,128,210659,2,0,P|368:220|368:296,1,175,10|6,0:0|0:0,0:0:0:0:
372,273,211325,5,10,0:0:0:0:
476,288,211492,2,0,L|488:176,1,87.5,6|0,0:0|0:0,0:0:0:0:
427,113,211825,2,0,L|428:23,2,87.5,6|10|4,0:0|0:0|0:0,0:0:0:0:
427,113,212325,1,2,0:0:0:0:
85,113,212659,6,0,L|84:23,1,87.5,14|2,0:0|0:0,0:0:0:0:
85,113,212992,1,2,0:0:0:0:
26,201,213159,2,0,L|36:289,2,87.5,2|10|2,0:0|0:0|0:0,0:0:0:0:
222,221,213659,5,6,0:0:0:0:
230,81,213825,1,2,0:0:0:0:
348,5,213992,1,8,0:0:0:0:
482,46,214159,2,0,P|494:106|474:146,1,87.5,6|0,0:0|0:0,0:0:0:0:
360,232,214492,2,0,P|349:189|362:148,1,87.5,10|8,0:0|0:0,0:0:0:0:
436,303,214825,6,0,P|402:330|359:336,1,87.5,4|2,0:0|0:0,0:0:0:0:
269,283,215159,1,0,0:0:0:0:
269,283,215325,1,14,0:0:0:0:
178,334,215492,1,0,0:0:0:0:
99,197,215659,1,2,0:0:0:0:
99,197,215742,1,0,0:0:0:0:
99,197,215825,1,0,0:0:0:0:
152,48,215992,1,10,0:0:0:0:
324,28,216159,1,0,0:0:0:0:
324,28,216242,1,0,0:0:0:0:
324,28,216325,6,0,L|452:16,1,87.5,6|0,0:0|0:0,0:0:0:0:
383,194,216659,2,0,L|471:186,2,87.5,10|6|0,0:0|0:0|0:0,0:0:0:0:
332,360,217159,1,6,0:0:0:0:
332,360,217325,1,10,0:0:0:0:
228,356,217492,6,0,L|116:352,1,87.5,6|2,0:0|0:0,0:0:0:0:
24,224,217825,1,10,0:0:0:0:
128,220,217992,2,0,L|232:216,1,87.5,14|2,0:0|0:0,0:0:0:0:
64,72,218325,1,12,0:0:0:0:
168,64,218492,1,8,0:0:0:0:
272,56,218659,2,0,L|388:48,1,87.5,12|0,0:0|0:0,0:0:0:0:
472,200,218992,5,6,0:0:0:0:
372,324,219159,1,2,0:0:0:0:
216,340,219325,1,14,0:0:0:0:
104,228,219492,2,0,P|92:180|100:108,1,87.5,2|0,0:0|0:0,0:0:0:0:
200,16,219825,2,0,P|212:64|204:136,1,87.5,6|8,0:0|0:0,0:0:0:0:
104,227,220159,6,0,P|137:305|216:340,1,175,6|0,0:0|0:0,0:0:0:0:
461,214,220659,2,0,P|427:135|349:101,1,175,14|2,0:0|0:0,0:0:0:0:
212,102,221159,2,0,L|107:106,2,87.5,0|10|0,0:0|0:0|0:0,0:0:0:0:
403,153,221659,5,6,0:0:0:0:
403,153,221825,1,2,0:0:0:0:
218,224,221992,1,14,0:0:0:0:
326,57,222159,1,2,0:0:0:0:
326,57,222325,1,0,0:0:0:0:
337,256,222492,1,6,0:0:0:0:
337,256,222659,1,10,0:0:0:0:
212,102,222825,6,0,P|197:61|200:17,2,87.5,4|8|0,0:0|0:0|0:0,0:0:0:0:
325,57,223325,2,0,P|359:29|401:19,1,87.5,14|0,0:0|0:0,0:0:0:0:
402,152,223659,2,0,P|438:177|461:214,1,87.5,14|0,0:0|0:0,0:0:0:0:
337,255,223992,2,0,P|324:297|296:330,1,87.5,14|8,0:0|0:0,0:0:0:0:
218,223,224325,2,0,P|174:225|134:208,2,87.5,12|0|0,0:0|0:0|0:0,0:0:0:0:
256,192,224825,12,10,229492,0:0:0:0:
