osu file format v14

[General]
AudioFilename: audio.mp3
AudioLeadIn: 0
PreviewTime: 0
Countdown: 0
SampleSet: Soft
StackLeniency: 0.5
Mode: 0
LetterboxInBreaks: 0
WidescreenStoryboard: 0

[Editor]
DistanceSpacing: 1.4
BeatDivisor: 4
GridSize: 4
TimelineZoom: 1.9

[Metadata]
Title:Sakura no Uta
TitleUnicode:櫻ノ詩
Artist:Hana
ArtistUnicode:はな
Creator:Ultimate Madoka
Version:IV.Hard
Source:サクラノ詩 -櫻の森の上を舞う-
Tags:sakura no uta - sakura no mori no ue o mau - metrowing makura 枕 eroge galgame
BeatmapID:997925
BeatmapSetID:440068

[Difficulty]
HPDrainRate:5
CircleSize:4
OverallDifficulty:6
ApproachRate:8
SliderMultiplier:1.2
SliderTickRate:1

[Events]
//Background and Video events
0,0,"4.jpg",0,0
//Break Periods
2,11192,32575
2,100525,110242
//Storyboard Layer 0 (Background)
//Storyboard Layer 1 (Fail)
//Storyboard Layer 2 (Pass)
//Storyboard Layer 3 (Foreground)
//Storyboard Sound Samples

[TimingPoints]
326,333.333333333333,4,2,1,40,1,0
1325,-200,4,2,1,40,0,0
2159,-100,4,2,1,40,0,0
2992,-200,4,2,1,40,0,0
4659,-100,4,2,1,40,0,0
9492,-100,4,2,1,20,0,0
9659,-100,4,2,1,55,0,0
33325,-100,4,2,2,40,0,0
33659,-100,4,2,1,40,0,0
33992,-100,4,2,2,40,0,0
38992,-100,4,2,1,40,0,0
39159,-100,4,2,2,40,0,0
44325,-100,4,2,1,40,0,0
44659,-100,4,2,2,40,0,0
49659,-100,4,2,1,40,0,0
49992,-100,4,2,2,40,0,0
50159,-100,4,2,1,40,0,0
50659,-100,4,2,2,40,0,0
50992,-100,4,2,1,40,0,0
51325,-100,4,2,2,40,0,0
51492,-100,4,2,1,40,0,0
53992,-100,4,2,1,45,0,0
76325,-100,4,2,3,60,0,1
97159,-100,4,2,3,45,0,1
97492,-100,4,2,3,55,0,0
100325,-100,4,2,1,50,0,0
110992,-100,4,2,1,55,0,0
133825,-100,4,2,2,40,0,0
137991,-100,4,2,1,40,0,0
139158,-100,4,2,2,40,0,0
143658,-100,4,2,1,40,0,0
144491,-100,4,2,2,40,0,0
148991,-100,4,2,1,40,0,0
149658,-100,4,2,1,40,0,0
149992,-100,4,2,2,40,0,0
150158,-100,4,2,1,40,0,0
150325,-100,4,2,2,40,0,0
150991,-100,4,2,1,40,0,0
151325,-100,4,2,2,40,0,0
151491,-100,4,2,1,40,0,0
151825,-100,4,2,2,40,0,0
151991,-100,4,2,1,40,0,0
152325,-100,4,2,1,55,0,0
173158,-100,4,2,1,35,0,0
173658,-100,4,2,1,55,0,0
176325,-80,4,2,3,60,0,1
192325,-80,4,2,3,65,0,1
208325,-80,4,2,3,70,0,1
218992,-80,4,2,3,75,0,1
221659,-80,4,2,3,80,0,1
224325,-80,4,2,3,90,0,1
224659,-80,4,2,3,90,0,0
229491,-80,4,2,1,30,0,0

[Colours]
Combo1 : 255,0,128
Combo2 : 255,193,224
Combo3 : 255,89,255

[HitObjects]
120,80,326,5,2,0:0:0:0:
372,84,825,2,0,L|432:72,2,60,2|2|2,0:0|0:0|0:0,0:0:0:0:
286,61,1325,2,0,P|295:119|334:163,1,120,2|2,0:0|0:0,0:0:0:0:
247,308,2325,1,2,0:0:0:0:
84,316,2659,1,2,0:0:0:0:
84,316,2992,6,0,L|64:256,1,60,2|0,0:0|0:0,0:0:0:0:
152,240,3492,2,0,L|132:180,1,60,2|0,0:0|0:0,0:0:0:0:
220,164,3992,2,0,L|180:48,1,120,2|2,0:0|0:0,0:0:0:0:
268,28,4825,5,0,0:0:0:0:
352,32,4992,2,0,P|384:32|432:56,1,60,2|0,0:0|0:0,0:0:0:0:
396,128,5325,2,0,P|421:147|444:196,1,60,2|0,0:0|0:0,0:0:0:0:
423,268,5659,2,0,P|354:323|266:329,1,180,2|0,0:0|0:0,0:0:0:0:
183,322,6325,2,0,P|124:327|69:351,1,120,2|2,0:0|0:0,0:0:0:0:
69,352,7159,5,0,0:0:0:0:
32,276,7325,2,0,P|24:232|28:196,1,60,2|2,0:0|0:0,0:0:0:0:
100,148,7659,2,0,P|107:178|107:208,1,60,2|0,0:0|0:0,0:0:0:0:
184,248,7992,2,0,P|244:252|316:236,1,120,2|2,0:0|0:0,0:0:0:0:
364,84,8659,5,0,0:0:0:0:
284,64,8825,2,0,P|225:52|165:56,1,120,2|0,0:0|0:0,0:0:0:0:
84,72,9325,1,2,0:0:0:0:
40,144,9492,1,8,0:0:0:0:
124,148,9659,6,0,P|107:203|53:227,1,120,10|10,0:0|0:0,0:0:0:0:
53,227,10159,1,2,0:0:0:0:
36,308,10325,2,0,P|112:333|157:299,1,120,10|10,0:0|0:0,0:0:0:0:
220,296,10825,1,2,0:0:0:0:
220,296,10992,1,12,0:0:0:0:
110,88,33325,5,2,0:0:0:0:
110,87,33659,2,0,P|160:56|219:60,1,120,4|4,0:0|0:0,0:0:0:0:
180,136,34159,1,0,0:0:0:0:
264,136,34325,2,0,P|271:164|266:193,1,60,6|0,0:0|0:0,0:0:0:0:
184,220,34659,2,0,P|176:248|181:277,2,60,6|0|6,0:0|0:0|0:0,0:0:0:0:
324,328,35325,5,6,0:0:0:0:
464,232,35659,2,0,P|492:268|500:292,2,60,6|0|6,0:0|0:0|0:0,0:0:0:0:
401,171,36159,1,0,0:0:0:0:
338,115,36325,2,0,P|392:92|450:103,2,120,6|6|6,0:0|0:0|0:0,0:0:0:0:
276,172,37159,1,0,0:0:0:0:
213,228,37325,2,0,P|173:252|97:236,1,120,6|4,0:0|0:0,0:0:0:0:
103,240,37992,6,0,L|25:268,1,60,6|0,0:0|0:0,0:0:0:0:
125,140,38325,2,0,L|47:168,1,60,14|0,0:0|0:0,0:0:0:0:
149,40,38659,2,0,L|71:68,1,60,8|8,0:0|0:0,0:0:0:0:
149,40,38992,5,6,0:0:0:0:
316,60,39325,1,6,0:0:0:0:
316,60,39492,2,0,L|373:40,1,60,2|6,0:0|0:0,0:0:0:0:
452,188,39992,1,6,0:0:0:0:
452,188,40159,2,0,P|392:244|348:252,1,120,0|0,0:0|0:0,0:0:0:0:
272,263,40659,2,0,P|302:313|356:337,2,120,6|6|6,0:0|0:0|0:0,0:0:0:0:
272,263,41659,6,0,P|240:235|204:231,1,60,6|2,0:0|0:0,0:0:0:0:
152,186,41992,2,0,P|140:212|140:242,2,60,6|2|6,0:0|0:0|0:0,0:0:0:0:
203,102,42492,2,0,P|223:123|231:152,2,60,2|6|0,0:0|0:0|0:0,0:0:0:0:
112,96,42992,1,4,0:0:0:0:
112,96,43159,1,0,0:0:0:0:
41,50,43325,2,0,B|86:-3|148:20,2,120,6|6|8,0:0|0:0|0:0,0:0:0:0:
112,96,44159,1,10,0:0:0:0:
72,169,44325,6,0,P|76:234|106:304,1,120,4|4,0:0|0:0,0:0:0:0:
168,248,44825,2,0,P|224:228|284:225,1,120,2|6,0:0|0:0,0:0:0:0:
355,267,45325,2,0,P|383:272|436:261,1,60,6|0,0:0|0:0,0:0:0:0:
474,209,45659,2,0,P|472:179|463:150,1,60,6|0,0:0|0:0,0:0:0:0:
390,194,45992,6,0,P|332:190|285:225,1,120,6|6,0:0|0:0,0:0:0:0:
355,267,46492,2,0,P|363:295|360:325,2,60,0|6|0,0:0|0:0|0:0,0:0:0:0:
280,304,46992,1,6,0:0:0:0:
112,304,47325,5,6,0:0:0:0:
36,268,47492,1,0,0:0:0:0:
107,222,47659,1,6,0:0:0:0:
112,56,47992,5,6,0:0:0:0:
188,20,48158,1,0,0:0:0:0:
183,102,48326,1,6,0:0:0:0:
112,56,48492,1,0,0:0:0:0:
112,56,48659,6,0,L|68:128,1,60,6|8,0:0|0:0,0:0:0:0:
151,153,48992,2,0,L|183:102,1,60,6|0,0:0|0:0,0:0:0:0:
222,199,49325,2,0,L|254:148,1,60,10|8,0:0|0:0,0:0:0:0:
334,133,49659,6,0,P|324:105|305:82,2,60,6|0|4,0:0|0:0|0:0,0:0:0:0:
403,192,50159,2,0,P|415:165|420:136,2,60,6|0|0,0:0|0:0|0:0,0:0:0:0:
320,212,50659,2,0,P|308:239|303:268,1,60,4|0,0:0|0:0,0:0:0:0:
372,319,50992,6,0,P|325:354|267:347,1,120,6|4,0:0|0:0,0:0:0:0:
192,304,51492,2,0,P|133:296|86:330,1,120,6|0,0:0|0:0,0:0:0:0:
86,329,51992,1,8,0:0:0:0:
86,329,52159,1,8,0:0:0:0:
256,192,52325,12,4,53659,0:0:0:0:
188,68,53992,6,0,P|112:48|56:72,2,120,12|2|8,0:0|0:0|0:0,0:0:0:0:
404,48,54992,2,0,L|420:176,1,120,14|10,0:0|0:0,0:0:0:0:
418,167,55492,1,10,0:0:0:0:
96,192,55992,2,0,L|112:320,1,120,14|2,0:0|0:0,0:0:0:0:
110,311,56492,1,10,0:0:0:0:
432,320,56992,6,0,P|400:332|364:328,1,60,6|0,0:0|0:0,0:0:0:0:
340,256,57325,2,0,P|310:255|282:267,1,60,10|0,0:0|0:0,0:0:0:0:
234,338,57659,2,0,P|197:293|201:235,1,120,6|10,0:0|0:0,0:0:0:0:
201,234,58159,1,2,0:0:0:0:
201,234,58492,6,0,L|187:152,1,60,2|8,0:0|0:0,0:0:0:0:
275,177,58825,2,0,L|260:94,2,60,2|0|0,0:0|0:0|0:0,0:0:0:0:
356,148,59325,2,0,L|366:207,2,60,10|0|2,0:0|0:0|0:0,0:0:0:0:
386,325,59992,5,10,0:0:0:0:
218,328,60325,1,6,0:0:0:0:
52,296,60659,2,0,L|36:376,2,60,10|2|0,0:0|0:0|0:0,0:0:0:0:
120,244,61159,2,0,L|104:176,2,60,2|10|2,0:0|0:0|0:0,0:0:0:0:
136,328,61659,2,0,B|200:352|264:292,1,120,2|10,0:0|0:0,0:0:0:0:
293,233,62159,2,0,B|356:210|404:256,1,120,2|2,0:0|0:0,0:0:0:0:
293,233,62659,6,0,L|262:181,1,60,12|0,0:0|0:0,0:0:0:0:
220,108,62992,1,4,0:0:0:0:
148,160,63159,2,0,L|179:212,2,60,0|8|0,0:0|0:0|0:0,0:0:0:0:
78,206,63659,2,0,P|58:152|87:102,1,120,4|8,0:0|0:0,0:0:0:0:
36,32,64159,1,0,0:0:0:0:
117,26,64325,2,0,L|176:20,1,60,12|0,0:0|0:0,0:0:0:0:
221,91,64659,2,0,L|280:85,1,60,12|0,0:0|0:0,0:0:0:0:
361,78,64992,2,0,L|373:29,4,30,12|0|0|0|8,0:0|0:0|0:0|0:0|0:0,0:0:0:0:
468,288,65659,6,0,L|320:300,1,120,6|10,0:0|0:0,0:0:0:0:
348,297,66159,1,10,0:0:0:0:
36,153,66659,2,0,L|156:144,1,120,6|14,0:0|0:0,0:0:0:0:
188,64,67159,2,0,L|260:60,1,60,2|10,0:0|0:0,0:0:0:0:
316,12,67492,1,10,0:0:0:0:
324,96,67659,6,0,P|368:104|392:128,1,60,14|0,0:0|0:0,0:0:0:0:
460,96,67992,2,0,P|465:140|450:170,1,60,10|0,0:0|0:0,0:0:0:0:
508,224,68326,2,0,P|474:253|388:252,1,120,12|8,0:0|0:0,0:0:0:0:
320,260,68825,1,2,0:0:0:0:
240,280,68992,1,0,0:0:0:0:
156,298,69159,2,0,P|126:293|104:274,2,60,2|10|0,0:0|0:0|0:0,0:0:0:0:
164,216,69659,5,2,0:0:0:0:
80,200,69825,2,0,P|32:220|20:236,1,60,2|10,0:0|0:0,0:0:0:0:
137,137,70159,2,0,P|95:105|75:103,2,60,2|2|0,0:0|0:0|0:0,0:0:0:0:
256,44,70659,5,14,0:0:0:0:
340,28,70825,1,0,0:0:0:0:
340,28,70909,1,0,0:0:0:0:
340,28,70992,2,0,P|412:56|424:104,1,120,6|8,0:0|0:0,0:0:0:0:
356,140,71492,1,4,0:0:0:0:
376,220,71659,2,0,L|396:300,1,60,2|2,0:0|0:0,0:0:0:0:
410,358,71992,1,10,0:0:0:0:
124,356,72325,6,0,P|52:328|40:280,1,120,14|8,0:0|0:0,0:0:0:0:
56,208,72825,1,6,0:0:0:0:
72,123,72992,2,0,L|84:59,1,60,2|2,0:0|0:0,0:0:0:0:
168,56,73325,2,0,L|186:32,2,30,2|0|2,0:0|0:0|0:0,0:0:0:0:
272,24,73659,5,14,0:0:0:0:
380,36,73825,2,0,L|464:44,1,60,2|10,0:0|0:0,0:0:0:0:
480,180,74159,1,2,0:0:0:0:
372,192,74325,2,0,L|288:200,1,60,12|2,0:0|0:0,0:0:0:0:
204,209,74659,2,0,L|120:217,1,60,12|0,0:0|0:0,0:0:0:0:
28,300,74992,6,0,L|24:368,2,60,12|2|10,0:0|0:0|0:0,0:0:0:0:
156,332,75492,1,2,0:0:0:0:
288,326,75659,2,0,L|371:322,1,60,14|10,0:0|0:0,0:0:0:0:
437,226,75992,2,0,L|508:224,1,60,14|8,0:0|0:0,0:0:0:0:
256,192,76325,12,10,77659,0:0:0:0:
80,128,77992,6,0,P|104:136|160:124,1,60,14|2,0:0|0:0,0:0:0:0:
224,176,78325,2,0,P|284:148|320:96,1,120,6|10,0:0|0:0,0:0:0:0:
404,144,78825,1,2,0:0:0:0:
468,72,78992,2,0,P|452:24|432:0,2,60,6|0|8,0:0|0:0|0:0,0:0:0:0:
404,144,79492,2,0,P|389:170|373:277,1,120,6|2,0:0|0:0,0:0:0:0:
432,333,79992,2,0,P|404:344|375:352,1,60,10|2,0:0|0:0,0:0:0:0:
280,360,80325,1,2,0:0:0:0:
68,164,80659,6,0,P|48:140|40:88,1,60,14|0,0:0|0:0,0:0:0:0:
112,48,80992,2,0,P|132:72|140:124,1,60,14|0,0:0|0:0,0:0:0:0:
164,192,81325,1,14,0:0:0:0:
252,228,81492,1,2,0:0:0:0:
347,208,81659,2,0,P|376:198|406:200,2,60,6|0|8,0:0|0:0|0:0,0:0:0:0:
487,250,82159,2,0,P|495:192|475:136,1,120,6|0,0:0|0:0,0:0:0:0:
419,60,82659,2,0,P|397:79|385:107,1,60,8|0,0:0|0:0,0:0:0:0:
385,107,82992,5,6,0:0:0:0:
192,108,83325,1,10,0:0:0:0:
192,108,83492,1,6,0:0:0:0:
28,36,83825,1,0,0:0:0:0:
28,36,83992,2,0,P|80:28|108:28,1,60,14|0,0:0|0:0,0:0:0:0:
184,24,84325,2,0,P|244:20|312:24,1,120,6|8,0:0|0:0,0:0:0:0:
400,28,84825,2,0,P|429:30|459:36,2,60,6|2|2,0:0|0:0|0:0,0:0:0:0:
348,108,85325,1,14,0:0:0:0:
348,108,85492,1,0,0:0:0:0:
260,148,85659,6,0,P|232:164|184:160,1,60,14|0,0:0|0:0,0:0:0:0:
180,72,85992,2,0,P|152:56|104:60,1,60,14|0,0:0|0:0,0:0:0:0:
28,71,86325,2,0,P|27:42|35:13,2,60,14|2|10,0:0|0:0|0:0,0:0:0:0:
40,264,86992,5,6,0:0:0:0:
40,264,87159,2,0,P|72:268|120:268,1,60,2|10,0:0|0:0,0:0:0:0:
196,272,87492,2,0,P|272:268|332:256,1,120,6|6,0:0|0:0,0:0:0:0:
408,236,87992,1,8,0:0:0:0:
408,236,88159,2,0,P|460:216|480:204,1,60,2|2,0:0|0:0,0:0:0:0:
192,112,88659,5,14,0:0:0:0:
192,112,88826,1,0,0:0:0:0:
263,48,88992,1,6,0:0:0:0:
263,48,89159,1,0,0:0:0:0:
355,28,89326,1,10,0:0:0:0:
355,28,89492,1,0,0:0:0:0:
452,32,89659,6,0,P|480:72|484:104,2,60,6|0|10,0:0|0:0|0:0,0:0:0:0:
396,128,90159,2,0,P|381:174|360:200,1,60,4|2,0:0|0:0,0:0:0:0:
280,172,90492,2,0,P|233:187|200:185,1,60,2|8,0:0|0:0,0:0:0:0:
129,204,90825,1,2,0:0:0:0:
163,114,90992,1,2,0:0:0:0:
324,256,91325,5,14,0:0:0:0:
324,352,91492,1,0,0:0:0:0:
407,304,91659,1,2,0:0:0:0:
412,64,91992,1,10,0:0:0:0:
489,122,92159,1,2,0:0:0:0:
401,160,92325,6,0,L|320:168,1,60,6|2,0:0|0:0,0:0:0:0:
224,93,92659,2,0,L|284:88,2,60,10|6|0,0:0|0:0|0:0,0:0:0:0:
121,103,93159,1,2,0:0:0:0:
121,103,93325,1,10,0:0:0:0:
51,168,93493,2,0,L|56:227,1,60,6|2,0:0|0:0,0:0:0:0:
141,195,93825,1,0,0:0:0:0:
141,195,93992,1,14,0:0:0:0:
28,340,94325,6,0,L|112:344,1,60,2|2,0:0|0:0,0:0:0:0:
184,364,94659,2,0,L|268:368,1,60,10|2,0:0|0:0,0:0:0:0:
332,332,94992,6,0,P|404:320|468:344,1,120,6|10,0:0|0:0,0:0:0:0:
476,240,95492,2,0,L|496:168,1,60,6|0,0:0|0:0,0:0:0:0:
396,164,95825,2,0,L|396:88,1,60,6|8,0:0|0:0,0:0:0:0:
300,100,96159,5,14,0:0:0:0:
300,100,96242,1,0,0:0:0:0:
300,100,96325,2,0,L|284:20,1,60,0|10,0:0|0:0,0:0:0:0:
196,72,96659,2,0,L|168:4,2,60,14|10|14,0:0|0:0|0:0,0:0:0:0:
112,116,97159,1,10,0:0:0:0:
112,116,97242,1,0,0:0:0:0:
112,116,97325,2,0,L|96:184,1,60,10|2,0:0|0:0,0:0:0:0:
256,192,97659,12,12,100325,0:0:0:0:
72,100,110992,5,4,0:0:0:0:
72,100,111325,1,10,0:0:0:0:
72,100,111492,1,0,0:0:0:0:
136,44,111658,1,10,0:0:0:0:
216,20,111825,1,0,0:0:0:0:
300,24,111992,2,0,P|368:36|432:28,1,120,10|8,0:0|0:0,0:0:0:0:
418,31,112492,1,0,0:0:0:0:
502,100,112659,6,0,L|444:112,1,60,10|0,0:0|0:0,0:0:0:0:
452,196,112992,2,0,L|393:207,1,60,10|0,0:0|0:0,0:0:0:0:
400,290,113325,2,0,L|342:302,1,60,10|0,0:0|0:0,0:0:0:0:
278,355,113659,5,10,0:0:0:0:
207,307,113825,1,0,0:0:0:0:
230,226,113992,1,10,0:0:0:0:
313,223,114159,2,0,P|312:148|280:108,1,120,2|2,0:0|0:0,0:0:0:0:
208,148,114659,2,0,P|149:141|97:170,1,120,10|8,0:0|0:0,0:0:0:0:
96,256,115159,5,0,0:0:0:0:
96,256,115325,2,0,P|40:224|32:208,1,60,10|0,0:0|0:0,0:0:0:0:
97,170,115659,2,0,P|66:113|68:95,1,60,10|0,0:0|0:0,0:0:0:0:
136,72,115992,2,0,P|136:7|146:-7,1,60,10|0,0:0|0:0,0:0:0:0:
216,24,116325,5,14,0:0:0:0:
288,68,116492,1,2,0:0:0:0:
288,152,116659,1,10,0:0:0:0:
340,224,116825,1,2,0:0:0:0:
316,304,116992,2,0,P|280:360|268:372,2,60,10|2|10,0:0|0:0|0:0,0:0:0:0:
468,191,117659,6,0,P|430:201|383:238,1,60,10|2,0:0|0:0,0:0:0:0:
371,284,117992,2,0,P|344:297|315:303,1,60,10|2,0:0|0:0,0:0:0:0:
242,261,118325,2,0,P|183:266|131:300,1,120,10|10,0:0|0:0,0:0:0:0:
98,375,118825,1,2,0:0:0:0:
98,375,118992,5,12,0:0:0:0:
44,215,119325,1,8,0:0:0:0:
44,215,119492,2,0,L|132:203,1,60,2|8,0:0|0:0,0:0:0:0:
168,52,119992,2,0,L|256:64,1,60,10|0,0:0|0:0,0:0:0:0:
312,72,120325,5,12,0:0:0:0:
312,72,120492,2,0,L|360:80,2,30,0|0|10,0:0|0:0|0:0,0:0:0:0:
396,168,120825,1,0,0:0:0:0:
312,176,120992,2,0,L|256:184,4,30,14|0|0|0|8,0:0|0:0|0:0|0:0|0:0,0:0:0:0:
180,192,121492,1,0,0:0:0:0:
180,192,121659,5,12,0:0:0:0:
264,356,121992,1,8,0:0:0:0:
264,356,122159,1,2,0:0:0:0:
340,320,122325,2,0,P|360:272|360:256,1,60,10|2,0:0|0:0,0:0:0:0:
444,260,122659,2,0,P|448:172|440:124,1,120,10|8,0:0|0:0,0:0:0:0:
424,60,123159,5,0,0:0:0:0:
355,107,123325,2,0,P|336:83|326:56,1,60,10|0,0:0|0:0,0:0:0:0:
248,20,123659,2,0,P|229:43|218:71,1,60,10|0,0:0|0:0,0:0:0:0:
140,100,123992,2,0,P|146:129|160:155,1,60,10|0,0:0|0:0,0:0:0:0:
108,220,124325,6,0,P|160:264|228:260,1,120,10|10,0:0|0:0,0:0:0:0:
256,196,124825,2,0,P|314:201|357:242,1,120,2|10,0:0|0:0,0:0:0:0:
367,323,125325,2,0,P|396:316|418:296,2,60,10|2|10,0:0|0:0|0:0,0:0:0:0:
367,323,125825,5,0,0:0:0:0:
284,328,125992,2,0,L|200:332,1,60,10|0,0:0|0:0,0:0:0:0:
184,256,126325,2,0,L|108:248,1,60,10|0,0:0|0:0,0:0:0:0:
132,164,126659,2,0,L|68:124,1,60,10|0,0:0|0:0,0:0:0:0:
75,48,126992,5,14,0:0:0:0:
154,17,127159,1,2,0:0:0:0:
215,73,127325,1,10,0:0:0:0:
293,42,127492,1,2,0:0:0:0:
349,104,127659,2,0,P|376:108|428:128,2,60,10|2|10,0:0|0:0|0:0,0:0:0:0:
432,300,128325,5,8,0:0:0:0:
432,300,128492,2,0,P|407:314|377:316,2,60,2|10|2,0:0|0:0|0:0,0:0:0:0:
290,322,128992,2,0,P|293:293|307:266,2,60,10|2|10,0:0|0:0|0:0,0:0:0:0:
290,322,129492,1,0,0:0:0:0:
208,312,129659,6,0,P|129:320|73:306,1,120,14|8,0:0|0:0,0:0:0:0:
37,245,130159,2,0,P|48:187|77:134,1,120,10|8,0:0|0:0,0:0:0:0:
167,135,130659,2,0,P|184:160|188:208,1,60,10|0,0:0|0:0,0:0:0:0:
276,184,130992,5,14,0:0:0:0:
276,184,131075,1,0,0:0:0:0:
276,184,131159,1,0,0:0:0:0:
295,102,131325,1,10,0:0:0:0:
295,102,131492,1,0,0:0:0:0:
225,57,131659,5,14,0:0:0:0:
160,112,131825,1,0,0:0:0:0:
191,190,131992,1,2,0:0:0:0:
276,184,132159,1,2,0:0:0:0:
295,102,132325,6,0,P|324:92|368:92,1,60,6|2,0:0|0:0,0:0:0:0:
360,176,132659,2,0,P|387:189|418:220,1,60,2|2,0:0|0:0,0:0:0:0:
348,264,132992,2,0,P|358:293|358:336,1,60,2|2,0:0|0:0,0:0:0:0:
276,312,133325,2,0,P|262:339|231:370,1,60,2|2,0:0|0:0,0:0:0:0:
188,296,133659,6,0,P|88:300|48:284,2,120,4|10|2,0:0|0:0|0:0,0:0:0:0:
176,212,134492,2,0,P|236:224|248:232,2,60,0|10|0,0:0|0:0|0:0,0:0:0:0:
176,212,134992,1,2,0:0:0:0:
267,111,135325,6,0,P|311:87|343:87,1,60,10|0,0:0|0:0,0:0:0:0:
309,184,135659,2,0,P|345:218|355:248,1,60,2|0,0:0|0:0,0:0:0:0:
252,246,135992,2,0,P|230:291|204:310,1,60,10|0,0:0|0:0,0:0:0:0:
176,212,136325,2,0,P|126:205|100:186,1,60,2|0,0:0|0:0,0:0:0:0:
184,129,136659,2,0,P|174:79|184:49,1,60,10|0,0:0|0:0,0:0:0:0:
260,56,136992,2,0,P|303:31|392:32,1,120,2|10,0:0|0:0,0:0:0:0:
371,26,137659,5,2,0:0:0:0:
432,82,137825,1,0,0:0:0:0:
384,152,137992,2,0,L|376:292,1,120,8|2,0:0|0:0,0:0:0:0:
304,312,138492,2,0,P|321:335|348:349,2,60,10|8|8,0:0|0:0|0:0,0:0:0:0:
252,248,138992,6,0,P|192:248|136:292,1,120,6|10,0:0|0:0,0:0:0:0:
179,356,139492,2,0,P|121:358|72:324,1,120,2|0,0:0|0:0,0:0:0:0:
71,240,139992,2,0,P|102:190|100:130,1,120,10|2,0:0|0:0,0:0:0:0:
64,59,140492,2,0,P|39:77|25:103,2,60,0|10|0,0:0|0:0|0:0,0:0:0:0:
148,64,140992,2,0,P|190:69|216:57,1,60,2|0,0:0|0:0,0:0:0:0:
276,112,141325,2,0,P|314:94|330:70,1,60,10|0,0:0|0:0,0:0:0:0:
370,10,141659,5,2,0:0:0:0:
451,30,141826,1,2,0:0:0:0:
458,114,141992,1,10,0:0:0:0:
379,145,142159,2,0,P|360:208|392:272,1,120,2|2,0:0|0:0,0:0:0:0:
448,303,142659,2,0,P|427:325|400:338,2,60,10|0|0,0:0|0:0|0:0,0:0:0:0:
378,256,143159,5,0,0:0:0:0:
296,264,143325,1,10,0:0:0:0:
244,332,143492,1,2,0:0:0:0:
164,352,143659,2,0,P|112:360|80:356,1,60,10|2,0:0|0:0,0:0:0:0:
100,276,143992,2,0,P|48:264|20:249,1,60,10|10,0:0|0:0,0:0:0:0:
48,180,144325,6,0,P|104:155|180:153,1,120,6|10,0:0|0:0,0:0:0:0:
161,150,144825,1,2,0:0:0:0:
242,139,144992,2,0,P|240:169|228:197,1,60,2|2,0:0|0:0,0:0:0:0:
153,233,145325,2,0,P|196:272|254:276,1,120,10|2,0:0|0:0,0:0:0:0:
420,92,145992,6,0,P|380:84|336:92,1,60,10|0,0:0|0:0,0:0:0:0:
316,16,146325,2,0,P|278:33|248:65,1,60,2|0,0:0|0:0,0:0:0:0:
184,20,146659,2,0,P|169:58|169:102,1,60,10|0,0:0|0:0,0:0:0:0:
227,136,146992,2,0,P|173:158|115:145,1,120,2|10,0:0|0:0,0:0:0:0:
32,158,147492,2,0,P|33:128|43:100,2,60,2|2|2,0:0|0:0|0:0,0:0:0:0:
88,224,147992,2,0,P|108:276|92:344,1,120,10|2,0:0|0:0,0:0:0:0:
95,337,148659,6,0,P|128:356|176:356,1,60,10|0,0:0|0:0,0:0:0:0:
224,320,148992,2,0,P|261:313|298:282,1,60,10|0,0:0|0:0,0:0:0:0:
345,249,149325,2,0,L|331:207,2,30,10|0|10,0:0|0:0|0:0,0:0:0:0:
428,256,149659,6,0,P|436:196|420:128,1,120,6|8,0:0|0:0,0:0:0:0:
488,84,150159,2,0,P|440:47|373:26,1,120,4|0,0:0|0:0,0:0:0:0:
316,76,150659,1,10,0:0:0:0:
316,76,150825,1,2,0:0:0:0:
232,84,150992,6,0,P|172:88|96:64,1,120,4|8,0:0|0:0,0:0:0:0:
48,20,151492,2,0,P|28:76|28:136,1,120,6|0,0:0|0:0,0:0:0:0:
108,156,151992,2,0,P|107:215|100:240,1,60,14|8,0:0|0:0,0:0:0:0:
256,192,152325,12,2,153659,0:0:0:0:
324,68,153992,6,0,P|400:48|456:72,2,120,12|2|10,0:0|0:0|0:0,0:0:0:0:
244,40,154825,1,0,0:0:0:0:
160,36,154992,6,0,P|116:48|88:68,1,60,14|2,0:0|0:0,0:0:0:0:
112,140,155325,2,0,P|72:180|64:208,1,60,10|10,0:0|0:0,0:0:0:0:
441,182,155992,6,0,P|424:157|400:140,1,60,14|2,0:0|0:0,0:0:0:0:
408,54,156325,2,0,P|381:40|351:35,1,60,10|10,0:0|0:0,0:0:0:0:
336,360,156992,6,0,L|340:300,1,60,14|0,0:0|0:0,0:0:0:0:
256,316,157325,2,0,L|248:252,1,60,14|0,0:0|0:0,0:0:0:0:
168,276,157659,2,0,L|148:212,1,60,14|0,0:0|0:0,0:0:0:0:
104,148,157992,5,14,0:0:0:0:
122,67,158159,2,0,P|174:39|233:30,1,120,2|6,0:0|0:0,0:0:0:0:
316,16,158659,2,0,P|342:29|363:51,1,60,10|4,0:0|0:0,0:0:0:0:
448,44,158992,6,0,P|458:78|452:117,2,60,2|2|10,0:0|0:0|0:0,0:0:0:0:
363,51,159492,1,2,0:0:0:0:
294,95,159659,2,0,P|243:125|183:127,1,120,2|10,0:0|0:0,0:0:0:0:
20,100,160325,5,12,0:0:0:0:
184,128,160659,1,10,0:0:0:0:
184,128,160825,1,2,0:0:0:0:
76,256,161159,2,0,P|104:280|152:288,1,60,2|8,0:0|0:0,0:0:0:0:
184,348,161492,2,0,P|219:338|253:304,1,60,2|2,0:0|0:0,0:0:0:0:
201,248,161825,5,2,0:0:0:0:
263,190,161992,1,10,0:0:0:0:
336,231,162158,1,2,0:0:0:0:
320,313,162325,2,0,P|345:329|375:336,1,60,2|0,0:0|0:0,0:0:0:0:
460,336,162659,6,0,L|468:264,1,60,14|0,0:0|0:0,0:0:0:0:
416,208,162992,2,0,L|412:80,1,120,6|10,0:0|0:0,0:0:0:0:
412,88,163492,1,0,0:0:0:0:
300,100,163659,2,0,L|292:20,1,60,6|2,0:0|0:0,0:0:0:0:
180,100,163992,2,0,L|185:40,1,60,10|0,0:0|0:0,0:0:0:0:
68,216,164325,6,0,L|71:96,1,120,6|12,0:0|0:0,0:0:0:0:
70,96,164825,1,0,0:0:0:0:
168,208,164992,2,0,L|164:244,4,30,12|0|0|0|8,0:0|0:0|0:0|0:0|0:0,0:0:0:0:
152,352,165492,1,0,0:0:0:0:
152,352,165659,5,12,0:0:0:0:
376,296,165992,1,14,0:0:0:0:
376,296,166159,2,0,P|412:252|408:188,1,120,2|0,0:0|0:0,0:0:0:0:
320,156,166659,2,0,P|316:97|353:51,1,120,14|8,0:0|0:0,0:0:0:0:
448,40,167159,1,6,0:0:0:0:
448,40,167325,1,8,0:0:0:0:
256,25,167659,5,6,0:0:0:0:
160,31,167825,1,0,0:0:0:0:
160,31,167909,1,0,0:0:0:0:
160,31,167992,2,0,L|76:47,1,60,14|0,0:0|0:0,0:0:0:0:
80,136,168325,2,0,L|220:148,1,120,6|10,0:0|0:0,0:0:0:0:
280,164,168825,2,0,L|420:152,1,120,6|2,0:0|0:0,0:0:0:0:
432,76,169325,2,0,L|512:80,2,60,10|0|6,0:0|0:0|0:0,0:0:0:0:
460,292,169992,5,10,0:0:0:0:
460,292,170159,1,0,0:0:0:0:
376,284,170325,2,0,L|296:276,1,60,2|0,0:0|0:0,0:0:0:0:
248,332,170659,6,0,P|220:296|216:256,1,60,12|0,0:0|0:0,0:0:0:0:
142,250,170992,2,0,P|167:212|204:196,1,60,6|2,0:0|0:0,0:0:0:0:
186,126,171325,2,0,P|229:138|256:168,1,60,10|6,0:0|0:0,0:0:0:0:
318,130,171659,2,0,P|319:175|299:210,1,60,0|0,0:0|0:0,0:0:0:0:
355,256,171992,2,0,P|312:271|272:262,1,60,10|0,0:0|0:0,0:0:0:0:
247,331,172325,6,0,P|216:282|231:226,1,120,6|10,0:0|0:0,0:0:0:0:
314,188,172825,2,0,P|296:145|228:120,1,120,6|8,0:0|0:0,0:0:0:0:
148,100,173325,2,0,P|161:56|191:30,1,60,8|8,0:0|0:0,0:0:0:0:
291,48,173659,6,0,P|321:42|351:45,2,60,6|2|2,0:0|0:0|0:0,0:0:0:0:
400,144,174159,2,0,P|423:162|443:184,2,60,8|6|2,0:0|0:0|0:0,0:0:0:0:
384,288,174659,2,0,P|390:317|392:347,1,60,10|8,0:0|0:0,0:0:0:0:
228,344,174992,6,0,P|229:314|236:284,1,60,6|0,0:0|0:0,0:0:0:0:
92,280,175325,2,0,P|114:259|139:243,1,60,14|0,0:0|0:0,0:0:0:0:
76,116,175659,2,0,P|105:117|135:124,1,60,14|8,0:0|0:0,0:0:0:0:
224,8,175992,2,0,P|244:30|260:55,1,60,14|8,0:0|0:0,0:0:0:0:
256,192,176325,12,6,177659,0:0:0:0:
40,104,177992,6,0,P|76:120|116:120,1,75,14|2,0:0|0:0,0:0:0:0:
156,44,178325,2,0,P|193:45|227:60,1,75,2|2,0:0|0:0,0:0:0:0:
316,63,178659,2,0,P|304:99|282:129,1,75,10|2,0:0|0:0,0:0:0:0:
203,174,178992,2,0,P|268:210|341:198,1,150,6|10,0:0|0:0,0:0:0:0:
376,276,179492,2,0,P|439:233|455:155,1,150,6|2,0:0|0:0,0:0:0:0:
504,88,179992,2,0,P|468:68|412:56,1,75,10|0,0:0|0:0,0:0:0:0:
348,36,180325,2,0,P|272:24|240:24,1,75,2|0,0:0|0:0,0:0:0:0:
184,20,180659,6,0,P|124:24|28:52,2,150,14|2|14,0:0|0:0|0:0,0:0:0:0:
444,172,181659,2,0,P|372:193|300:176,1,150,6|10,0:0|0:0,0:0:0:0:
216,148,182159,2,0,P|144:126|72:144,1,150,6|0,0:0|0:0,0:0:0:0:
73,143,182659,1,10,0:0:0:0:
60,352,182992,6,0,L|164:348,1,75,6|2,0:0|0:0,0:0:0:0:
224,332,183325,2,0,L|328:328,1,75,14|2,0:0|0:0,0:0:0:0:
388,312,183659,1,2,0:0:0:0:
388,72,183992,6,0,L|313:69,1,75,14|2,0:0|0:0,0:0:0:0:
224,52,184325,2,0,L|64:44,1,150,6|10,0:0|0:0,0:0:0:0:
13,145,184825,2,0,L|87:148,1,75,2|6,0:0|0:0,0:0:0:0:
86,249,185159,2,0,L|12:252,2,75,0|10|2,0:0|0:0|0:0,0:0:0:0:
180,204,185659,6,0,L|256:200,1,75,14|0,0:0|0:0,0:0:0:0:
347,154,185992,2,0,L|423:150,1,75,14|0,0:0|0:0,0:0:0:0:
464,52,186325,2,0,L|300:48,1,150,14|10,0:0|0:0,0:0:0:0:
84,192,186992,5,6,0:0:0:0:
52,276,187159,1,2,0:0:0:0:
52,276,187325,1,10,0:0:0:0:
140,260,187492,2,0,L|228:268,1,75,6|0,0:0|0:0,0:0:0:0:
268,339,187825,2,0,P|296:271|277:200,1,150,14|8,0:0|0:0,0:0:0:0:
277,200,188325,5,2,0:0:0:0:
456,208,188659,2,0,L|368:204,1,75,14|0,0:0|0:0,0:0:0:0:
277,199,188992,2,0,P|309:133|374:100,1,150,10|10,0:0|0:0,0:0:0:0:
464,88,189492,1,2,0:0:0:0:
464,88,189659,1,6,0:0:0:0:
296,24,189992,5,10,0:0:0:0:
296,24,190159,2,0,L|196:24,1,75,14|0,0:0|0:0,0:0:0:0:
132,24,190492,2,0,P|76:76|76:152,1,150,14|10,0:0|0:0,0:0:0:0:
128,216,190992,1,6,0:0:0:0:
383,215,191325,6,0,P|408:240|432:280,1,75,12|0,0:0|0:0,0:0:0:0:
429,274,191659,1,2,0:0:0:0:
352,320,191825,2,0,P|371:351|398:378,2,75,2|10|2,0:0|0:0|0:0,0:0:0:0:
383,215,192325,6,0,P|320:244|240:224,1,150,6|10,0:0|0:0,0:0:0:0:
160,104,192825,2,0,P|223:75|303:95,1,150,6|2,0:0|0:0,0:0:0:0:
298,92,193325,1,8,0:0:0:0:
180,184,193492,2,0,P|144:212|128:240,2,75,6|0|0,0:0|0:0|0:0,0:0:0:0:
332,184,193992,2,0,P|368:212|384:240,1,75,14|0,0:0|0:0,0:0:0:0:
304,276,194325,2,0,P|318:310|321:347,1,75,8|0,0:0|0:0,0:0:0:0:
190,347,194659,2,0,P|193:310|207:276,1,75,8|0,0:0|0:0,0:0:0:0:
256,200,194992,5,14,0:0:0:0:
232,112,195159,1,2,0:0:0:0:
232,112,195242,1,0,0:0:0:0:
232,112,195325,1,10,0:0:0:0:
148,80,195492,2,0,P|92:80|56:96,1,75,14|0,0:0|0:0,0:0:0:0:
12,152,195825,1,2,0:0:0:0:
12,152,195992,1,8,0:0:0:0:
96,184,196159,6,0,P|133:187|169:178,1,75,4|2,0:0|0:0,0:0:0:0:
256,152,196492,1,0,0:0:0:0:
336,108,196659,2,0,P|372:99|409:102,1,75,14|2,0:0|0:0,0:0:0:0:
371,223,196992,2,0,P|390:254|399:291,1,75,10|0,0:0|0:0,0:0:0:0:
273,292,197325,2,0,P|248:320|217:339,1,75,14|0,0:0|0:0,0:0:0:0:
177,219,197659,6,0,P|142:204|114:180,2,75,14|0|8,0:0|0:0|0:0,0:0:0:0:
216,106,198159,2,0,P|248:40|332:28,1,150,14|0,0:0|0:0,0:0:0:0:
404,44,198659,1,2,0:0:0:0:
448,124,198825,1,14,0:0:0:0:
448,124,198992,1,2,0:0:0:0:
284,320,199325,6,0,L|260:228,1,75,14|2,0:0|0:0,0:0:0:0:
176,244,199659,2,0,L|157:171,1,75,10|0,0:0|0:0,0:0:0:0:
68,168,199992,2,0,L|49:95,1,75,14|2,0:0|0:0,0:0:0:0:
49,95,200325,5,14,0:0:0:0:
220,44,200659,1,10,0:0:0:0:
220,44,200825,2,0,P|344:32|380:40,1,150,6|0,0:0|0:0,0:0:0:0:
436,95,201325,2,0,P|453:62|457:25,2,75,10|0|2,0:0|0:0|0:0,0:0:0:0:
320,232,201992,6,0,L|472:224,2,150,14|2|14,0:0|0:0|0:0,0:0:0:0:
228,236,202825,1,2,0:0:0:0:
164,171,202992,2,0,P|139:240|171:306,1,150,14|8,0:0|0:0,0:0:0:0:
254,342,203492,2,0,L|342:375,2,75,6|0|0,0:0|0:0|0:0,0:0:0:0:
171,306,203992,1,8,0:0:0:0:
171,306,204325,6,0,P|129:301|93:313,1,75,6|2,0:0|0:0,0:0:0:0:
64,381,204659,2,0,P|31:364|7:336,1,75,10|6,0:0|0:0,0:0:0:0:
7,336,204992,1,2,0:0:0:0:
40,252,205159,2,0,P|56:218|85:195,1,75,0|14,0:0|0:0,0:0:0:0:
85,195,205492,1,2,0:0:0:0:
60,108,205659,6,0,P|120:72|208:48,1,150,6|10,0:0|0:0,0:0:0:0:
280,20,206159,2,0,P|328:28|364:44,1,75,6|2,0:0|0:0,0:0:0:0:
444,36,206492,1,2,0:0:0:0:
444,36,206659,1,14,0:0:0:0:
452,292,206992,6,0,L|377:289,1,75,14|2,0:0|0:0,0:0:0:0:
296,328,207325,2,0,L|136:320,1,150,14|14,0:0|0:0,0:0:0:0:
146,320,207992,1,10,0:0:0:0:
146,320,208159,1,2,0:0:0:0:
88,252,208325,6,0,P|72:208|72:164,2,75,6|2|14,0:0|0:0|0:0,0:0:0:0:
160,196,208825,2,0,P|176:152|176:108,1,75,2|0,0:0|0:0,0:0:0:0:
92,96,209159,2,0,P|95:58|109:24,1,75,6|8,0:0|0:0,0:0:0:0:
200,16,209492,1,6,0:0:0:0:
200,16,209659,1,2,0:0:0:0:
200,16,209992,6,0,L|368:12,1,150,14|6,0:0|0:0,0:0:0:0:
417,71,210492,2,0,P|436:38|438:1,2,75,2|14|0,0:0|0:0|0:0,0:0:0:0:
333,99,210992,2,0,L|363:245,1,150,6|10,0:0|0:0,0:0:0:0:
444,291,211492,2,0,P|382:332|310:321,1,150,6|6,0:0|0:0,0:0:0:0:
244,260,211992,1,10,0:0:0:0:
156,252,212159,2,0,P|104:304|96:328,1,75,4|2,0:0|0:0,0:0:0:0:
349,158,212659,5,14,0:0:0:0:
266,190,212826,2,0,P|243:259|247:284,1,75,2|2,0:0|0:0,0:0:0:0:
160,291,213159,2,0,P|175:362|191:382,2,75,2|10|2,0:0|0:0|0:0,0:0:0:0:
100,224,213659,6,0,L|16:216,2,75,6|2|8,0:0|0:0|0:0,0:0:0:0:
188,199,214159,2,0,P|148:139|75:136,1,150,6|10,0:0|0:0,0:0:0:0:
100,224,214659,1,8,0:0:0:0:
188,200,214825,2,0,P|272:180|344:192,1,150,4|0,0:0|0:0,0:0:0:0:
288,264,215325,2,0,P|361:309|372:320,1,75,14|0,0:0|0:0,0:0:0:0:
443,303,215659,2,0,P|433:339|412:370,2,75,2|0|10,0:0|0:0|0:0,0:0:0:0:
256,112,216325,5,6,0:0:0:0:
256,112,216492,1,0,0:0:0:0:
168,96,216659,2,0,L|152:16,2,75,10|6|0,0:0|0:0|0:0,0:0:0:0:
80,116,217159,2,0,L|94:189,1,75,6|8,0:0|0:0,0:0:0:0:
20,282,217492,1,6,0:0:0:0:
20,282,217575,1,0,0:0:0:0:
20,282,217659,6,0,L|6:209,1,75,2|0,0:0|0:0,0:0:0:0:
128,340,217992,2,0,L|108:256,1,75,14|0,0:0|0:0,0:0:0:0:
244,200,218325,2,0,L|261:272,1,75,12|8,0:0|0:0,0:0:0:0:
352,258,218658,2,0,L|366:331,1,75,12|0,0:0|0:0,0:0:0:0:
473,278,218992,5,6,0:0:0:0:
482,158,219159,1,2,0:0:0:0:
382,91,219326,1,14,0:0:0:0:
274,144,219492,1,2,0:0:0:0:
274,144,219659,1,0,0:0:0:0:
171,80,219825,2,0,P|156:114|153:151,1,75,6|8,0:0|0:0,0:0:0:0:
48,196,220159,6,0,P|83:230|184:260,1,150,6|0,0:0|0:0,0:0:0:0:
196,380,220659,2,0,P|243:366|319:294,1,150,14|2,0:0|0:0,0:0:0:0:
436,284,221159,2,0,P|448:235|447:184,2,75,0|10|0,0:0|0:0|0:0,0:0:0:0:
308,208,221659,5,6,0:0:0:0:
308,208,221826,1,2,0:0:0:0:
202,213,221992,2,0,L|188:260,2,37.5,14|0|2,0:0|0:0|0:0,0:0:0:0:
164,114,222325,1,0,0:0:0:0:
247,49,222492,1,6,0:0:0:0:
335,105,222658,1,10,0:0:0:0:
247,49,222825,6,0,P|208:20|176:16,2,75,4|8|0,0:0|0:0|0:0,0:0:0:0:
164,114,223325,2,0,P|124:142|110:171,1,75,14|0,0:0|0:0,0:0:0:0:
202,213,223658,2,0,P|216:259|240:281,1,75,14|0,0:0|0:0,0:0:0:0:
308,208,223992,2,0,P|356:208|384:192,1,75,14|8,0:0|0:0,0:0:0:0:
335,105,224325,2,0,P|350:58|344:27,2,75,12|2|0,0:0|0:0|0:0,0:0:0:0:
256,192,224825,12,10,229492,0:0:0:0:
