osu file format v14

[General]
AudioFilename: audio.mp3
AudioLeadIn: 0
PreviewTime: 0
Countdown: 0
SampleSet: Soft
StackLeniency: 0.5
Mode: 0
LetterboxInBreaks: 0
WidescreenStoryboard: 0

[Editor]
DistanceSpacing: 1.2
BeatDivisor: 4
GridSize: 4
TimelineZoom: 3.599998

[Metadata]
Title:Sakura no Uta
TitleUnicode:櫻ノ詩
Artist:Hana
ArtistUnicode:はな
Creator:Ultimate Madoka
Version:II.Normal
Source:サクラノ詩 -櫻の森の上を舞う-
Tags:sakura no uta - sakura no mori no ue o mau - metrowing makura 枕 eroge galgame
BeatmapID:997923
BeatmapSetID:440068

[Difficulty]
HPDrainRate:2
CircleSize:3.2
OverallDifficulty:4
ApproachRate:5
SliderMultiplier:1
SliderTickRate:1

[Events]
//Background and Video events
0,0,"2.jpg",0,0
//Break Periods
2,11192,32125
2,100525,109792
//Storyboard Layer 0 (Background)
//Storyboard Layer 1 (Fail)
//Storyboard Layer 2 (Pass)
//Storyboard Layer 3 (Foreground)
//Storyboard Sound Samples

[TimingPoints]
326,333.333333333333,4,2,1,40,1,0
1992,-100,4,2,1,40,0,0
9659,-100,4,2,1,55,0,0
33325,-100,4,2,2,40,0,0
33659,-100,4,2,1,40,0,0
33992,-100,4,2,2,40,0,0
38325,-100,4,2,2,40,0,0
38992,-100,4,2,1,40,0,0
39159,-100,4,2,2,40,0,0
44325,-100,4,2,1,40,0,0
44659,-100,4,2,2,40,0,0
49659,-100,4,2,1,40,0,0
49992,-100,4,2,2,40,0,0
50159,-100,4,2,1,40,0,0
50659,-100,4,2,2,40,0,0
50992,-100,4,2,1,40,0,0
51325,-100,4,2,2,40,0,0
51492,-100,4,2,1,40,0,0
53992,-100,4,2,1,45,0,0
76325,-100,4,2,3,60,0,1
97659,-100,4,2,1,55,0,0
100325,-100,4,2,1,50,0,0
110992,-100,4,2,1,55,0,0
133825,-100,4,2,2,40,0,0
137991,-100,4,2,1,40,0,0
139158,-100,4,2,2,40,0,0
139325,-100,4,2,2,40,0,0
143658,-100,4,2,1,40,0,0
144491,-100,4,2,2,40,0,0
148991,-100,4,2,1,40,0,0
149658,-100,4,2,1,40,0,0
149992,-100,4,2,2,40,0,0
150158,-100,4,2,1,40,0,0
150325,-100,4,2,2,40,0,0
150991,-100,4,2,1,40,0,0
151325,-100,4,2,2,40,0,0
151491,-100,4,2,1,40,0,0
151825,-100,4,2,2,40,0,0
151991,-100,4,2,1,40,0,0
152325,-100,4,2,1,50,0,0
173158,-100,4,2,1,35,0,0
173658,-100,4,2,1,55,0,0
176325,-100,4,2,3,60,0,1
229492,-100,4,2,1,30,0,0

[Colours]
Combo1 : 255,0,128
Combo2 : 255,193,224
Combo3 : 255,89,255

[HitObjects]
80,40,326,5,2,0:0:0:0:
440,36,1325,1,2,0:0:0:0:
256,188,1992,6,0,L|256:56,2,100,2|2|2,0:0|0:0|0:0,0:0:0:0:
184,284,2992,2,0,P|255:304|327:285,2,150,2|2|2,0:0|0:0|0:0,0:0:0:0:
116,51,4659,6,0,P|72:73|53:118,2,100,2|2|2,0:0|0:0|0:0,0:0:0:0:
167,160,5659,2,0,P|238:180|309:159,2,150,2|0|2,0:0|0:0|0:0,0:0:0:0:
367,29,7325,6,0,P|414:43|439:84,2,100,2|2|2,0:0|0:0|0:0,0:0:0:0:
359,145,8325,2,0,P|425:176|499:167,2,150,2|2|2,0:0|0:0|0:0,0:0:0:0:
268,102,9659,6,0,L|152:130,1,100,10|10,0:0|0:0,0:0:0:0:
180,224,10325,2,0,L|64:252,1,100,10|10,0:0|0:0,0:0:0:0:
40,338,10992,1,12,0:0:0:0:
72,80,33325,5,2,0:0:0:0:
192,56,33659,2,0,P|284:44|332:52,2,100,4|4|6,0:0|0:0|0:0,0:0:0:0:
156,172,34659,2,0,L|136:240,2,50,6|0|6,0:0|0:0|0:0,0:0:0:0:
256,240,35325,6,0,L|256:348,2,100,6|6|6,0:0|0:0|0:0,0:0:0:0:
288,124,36325,2,0,P|305:91|311:64,1,50,6|0,0:0|0:0,0:0:0:0:
276,28,36659,2,0,P|237:26|210:36,1,50,6|0,0:0|0:0,0:0:0:0:
200,80,36992,2,0,P|218:113|237:132,1,50,6|0,0:0|0:0,0:0:0:0:
256,172,37325,2,0,P|283:224|287:285,2,100,6|4|6,0:0|0:0|0:0,0:0:0:0:
140,208,38325,5,14,0:0:0:0:
104,92,38659,1,8,0:0:0:0:
220,56,38992,2,0,P|301:51|365:63,2,100,6|6|6,0:0|0:0|0:0,0:0:0:0:
104,92,39992,2,0,P|72:184|105:276,1,200,6|6,0:0|0:0,0:0:0:0:
220,320,40992,1,6,0:0:0:0:
332,280,41325,1,6,0:0:0:0:
256,192,41659,12,6,44325,0:0:0:0:
212,216,45992,6,0,P|166:250|121:259,2,100,6|6|6,0:0|0:0|0:0,0:0:0:0:
256,100,46992,2,0,P|249:43|264:0,2,100,6|6|6,0:0|0:0|0:0,0:0:0:0:
364,148,47992,1,6,0:0:0:0:
187,308,48659,6,0,P|139:316|89:309,2,100,6|6|10,0:0|0:0|0:0,0:0:0:0:
140,200,49659,2,0,P|180:180|244:172,1,100,6|4,0:0|0:0,0:0:0:0:
288,200,50159,2,0,P|360:192|432:136,1,150,6|4,0:0|0:0,0:0:0:0:
368,40,50992,2,0,P|323:35|260:51,1,100,6|4,0:0|0:0,0:0:0:0:
212,68,51492,2,0,P|141:86|54:59,1,150,6|8,0:0|0:0,0:0:0:0:
72,188,52325,5,4,0:0:0:0:
132,292,52659,1,8,0:0:0:0:
188,276,52825,2,0,P|268:268|340:292,1,150,4|12,0:0|0:0,0:0:0:0:
416,200,53659,1,12,0:0:0:0:
324,128,53992,6,0,L|339:26,2,100,12|12|12,0:0|0:0|0:0,0:0:0:0:
348,244,54992,2,0,L|220:348,1,150,14|10,0:0|0:0,0:0:0:0:
60,288,55992,2,0,L|176:193,1,150,14|10,0:0|0:0,0:0:0:0:
260,32,56992,6,0,P|204:26|136:48,1,100,10|8,0:0|0:0,0:0:0:0:
244,124,57659,2,0,P|299:129|367:107,1,100,6|10,0:0|0:0,0:0:0:0:
376,68,58159,2,0,P|452:80|516:136,1,150,2|8,0:0|0:0,0:0:0:0:
451,231,58992,2,0,P|452:281|439:329,2,100,2|10|2,0:0|0:0|0:0,0:0:0:0:
336,268,59992,5,10,0:0:0:0:
231,207,60325,2,0,P|266:173|312:152,1,100,6|10,0:0|0:0,0:0:0:0:
276,103,60825,2,0,P|323:87|373:82,1,100,2|2,0:0|0:0,0:0:0:0:
432,86,61325,1,10,0:0:0:0:
501,183,61659,5,2,0:0:0:0:
488,301,61992,2,0,P|457:340|411:359,1,100,10|0,0:0|0:0,0:0:0:0:
385,242,62659,1,10,0:0:0:0:
276,293,62992,6,0,P|216:281|184:241,1,100,6|10,0:0|0:0,0:0:0:0:
292,193,63659,2,0,P|304:133|344:101,1,100,6|10,0:0|0:0,0:0:0:0:
392,209,64325,2,0,P|452:221|484:261,1,100,14|10,0:0|0:0,0:0:0:0:
376,309,64992,2,0,P|360:361|344:377,2,50,12|2|8,0:0|0:0|0:0,0:0:0:0:
256,320,65659,6,0,L|76:324,1,150,12|10,0:0|0:0,0:0:0:0:
216,180,66659,2,0,L|392:176,1,150,6|10,0:0|0:0,0:0:0:0:
500,296,67658,1,14,0:0:0:0:
512,176,67991,1,10,0:0:0:0:
444,76,68325,6,0,P|395:66|345:66,1,100,12|8,0:0|0:0,0:0:0:0:
284,68,68825,2,0,P|232:80|140:76,1,100,2|0,0:0|0:0,0:0:0:0:
125,81,69325,1,10,0:0:0:0:
44,170,69659,5,10,0:0:0:0:
159,201,69992,1,10,0:0:0:0:
274,170,70325,1,2,0:0:0:0:
375,235,70659,1,14,0:0:0:0:
336,348,70992,6,0,L|220:344,1,100,6|8,0:0|0:0,0:0:0:0:
236,284,71492,2,0,L|86:278,1,150,4|10,0:0|0:0,0:0:0:0:
86,158,72325,2,0,L|202:154,1,100,4|8,0:0|0:0,0:0:0:0:
186,94,72825,2,0,L|368:87,1,150,6|8,0:0|0:0,0:0:0:0:
256,192,73659,12,14,76325,0:0:0:0:
36,88,76992,6,0,L|134:78,1,100,2|10,0:0|0:0,0:0:0:0:
255,66,77659,1,2,0:0:0:0:
367,108,77992,6,0,P|384:61|417:23,2,100,14|2|10,0:0|0:0|0:0,0:0:0:0:
488,124,78992,2,0,P|452:196|420:220,1,100,6|8,0:0|0:0,0:0:0:0:
464,264,79492,2,0,P|396:288|296:284,1,150,2|10,0:0|0:0,0:0:0:0:
216,228,80325,1,2,0:0:0:0:
176,340,80659,6,0,P|124:336|56:344,1,100,14|14,0:0|0:0,0:0:0:0:
64,224,81325,2,0,P|88:216|136:216,1,50,14|2,0:0|0:0,0:0:0:0:
172,220,81659,2,0,P|216:228|288:220,1,100,6|8,0:0|0:0,0:0:0:0:
332,216,82159,2,0,P|393:215|494:240,1,150,6|8,0:0|0:0,0:0:0:0:
448,120,82992,6,0,P|480:56|520:32,2,100,6|10|8,0:0|0:0|0:0,0:0:0:0:
328,120,83992,1,14,0:0:0:0:
252,28,84325,2,0,P|180:44|140:68,1,100,6|8,0:0|0:0,0:0:0:0:
100,40,84825,2,0,P|52:96|36:176,1,150,6|14,0:0|0:0,0:0:0:0:
104,268,85659,2,0,L|0:284,2,100,14|14|14,0:0|0:0|0:0,0:0:0:0:
152,156,86659,1,10,0:0:0:0:
252,88,86992,6,0,L|236:32,2,50,6|2|10,0:0|0:0|0:0,0:0:0:0:
308,104,87492,2,0,P|372:96|428:112,1,100,6|6,0:0|0:0,0:0:0:0:
448,216,88159,1,2,0:0:0:0:
388,222,88325,2,0,P|338:229|289:220,1,100,2|14,0:0|0:0,0:0:0:0:
176,180,88992,2,0,P|127:172|78:181,1,100,6|10,0:0|0:0,0:0:0:0:
27,290,89659,6,0,P|76:298|125:290,1,100,6|10,0:0|0:0,0:0:0:0:
184,280,90159,2,0,P|240:280|288:296,1,100,4|2,0:0|0:0,0:0:0:0:
336,320,90659,2,0,L|408:312,2,50,8|2|2,0:0|0:0|0:0,0:0:0:0:
376,208,91325,2,0,L|424:164,2,50,10|0|2,0:0|0:0|0:0,0:0:0:0:
256,188,91992,2,0,L|262:119,1,50,10|2,0:0|0:0,0:0:0:0:
264,80,92325,5,6,0:0:0:0:
148,52,92659,1,10,0:0:0:0:
144,112,92826,2,0,L|139:161,1,50,6|0,0:0|0:0,0:0:0:0:
136,220,93159,2,0,P|185:232|222:264,1,100,6|6,0:0|0:0,0:0:0:0:
340,276,93825,1,0,0:0:0:0:
400,268,93992,2,0,P|437:235|485:223,2,100,14|2|10,0:0|0:0|0:0,0:0:0:0:
392,148,94992,5,6,0:0:0:0:
297,74,95325,2,0,P|264:86|237:86,2,50,10|14|0,0:0|0:0|0:0,0:0:0:0:
352,56,95825,2,0,P|397:52|456:68,2,100,14|14|8,0:0|0:0|0:0,0:0:0:0:
340,116,96659,2,0,P|306:165|272:192,2,100,14|14|10,0:0|0:0|0:0,0:0:0:0:
256,192,97659,12,14,100325,0:0:0:0:
256,192,110992,5,14,0:0:0:0:
176,104,111325,2,0,L|68:104,2,100,8|10|10,0:0|0:0|0:0,0:0:0:0:
372,244,112659,6,0,L|476:244,2,100,10|10|10,0:0|0:0|0:0,0:0:0:0:
268,300,113659,2,0,P|176:292|100:308,2,150,10|2|10,0:0|0:0|0:0,0:0:0:0:
276,180,114992,1,8,0:0:0:0:
156,192,115325,6,0,P|80:180|40:188,2,100,10|10|10,0:0|0:0|0:0,0:0:0:0:
208,83,116325,2,0,P|284:71|324:79,2,100,14|10|10,0:0|0:0|0:0,0:0:0:0:
104,22,117325,2,0,P|91:118|155:191,1,200,10|10,0:0|0:0,0:0:0:0:
268,150,118325,5,10,0:0:0:0:
376,208,118659,1,10,0:0:0:0:
376,328,118992,2,0,P|308:328|224:352,2,150,12|2|10,0:0|0:0|0:0,0:0:0:0:
472,252,120325,2,0,L|480:192,2,50,12|2|10,0:0|0:0|0:0,0:0:0:0:
364,196,120992,2,0,L|372:136,2,50,14|0|8,0:0|0:0|0:0,0:0:0:0:
256,252,121659,5,12,0:0:0:0:
268,132,121992,1,8,0:0:0:0:
352,44,122325,1,10,0:0:0:0:
236,20,122659,2,0,P|156:20|120:24,1,100,10|8,0:0|0:0,0:0:0:0:
84,132,123325,5,10,0:0:0:0:
204,124,123659,2,0,P|284:124|320:128,1,100,10|10,0:0|0:0,0:0:0:0:
348,240,124325,2,0,P|296:248|240:248,1,100,10|10,0:0|0:0,0:0:0:0:
188,240,124825,2,0,P|100:236|28:252,1,150,2|10,0:0|0:0,0:0:0:0:
28,128,125659,1,10,0:0:0:0:
108,40,125992,6,0,L|-8:12,2,100,10|10|10,0:0|0:0|0:0,0:0:0:0:
228,40,126992,2,0,P|264:28|292:28,1,50,14|2,0:0|0:0,0:0:0:0:
332,44,127325,2,0,P|369:51|393:65,1,50,10|2,0:0|0:0,0:0:0:0:
416,104,127659,2,0,P|436:120|451:140,2,50,10|2|10,0:0|0:0|0:0,0:0:0:0:
356,208,128325,5,8,0:0:0:0:
236,184,128659,2,0,P|160:176|128:180,2,100,10|10|10,0:0|0:0|0:0,0:0:0:0:
176,288,129659,2,0,P|240:284|304:292,1,100,14|8,0:0|0:0,0:0:0:0:
336,276,130159,2,0,P|416:284|492:308,1,150,2|10,0:0|0:0,0:0:0:0:
484,184,130992,2,0,L|500:120,2,50,14|0|10,0:0|0:0|0:0,0:0:0:0:
372,136,131659,2,0,L|388:200,2,50,14|0|2,0:0|0:2|0:0,0:0:0:0:
260,184,132325,5,6,0:0:0:0:
140,184,132659,1,2,0:0:0:0:
144,64,132992,1,2,0:0:0:0:
264,64,133325,5,2,0:0:0:0:
379,36,133659,2,0,P|421:9|471:4,2,100,4|10|0,0:0|0:0|0:0,0:0:0:0:
464,124,134659,2,0,P|445:228|427:250,1,100,10|2,0:0|0:0,0:0:0:0:
360,300,135325,6,0,P|300:288|276:292,1,50,10|0,0:0|0:0,0:0:0:0:
288,232,135659,2,0,P|230:251|211:267,1,50,2|0,0:0|0:0,0:0:0:0:
188,216,135992,2,0,P|147:261|139:284,1,50,10|0,0:0|0:0,0:0:0:0:
100,280,136325,1,2,0:0:0:0:
56,168,136659,6,0,P|60:128|76:88,1,50,10|0,0:0|0:0,0:0:0:0:
124,116,136992,2,0,P|147:83|181:56,1,50,2|0,0:0|0:0,0:0:0:0:
216,80,137325,2,0,P|252:63|324:60,2,100,10|0|10,0:0|0:0|0:0,0:0:0:0:
256,192,138325,5,2,0:0:0:0:
372,228,138659,1,8,0:0:0:0:
472,164,138992,2,0,P|440:100|392:76,2,100,6|10|2,0:0|0:0|0:0,0:0:0:0:
372,228,139992,2,0,P|272:194|173:201,1,200,10|10,0:0|0:0,0:0:0:0:
158,318,140992,2,0,P|107:320|43:302,1,100,2|10,0:0|0:0,0:0:0:0:
256,192,141659,12,6,144325,0:0:0:0:
247,55,145992,6,0,P|296:40|346:45,2,100,10|2|10,0:0|0:0|0:0,0:0:0:0:
308,160,146992,2,0,P|259:175|209:170,2,100,2|2|2,0:0|0:0|0:0,0:0:0:0:
424,192,147992,1,10,0:0:0:0:
240,348,148659,5,10,0:0:0:0:
148,272,148992,1,10,0:0:0:0:
240,196,149325,1,10,0:0:0:0:
148,120,149659,6,4,P|184:64|216:44,1,100,6|8,0:0|0:0,0:0:0:0:
268,64,150159,2,0,P|340:44|444:60,1,150,4|10,0:0|0:0,0:0:0:0:
452,164,150992,2,0,P|416:220|384:240,1,100,4|8,0:0|0:0,0:0:0:0:
332,220,151492,2,0,P|260:240|156:224,1,150,6|8,0:0|0:0,0:0:0:0:
68,224,152325,5,4,0:0:0:0:
132,120,152659,1,8,0:0:0:0:
185,92,152826,2,0,P|256:70|331:75,1,150,14|14,0:0|0:0,0:0:0:0:
444,116,153659,1,12,0:0:0:0:
352,192,153992,2,0,P|356:280|380:324,2,100,6|6|6,0:0|0:0|0:0,0:0:0:0:
330,74,154992,6,0,L|173:64,1,150,14|10,0:0|0:0,0:0:0:0:
108,232,155992,2,0,L|257:222,1,150,14|10,0:0|0:0,0:0:0:0:
408,124,156992,6,0,P|363:101|315:87,1,100,14|14,0:0|0:0,0:0:0:0:
212,24,157659,2,0,P|132:40|80:76,1,100,14|14,0:0|0:0,0:0:0:0:
132,108,158159,2,0,P|88:164|72:260,1,150,0|10,0:0|0:0,0:0:0:0:
132,344,158992,5,2,0:0:0:0:
192,240,159325,1,10,0:0:0:0:
312,240,159659,1,2,0:0:0:0:
376,340,159992,1,10,0:0:0:0:
448,244,160325,6,0,P|448:184|424:112,1,100,4|10,0:0|0:0,0:0:0:0:
380,132,160825,2,0,P|344:84|296:60,1,100,2|2,0:0|0:0,0:0:0:0:
256,88,161325,2,0,P|200:80|168:68,2,50,8|2|2,0:0|0:0|0:0,0:0:0:0:
276,208,161992,1,10,0:0:0:0:
167,261,162325,1,2,0:0:0:0:
82,176,162659,1,14,0:0:0:0:
137,69,162992,6,0,L|120:12,2,50,6|0|10,0:0|0:0|0:0,0:0:0:0:
256,72,163659,2,0,L|241:119,2,50,6|2|10,0:0|0:0|0:0,0:0:0:0:
376,72,164325,2,0,L|496:88,2,100,6|14|12,0:0|0:0|0:0,0:0:0:0:
320,180,165325,1,8,0:0:0:0:
256,284,165659,6,0,L|80:296,1,150,12|2,0:0|0:0,0:0:0:0:
56,120,166659,2,0,L|205:109,1,150,14|6,0:0|0:0,0:0:0:0:
324,244,167659,6,0,P|404:232|448:208,1,100,14|14,0:0|0:0,0:0:0:0:
408,104,168325,2,0,P|432:96|460:96,2,50,6|0|10,0:0|0:0|0:0,0:0:0:0:
352,120,168825,2,0,P|292:124|220:116,1,100,2|2,0:0|0:0,0:0:0:0:
192,108,169325,2,0,P|152:104|120:108,1,50,10|0,0:0|0:0,0:0:0:0:
80,108,169659,5,6,0:0:0:0:
120,220,169992,1,10,0:0:0:0:
12,272,170325,1,2,0:0:0:0:
108,344,170659,6,0,P|172:344|196:352,1,50,12|0,0:0|0:0,0:0:0:0:
216,364,170992,2,0,P|264:368|328:344,1,100,6|10,0:0|0:0,0:0:0:0:
364,324,171492,2,0,P|472:316|536:328,1,150,6|10,0:0|0:0,0:0:0:0:
492,204,172325,2,0,P|420:192|376:196,1,100,6|10,0:0|0:0,0:0:0:0:
364,140,172825,2,0,P|277:122|204:126,1,150,6|8,0:0|0:0,0:0:0:0:
256,192,173659,12,6,176325,0:0:0:0:
391,188,176992,6,0,L|291:194,1,100,2|10,0:0|0:0,0:0:0:0:
172,200,177659,1,2,0:0:0:0:
120,92,177992,6,0,P|64:76|8:76,2,100,14|2|10,0:0|0:0|0:0,0:0:0:0:
240,84,178992,2,0,P|312:80|364:64,1,100,6|10,0:0|0:0,0:0:0:0:
348,12,179492,2,0,P|432:8|508:24,1,150,2|10,0:0|0:0,0:0:0:0:
444,128,180325,5,2,0:0:0:0:
324,120,180659,1,14,0:0:0:0:
208,152,180992,1,6,0:0:0:0:
144,256,181325,1,10,0:0:0:0:
148,376,181659,2,0,P|220:348|288:344,1,100,6|10,0:0|0:0,0:0:0:0:
280,300,182159,2,0,P|380:304|456:328,1,150,6|10,0:0|0:0,0:0:0:0:
404,200,182992,5,6,0:0:0:0:
456,92,183325,1,14,0:0:0:0:
396,80,183492,2,0,P|320:68|220:68,1,150,2|14,0:0|0:0,0:0:0:0:
196,176,184325,6,0,L|76:168,1,100,6|10,0:0|0:0,0:0:0:0:
52,212,184825,2,0,L|2:208,2,50,2|6|0,0:0|0:0|0:0,0:0:0:0:
88,260,185325,2,0,L|137:263,1,50,10|2,0:0|0:0,0:0:0:0:
180,308,185659,2,0,L|279:314,2,100,14|14|14,0:0|0:0|0:0,0:0:0:0:
152,68,186992,5,6,0:0:0:0:
272,56,187325,1,10,0:0:0:0:
332,52,187492,2,0,P|408:56|456:72,1,100,6|2,0:0|0:0,0:0:0:0:
432,184,188159,1,8,0:0:0:0:
372,188,188326,2,0,P|296:184|248:168,2,100,2|10|14,0:0|0:0|0:0,0:0:0:0:
492,172,189325,1,10,0:0:0:0:
456,288,189659,6,0,P|400:292|336:316,1,100,6|10,0:0|0:0,0:0:0:0:
316,348,190159,2,0,P|256:352|163:333,1,150,14|2,0:0|0:0,0:0:0:0:
57,288,190992,1,6,0:0:0:0:
290,230,191659,1,2,0:0:0:0:
464,64,192325,5,6,0:0:0:0:
348,40,192659,1,10,0:0:0:0:
288,28,192825,2,0,P|224:24|160:36,2,100,6|2|6,0:0|0:0|0:0,0:0:0:0:
244,140,193825,1,0,0:0:0:0:
184,140,193992,2,0,P|88:156|52:176,2,100,12|8|8,0:0|0:0|0:0,0:0:0:0:
304,148,194992,5,14,0:0:0:0:
232,244,195325,1,10,0:0:0:0:
174,259,195492,2,0,P|85:299|55:327,2,100,14|2|4,0:0|0:0|0:0,0:0:0:0:
192,200,196325,6,0,P|201:103|191:63,1,100,2|14,0:0|0:0,0:0:0:0:
96,44,196992,2,0,P|87:141|97:181,1,100,10|14,0:0|0:0,0:0:0:0:
192,200,197659,2,0,L|308:172,1,100,14|8,0:0|0:0,0:0:0:0:
348,164,198159,1,14,0:0:0:0:
224,368,198825,6,0,P|152:372|56:356,1,150,14|14,0:0|0:0,0:0:0:0:
36,248,199659,2,0,P|88:220|152:216,1,100,14|14,0:0|0:0,0:0:0:0:
48,124,200325,6,0,P|95:89|158:76,1,100,14|10,0:0|0:0,0:0:0:0:
156,24,200825,2,0,P|212:8|320:12,1,150,6|10,0:0|0:0,0:0:0:0:
424,24,201659,1,2,0:0:0:0:
356,120,201992,6,0,P|404:130|446:158,1,100,14|2,0:0|0:0,0:0:0:0:
358,242,202659,1,14,0:0:0:0:
260,172,202992,2,0,P|188:176|136:204,1,100,14|8,0:0|0:0,0:0:0:0:
108,160,203492,2,0,P|52:212|32:300,1,150,6|8,0:0|0:0,0:0:0:0:
116,368,204325,5,6,0:0:0:0:
232,344,204659,2,0,P|281:349|330:339,2,100,6|2|14,0:0|0:0|0:0,0:0:0:0:
148,244,205659,2,0,P|176:176|208:144,1,100,6|10,0:0|0:0,0:0:0:0:
252,164,206159,2,0,P|304:136|416:124,1,150,6|14,0:0|0:0,0:0:0:0:
352,8,206992,5,14,0:0:0:0:
244,56,207325,1,14,0:0:0:0:
128,20,207659,1,14,0:0:0:0:
60,250,208325,5,6,0:0:0:0:
174,286,208659,1,14,0:0:0:0:
233,277,208825,2,0,P|297:271|372:287,1,100,2|6,0:0|0:0,0:0:0:0:
444,228,209492,1,6,0:0:0:0:
428,168,209659,2,0,P|424:104|436:56,2,100,2|14|6,0:0|0:0|0:0,0:0:0:0:
316,124,210659,5,14,0:0:0:0:
224,44,210992,2,0,P|144:52|112:76,1,100,6|10,0:0|0:0,0:0:0:0:
68,60,211492,2,0,P|40:112|36:168,1,100,6|6,0:0|0:0,0:0:0:0:
64,268,212159,5,4,0:0:0:0:
124,264,212325,2,0,L|244:256,1,100,2|14,0:0|0:0,0:0:0:0:
324,328,212992,2,0,L|468:320,1,100,2|10,0:0|0:0,0:0:0:0:
492,224,213659,5,6,0:0:0:0:
400,148,213992,1,8,0:0:0:0:
340,160,214159,2,0,P|264:168|200:156,2,100,6|10|4,0:0|0:0|0:0,0:0:0:0:
276,56,215159,1,0,0:0:0:0:
216,48,215326,2,0,P|140:40|76:52,2,100,14|2|10,0:0|0:0|0:0,0:0:0:0:
240,165,216325,5,6,0:0:0:0:
312,260,216659,1,10,0:0:0:0:
368,244,216825,2,0,P|420:228|496:224,1,100,6|6,0:0|0:0,0:0:0:0:
464,104,217492,1,6,0:0:0:0:
408,84,217659,2,0,P|300:64|268:68,1,100,2|14,0:0|0:0,0:0:0:0:
192,48,218325,1,12,0:0:0:0:
72,56,218659,1,12,0:0:0:0:
141,153,218992,6,0,P|132:188|129:223,1,50,14|2,0:0|0:0,0:0:0:0:
137,261,219325,2,0,P|146:295|161:327,1,50,12|2,0:0|0:0,0:0:0:0:
256,248,219825,1,2,0:0:0:0:
374,261,220159,6,0,P|368:285|360:308,2,50,4|0|0,0:0|0:0|0:0,0:0:0:0:
381,201,220659,2,0,P|377:177|371:153,1,50,12|0,0:0|0:0,0:0:0:0:
347,95,220992,2,0,P|319:55|280:24,1,100,2|8,0:0|0:0,0:0:0:0:
232,136,221659,5,6,0:0:0:0:
162,233,221992,1,14,0:0:0:0:
162,233,222159,1,2,0:0:0:0:
232,331,222492,1,6,0:0:0:0:
347,293,222825,1,4,0:0:0:0:
347,293,222992,2,0,P|424:267|440:247,1,100,8|14,0:0|0:0,0:0:0:0:
347,173,223659,2,0,P|348:103|332:63,2,100,14|14|12,0:0|0:0|0:0,0:0:0:0:
256,192,224825,12,10,229492,0:0:0:0:
