osu file format v14

[General]
AudioFilename: audio.mp3
AudioLeadIn: 0
PreviewTime: 63933
Countdown: 0
SampleSet: Soft
StackLeniency: 0.7
Mode: 2
LetterboxInBreaks: 0
WidescreenStoryboard: 1

[Editor]
DistanceSpacing: 1.2
BeatDivisor: 4
GridSize: 8
TimelineZoom: 2.4

[Metadata]
Title:Sakura no Uta
TitleUnicode:櫻ノ詩
Artist:Hana
ArtistUnicode:はな
Creator:Sanyi
Version:Spring
Source:サクラノ詩 -櫻の森の上を舞う-
Tags:sakura no uta - sakura no mori no ue o mau - metrowing makura 枕 eroge galgame jeir jeriyagtama
BeatmapID:1577017
BeatmapSetID:748610

[Difficulty]
HPDrainRate:6
CircleSize:4.5
OverallDifficulty:9.3
ApproachRate:9.3
SliderMultiplier:1.9
SliderTickRate:2

[Events]
//Background and Video events
0,0,"bg.jpg",0,0
//Break Periods
//Storyboard Layer 0 (Background)
//Storyboard Layer 1 (Fail)
//Storyboard Layer 2 (Pass)
//Storyboard Layer 3 (Foreground)
//Storyboard Sound Samples

[TimingPoints]
1350,333.333333333333,4,2,1,60,1,0
1350,-100,4,2,1,60,0,0
1683,-100,4,2,1,60,0,0
1849,-100,4,2,1,60,0,0
2016,-100,4,2,1,60,0,0
2183,-100,4,2,1,60,0,0
2349,-100,4,2,1,60,0,0
2849,-100,4,2,1,60,0,0
3016,-100,4,2,1,60,0,0
3183,-100,4,2,1,60,0,0
3349,-100,4,2,1,60,0,0
3516,-100,4,2,1,60,0,0
3683,-100,4,2,1,60,0,0
3849,-100,4,2,1,60,0,0
4016,-100,4,2,2,60,0,0
4349,-100,4,2,1,60,0,0
4516,-100,4,2,1,60,0,0
4849,-100,4,2,1,60,0,0
5016,-100,4,2,1,60,0,0
5849,-100,4,2,1,60,0,0
6016,-100,4,2,1,60,0,0
6183,-100,4,2,1,60,0,0
6349,-100,4,2,1,60,0,0
6516,-100,4,2,1,60,0,0
6683,-100,4,2,2,60,0,0
6849,-100,4,2,1,60,0,0
7016,-100,4,2,1,60,0,0
7183,-100,4,2,1,60,0,0
7349,-100,4,2,1,60,0,0
7516,-100,4,2,1,60,0,0
7683,-100,4,2,1,60,0,0
8183,-100,4,2,1,60,0,0
8349,-100,4,2,1,60,0,0
8683,-100,4,2,1,60,0,0
8849,-100,4,2,1,60,0,0
9016,-100,4,2,1,60,0,0
9349,-100,4,2,1,60,0,0
9683,-100,4,2,1,60,0,0
9849,-100,4,2,1,60,0,0
10183,-100,4,2,1,60,0,0
10349,-100,4,2,1,60,0,0
10516,-100,4,2,1,60,0,0
10683,-100,4,2,1,60,0,0
10849,-100,4,2,1,60,0,0
11516,-100,4,2,1,60,0,0
11683,-100,4,2,1,60,0,0
11849,-100,4,2,1,60,0,0
12016,-100,4,2,0,60,0,0
12183,-100,4,2,1,60,0,0
12266,-100,4,2,1,60,0,0
12349,-100,4,2,1,60,0,0
12683,-100,4,2,1,60,0,0
12849,-100,4,2,1,60,0,0
13016,-100,4,2,1,60,0,0
14016,-100,4,2,1,60,0,0
14183,-100,4,2,1,60,0,0
14683,-100,4,2,1,60,0,0
14933,-100,4,2,1,60,0,0
15016,-100,4,2,1,60,0,0
15183,-100,4,2,1,60,0,0
15349,-100,4,2,1,60,0,0
15683,-100,4,2,1,60,0,0
15849,-100,4,2,1,60,0,0
16016,-100,4,2,1,60,0,0
16349,-100,4,2,1,60,0,0
16599,-100,4,2,1,60,0,0
16683,-100,4,2,1,60,0,0
16849,-100,4,2,1,60,0,0
17016,-100,4,2,1,60,0,0
17183,-100,4,2,1,60,0,0
17349,-100,4,2,0,60,0,0
17516,-100,4,2,1,60,0,0
17683,-100,4,2,1,60,0,0
17849,-100,4,2,1,60,0,0
18016,-100,4,2,1,60,0,0
18183,-100,4,2,1,60,0,0
18516,-100,4,2,1,60,0,0
18683,-100,4,2,1,60,0,0
18849,-100,4,2,1,60,0,0
19016,-100,4,2,1,60,0,0
19183,-100,4,2,1,60,0,0
19349,-100,4,2,1,60,0,0
19516,-100,4,2,1,60,0,0
19683,-100,4,2,1,60,0,0
19849,-100,4,2,1,60,0,0
20016,-100,4,2,0,60,0,0
20183,-100,4,2,1,60,0,0
20349,-100,4,2,1,60,0,0
20516,-100,4,2,1,60,0,0
20683,-100,4,2,1,60,0,0
20849,-100,4,2,1,60,0,0
21016,-100,4,2,1,60,0,0
21183,-100,4,2,1,60,0,0
21349,-100,4,2,1,60,0,0
21683,-100,4,2,1,60,0,0
21849,-100,4,2,1,60,0,0
21933,-100,4,2,1,60,0,0
22349,-100,4,2,1,60,0,0
22516,-100,4,2,1,60,0,0
22683,-100,4,2,1,60,0,0
22849,-100,4,2,1,60,0,0
23016,-100,4,2,1,60,0,0
23183,-100,4,2,1,60,0,0
23349,-100,4,2,1,60,0,0
23516,-100,4,2,1,60,0,0
23683,-100,4,2,1,60,0,0
23849,-100,4,2,1,60,0,0
24016,-100,4,2,1,60,0,0
24349,-100,4,2,3,60,0,0
28183,-100,4,2,3,60,0,0
28349,-100,4,2,3,60,0,0
32849,-100,4,2,1,60,0,0
33016,-100,4,2,3,60,0,0
33516,-100,4,2,3,60,0,0
33683,-100,4,2,3,60,0,0
33849,-100,4,2,3,60,0,0
34016,-100,4,2,3,60,0,0
34349,-100,4,2,1,60,0,0
35016,-100,4,2,3,60,0,0
37516,-100,4,2,3,60,0,0
37683,-100,4,2,3,60,0,0
38183,-100,4,2,3,60,0,0
38349,-100,4,2,3,60,0,0
38516,-100,4,2,3,60,0,0
39683,-100,4,2,1,60,0,0
40016,-100,4,2,2,60,0,0
40516,-100,4,2,1,60,0,0
40599,-100,4,2,1,60,0,0
40683,-100,4,2,3,60,0,0
41183,-100,4,2,1,60,0,0
41349,-100,4,2,2,60,0,0
42349,-100,4,2,1,60,0,0
42433,-100,4,2,1,60,0,0
43183,-100,4,2,1,60,0,0
43349,-100,4,2,1,60,0,0
44516,-100,4,2,1,60,0,0
44599,-100,4,2,1,60,0,0
45516,-100,4,2,1,60,0,0
45849,-100,4,2,1,60,0,0
46183,-100,4,2,1,60,0,0
46349,-100,4,2,1,60,0,0
47183,-100,4,2,1,60,0,0
47349,-100,4,2,1,60,0,0
47433,-100,4,2,1,60,0,0
47683,-100,4,2,1,60,0,0
47766,-100,4,2,1,60,0,0
48016,-100,4,2,1,60,0,0
48099,-100,4,2,1,60,0,0
48516,-100,4,2,1,60,0,0
48683,-100,4,2,1,60,0,0
50183,-100,4,2,1,60,0,0
50349,-100,4,2,1,60,0,0
50683,-100,4,2,2,60,0,0
51016,-100,4,2,1,60,0,0
51183,-100,4,2,1,60,0,0
52016,-100,4,2,2,60,0,0
52516,-100,4,2,1,60,0,0
52683,-100,4,2,1,60,0,0
53016,-100,4,2,1,60,0,0
53183,-100,4,2,1,60,0,0
54349,-100,4,2,1,60,0,0
54516,-100,4,2,1,60,0,0
55016,-100,4,2,1,60,0,0
55349,-100,4,2,1,60,0,0
56849,-100,4,2,1,60,0,0
57183,-100,4,2,1,60,0,0
57516,-100,4,2,1,60,0,0
57683,-100,4,2,1,60,0,0
58016,-100,4,2,1,60,0,0
58349,-100,4,2,1,60,0,0
59183,-100,4,2,1,60,0,0
59349,-100,4,2,1,60,0,0
60016,-100,4,2,1,60,0,0
60183,-100,4,2,1,60,0,0
60683,-100,4,2,1,60,0,0
60849,-100,4,2,1,60,0,0
61349,-100,4,2,2,60,0,0
61683,-100,4,2,1,60,0,0
62683,-100,4,2,2,60,0,0
63016,-100,4,2,1,60,0,0
63516,-100,4,2,1,60,0,0
63599,-100,4,2,1,60,0,0
64016,-100,4,2,2,60,0,0
64683,-100,4,2,2,60,0,0
64849,-100,4,2,1,60,0,0
65349,-100,4,2,2,60,0,0
66016,-100,4,2,1,60,0,0
66183,-100,4,2,1,60,0,0
66516,-100,4,2,1,60,0,0
66599,-100,4,2,1,60,0,0
66683,-100,4,2,1,60,0,1
67183,-100,4,2,1,60,0,1
67266,-100,4,2,1,60,0,1
67849,-100,4,2,1,60,0,1
67933,-100,4,2,1,60,0,1
71016,-100,4,2,1,60,0,1
71099,-100,4,2,1,60,0,1
71183,-100,4,2,1,60,0,1
71266,-100,4,2,1,60,0,1
74683,-100,4,2,2,60,0,1
75183,-100,4,2,1,60,0,1
76016,-100,4,2,2,60,0,1
77016,-100,4,2,1,60,0,1
77266,-100,4,2,1,60,0,1
77349,-100,4,2,2,60,0,1
77683,-100,4,2,1,60,0,1
78349,-100,4,2,1,60,0,1
78516,-100,4,2,1,60,0,1
78599,-100,4,2,1,60,0,1
78683,-100,4,2,2,60,0,1
79016,-100,4,2,1,60,0,1
80016,-100,4,2,2,60,0,1
80183,-100,4,2,1,60,0,1
81016,-100,4,2,1,60,0,1
81183,-100,4,2,1,60,0,1
81266,-100,4,2,1,60,0,1
81349,-100,4,2,2,60,0,1
81683,-100,4,2,1,60,0,1
82683,-100,4,2,2,60,0,1
83016,-100,4,2,1,60,0,1
83266,-100,4,2,1,60,0,1
83683,-100,4,2,1,60,0,1
83849,-100,4,2,1,60,0,1
84016,-100,4,2,2,60,0,1
84183,-100,4,2,1,60,0,1
85349,-100,4,2,2,60,0,1
85683,-100,4,2,1,60,0,1
86349,-100,4,2,1,60,0,1
86599,-100,4,2,1,60,0,1
86683,-100,4,2,2,60,0,1
87016,-100,4,2,1,60,0,1
87349,-100,4,2,1,60,0,1
88016,-100,4,2,2,60,0,1
88349,-100,4,2,1,60,0,1
89099,-100,4,2,1,60,0,1
89349,-100,4,2,2,60,0,1
89683,-100,4,2,1,60,0,1
90349,-100,4,2,1,60,0,1
90599,-100,4,2,1,60,0,1
90683,-100,4,2,2,60,0,1
91016,-100,4,2,1,60,0,1
91849,-100,4,2,1,60,0,1
91933,-100,4,2,1,60,0,1
92016,-100,4,2,1,60,0,1
92516,-100,4,2,1,60,0,1
92683,-100,4,2,1,60,0,1
93016,-100,4,2,1,60,0,1
93099,-100,4,2,1,60,0,1
93349,-100,4,2,1,60,0,0
93849,-100,4,2,1,60,0,0
94016,-100,4,2,1,60,0,0
94349,-100,4,2,1,60,0,0
94516,-100,4,2,1,60,0,0
94849,-100,4,2,1,60,0,0
95016,-100,4,2,1,60,0,0
95349,-100,4,2,1,60,0,0
95516,-100,4,2,1,60,0,0
95683,-100,4,2,1,60,0,0
95849,-100,4,2,1,60,0,0
96016,-100,4,2,1,60,0,0
96349,-100,4,2,1,60,0,0
96516,-100,4,2,1,60,0,0
96683,-100,4,2,1,60,0,0
96849,-100,4,2,1,60,0,0
97016,-100,4,2,1,60,0,0
97183,-100,4,2,1,60,0,0
97349,-100,4,2,1,60,0,0
97516,-100,4,2,1,60,0,0
97683,-100,4,2,1,60,0,0
97849,-100,4,2,1,60,0,0
98016,-100,4,2,1,60,0,0
98099,-100,4,2,1,60,0,0

[Colours]
Combo1 : 0,255,255
Combo2 : 255,128,255
Combo3 : 255,255,255
Combo4 : 0,255,64

[HitObjects]
144,336,1350,6,0,P|88:256|152:216,1,190,2|0,0:0|0:0,0:0:0:0:
224,216,1849,1,0,0:0:0:0:
392,216,2016,2,0,L|280:216,1,95,2|0,0:0|0:0,0:0:0:0:
448,128,2349,1,2,0:0:0:0:
160,352,3016,6,0,L|160:256,1,95,2|0,0:0|0:0,0:0:0:0:
328,184,3349,2,0,L|432:184,1,95,2|0,0:0|0:0,0:0:0:0:
328,96,3683,2,0,L|432:96,1,95,2|0,0:0|0:0,0:0:0:0:
256,344,4016,6,0,P|200:264|264:224,1,190,2|0,0:0|0:0,0:0:0:0:
424,48,4516,2,0,L|257:144,1,190,2|0,0:0|0:0,0:0:0:0:
408,192,5016,1,2,0:0:0:0:
104,312,5683,6,0,L|104:208,1,95,2|0,0:0|0:0,0:0:0:0:
272,104,6016,2,0,L|384:104,1,95,2|0,0:0|0:0,0:0:0:0:
284,176,6266,1,0,0:0:0:0:
200,176,6349,2,0,L|80:176,1,95,0|0,0:0|0:0,0:0:0:0:
272,336,6683,5,2,0:0:0:0:
184,336,6849,1,0,0:0:0:0:
272,336,7016,1,2,0:0:0:0:
184,336,7183,1,0,0:0:0:0:
352,248,7349,1,2,0:0:0:0:
440,248,7516,1,0,0:0:0:0:
440,248,7683,1,2,0:0:0:0:
208,248,8183,5,0,0:0:0:0:
120,248,8349,1,2,0:0:0:0:
208,248,8516,1,0,0:0:0:0:
376,144,8683,1,2,0:0:0:0:
288,144,8849,1,0,0:0:0:0:
376,144,9016,1,2,0:0:0:0:
88,344,9349,6,0,P|32:264|96:224,1,190,2|0,0:0|0:0,0:0:0:0:
256,112,9849,2,0,L|89:208,1,190,2|0,0:0|0:0,0:0:0:0:
256,272,10349,2,0,L|352:272,1,95,2|0,0:0|0:0,0:0:0:0:
256,200,10683,5,4,0:1:0:0:
480,112,10849,1,0,0:0:0:0:
256,120,11016,2,0,L|160:120,1,95,8|0,0:0|0:0,0:0:0:0:
384,56,11349,2,0,L|272:56,1,95,10|0,0:0|0:0,0:0:0:0:
448,304,11683,1,8,0:0:0:0:
487,279,11766,1,8,0:0:0:0:
494,233,11849,1,8,0:0:0:0:
465,197,11933,1,8,0:0:0:0:
232,56,12016,6,0,L|232:168,1,95,4|0,0:0|0:0,0:0:0:0:
400,56,12349,2,0,L|400:160,1,95,4|0,0:0|0:0,0:0:0:0:
176,248,12683,1,4,0:0:0:0:
400,248,12849,1,0,0:0:0:0:
176,136,13016,6,0,L|72:136,1,95,4|0,0:0|0:0,0:0:0:0:
176,136,13349,2,0,L|80:136,1,95,4|0,0:0|0:0,0:0:0:0:
304,128,13683,2,0,L|408:128,1,95,4|0,0:0|0:0,0:0:0:0:
176,48,14016,2,0,L|64:48,1,95,4|0,0:0|0:0,0:0:0:0:
304,128,14349,2,0,L|408:128,1,95,4|0,0:0|0:0,0:0:0:0:
160,344,14683,6,0,L|272:344,1,95,4|0,0:0|0:0,0:0:0:0:
160,272,15016,1,4,0:0:0:0:
384,352,15183,2,0,L|272:352,1,95,0|4,0:0|0:0,0:0:0:0:
384,280,15516,1,0,0:0:0:0:
160,184,15683,2,0,L|48:184,1,95,4|0,0:0|0:0,0:0:0:0:
160,184,16016,6,0,L|48:184,1,95,4|0,0:0|0:0,0:0:0:0:
288,312,16349,2,0,L|384:312,1,95,4|0,0:0|0:0,0:0:0:0:
128,224,16683,2,0,L|32:224,1,95,4|0,0:0|0:0,0:0:0:0:
320,176,17016,2,0,L|424:176,1,95,4|0,0:0|0:0,0:0:0:0:
160,168,17349,5,4,0:0:0:0:
256,168,17516,1,0,0:0:0:0:
32,96,17683,1,4,0:0:0:0:
128,96,17849,1,0,0:0:0:0:
352,280,18016,1,4,0:0:0:0:
256,280,18183,1,0,0:0:0:0:
480,208,18349,1,4,0:0:0:0:
344,360,18683,5,4,0:0:0:0:
512,144,18849,1,0,0:0:0:0:
352,144,19016,1,4,0:0:0:0:
192,144,19183,1,0,0:0:0:0:
416,280,19349,1,12,0:0:0:0:
320,280,19516,1,0,0:0:0:0:
464,216,19683,1,12,0:0:0:0:
56,168,20016,6,0,L|152:168,1,95,4|0,0:0|0:0,0:0:0:0:
248,168,20349,1,4,0:0:0:0:
24,296,20516,2,0,L|128:296,2,95,0|4|0,0:0|0:0|0:0,0:0:0:0:
248,232,21016,6,0,L|360:232,1,95,4|0,0:0|0:0,0:0:0:0:
248,168,21349,2,0,L|144:168,1,95,4|0,0:1|0:0,0:0:0:0:
376,328,21683,2,0,L|376:232,1,95,4|0,0:0|0:0,0:0:0:0:
152,256,22016,2,0,P|112:232|104:184,1,95
135,141,22266,1,8,0:0:0:0:
320,176,22349,1,8,0:0:0:0:
359,151,22432,1,8,0:0:0:0:
366,105,22515,1,8,0:0:0:0:
337,69,22599,1,8,0:0:0:0:
24,72,22683,6,0,L|120:72,2,95,2|0|0,0:0|0:0|0:0,0:0:0:0:
248,304,23183,1,2,0:0:0:0:
472,168,23349,1,0,0:0:0:0:
376,168,23516,1,0,0:0:0:0:
208,64,23683,2,0,L|312:64,1,95,2|0,0:0|0:0,0:0:0:0:
48,328,24016,6,0,L|48:232,1,95,4|0,0:1|0:0,0:0:0:0:
208,328,24349,2,0,L|208:232,1,95,2|0,0:0|0:0,0:0:0:0:
368,112,24683,2,0,L|480:112,1,95,2|0,0:0|0:0,0:0:0:0:
240,328,25016,6,0,L|240:232,1,95,2|0,0:0|0:0,0:0:0:0:
336,328,25349,2,0,L|336:224,1,95,2|0,0:0|0:0,0:0:0:0:
112,128,25683,2,0,L|8:128,1,95,2|0,0:0|0:0,0:0:0:0:
184,40,26016,2,0,L|280:40,1,95,2|0,0:0|0:0,0:0:0:0:
112,128,26349,2,0,L|16:128,1,95,2|0,0:0|0:0,0:0:0:0:
240,344,26683,6,0,L|240:240,1,95,2|0,0:0|0:0,0:0:0:0:
400,344,27016,2,0,L|400:248,1,95,2|0,0:0|0:0,0:0:0:0:
240,120,27349,2,0,L|128:120,1,95,2|0,0:0|0:0,0:0:0:0:
368,256,27683,6,0,P|440:128|352:24,1,285,2|0,0:0|0:0,0:0:0:0:
144,320,28349,2,0,L|48:320,1,95,2|0,0:0|0:0,0:0:0:0:
272,192,28683,2,0,L|176:192,1,95,8|0,0:3|0:0,0:0:0:0:
272,112,29016,2,0,L|160:112,1,95,4|0,0:3|0:0,0:0:0:0:
400,344,29349,6,0,L|504:344,1,95,4|0,0:1|0:0,0:0:0:0:
328,256,29683,2,0,L|224:256,1,95,2|0,0:0|0:0,0:0:0:0:
400,176,30016,2,0,L|504:176,1,95,2|0,0:0|0:0,0:0:0:0:
256,184,30349,6,0,L|256:72,1,95,2|0,0:0|0:0,0:0:0:0:
352,184,30683,2,0,L|352:80,1,95,2|0,0:0|0:0,0:0:0:0:
184,328,31016,2,0,L|64:328,1,95,2|0,0:0|0:0,0:0:0:0:
256,248,31349,2,0,L|376:248,1,95,8|0,0:3|0:0,0:0:0:0:
128,248,31683,2,0,L|16:248,1,95,4|2,0:3|0:0,0:0:0:0:
280,48,32016,6,0,L|113:144,1,190,4|2,0:0|0:0,0:0:0:0:
336,320,32516,2,0,P|392:240|328:200,1,190,2|0,0:0|0:0,0:0:0:0:
104,192,33016,6,0,L|208:192,1,95,2|0,0:0|0:0,0:0:0:0:
296,192,33349,2,0,L|296:96,1,95,2|0,0:0|0:0,0:0:0:0:
128,336,33683,2,0,L|32:336,1,95,8|0,0:3|0:0,0:0:0:0:
200,248,34016,1,4,0:3:0:0:
424,240,34183,1,4,0:3:0:0:
264,128,34349,2,0,L|168:128,1,95,8|0,0:0|0:0,0:0:0:0:
392,160,34683,6,0,L|392:64,1,95,4|0,0:1|0:0,0:0:0:0:
232,328,35016,2,0,L|232:232,1,95,2|0,0:0|0:0,0:0:0:0:
408,200,35350,2,0,L|520:200,1,95,2|0,0:0|0:0,0:0:0:0:
280,328,35683,6,0,L|280:232,1,95,2|0,0:0|0:0,0:0:0:0:
184,328,36016,2,0,L|184:224,1,95,2|0,0:0|0:0,0:0:0:0:
408,120,36350,2,0,L|512:120,1,95,2|0,0:0|0:0,0:0:0:0:
336,32,36683,2,0,L|224:32,1,95,2|0,0:0|0:0,0:0:0:0:
408,120,37016,2,0,L|504:120,1,95,2|0,0:0|0:0,0:0:0:0:
272,344,37349,6,0,L|272:240,1,95,2|0,0:0|0:0,0:0:0:0:
112,344,37682,2,0,L|112:248,1,95,2|0,0:0|0:0,0:0:0:0:
272,120,38015,2,0,L|384:120,1,95,2|0,0:0|0:0,0:0:0:0:
120,256,38349,6,0,P|48:128|136:24,1,285,2|0,0:0|0:0,0:0:0:0:
352,304,39016,2,0,L|456:304,1,95,8|0,0:3|0:0,0:0:0:0:
280,240,39349,2,0,L|384:240,1,95,4|0,0:3|0:0,0:0:0:0:
136,56,39683,2,0,L|40:56,1,95,8|0,0:0|0:0,0:0:0:0:
320,320,40016,6,0,P|376:240|312:200,1,190,4|0,0:2|0:0,0:0:0:0:
72,192,40516,1,0,0:0:0:0:
167,192,40683,2,0,L|280:192,1,95,2|0,0:0|0:0,0:0:0:0:
168,112,41016,2,0,L|72:112,1,95,8|0,0:3|0:0,0:0:0:0:
304,160,41349,6,0,L|471:256,1,190,4|0,0:0|0:0,0:0:0:0:
248,320,41849,1,0,0:0:0:0:
344,320,42016,1,8,0:3:0:0:
383,295,42099,1,8,0:3:0:0:
390,249,42182,1,8,0:3:0:0:
361,213,42266,1,8,0:3:0:0:
216,224,42349,2,0,L|120:224,1,95,8|0,0:0|0:0,0:0:0:0:
384,176,42683,6,0,P|440:96|376:56,1,190,4|0,0:1|0:0,0:0:0:0:
136,176,43183,2,0,P|80:96|144:56,1,190,8|0,0:0|0:0,0:0:0:0:
376,336,43683,6,0,L|376:240,1,95,8|0,0:0|0:0,0:0:0:0:
472,336,44016,2,0,L|472:232,1,95,4|0,0:1|0:0,0:0:0:0:
224,120,44349,2,0,L|128:120,1,95,8|0,0:0|0:0,0:0:0:0:
352,192,44683,2,0,L|456:192,1,95,4|0,0:0|0:0,0:0:0:0:
224,312,45016,1,8,0:0:0:0:
185,287,45099,1,8,0:0:0:0:
178,241,45182,1,8,0:0:0:0:
207,205,45266,1,8,0:0:0:0:
400,104,45349,6,0,L|304:104,2,95,8|0|0,0:0|0:0|0:0,0:0:0:0:
136,104,45849,1,4,0:0:0:0:
136,104,46183,1,0,0:0:0:0:
400,224,46349,6,0,L|233:320,1,190,8|0,0:0|0:0,0:0:0:0:
456,112,46849,1,4,0:0:0:0:
456,112,47183,1,0,0:0:0:0:
192,136,47349,2,0,L|192:40,1,95,8|0,0:0|0:0,0:0:0:0:
360,200,47683,2,0,L|360:304,1,95,4|0,0:0|0:0,0:0:0:0:
136,304,48016,6,0,L|248:304,1,95,4|0,0:1|0:0,0:0:0:0:
400,304,48349,1,8,0:3:0:0:
176,128,48516,2,0,L|176:32,1,95,8|0,0:0|0:0,0:0:0:0:
344,128,48849,2,0,L|344:224,1,95,8|4,0:3|0:0,0:0:0:0:
440,288,49183,1,0,0:0:0:0:
176,264,49349,6,0,L|72:264,1,95,4|8,0:3|0:0,0:0:0:0:
176,176,49683,2,0,L|80:176,1,95,8|12,0:0|0:0,0:0:0:0:
176,120,50016,2,0,L|176:24,1,95,0|8,0:3|0:3,0:0:0:0:
400,112,50349,2,0,L|496:112,1,95,4|0,0:0|0:0,0:0:0:0:
272,336,50683,6,0,L|272:224,1,95,4|0,0:2|0:0,0:0:0:0:
440,176,51016,1,4,0:3:0:0:
216,96,51183,2,0,L|120:96,1,95,4|0,0:0|0:0,0:0:0:0:
288,216,51516,2,0,L|384:216,1,95,8|4,0:3|0:0,0:0:0:0:
288,128,51849,1,0,0:0:0:0:
56,336,52016,6,0,L|56:224,1,95,4|0,0:2|0:0,0:0:0:0:
224,336,52349,2,0,L|224:224,1,95,8|4,0:3|0:0,0:0:0:0:
392,336,52683,2,0,L|392:240,1,95,0|8,0:0|0:0,0:0:0:0:
224,120,53016,2,0,L|120:120,1,95,4|0,0:0|0:0,0:0:0:0:
384,240,53349,6,0,P|440:160|376:120,1,190,4|4,0:1|0:0,0:0:0:0:
480,64,53849,1,0,0:0:0:0:
224,224,54016,2,0,P|168:144|232:104,1,190,8|4,0:3|0:0,0:0:0:0:
128,48,54516,1,0,0:0:0:0:
384,64,54683,6,0,L|217:160,1,190,8|4,0:3|0:0,0:0:0:0:
320,208,55183,1,4,0:3:0:0:
96,312,55349,1,8,0:0:0:0:
57,287,55432,1,8,0:0:0:0:
50,241,55515,1,8,0:0:0:0:
79,205,55599,1,8,0:0:0:0:
296,200,55683,1,8,0:0:0:0:
335,175,55766,1,8,0:0:0:0:
342,129,55849,1,8,0:0:0:0:
313,93,55933,1,8,0:0:0:0:
96,88,56016,6,0,L|192:88,2,95,8|0|0,0:0|0:0|0:0,0:0:0:0:
360,120,56516,1,4,0:0:0:0:
360,120,56850,1,0,0:0:0:0:
96,240,57016,6,0,L|263:336,1,190,8|0,0:0|0:0,0:0:0:0:
40,128,57516,1,4,0:0:0:0:
40,128,57850,1,0,0:0:0:0:
304,128,58016,2,0,L|304:32,1,95,8|0,0:0|0:0,0:0:0:0:
136,192,58349,2,0,L|136:296,1,95,4|0,0:0|0:0,0:0:0:0:
384,296,58683,6,0,L|272:296,1,95,4|0,0:1|0:0,0:0:0:0:
136,296,59016,1,8,0:0:0:0:
360,120,59183,2,0,L|360:24,1,95,4|0,0:0|0:0,0:0:0:0:
192,120,59516,2,0,L|192:216,1,95,8|4,0:0|0:0,0:0:0:0:
96,280,59850,1,8,0:0:0:0:
320,280,60016,5,4,0:0:0:0:
416,200,60183,2,0,L|320:200,2,95,0|8|4,0:0|0:0|0:0,0:0:0:0:
320,136,60683,2,0,L|320:40,1,95,0|8,0:0|0:0,0:0:0:0:
88,128,61016,2,0,L|192:128,1,95,4|0,0:0|0:0,0:0:0:0:
408,208,61349,6,0,L|241:304,1,190,4|0,0:0|0:0,0:0:0:0:
464,152,61849,2,0,P|472:54|397:52,1,190,4|0,0:0|0:0,0:0:0:0:
240,312,62349,2,0,L|344:312,1,95,8|8,0:0|0:3,0:0:0:0:
104,208,62683,6,0,L|271:304,1,190,4|0,0:0|0:0,0:0:0:0:
48,152,63183,2,0,P|39:54|114:52,1,190,4|0,0:0|0:0,0:0:0:0:
272,312,63683,2,0,L|168:312,1,95,8|8,0:0|0:3,0:0:0:0:
432,200,64016,6,0,L|232:200,1,190,4|8,0:2|0:3,0:0:0:0:
408,128,64516,1,0,0:0:0:0:
152,200,64683,2,0,L|352:200,1,190,4|8,0:0|0:3,0:0:0:0:
176,128,65183,1,0,0:0:0:0:
432,96,65349,6,0,L|240:96,1,190,4|8,0:0|0:0,0:0:0:0:
72,96,65849,1,0,0:0:0:0:
336,344,66016,2,8,L|368:304,1,47.5,8|8,0:0|0:0,0:0:0:0:
176,344,66183,2,8,L|144:304,1,47.5,8|8,0:0|0:0,0:0:0:0:
336,344,66349,1,8,0:0:0:0:
176,344,66516,2,8,L|144:304,1,47.5,8|8,0:0|0:0,0:0:0:0:
392,168,66683,6,0,L|176:168,1,190,4|8,0:1|0:0,0:1:0:0:
296,88,67183,1,4,0:0:0:0:
144,256,67349,2,0,L|144:160,1,95,0|8,0:0|0:0,0:0:0:0:
312,256,67683,2,0,L|416:256,1,95,4|0,0:0|0:0,0:0:0:0:
296,184,68016,6,0,L|296:88,1,95,8|0,0:3|0:0,0:0:0:0:
40,80,68349,2,0,L|135:80,1,95,8|4,0:0|0:0,0:0:0:0:
360,264,68683,2,0,L|256:264,1,95,0|8,0:0|0:0,0:0:0:0:
488,80,69016,2,0,L|488:184,1,95,4|0,0:0|0:0,0:0:0:0:
176,176,69349,6,0,P|120:96|184:56,1,190,4|8,0:1|0:0,0:0:0:0:
416,224,69849,2,0,L|249:320,1,190,4|8,0:0|0:0,0:0:0:0:
472,128,70349,6,0,L|376:128,1,95,4|0,0:0|0:0,0:0:0:0:
488,80,70683,2,0,L|384:80,1,95,8|0,0:0|0:0,0:0:0:0:
96,224,71016,6,0,L|192:224,1,95,8|4,0:3|0:0,0:0:0:0:
448,128,71349,2,0,L|328:128,1,95,0|8,0:0|0:0,0:0:0:0:
96,64,71683,2,0,L|96:176,1,95,4|0,0:0|0:0,0:0:0:0:
376,232,72016,6,0,L|209:328,1,190,4|0,0:1|0:0,0:0:0:0:
432,176,72516,2,0,P|488:96|424:56,1,190,8|8,0:0|0:0,0:0:0:0:
264,48,73016,2,0,L|368:48,1,95,4|0,0:0|0:0,0:0:0:0:
56,336,73349,6,0,L|152:336,2,95,8|0|0,0:0|0:0|0:0,0:0:0:0:
224,264,73849,2,0,P|280:184|216:144,1,190,8|0,0:0|0:0,0:0:0:0:
392,80,74349,2,0,L|488:80,1,95,4|0,0:0|0:0,0:0:0:0:
224,288,74683,6,0,P|168:208|232:168,1,190,4|0,0:0|0:0,0:0:0:0:
464,56,75183,2,0,L|297:152,1,190,8|8,0:0|0:0,0:0:0:0:
472,304,75683,2,0,L|472:208,1,95,4|0,0:0|0:0,0:0:0:0:
192,304,76016,6,0,L|296:304,1,95,4|0,0:0|0:0,0:0:0:0:
112,192,76349,2,0,L|16:192,1,95,8|8,0:3|0:0,0:0:0:0:
272,120,76683,2,0,L|384:120,1,95,0|0,0:0|0:3,0:0:0:0:
256,48,77016,2,0,L|368:48,1,95,4|0,0:0|0:0,0:0:0:0:
56,336,77349,5,4,0:0:0:0:
224,336,77516,1,0,0:0:0:0:
56,336,77683,1,8,0:0:0:0:
296,80,77849,2,0,L|129:176,1,190,4|0,0:0|0:0,0:0:0:0:
224,216,78349,1,4,0:0:0:0:
392,216,78516,1,0,0:0:0:0:
136,216,78683,6,0,L|136:120,1,95,4|0,0:0|0:0,0:0:0:0:
304,216,79016,2,0,L|304:112,1,95,8|4,0:0|0:0,0:0:0:0:
64,352,79349,2,0,L|184:352,1,95,0|0,0:0|0:0,0:0:0:0:
48,280,79683,2,0,L|144:280,1,95,4|0,0:0|0:0,0:0:0:0:
416,160,80016,6,0,L|312:160,1,95,4|0,0:0|0:0,0:0:0:0:
472,88,80349,1,8,0:0:0:0:
216,336,80516,2,0,L|328:336,1,95,4|0,0:0|0:0,0:0:0:0:
200,256,80849,2,0,L|304:256,1,95,0|4,0:0|0:0,0:0:0:0:
144,168,81183,1,0,0:0:0:0:
424,168,81349,6,0,L|424:64,1,95,4|0,0:0|0:0,0:0:0:0:
312,168,81683,2,0,L|312:72,1,95,0|4,0:0|0:0,0:0:0:0:
72,352,82016,2,0,L|72:256,1,95,0|8,0:0|0:0,0:0:0:0:
184,352,82349,2,0,L|184:256,1,95,4|0,0:0|0:0,0:0:0:0:
456,192,82683,5,4,0:2:0:0:
288,192,82850,1,0,0:0:0:0:
456,192,83017,1,8,0:0:0:0:
216,344,83183,2,0,L|216:232,1,95,4|0,0:0|0:0,0:0:0:0:
384,88,83516,2,0,L|480:88,1,95,0|4,0:0|0:0,0:0:0:0:
232,280,83849,6,0,L|232:168,1,95,0|4,0:0|0:2,0:0:0:0:
392,120,84183,1,0,0:0:0:0:
160,120,84349,2,0,L|64:120,1,95,8|4,0:0|0:0,0:0:0:0:
232,48,84683,2,0,L|328:48,1,95,0|0,0:0|0:0,0:0:0:0:
216,120,85016,2,0,L|320:120,1,95,4|0,0:0|0:0,0:0:0:0:
72,312,85349,6,0,P|16:232|80:192,1,190,4|0,0:0|0:0,0:0:0:0:
304,176,85849,2,0,L|304:64,1,95,4|0,0:0|0:0,0:0:0:0:
80,112,86183,2,0,L|176:112,1,95,8|4,0:0|0:0,0:0:0:0:
24,48,86516,1,8,0:0:0:0:
248,352,86683,6,0,L|248:256,1,95,4|0,0:0|0:0,0:0:0:0:
80,352,87016,2,0,L|80:248,1,95,0|4,0:0|0:0,0:0:0:0:
304,128,87349,2,0,L|408:128,1,95,0|8,0:0|0:0,0:0:0:0:
288,56,87683,2,0,L|384:56,1,95,4|0,0:0|0:0,0:0:0:0:
56,192,88016,5,4,0:0:0:0:
224,192,88183,1,0,0:0:0:0:
56,192,88350,1,8,0:0:0:0:
296,344,88516,2,0,L|296:232,1,95,4|0,0:0|0:0,0:0:0:0:
128,88,88849,2,0,L|32:88,1,95,0|4,0:0|0:0,0:0:0:0:
280,280,89183,6,4,L|280:168,1,95,12|4,0:0|0:0,0:0:0:0:
120,120,89516,1,0,0:0:0:0:
360,120,89683,2,0,L|456:120,1,95,8|4,0:0|0:0,0:0:0:0:
288,48,90016,2,0,L|192:48,1,95,0|0,0:0|0:0,0:0:0:0:
304,120,90349,2,0,L|200:120,1,95,4|0,0:0|0:0,0:0:0:0:
456,192,90683,5,4,0:0:0:0:
288,192,90850,1,0,0:0:0:0:
456,192,91017,1,8,0:0:0:0:
232,344,91183,2,0,L|120:344,1,95,4|0,0:0|0:0,0:0:0:0:
248,272,91516,2,0,L|152:272,1,95,0|4,0:0|0:0,0:0:0:0:
304,200,91849,1,8,0:0:0:0:
32,136,92016,6,0,L|128:136,1,95,4|0,0:1|0:1,0:0:0:0:
16,64,92349,2,0,L|120:64,1,95,8|4,0:0|0:0,0:0:0:0:
368,344,92683,2,8,L|400:304,1,47.5,8|8,0:0|0:0,0:0:0:0:
208,344,92850,2,8,L|176:304,1,47.5,8|8,0:0|0:0,0:0:0:0:
416,232,93016,1,8,0:0:0:0:
248,240,93183,2,8,L|216:200,1,47.5,8|8,0:0|0:0,0:0:0:0:
416,96,93349,5,4,0:0:0:0:
272,96,93516,1,0,0:0:0:0:
128,96,93683,1,0,0:0:0:0:
376,296,93849,1,4,0:0:0:0:
232,296,94016,1,0,0:0:0:0:
376,296,94183,1,0,0:0:0:0:
96,96,94349,5,4,0:0:0:0:
240,96,94516,1,0,0:0:0:0:
384,96,94683,1,0,0:0:0:0:
136,296,94849,1,4,0:0:0:0:
280,296,95016,1,0,0:0:0:0:
136,296,95183,1,0,0:0:0:0:
408,104,95349,5,4,0:0:0:0:
176,104,95516,1,0,0:0:0:0:
408,104,95683,1,4,0:0:0:0:
32,48,95849,1,0,0:0:0:0:
256,48,96016,1,4,0:0:0:0:
480,48,96183,1,0,0:0:0:0:
104,104,96349,5,0,0:0:0:0:
336,104,96516,1,4,0:0:0:0:
104,104,96683,1,0,0:0:0:0:
480,48,96849,1,0,0:0:0:0:
256,48,97016,1,4,0:0:0:0:
32,48,97183,1,0,0:0:0:0:
352,192,97349,5,0,0:0:0:0:
120,184,97516,1,4,0:0:0:0:
424,112,97683,1,0,0:0:0:0:
192,112,97849,1,0,0:0:0:0:
496,32,98016,1,4,0:0:0:0:
256,32,98183,1,0,0:0:0:0:
16,32,98349,1,4,0:0:0:0:
496,128,98516,5,4,0:1:0:0:
256,192,98683,12,0,102683,0:0:0:0:
