osu file format v14

[General]
AudioFilename: audio.mp3
AudioLeadIn: 0
PreviewTime: 63933
Countdown: 0
SampleSet: Soft
StackLeniency: 0.7
Mode: 2
LetterboxInBreaks: 0
WidescreenStoryboard: 1

[Editor]
DistanceSpacing: 1.2
BeatDivisor: 4
GridSize: 8
TimelineZoom: 1

[Metadata]
Title:Sakura no Uta
TitleUnicode:櫻ノ詩
Artist:Hana
ArtistUnicode:はな
Creator:Sanyi
Version:Salad
Source:サクラノ詩 -櫻の森の上を舞う-
Tags:sakura no uta - sakura no mori no ue o mau - metrowing makura 枕 eroge galgame jeir jeriyagtama
BeatmapID:1577016
BeatmapSetID:748610

[Difficulty]
HPDrainRate:3
CircleSize:3
OverallDifficulty:6.5
ApproachRate:6.5
SliderMultiplier:1.3
SliderTickRate:1

[Events]
//Background and Video events
0,0,"bg.jpg",0,0
//Break Periods
//Storyboard Layer 0 (Background)
//Storyboard Layer 1 (Fail)
//Storyboard Layer 2 (Pass)
//Storyboard Layer 3 (Foreground)
//Storyboard Sound Samples

[TimingPoints]
1350,333.333333333333,4,2,1,60,1,0
1683,-100,4,2,1,60,0,0
1849,-100,4,2,1,60,0,0
2016,-100,4,2,1,60,0,0
2183,-100,4,2,1,60,0,0
2349,-100,4,2,1,60,0,0
2849,-100,4,2,1,60,0,0
3016,-100,4,2,1,60,0,0
3183,-100,4,2,1,60,0,0
3349,-100,4,2,1,60,0,0
3516,-100,4,2,1,60,0,0
3683,-100,4,2,1,60,0,0
3849,-100,4,2,1,60,0,0
4016,-100,4,2,2,60,0,0
4349,-100,4,2,1,60,0,0
4516,-100,4,2,1,60,0,0
4849,-100,4,2,1,60,0,0
5016,-100,4,2,1,60,0,0
5849,-100,4,2,1,60,0,0
6016,-100,4,2,1,60,0,0
6183,-100,4,2,1,60,0,0
6349,-100,4,2,1,60,0,0
6516,-100,4,2,1,60,0,0
6683,-100,4,2,2,60,0,0
6849,-100,4,2,1,60,0,0
7016,-100,4,2,1,60,0,0
7183,-100,4,2,1,60,0,0
7349,-100,4,2,1,60,0,0
7516,-100,4,2,1,60,0,0
7683,-100,4,2,1,60,0,0
8183,-100,4,2,1,60,0,0
8349,-100,4,2,1,60,0,0
8683,-100,4,2,1,60,0,0
8849,-100,4,2,1,60,0,0
9016,-100,4,2,1,60,0,0
9349,-100,4,2,1,60,0,0
9683,-100,4,2,1,60,0,0
9849,-100,4,2,1,60,0,0
10183,-100,4,2,1,60,0,0
10349,-100,4,2,1,60,0,0
10516,-100,4,2,1,60,0,0
10683,-100,4,2,1,60,0,0
10849,-100,4,2,1,60,0,0
11516,-100,4,2,1,60,0,0
11683,-100,4,2,1,60,0,0
11849,-100,4,2,1,60,0,0
12016,-100,4,2,0,60,0,0
12183,-100,4,2,1,60,0,0
12266,-100,4,2,1,60,0,0
12349,-100,4,2,1,60,0,0
12683,-100,4,2,1,60,0,0
12849,-100,4,2,1,60,0,0
13016,-100,4,2,1,60,0,0
14016,-100,4,2,1,60,0,0
14183,-100,4,2,1,60,0,0
14683,-100,4,2,1,60,0,0
14933,-100,4,2,1,60,0,0
15016,-100,4,2,1,60,0,0
15183,-100,4,2,1,60,0,0
15349,-100,4,2,1,60,0,0
15683,-100,4,2,1,60,0,0
15849,-100,4,2,1,60,0,0
16016,-100,4,2,1,60,0,0
16349,-100,4,2,1,60,0,0
16599,-100,4,2,1,60,0,0
16683,-100,4,2,1,60,0,0
16849,-100,4,2,1,60,0,0
17016,-100,4,2,1,60,0,0
17183,-100,4,2,1,60,0,0
17349,-100,4,2,0,60,0,0
17516,-100,4,2,1,60,0,0
17683,-100,4,2,1,60,0,0
17849,-100,4,2,1,60,0,0
18016,-100,4,2,1,60,0,0
18183,-100,4,2,1,60,0,0
18516,-100,4,2,1,60,0,0
18683,-100,4,2,1,60,0,0
18849,-100,4,2,1,60,0,0
19016,-100,4,2,1,60,0,0
19183,-100,4,2,1,60,0,0
19349,-100,4,2,1,60,0,0
19516,-100,4,2,1,60,0,0
19683,-100,4,2,1,60,0,0
19849,-100,4,2,1,60,0,0
20016,-100,4,2,0,60,0,0
20183,-100,4,2,1,60,0,0
20349,-100,4,2,1,60,0,0
20516,-100,4,2,1,60,0,0
20683,-100,4,2,1,60,0,0
20849,-100,4,2,1,60,0,0
21016,-100,4,2,1,60,0,0
21183,-100,4,2,1,60,0,0
21349,-100,4,2,1,60,0,0
21683,-100,4,2,1,60,0,0
21849,-100,4,2,1,60,0,0
21933,-100,4,2,1,60,0,0
22349,-100,4,2,1,60,0,0
22516,-100,4,2,1,60,0,0
22683,-100,4,2,1,60,0,0
22849,-100,4,2,1,60,0,0
23016,-100,4,2,1,60,0,0
23183,-100,4,2,1,60,0,0
23349,-100,4,2,1,60,0,0
23516,-100,4,2,1,60,0,0
23683,-100,4,2,1,60,0,0
23849,-100,4,2,1,60,0,0
24016,-100,4,2,1,60,0,0
24349,-100,4,2,3,60,0,0
28183,-100,4,2,3,60,0,0
28349,-100,4,2,3,60,0,0
32849,-100,4,2,1,60,0,0
33016,-100,4,2,3,60,0,0
33516,-100,4,2,3,60,0,0
33683,-100,4,2,3,60,0,0
33849,-100,4,2,3,60,0,0
34016,-100,4,2,3,60,0,0
34349,-100,4,2,1,60,0,0
35016,-100,4,2,3,60,0,0
37516,-100,4,2,3,60,0,0
37683,-100,4,2,3,60,0,0
38183,-100,4,2,3,60,0,0
38349,-100,4,2,3,60,0,0
38516,-100,4,2,3,60,0,0
39683,-100,4,2,1,60,0,0
40016,-100,4,2,2,60,0,0
40516,-100,4,2,1,60,0,0
40599,-100,4,2,1,60,0,0
40683,-100,4,2,3,60,0,0
41183,-100,4,2,1,60,0,0
41349,-100,4,2,2,60,0,0
42349,-100,4,2,1,60,0,0
42433,-100,4,2,1,60,0,0
43183,-100,4,2,1,60,0,0
43349,-100,4,2,1,60,0,0
44516,-100,4,2,1,60,0,0
44599,-100,4,2,1,60,0,0
45516,-100,4,2,1,60,0,0
45849,-100,4,2,1,60,0,0
46183,-100,4,2,1,60,0,0
46349,-100,4,2,1,60,0,0
47183,-100,4,2,1,60,0,0
47349,-100,4,2,1,60,0,0
47433,-100,4,2,1,60,0,0
47683,-100,4,2,1,60,0,0
47766,-100,4,2,1,60,0,0
48016,-100,4,2,1,60,0,0
48099,-100,4,2,1,60,0,0
48516,-100,4,2,1,60,0,0
48683,-100,4,2,1,60,0,0
50183,-100,4,2,1,60,0,0
50349,-100,4,2,1,60,0,0
50683,-100,4,2,2,60,0,0
51016,-100,4,2,1,60,0,0
51183,-100,4,2,1,60,0,0
52016,-100,4,2,2,60,0,0
52516,-100,4,2,1,60,0,0
52683,-100,4,2,1,60,0,0
53016,-100,4,2,1,60,0,0
53183,-100,4,2,1,60,0,0
54349,-100,4,2,1,60,0,0
54516,-100,4,2,1,60,0,0
55016,-100,4,2,1,60,0,0
55349,-100,4,2,1,60,0,0
56849,-100,4,2,1,60,0,0
57183,-100,4,2,1,60,0,0
57516,-100,4,2,1,60,0,0
57683,-100,4,2,1,60,0,0
58016,-100,4,2,1,60,0,0
58349,-100,4,2,1,60,0,0
59183,-100,4,2,1,60,0,0
59349,-100,4,2,1,60,0,0
60016,-100,4,2,1,60,0,0
60183,-100,4,2,1,60,0,0
60683,-100,4,2,1,60,0,0
60849,-100,4,2,1,60,0,0
61349,-100,4,2,2,60,0,0
61683,-100,4,2,1,60,0,0
62683,-100,4,2,2,60,0,0
63016,-100,4,2,1,60,0,0
63516,-100,4,2,1,60,0,0
63599,-100,4,2,1,60,0,0
64016,-100,4,2,2,60,0,0
64683,-100,4,2,2,60,0,0
64849,-100,4,2,1,60,0,0
65349,-100,4,2,2,60,0,0
66016,-100,4,2,1,60,0,0
66183,-100,4,2,1,60,0,0
66516,-100,4,2,1,60,0,0
66599,-100,4,2,1,60,0,0
66683,-100,4,2,1,60,0,1
67183,-100,4,2,1,60,0,1
67266,-100,4,2,1,60,0,1
67849,-100,4,2,1,60,0,1
67933,-100,4,2,1,60,0,1
71016,-100,4,2,1,60,0,1
71099,-100,4,2,1,60,0,1
71183,-100,4,2,1,60,0,1
71266,-100,4,2,1,60,0,1
74683,-100,4,2,2,60,0,1
75183,-100,4,2,1,60,0,1
76016,-100,4,2,2,60,0,1
77016,-100,4,2,1,60,0,1
77266,-100,4,2,1,60,0,1
77349,-100,4,2,2,60,0,1
77683,-100,4,2,1,60,0,1
78349,-100,4,2,1,60,0,1
78516,-100,4,2,1,60,0,1
78599,-100,4,2,1,60,0,1
78683,-100,4,2,2,60,0,1
79016,-100,4,2,1,60,0,1
80016,-100,4,2,2,60,0,1
80183,-100,4,2,1,60,0,1
81016,-100,4,2,1,60,0,1
81183,-100,4,2,1,60,0,1
81266,-100,4,2,1,60,0,1
81349,-100,4,2,2,60,0,1
81683,-100,4,2,1,60,0,1
82683,-100,4,2,2,60,0,1
83016,-100,4,2,1,60,0,1
83266,-100,4,2,1,60,0,1
83683,-100,4,2,1,60,0,1
83849,-100,4,2,1,60,0,1
83933,-100,4,2,1,60,0,1
84016,-100,4,2,2,60,0,1
84183,-100,4,2,1,60,0,1
85349,-100,4,2,2,60,0,1
85683,-100,4,2,1,60,0,1
86349,-100,4,2,1,60,0,1
86599,-100,4,2,1,60,0,1
86683,-100,4,2,2,60,0,1
87016,-100,4,2,1,60,0,1
87349,-100,4,2,1,60,0,1
88016,-100,4,2,2,60,0,1
88349,-100,4,2,1,60,0,1
89099,-100,4,2,1,60,0,1
89266,-100,4,2,1,60,0,1
89349,-100,4,2,2,60,0,1
89683,-100,4,2,1,60,0,1
90349,-100,4,2,1,60,0,1
90599,-100,4,2,1,60,0,1
90683,-100,4,2,2,60,0,1
91016,-100,4,2,1,60,0,1
91849,-100,4,2,1,60,0,1
91933,-100,4,2,1,60,0,1
92516,-100,4,2,1,60,0,1
92683,-100,4,2,1,60,0,1
93016,-100,4,2,1,60,0,1
93099,-100,4,2,1,60,0,1
93349,-100,4,2,1,60,0,0
93849,-100,4,2,1,60,0,0
94016,-100,4,2,1,60,0,0
94349,-100,4,2,1,60,0,0
94516,-100,4,2,1,60,0,0
94849,-100,4,2,1,60,0,0
95016,-100,4,2,1,60,0,0
95349,-100,4,2,1,60,0,0
95516,-100,4,2,1,60,0,0
95683,-100,4,2,1,60,0,0
95849,-100,4,2,1,60,0,0
96016,-100,4,2,1,60,0,0
96349,-100,4,2,1,60,0,0
96516,-100,4,2,1,60,0,0
96683,-100,4,2,1,60,0,0
96849,-100,4,2,1,60,0,0
97016,-100,4,2,1,60,0,0
97183,-100,4,2,1,60,0,0
97349,-100,4,2,1,60,0,0
97516,-100,4,2,1,60,0,0
97683,-100,4,2,1,60,0,0
97849,-100,4,2,1,60,0,0
98016,-100,4,2,1,60,0,0
98099,-100,4,2,1,60,0,0

[Colours]
Combo1 : 0,255,255
Combo2 : 255,128,255
Combo3 : 255,255,255
Combo4 : 0,255,64

[HitObjects]
376,344,1350,6,0,P|408:280|368:248,1,130,2|0,0:0|0:0,0:0:0:0:
312,240,1849,1,0,0:0:0:0:
240,240,2016,1,2,0:0:0:0:
176,240,2183,1,0,0:0:0:0:
176,240,2349,1,2,0:0:0:0:
368,152,3016,1,2,0:0:0:0:
240,152,3349,1,2,0:0:0:0:
112,152,3683,1,2,0:0:0:0:
256,296,4016,6,0,L|456:296,2,195,2|2|2,0:0|0:0|0:0,0:0:0:0:
432,208,5683,1,2,0:0:0:0:
336,208,6016,1,2,0:0:0:0:
464,112,6349,1,0,0:0:0:0:
312,336,6683,5,2,0:0:0:0:
264,264,6849,1,0,0:0:0:0:
264,264,7016,1,2,0:0:0:0:
312,336,7183,1,0,0:0:0:0:
384,336,7349,1,2,0:0:0:0:
432,336,7516,1,0,0:0:0:0:
432,336,7683,1,2,0:0:0:0:
280,216,8183,5,0,0:0:0:0:
232,216,8349,1,2,0:0:0:0:
280,216,8516,1,0,0:0:0:0:
352,216,8683,1,2,0:0:0:0:
400,216,8849,1,0,0:0:0:0:
400,216,9016,1,2,0:0:0:0:
272,120,9349,6,0,L|472:120,2,195,2|2|2,0:0|0:0|0:0,0:0:0:0:
152,288,10683,1,4,0:1:0:0:
216,288,10849,1,0,0:0:0:0:
288,288,11016,2,0,L|288:208,1,65,8|0,0:0|0:0,0:0:0:0:
216,288,11349,2,0,L|216:224,1,65,10|0,0:0|0:0,0:0:0:0:
288,144,11683,2,0,L|368:144,1,65,8|8,0:0|0:0,0:0:0:0:
192,344,12016,6,0,P|152:280|192:240,1,130,4|4,0:0|0:0,0:0:0:0:
328,224,12683,2,0,L|328:160,1,65,4|0,0:0|0:0,0:0:0:0:
168,144,13016,2,0,L|32:144,1,130,4|4,0:0|0:0,0:0:0:0:
328,328,13683,2,0,L|464:328,2,130,4|4|4,0:0|0:0|0:0,0:0:0:0:
40,320,14683,6,0,P|24:248|56:208,1,130,4|4,0:0|0:0,0:0:0:0:
128,168,15183,2,0,L|240:88,1,130,0|0,0:0|0:0,0:0:0:0:
72,64,15683,1,4,0:0:0:0:
200,64,16016,1,4,0:0:0:0:
360,320,16349,1,4,0:0:0:0:
240,320,16683,1,4,0:0:0:0:
392,224,17016,1,4,0:0:0:0:
104,304,17349,5,4,0:0:0:0:
56,232,17515,1,0,0:0:0:0:
56,232,17682,1,4,0:0:0:0:
104,304,17849,1,0,0:0:0:0:
176,304,18015,1,4,0:0:0:0:
224,304,18182,1,0,0:0:0:0:
224,304,18349,1,4,0:0:0:0:
424,144,18849,5,0,0:0:0:0:
472,144,19015,1,4,0:0:0:0:
424,144,19182,1,0,0:0:0:0:
352,144,19349,1,12,0:0:0:0:
304,144,19515,1,0,0:0:0:0:
352,144,19682,1,12,0:0:0:0:
64,296,20016,6,0,P|46:235|81:183,1,130,4|4,0:0|0:0,0:0:0:0:
144,144,20516,2,0,L|249:68,1,130,0|0,0:0|0:0,0:0:0:0:
88,64,21016,1,4,0:0:0:0:
208,328,21349,1,4,0:1:0:0:
352,328,21683,1,4,0:0:0:0:
224,248,22016,2,0,P|160:144|208:96,1,195,8|8,0:0|0:0,0:0:0:0:
360,256,22683,5,2,0:0:0:0:
424,256,22849,1,0,0:0:0:0:
360,256,23016,1,0,0:0:0:0:
296,256,23183,1,2,0:0:0:0:
232,256,23349,1,0,0:0:0:0:
296,176,23516,1,0,0:0:0:0:
360,176,23683,1,2,0:0:0:0:
152,80,24016,6,0,P|136:167|172:189,1,130,4|2,0:1|0:0,0:0:0:0:
304,248,24683,2,0,L|440:248,1,130,2|2,0:0|0:0,0:0:0:0:
304,328,25349,1,2,0:0:0:0:
168,160,25683,2,0,L|304:160,2,130,2|2|2,0:0|0:0|0:0,0:0:0:0:
312,320,26683,6,0,L|448:320,1,130,2|2,0:0|0:0,0:0:0:0:
312,240,27349,1,2,0:0:0:0:
168,240,27683,2,0,P|96:120|176:64,1,260,2|2,0:0|0:0,0:0:0:0:
304,64,28683,2,0,L|376:64,2,65,8|0|4,0:3|0:0|0:3,0:0:0:0:
240,136,29183,1,0,0:0:0:0:
400,160,29349,6,0,P|385:99|324:85,1,130,4|2,0:1|0:0,0:0:0:0:
192,248,30016,2,0,L|56:248,1,130,2|2,0:0|0:0,0:0:0:0:
192,160,30683,1,2,0:0:0:0:
336,72,31016,2,0,L|200:72,2,130,2|8|4,0:0|0:3|0:3,0:0:0:0:
48,352,32016,6,0,P|32:280|64:232,1,130,4|2,0:0|0:0,0:0:0:0:
216,320,32516,2,0,P|232:248|200:200,1,130,2|0,0:0|0:0,0:0:0:0:
128,120,33016,2,0,L|264:120,1,130,2|2,0:0|0:0,0:0:0:0:
392,128,33683,1,8,0:3:0:0:
264,296,34016,1,4,0:3:0:0:
200,296,34183,1,4,0:3:0:0:
136,296,34349,1,8,0:0:0:0:
72,296,34516,1,0,0:0:0:0:
232,88,34683,6,0,P|309:132|303:174,1,130,4|2,0:1|0:0,0:0:0:0:
176,256,35350,2,0,L|40:256,1,130,2|2,0:0|0:0,0:0:0:0:
176,336,36016,1,2,0:0:0:0:
312,168,36350,2,0,L|176:168,2,130,2|2|2,0:0|0:0|0:0,0:0:0:0:
168,328,37350,6,0,L|32:328,1,130,2|0,0:0|0:0,0:0:0:0:
168,248,38016,1,2,0:0:0:0:
312,248,38349,2,0,P|384:128|304:72,1,260,2|8,0:0|0:3,0:0:0:0:
240,336,39183,1,0,0:0:0:0:
304,336,39349,1,4,0:3:0:0:
368,336,39516,1,0,0:0:0:0:
432,336,39683,1,8,0:0:0:0:
368,336,39849,1,0,0:0:0:0:
208,280,40016,6,0,P|168:208|208:168,1,130,4|0,0:2|0:0,0:0:0:0:
264,128,40516,2,0,P|350:298|331:314,1,260,0|0,0:0|0:0,0:0:0:0:
176,312,41349,2,0,P|136:240|176:200,1,130,4|0,0:0|0:0,0:0:0:0:
232,184,41849,2,0,P|272:112|232:72,1,130,0|8,0:0|0:3,0:0:0:0:
176,72,42349,2,0,L|112:72,1,65,8|0,0:0|0:0,0:0:0:0:
272,312,42683,6,0,L|432:312,1,130,4|0,0:1|0:0,0:0:0:0:
248,224,43183,2,0,L|112:224,1,130,8|0,0:0|0:0,0:0:0:0:
184,144,43683,1,8,0:0:0:0:
328,152,44016,1,4,0:1:0:0:
168,312,44349,2,0,L|304:312,2,130,8|4|8,0:0|0:0|0:0,0:0:0:0:
104,312,45183,1,8,0:0:0:0:
264,184,45349,6,0,P|304:112|264:72,1,130,8|0,0:0|0:0,0:0:0:0:
120,80,45849,1,4,0:0:0:0:
120,80,46183,1,0,0:0:0:0:
280,240,46349,2,0,L|416:240,1,130,8|0,0:0|0:0,0:0:0:0:
248,152,46849,1,4,0:0:0:0:
248,152,47183,1,0,0:0:0:0:
336,152,47349,2,0,P|376:80|336:40,1,130,8|4,0:0|0:0,0:0:0:0:
64,336,48016,6,0,P|24:264|64:224,1,130,4|8,0:1|0:3,0:0:0:0:
120,216,48516,2,0,L|256:216,1,130,8|8,0:0|0:3,0:0:0:0:
312,216,49016,1,4,0:0:0:0:
240,344,49183,1,0,0:0:0:0:
168,344,49349,2,0,P|128:240|168:176,1,195,4|12,0:3|0:0,0:0:0:0:
232,136,50016,1,0,0:3:0:0:
368,64,50349,2,0,L|448:64,1,65,4|0,0:0|0:0,0:0:0:0:
272,304,50683,6,0,L|136:304,1,130,4|4,0:2|0:3,0:0:0:0:
208,232,51183,2,0,P|232:160|184:136,1,130,4|8,0:0|0:3,0:0:0:0:
128,144,51683,1,4,0:0:0:0:
200,296,51849,1,0,0:0:0:0:
272,296,52016,2,0,P|336:176|264:64,1,260,4|0,0:2|0:0,0:0:0:0:
144,80,53016,2,0,L|72:80,1,65,4|0,0:0|0:0,0:0:0:0:
240,328,53349,6,0,L|384:328,1,130,4|4,0:1|0:0,0:0:0:0:
224,216,54016,2,0,L|80:216,1,130,8|4,0:3|0:0,0:0:0:0:
384,288,54683,2,0,P|416:224|376:168,1,130,8|4,0:3|0:0,0:0:0:0:
248,96,55349,1,8,0:0:0:0:
312,96,55516,1,8,0:0:0:0:
376,96,55683,1,8,0:0:0:0:
440,96,55849,1,8,0:0:0:0:
280,240,56016,6,0,P|240:168|280:128,1,130,8|0,0:0|0:0,0:0:0:0:
424,136,56516,1,4,0:0:0:0:
424,136,56850,1,0,0:0:0:0:
264,296,57016,2,0,L|128:296,1,130,8|0,0:0|0:0,0:0:0:0:
296,208,57516,1,4,0:0:0:0:
296,208,57850,1,0,0:0:0:0:
208,208,58016,2,0,P|168:136|208:96,1,130,8|4,0:0|0:0,0:0:0:0:
480,320,58683,6,0,L|344:320,1,130,4|8,0:1|0:0,0:0:0:0:
424,240,59183,2,0,P|464:168|424:128,1,130,4|8,0:0|0:0,0:0:0:0:
376,112,59683,1,4,0:0:0:0:
304,112,59850,1,8,0:0:0:0:
232,312,60016,2,0,P|192:208|232:144,1,195,4|4,0:1|0:0,0:0:0:0:
296,120,60683,1,0,0:0:0:0:
160,64,61016,2,0,L|80:64,1,65,4|0,0:0|0:0,0:0:0:0:
256,336,61349,6,0,P|296:264|256:224,1,130,4|0,0:0|0:0,0:0:0:0:
208,168,61849,2,0,L|416:168,1,195,4|8,0:0|0:0,0:0:0:0:
112,336,62683,2,0,P|72:264|112:224,1,130,4|0,0:0|0:0,0:0:0:0:
160,208,63183,1,4,0:0:0:0:
240,120,63349,1,0,0:0:0:0:
176,120,63516,1,0,0:0:0:0:
112,120,63683,1,8,0:0:0:0:
48,120,63849,1,8,0:3:0:0:
216,336,64016,6,0,L|416:336,1,195,4|0,0:2|0:0,0:0:0:0:
328,256,64683,2,0,P|334:148|422:107,1,195,4|0,0:0|0:0,0:0:0:0:
240,56,65349,2,0,L|40:56,1,195,4|0,0:0|0:0,0:0:0:0:
128,312,66016,1,8,0:0:0:0:
192,312,66183,1,8,0:0:0:0:
256,312,66349,1,8,0:0:0:0:
320,312,66516,1,8,0:0:0:0:
152,232,66683,6,0,P|120:160|160:120,1,130,4|8,0:1|0:0,0:0:0:0:
296,232,67349,2,0,P|328:160|288:120,1,130,0|4,0:0|0:0,0:0:0:0:
152,80,68016,1,8,0:3:0:0:
440,160,68349,2,0,L|304:160,2,130,8|0|4,0:0|0:0|0:0,0:0:0:0:
152,320,69349,6,0,P|128:256|168:200,1,130,4|8,0:1|0:0,0:0:0:0:
216,184,69849,2,0,L|360:184,1,130,4|8,0:0|0:0,0:0:0:0:
272,104,70349,1,4,0:0:0:0:
136,104,70683,1,8,0:0:0:0:
424,328,71016,2,0,P|448:264|408:208,1,130,8|0,0:3|0:0,0:0:0:0:
280,176,71683,2,0,L|200:176,1,65,4|0,0:0|0:0,0:0:0:0:
376,320,72016,6,0,P|400:256|360:200,1,130,4|0,0:1|0:0,0:0:0:0:
288,328,72516,2,0,P|303:214|396:171,1,195,8|4,0:0|0:0,0:0:0:0:
96,320,73349,1,8,0:0:0:0:
71,262,73515,1,0,0:0:0:0:
101,206,73682,1,0,0:0:0:0:
168,200,73849,2,0,L|304:200,1,130,8|0,0:0|0:0,0:0:0:0:
224,120,74349,2,0,L|144:120,1,65,4|0,0:0|0:0,0:0:0:0:
320,336,74683,6,0,L|480:336,1,130,4|0,0:0|0:0,0:0:0:0:
376,256,75183,2,0,L|240:256,1,130,8|8,0:0|0:0,0:0:0:0:
176,256,75683,2,0,L|104:256,1,65,4|0,0:0|0:0,0:0:0:0:
280,80,76016,2,0,L|424:80,2,130,4|8|0,0:0|0:3|0:0,0:0:0:0:
152,80,77016,1,4,0:0:0:0:
416,320,77349,5,4,0:0:0:0:
441,262,77515,1,0,0:0:0:0:
411,206,77682,1,8,0:0:0:0:
344,200,77849,2,0,L|208:200,1,130,4|0,0:0|0:0,0:0:0:0:
368,96,78516,1,0,0:0:0:0:
208,320,78683,2,0,L|72:320,1,130,4|8,0:0|0:0,0:0:0:0:
224,224,79349,2,0,L|368:224,1,130,0|4,0:0|0:0,0:0:0:0:
64,320,80016,6,0,P|40:256|80:200,1,130,4|8,0:0|0:0,0:0:0:0:
144,192,80516,2,0,L|288:192,1,130,4|0,0:0|0:0,0:0:0:0:
120,104,81183,1,0,0:0:0:0:
288,344,81349,2,0,L|424:344,1,130,4|0,0:0|0:0,0:0:0:0:
128,336,82016,2,0,L|128:192,1,130,0|4,0:0|0:0,0:0:0:0:
416,320,82683,5,4,0:2:0:0:
441,262,82849,1,0,0:0:0:0:
411,206,83016,1,8,0:0:0:0:
344,200,83183,2,0,L|488:200,1,130,4|0,0:0|0:0,0:0:0:0:
184,160,83849,2,0,L|48:160,1,130,0|0,0:0|0:0,0:0:0:0:
136,344,84349,2,0,P|184:280|152:240,1,130,8|0,0:0|0:0,0:0:0:0:
24,240,85016,1,4,0:0:0:0:
312,336,85349,6,0,P|344:272|304:232,1,130,4|0,0:0|0:0,0:0:0:0:
240,200,85849,2,0,P|208:136|248:96,1,130,4|8,0:0|0:0,0:0:0:0:
384,80,86516,1,8,0:0:0:0:
224,328,86683,6,0,L|88:328,1,130,4|0,0:0|0:0,0:0:0:0:
240,248,87349,1,0,0:0:0:0:
304,248,87516,1,8,0:0:0:0:
368,248,87683,1,4,0:0:0:0:
432,248,87849,1,0,0:0:0:0:
264,240,88016,5,4,0:0:0:0:
239,182,88182,1,0,0:0:0:0:
269,126,88349,1,8,0:0:0:0:
328,112,88516,2,0,L|472:112,1,130,4|0,0:0|0:0,0:0:0:0:
168,160,89182,2,0,L|32:160,1,130,12|0,0:0|0:0,0:0:0:0:
120,336,89683,2,0,L|256:336,1,130,8|0,0:0|0:0,0:0:0:0:
392,336,90349,1,4,0:0:0:0:
104,272,90683,5,4,0:0:0:0:
79,214,90849,1,0,0:0:0:0:
109,158,91016,1,8,0:0:0:0:
168,144,91183,2,0,L|312:144,1,130,4|0,0:0|0:0,0:0:0:0:
168,64,91849,1,8,0:0:0:0:
344,304,92016,2,0,L|480:304,1,130,4|8,0:1|0:0,0:0:0:0:
320,224,92683,1,8,0:0:0:0:
256,224,92849,1,8,0:0:0:0:
320,152,93016,1,8,0:0:0:0:
384,152,93183,1,8,0:0:0:0:
224,328,93349,5,4,0:0:0:0:
199,270,93515,1,0,0:0:0:0:
229,214,93682,1,0,0:0:0:0:
312,200,93849,1,4,0:0:0:0:
337,142,94015,1,0,0:0:0:0:
307,86,94182,1,0,0:0:0:0:
144,80,94349,5,4,0:0:0:0:
80,80,94516,1,0,0:0:0:0:
16,80,94683,1,0,0:0:0:0:
104,208,94849,1,4,0:0:0:0:
168,208,95016,1,0,0:0:0:0:
104,208,95183,1,0,0:0:0:0:
264,208,95349,5,4,0:0:0:0:
328,208,95516,1,0,0:0:0:0:
392,208,95683,1,4,0:0:0:0:
304,104,95849,1,0,0:0:0:0:
368,104,96016,1,4,0:0:0:0:
432,104,96183,1,0,0:0:0:0:
272,328,96349,5,0,0:0:0:0:
208,328,96516,1,4,0:0:0:0:
144,328,96683,1,0,0:0:0:0:
232,240,96849,1,0,0:0:0:0:
296,240,97016,1,4,0:0:0:0:
360,240,97183,1,0,0:0:0:0:
200,152,97349,5,0,0:0:0:0:
128,152,97516,1,4,0:0:0:0:
56,72,97683,1,0,0:0:0:0:
128,72,97849,1,0,0:0:0:0:
296,264,98016,1,4,0:0:0:0:
360,264,98183,1,0,0:0:0:0:
424,264,98349,1,4,0:0:0:0:
256,176,98516,5,4,0:1:0:0:
256,192,98849,12,0,102683,0:0:0:0:
