osu file format v14

[General]
AudioFilename: audio.mp3
AudioLeadIn: 0
PreviewTime: 63933
Countdown: 0
SampleSet: Soft
StackLeniency: 0.7
Mode: 2
LetterboxInBreaks: 0
WidescreenStoryboard: 1

[Editor]
DistanceSpacing: 1.2
BeatDivisor: 4
GridSize: 8
TimelineZoom: 1.6

[Metadata]
Title:Sakura no Uta
TitleUnicode:櫻ノ詩
Artist:Hana
ArtistUnicode:はな
Creator:Sanyi
Version:Rain
Source:サクラノ詩 -櫻の森の上を舞う-
Tags:sakura no uta - sakura no mori no ue o mau - metrowing makura 枕 eroge galgame jeir jeriyagtama
BeatmapID:1577015
BeatmapSetID:748610

[Difficulty]
HPDrainRate:5
CircleSize:4
OverallDifficulty:9
ApproachRate:9
SliderMultiplier:1.85
SliderTickRate:2

[Events]
//Background and Video events
0,0,"bg.jpg",0,0
//Break Periods
//Storyboard Layer 0 (Background)
//Storyboard Layer 1 (Fail)
//Storyboard Layer 2 (Pass)
//Storyboard Layer 3 (Foreground)
//Storyboard Sound Samples

[TimingPoints]
1350,333.333333333333,4,2,1,60,1,0
1683,-100,4,2,1,60,0,0
1849,-100,4,2,1,60,0,0
2016,-100,4,2,1,60,0,0
2183,-100,4,2,1,60,0,0
2349,-100,4,2,1,60,0,0
2849,-100,4,2,1,60,0,0
3016,-100,4,2,1,60,0,0
3183,-100,4,2,1,60,0,0
3349,-100,4,2,1,60,0,0
3516,-100,4,2,1,60,0,0
3683,-100,4,2,1,60,0,0
3849,-100,4,2,1,60,0,0
4016,-100,4,2,2,60,0,0
4349,-100,4,2,1,60,0,0
4516,-100,4,2,1,60,0,0
4849,-100,4,2,1,60,0,0
5016,-100,4,2,1,60,0,0
5849,-100,4,2,1,60,0,0
6016,-100,4,2,1,60,0,0
6183,-100,4,2,1,60,0,0
6349,-100,4,2,1,60,0,0
6516,-100,4,2,1,60,0,0
6683,-100,4,2,2,60,0,0
6849,-100,4,2,1,60,0,0
7016,-100,4,2,1,60,0,0
7183,-100,4,2,1,60,0,0
7349,-100,4,2,1,60,0,0
7516,-100,4,2,1,60,0,0
7683,-100,4,2,1,60,0,0
8183,-100,4,2,1,60,0,0
8349,-100,4,2,1,60,0,0
8683,-100,4,2,1,60,0,0
8849,-100,4,2,1,60,0,0
9016,-100,4,2,1,60,0,0
9349,-100,4,2,1,60,0,0
9683,-100,4,2,1,60,0,0
9849,-100,4,2,1,60,0,0
10183,-100,4,2,1,60,0,0
10349,-100,4,2,1,60,0,0
10516,-100,4,2,1,60,0,0
10683,-100,4,2,1,60,0,0
10849,-100,4,2,1,60,0,0
11516,-100,4,2,1,60,0,0
11683,-100,4,2,1,60,0,0
11849,-100,4,2,1,60,0,0
12016,-100,4,2,0,60,0,0
12183,-100,4,2,1,60,0,0
12266,-100,4,2,1,60,0,0
12349,-100,4,2,1,60,0,0
12683,-100,4,2,1,60,0,0
12849,-100,4,2,1,60,0,0
13016,-100,4,2,1,60,0,0
14016,-100,4,2,1,60,0,0
14183,-100,4,2,1,60,0,0
14683,-100,4,2,1,60,0,0
14933,-100,4,2,1,60,0,0
15016,-100,4,2,1,60,0,0
15183,-100,4,2,1,60,0,0
15349,-100,4,2,1,60,0,0
15683,-100,4,2,1,60,0,0
15849,-100,4,2,1,60,0,0
16016,-100,4,2,1,60,0,0
16349,-100,4,2,1,60,0,0
16599,-100,4,2,1,60,0,0
16683,-100,4,2,1,60,0,0
16849,-100,4,2,1,60,0,0
17016,-100,4,2,1,60,0,0
17183,-100,4,2,1,60,0,0
17349,-100,4,2,0,60,0,0
17516,-100,4,2,1,60,0,0
17683,-100,4,2,1,60,0,0
17849,-100,4,2,1,60,0,0
18016,-100,4,2,1,60,0,0
18183,-100,4,2,1,60,0,0
18516,-100,4,2,1,60,0,0
18683,-100,4,2,1,60,0,0
18849,-100,4,2,1,60,0,0
19016,-100,4,2,1,60,0,0
19183,-100,4,2,1,60,0,0
19349,-100,4,2,1,60,0,0
19516,-100,4,2,1,60,0,0
19683,-100,4,2,1,60,0,0
19849,-100,4,2,1,60,0,0
20016,-100,4,2,0,60,0,0
20183,-100,4,2,1,60,0,0
20349,-100,4,2,1,60,0,0
20516,-100,4,2,1,60,0,0
20683,-100,4,2,1,60,0,0
20849,-100,4,2,1,60,0,0
21016,-100,4,2,1,60,0,0
21183,-100,4,2,1,60,0,0
21349,-100,4,2,1,60,0,0
21683,-100,4,2,1,60,0,0
21849,-100,4,2,1,60,0,0
21933,-100,4,2,1,60,0,0
22349,-100,4,2,1,60,0,0
22516,-100,4,2,1,60,0,0
22683,-100,4,2,1,60,0,0
22849,-100,4,2,1,60,0,0
23016,-100,4,2,1,60,0,0
23183,-100,4,2,1,60,0,0
23349,-100,4,2,1,60,0,0
23516,-100,4,2,1,60,0,0
23683,-100,4,2,1,60,0,0
23849,-100,4,2,1,60,0,0
24016,-100,4,2,1,60,0,0
24349,-100,4,2,3,60,0,0
28183,-100,4,2,3,60,0,0
28349,-100,4,2,3,60,0,0
32849,-100,4,2,1,60,0,0
33016,-100,4,2,3,60,0,0
33516,-100,4,2,3,60,0,0
33683,-100,4,2,3,60,0,0
33849,-100,4,2,3,60,0,0
34016,-100,4,2,3,60,0,0
34349,-100,4,2,1,60,0,0
35016,-100,4,2,3,60,0,0
37516,-100,4,2,3,60,0,0
37683,-100,4,2,3,60,0,0
38183,-100,4,2,3,60,0,0
38349,-100,4,2,3,60,0,0
38516,-100,4,2,3,60,0,0
39683,-100,4,2,1,60,0,0
40016,-100,4,2,2,60,0,0
40516,-100,4,2,1,60,0,0
40599,-100,4,2,1,60,0,0
40683,-100,4,2,3,60,0,0
41183,-100,4,2,1,60,0,0
41349,-100,4,2,2,60,0,0
42349,-100,4,2,1,60,0,0
42433,-100,4,2,1,60,0,0
43183,-100,4,2,1,60,0,0
43349,-100,4,2,1,60,0,0
44516,-100,4,2,1,60,0,0
44599,-100,4,2,1,60,0,0
45516,-100,4,2,1,60,0,0
45849,-100,4,2,1,60,0,0
46183,-100,4,2,1,60,0,0
46349,-100,4,2,1,60,0,0
47183,-100,4,2,1,60,0,0
47349,-100,4,2,1,60,0,0
47433,-100,4,2,1,60,0,0
47683,-100,4,2,1,60,0,0
47766,-100,4,2,1,60,0,0
48016,-100,4,2,1,60,0,0
48099,-100,4,2,1,60,0,0
48516,-100,4,2,1,60,0,0
48683,-100,4,2,1,60,0,0
50183,-100,4,2,1,60,0,0
50349,-100,4,2,1,60,0,0
50683,-100,4,2,2,60,0,0
51016,-100,4,2,1,60,0,0
51183,-100,4,2,1,60,0,0
52016,-100,4,2,2,60,0,0
52516,-100,4,2,1,60,0,0
52683,-100,4,2,1,60,0,0
53016,-100,4,2,1,60,0,0
53183,-100,4,2,1,60,0,0
54349,-100,4,2,1,60,0,0
54516,-100,4,2,1,60,0,0
55016,-100,4,2,1,60,0,0
55349,-100,4,2,1,60,0,0
56849,-100,4,2,1,60,0,0
57183,-100,4,2,1,60,0,0
57516,-100,4,2,1,60,0,0
57683,-100,4,2,1,60,0,0
58016,-100,4,2,1,60,0,0
58349,-100,4,2,1,60,0,0
59183,-100,4,2,1,60,0,0
59349,-100,4,2,1,60,0,0
60016,-100,4,2,1,60,0,0
60183,-100,4,2,1,60,0,0
60683,-100,4,2,1,60,0,0
60849,-100,4,2,1,60,0,0
61349,-100,4,2,2,60,0,0
61683,-100,4,2,1,60,0,0
62683,-100,4,2,2,60,0,0
63016,-100,4,2,1,60,0,0
63516,-100,4,2,1,60,0,0
63599,-100,4,2,1,60,0,0
64016,-100,4,2,2,60,0,0
64683,-100,4,2,2,60,0,0
64849,-100,4,2,1,60,0,0
65349,-100,4,2,2,60,0,0
66016,-100,4,2,1,60,0,0
66183,-100,4,2,1,60,0,0
66516,-100,4,2,1,60,0,0
66599,-100,4,2,1,60,0,0
66683,-100,4,2,1,60,0,1
67183,-100,4,2,1,60,0,1
67266,-100,4,2,1,60,0,1
67849,-100,4,2,1,60,0,1
67933,-100,4,2,1,60,0,1
71016,-100,4,2,1,60,0,1
71099,-100,4,2,1,60,0,1
71183,-100,4,2,1,60,0,1
71266,-100,4,2,1,60,0,1
74683,-100,4,2,2,60,0,1
75183,-100,4,2,1,60,0,1
76016,-100,4,2,2,60,0,1
77016,-100,4,2,1,60,0,1
77266,-100,4,2,1,60,0,1
77349,-100,4,2,2,60,0,1
77683,-100,4,2,1,60,0,1
78349,-100,4,2,1,60,0,1
78516,-100,4,2,1,60,0,1
78599,-100,4,2,1,60,0,1
78683,-100,4,2,2,60,0,1
79016,-100,4,2,1,60,0,1
80016,-100,4,2,2,60,0,1
80183,-100,4,2,1,60,0,1
81016,-100,4,2,1,60,0,1
81183,-100,4,2,1,60,0,1
81266,-100,4,2,1,60,0,1
81349,-100,4,2,2,60,0,1
81683,-100,4,2,1,60,0,1
82683,-100,4,2,2,60,0,1
83016,-100,4,2,1,60,0,1
83266,-100,4,2,1,60,0,1
83683,-100,4,2,1,60,0,1
83849,-100,4,2,1,60,0,1
83933,-100,4,2,1,60,0,1
84016,-100,4,2,2,60,0,1
84183,-100,4,2,1,60,0,1
85349,-100,4,2,2,60,0,1
85683,-100,4,2,1,60,0,1
86349,-100,4,2,1,60,0,1
86599,-100,4,2,1,60,0,1
86683,-100,4,2,2,60,0,1
87016,-100,4,2,1,60,0,1
87349,-100,4,2,1,60,0,1
88016,-100,4,2,2,60,0,1
88349,-100,4,2,1,60,0,1
89099,-100,4,2,1,60,0,1
89266,-100,4,2,1,60,0,1
89349,-100,4,2,2,60,0,1
89683,-100,4,2,1,60,0,1
90349,-100,4,2,1,60,0,1
90599,-100,4,2,1,60,0,1
90683,-100,4,2,2,60,0,1
91016,-100,4,2,1,60,0,1
91849,-100,4,2,1,60,0,1
91933,-100,4,2,1,60,0,1
92516,-100,4,2,1,60,0,1
92683,-100,4,2,1,60,0,1
93016,-100,4,2,1,60,0,1
93099,-100,4,2,1,60,0,1
93349,-100,4,2,1,60,0,0
93849,-100,4,2,1,60,0,0
94016,-100,4,2,1,60,0,0
94349,-100,4,2,1,60,0,0
94516,-100,4,2,1,60,0,0
94849,-100,4,2,1,60,0,0
95016,-100,4,2,1,60,0,0
95349,-100,4,2,1,60,0,0
95516,-100,4,2,1,60,0,0
95683,-100,4,2,1,60,0,0
95849,-100,4,2,1,60,0,0
96016,-100,4,2,1,60,0,0
96349,-100,4,2,1,60,0,0
96516,-100,4,2,1,60,0,0
96683,-100,4,2,1,60,0,0
96849,-100,4,2,1,60,0,0
97016,-100,4,2,1,60,0,0
97183,-100,4,2,1,60,0,0
97349,-100,4,2,1,60,0,0
97516,-100,4,2,1,60,0,0
97683,-100,4,2,1,60,0,0
97849,-100,4,2,1,60,0,0
98016,-100,4,2,1,60,0,0
98099,-100,4,2,1,60,0,0

[Colours]
Combo1 : 0,255,255
Combo2 : 255,128,255
Combo3 : 255,255,255
Combo4 : 0,255,64

[HitObjects]
368,336,1350,6,0,P|416:252|352:196,1,185,2|0,0:0|0:0,0:0:0:0:
288,176,1849,1,0,0:0:0:0:
192,176,2016,2,0,L|96:176,1,92.5,2|0,0:0|0:0,0:0:0:0:
248,80,2349,1,2,0:0:0:0:
460,160,3016,6,0,L|460:64,1,92.5,2|0,0:0|0:0,0:0:0:0:
364,160,3349,2,0,L|364:64,1,92.5,2|0,0:0|0:0,0:0:0:0:
268,160,3683,2,0,L|268:64,1,92.5,2|0,0:0|0:0,0:0:0:0:
432,340,4016,6,0,P|480:256|416:200,1,185,2|0,0:0|0:0,0:0:0:0:
336,192,4516,2,0,P|236:152|236:88,1,185,2|0,0:0|0:0,0:0:0:0:
360,48,5016,1,2,0:0:0:0:
92,340,5683,6,0,L|92:244,1,92.5,2|0,0:0|0:0,0:0:0:0:
188,128,6016,2,0,L|304:128,1,92.5,2|0,0:0|0:0,0:0:0:0:
184,48,6349,2,0,L|92:48,1,92.5,0|0,0:0|0:0,0:0:0:0:
264,344,6683,5,2,0:0:0:0:
324,280,6849,1,0,0:0:0:0:
324,280,7016,1,2,0:0:0:0:
264,344,7183,1,0,0:0:0:0:
96,236,7349,1,2,0:0:0:0:
36,172,7516,1,0,0:0:0:0:
36,172,7683,1,2,0:0:0:0:
280,296,8183,5,0,0:0:0:0:
340,296,8349,1,2,0:0:0:0:
280,296,8516,1,0,0:0:0:0:
112,144,8683,1,2,0:0:0:0:
52,144,8849,1,0,0:0:0:0:
52,144,9016,1,2,0:0:0:0:
244,64,9349,6,0,L|403:156,1,185,2|0,0:0|0:0,0:0:0:0:
296,336,9849,2,0,P|248:252|312:196,1,185,2|0,0:0|0:0,0:0:0:0:
400,200,10349,1,2,0:0:0:0:
248,248,10516,1,0,0:0:0:0:
248,176,10683,5,4,0:1:0:0:
332,176,10849,1,0,0:0:0:0:
84,136,11016,2,0,L|84:40,1,92.5,8|0,0:0|0:0,0:0:0:0:
256,40,11349,2,0,L|352:40,1,92.5,10|0,0:0|0:0,0:0:0:0:
176,336,11683,2,0,L|72:336,1,92.5,8|8,0:0|0:0,0:0:0:0:
344,336,12016,6,0,L|344:244,1,92.5,4|0,0:0|0:0,0:0:0:0:
240,336,12349,2,0,L|240:232,1,92.5,4|0,0:0|0:0,0:0:0:0:
404,140,12683,2,0,L|496:140,1,92.5,4|0,0:0|0:0,0:0:0:0:
256,196,13016,6,0,P|168:136|200:68,1,185,4|4,0:0|0:0,0:0:0:0:
252,40,13516,1,0,0:0:0:0:
484,348,13683,2,0,L|484:248,1,92.5,4|0,0:0|0:0,0:0:0:0:
332,348,14016,2,0,L|332:248,1,92.5,4|0,0:0|0:0,0:0:0:0:
484,348,14349,2,0,L|484:252,1,92.5,4|0,0:0|0:0,0:0:0:0:
232,64,14683,6,0,L|73:156,1,185,4|4,0:0|0:0,0:0:0:0:
240,256,15183,2,0,L|399:348,1,185,0|0,0:0|0:0,0:0:0:0:
236,168,15683,6,0,L|236:64,1,92.5,4|0,0:0|0:0,0:0:0:0:
132,168,16016,2,0,L|132:60,1,92.5,4|0,0:0|0:0,0:0:0:0:
364,336,16349,2,0,L|456:336,1,92.5,4|0,0:0|0:0,0:0:0:0:
288,256,16683,2,0,L|184:256,1,92.5,4|0,0:0|0:0,0:0:0:0:
448,168,17016,2,0,L|448:72,1,92.5,4|0,0:0|0:0,0:0:0:0:
164,172,17349,5,4,0:0:0:0:
248,96,17516,1,0,0:0:0:0:
164,96,17683,1,4,0:0:0:0:
80,96,17849,1,0,0:0:0:0:
316,348,18016,1,4,0:0:0:0:
400,348,18183,1,0,0:0:0:0:
168,352,18349,1,4,0:0:0:0:
168,352,18683,5,4,0:0:0:0:
312,224,18849,1,0,0:0:0:0:
396,224,19016,1,4,0:0:0:0:
312,224,19183,1,0,0:0:0:0:
80,156,19349,1,12,0:0:0:0:
164,156,19516,1,0,0:0:0:0:
248,156,19683,2,0,L|348:156,1,92.5,12|0,0:0|0:0,0:0:0:0:
88,340,20016,6,0,P|40:256|104:200,1,185,4|4,0:0|0:0,0:0:0:0:
260,188,20516,2,0,P|343:139|316:58,1,185,0|0,0:0|0:0,0:0:0:0:
156,336,21016,6,0,L|156:240,1,92.5,4|0,0:0|0:0,0:0:0:0:
52,340,21349,2,0,L|52:224,1,92.5,4|0,0:1|0:0,0:0:0:0:
288,152,21683,2,0,L|388:152,1,92.5,4|0,0:0|0:0,0:0:0:0:
220,348,22016,1,8,0:0:0:0:
184,320,22099,1,8,0:0:0:0:
175,275,22182,1,8,0:0:0:0:
199,236,22265,1,8,0:0:0:0:
292,224,22349,1,8,0:0:0:0:
334,209,22432,1,8,0:0:0:0:
359,171,22515,1,8,0:0:0:0:
354,125,22598,1,8,0:0:0:0:
176,72,22683,6,0,L|60:72,1,92.5,2|0,0:0|0:0,0:0:0:0:
316,344,23016,2,0,L|416:344,1,92.5,0|2,0:0|0:0,0:0:0:0:
176,272,23349,2,0,L|176:172,1,92.5,0|0,0:0|0:0,0:0:0:0:
344,168,23683,2,0,L|440:168,1,92.5,2|0,0:0|0:0,0:0:0:0:
176,128,24016,6,0,L|176:28,1,92.5,4|0,0:1|0:0,0:0:0:0:
272,128,24349,2,0,L|272:28,1,92.5,2|0,0:0|0:0,0:0:0:0:
176,240,24683,2,0,L|84:240,1,92.5,2|0,0:0|0:0,0:0:0:0:
312,236,25016,2,0,L|408:236,1,92.5,2|0,0:0|0:0,0:0:0:0:
308,168,25349,6,0,L|308:76,1,92.5,2|0,0:0|0:0,0:0:0:0:
148,328,25683,2,0,L|56:328,1,92.5,2|0,0:0|0:0,0:0:0:0:
216,236,26016,2,0,L|324:236,1,92.5,2|0,0:0|0:0,0:0:0:0:
148,160,26349,2,0,L|44:160,1,92.5,2|0,0:0|0:0,0:0:0:0:
288,44,26683,6,0,L|288:148,1,92.5,2|0,0:0|0:0,0:0:0:0:
192,44,27016,2,0,L|192:144,1,92.5,2|0,0:0|0:0,0:0:0:0:
352,184,27349,2,0,L|448:184,1,92.5,2|0,0:0|0:0,0:0:0:0:
216,344,27683,6,0,P|128:232|224:168,1,277.5,2|0,0:0|0:0,0:0:0:0:
368,72,28349,2,0,L|472:72,1,92.5,2|0,0:0|0:0,0:0:0:0:
368,168,28683,1,8,0:3:0:0:
228,168,28849,1,0,0:0:0:0:
88,168,29016,2,0,L|88:72,1,92.5,4|0,0:3|0:0,0:0:0:0:
324,336,29349,6,0,L|428:336,1,92.5,4|0,0:1|0:0,0:0:0:0:
320,252,29683,2,0,L|320:160,1,92.5,2|0,0:0|0:0,0:0:0:0:
416,248,30016,2,0,L|416:148,1,92.5,2|0,0:0|0:0,0:0:0:0:
184,72,30349,6,0,P|100:192|188:264,1,277.5,2|0,0:0|0:0,0:0:0:0:
336,284,31016,2,0,L|432:284,1,92.5,2|0,0:0|0:0,0:0:0:0:
256,280,31349,2,0,L|156:280,1,92.5,8|0,0:3|0:0,0:0:0:0:
352,280,31683,2,0,L|448:280,1,92.5,4|2,0:3|0:0,0:0:0:0:
168,176,32016,6,0,P|115:243|164:313,1,185,4|2,0:0|0:0,0:0:0:0:
396,144,32516,2,0,L|236:51,1,185,2|0,0:0|0:0,0:0:0:0:
468,332,33016,6,0,L|468:240,1,92.5,2|0,0:0|0:0,0:0:0:0:
372,332,33349,2,0,L|372:236,1,92.5,2|0,0:0|0:0,0:0:0:0:
212,244,33683,2,0,P|180:156|244:104,1,185,8|4,0:3|0:3,0:0:0:0:
400,52,34183,2,0,L|496:52,2,92.5,4|8|0,0:3|0:0|0:0,0:0:0:0:
156,324,34683,6,0,L|156:228,1,92.5,4|0,0:1|0:0,0:0:0:0:
252,320,35016,2,0,L|252:220,1,92.5,2|0,0:0|0:0,0:0:0:0:
348,68,35350,2,0,L|440:68,1,92.5,2|0,0:0|0:0,0:0:0:0:
208,132,35683,2,0,L|92:132,1,92.5,2|0,0:0|0:0,0:0:0:0:
20,132,36016,6,0,L|20:40,1,92.5,2|0,0:0|0:0,0:0:0:0:
180,336,36349,2,0,L|272:336,1,92.5,2|0,0:0|0:0,0:0:0:0:
112,248,36682,2,0,L|4:248,1,92.5,2|0,0:0|0:0,0:0:0:0:
180,168,37015,2,0,L|284:168,1,92.5,2|0,0:0|0:0,0:0:0:0:
40,40,37349,6,0,L|40:144,1,92.5,2|0,0:0|0:0,0:0:0:0:
136,40,37682,2,0,L|136:140,1,92.5,2|0,0:0|0:0,0:0:0:0:
232,296,38015,2,0,L|328:296,1,92.5,2|0,0:0|0:0,0:0:0:0:
92,232,38349,6,0,L|92:139,1,92.5,2|0,0:0|0:0,0:0:0:0:
188,232,38683,2,0,L|188:139,1,92.5,0|0,0:0|0:0,0:0:0:0:
348,40,39016,2,0,L|244:40,1,92.5,8|0,0:3|0:0,0:0:0:0:
160,272,39349,2,0,L|160:172,1,92.5,4|0,0:3|0:0,0:0:0:0:
320,124,39683,2,0,L|424:124,1,92.5,8|0,0:0|0:0,0:0:0:0:
152,84,40016,6,0,P|76:156|116:228,1,185,4|0,0:2|0:0,0:0:0:0:
348,236,40516,2,0,P|422:191|407:105,1,185,0|0,0:0|0:0,0:0:0:0:
332,64,41016,2,0,L|408:124,1,92.5,8|0,0:3|0:0,0:0:0:0:
144,316,41349,6,0,L|52:316,1,92.5,4|0,0:0|0:0,0:0:0:0:
204,236,41683,1,0,0:0:0:0:
436,232,41849,1,0,0:0:0:0:
352,116,42016,1,8,0:3:0:0:
313,140,42099,1,8,0:3:0:0:
299,183,42182,1,8,0:3:0:0:
314,226,42266,1,8,0:3:0:0:
353,250,42349,2,0,L|356:356,1,92.5,8|0,0:0|0:0,0:0:0:0:
96,284,42683,6,0,P|40:200|104:168,1,185,4|0,0:1|0:0,0:0:0:0:
336,280,43183,2,0,P|392:196|328:164,1,185,8|0,0:0|0:0,0:0:0:0:
96,276,43683,2,0,L|96:184,1,92.5,8|0,0:0|0:0,0:0:0:0:
328,84,44016,6,0,L|328:192,1,92.5,4|0,0:1|0:0,0:0:0:0:
168,328,44349,2,0,L|56:328,1,92.5,8|0,0:0|0:0,0:0:0:0:
236,328,44683,2,0,L|332:328,1,92.5,4|0,0:0|0:0,0:0:0:0:
168,52,45016,1,8,0:0:0:0:
133,80,45099,1,8,0:0:0:0:
133,124,45182,1,8,0:0:0:0:
169,151,45266,1,8,0:0:0:0:
372,108,45349,6,0,L|300:44,2,92.5,8|0|0,0:0|0:0|0:0,0:0:0:0:
112,328,45849,1,4,0:0:0:0:
112,328,46183,1,0,0:0:0:0:
336,88,46349,6,0,L|495:180,1,185,8|0,0:0|0:0,0:0:0:0:
236,328,46849,1,4,0:0:0:0:
236,328,47183,1,0,0:0:0:0:
464,328,47349,2,0,L|368:328,1,92.5,8|0,0:0|0:0,0:0:0:0:
288,240,47683,2,0,L|392:240,1,92.5,4|0,0:0|0:0,0:0:0:0:
132,144,48016,6,0,P|76:224|144:264,1,185,4|8,0:1|0:3,0:0:0:0:
296,96,48516,2,0,L|396:96,1,92.5,8|0,0:0|0:0,0:0:0:0:
220,164,48849,2,0,L|112:164,1,92.5,8|4,0:3|0:0,0:0:0:0:
376,164,49183,6,0,P|432:244|364:284,1,185,0|8,0:0|0:0,0:0:0:0:
212,292,49683,2,0,L|104:292,1,92.5,8|12,0:0|0:0,0:0:0:0:
216,224,50016,2,0,L|216:132,1,92.5,0|8,0:3|0:3,0:0:0:0:
384,76,50349,2,0,L|484:76,1,92.5,4|0,0:0|0:0,0:0:0:0:
228,168,50683,6,0,P|172:248|240:288,1,185,4|4,0:2|0:3,0:0:0:0:
392,296,51183,2,0,L|488:296,1,92.5,4|0,0:0|0:0,0:0:0:0:
316,84,51516,2,0,L|208:84,1,92.5,8|4,0:3|0:0,0:0:0:0:
140,84,51849,1,0,0:0:0:0:
372,328,52016,6,0,L|372:232,1,92.5,4|0,0:2|0:0,0:0:0:0:
272,332,52349,2,0,L|272:240,1,92.5,8|4,0:3|0:0,0:0:0:0:
172,328,52683,2,0,L|172:236,1,92.5,0|8,0:0|0:0,0:0:0:0:
340,104,53016,2,0,L|432:104,1,92.5,4|0,0:0|0:0,0:0:0:0:
168,152,53349,6,0,P|112:232|180:272,1,185,4|4,0:1|0:0,0:0:0:0:
88,304,53849,1,0,0:0:0:0:
344,152,54016,2,0,P|400:232|332:272,1,185,8|4,0:3|0:0,0:0:0:0:
424,304,54516,1,0,0:0:0:0:
168,48,54683,6,0,L|327:140,1,185,8|4,0:3|0:0,0:0:0:0:
388,176,55183,1,4,0:3:0:0:
152,280,55349,1,8,0:0:0:0:
304,276,55516,1,8,0:0:0:0:
346,256,55599,1,8,0:0:0:0:
373,219,55682,1,8,0:0:0:0:
380,174,55766,1,8,0:0:0:0:
363,131,55849,1,8,0:0:0:0:
329,102,55932,1,8,0:0:0:0:
140,108,56016,6,0,L|212:44,2,92.5,8|0|0,0:0|0:0|0:0,0:0:0:0:
400,328,56516,1,4,0:0:0:0:
400,328,56850,1,0,0:0:0:0:
176,88,57016,6,0,L|17:180,1,185,8|0,0:0|0:0,0:0:0:0:
276,328,57516,1,4,0:0:0:0:
276,328,57849,1,0,0:0:0:0:
48,328,58015,2,0,L|144:328,1,92.5,8|0,0:0|0:0,0:0:0:0:
224,240,58349,2,0,L|120:240,1,92.5,4|0,0:0|0:0,0:0:0:0:
380,144,58683,6,0,P|436:224|368:264,1,185,4|8,0:1|0:0,0:0:0:0:
216,96,59183,2,0,L|116:96,1,92.5,4|0,0:0|0:0,0:0:0:0:
292,164,59516,2,0,L|400:164,1,92.5,8|4,0:0|0:0,0:0:0:0:
136,164,59850,6,0,P|80:244|148:284,1,185,8|0,0:0|0:0,0:0:0:0:
300,292,60350,2,0,L|408:292,1,92.5,8|4,0:0|0:0,0:0:0:0:
296,224,60683,2,0,L|296:132,1,92.5,0|8,0:0|0:0,0:0:0:0:
128,76,61016,2,0,L|28:76,1,92.5,4|0,0:0|0:0,0:0:0:0:
296,124,61349,6,0,P|388:176|388:248,1,185,4|0,0:0|0:0,0:0:0:0:
156,124,61849,2,0,P|100:204|168:244,1,185,4|0,0:0|0:0,0:0:0:0:
312,248,62349,2,0,L|416:248,1,92.5,8|8,0:0|0:3,0:0:0:0:
144,128,62683,6,0,P|52:180|52:252,1,185,4|0,0:0|0:0,0:0:0:0:
284,128,63183,2,0,P|340:208|272:248,1,185,4|0,0:0|0:0,0:0:0:0:
128,264,63683,1,8,0:0:0:0:
95,232,63766,1,0,0:0:0:0:
94,187,63849,1,8,0:3:0:0:
124,154,63933,1,0,0:0:0:0:
376,96,64016,6,0,L|217:188,1,185,4|8,0:2|0:3,0:0:0:0:
368,232,64516,1,0,0:0:0:0:
112,96,64683,2,0,L|271:188,1,185,4|8,0:0|0:3,0:0:0:0:
120,232,65183,1,0,0:0:0:0:
392,92,65349,6,0,L|233:184,1,185,4|8,0:0|0:0,0:0:0:0:
148,232,65849,1,0,0:0:0:0:
380,352,66016,1,8,0:0:0:0:
412,320,66099,1,8,0:0:0:0:
413,275,66182,1,8,0:0:0:0:
383,242,66266,1,8,0:0:0:0:
208,240,66349,2,0,P|168:204|184:152,1,92.5
205,126,66599,1,8,0:0:0:0:
464,64,66683,6,0,L|280:64,1,185,4|8,0:0|0:0,0:0:0:0:
368,136,67183,1,4,0:0:0:0:
120,352,67349,2,0,L|8:352,1,92.5,0|8,0:0|0:0,0:0:0:0:
192,256,67683,2,0,L|192:160,1,92.5,4|0,0:0|0:0,0:0:0:0:
96,176,68016,6,0,L|96:76,1,92.5,8|0,0:3|0:0,0:0:0:0:
356,264,68349,2,0,L|464:264,1,92.5,8|4,0:0|0:0,0:0:0:0:
280,156,68683,2,0,L|184:156,1,92.5,0|8,0:0|0:0,0:0:0:0:
356,68,69016,2,0,L|452:68,1,92.5,4|0,0:0|0:0,0:0:0:0:
152,184,69349,6,0,P|96:264|164:304,1,185,4|8,0:1|0:0,0:0:0:0:
448,56,69849,2,0,L|289:148,1,185,4|8,0:0|0:0,0:0:0:0:
52,312,70349,2,0,L|152:312,1,92.5,4|0,0:0|0:0,0:0:0:0:
40,228,70683,6,0,L|40:124,1,92.5,8|0,0:0|0:0,0:0:0:0:
304,104,71016,2,0,L|404:104,1,92.5,8|4,0:3|0:0,0:0:0:0:
228,212,71349,2,0,L|132:212,1,92.5,0|8,0:0|0:0,0:0:0:0:
304,300,71683,2,0,L|420:300,1,92.5,4|0,0:0|0:0,0:0:0:0:
136,104,72016,6,0,P|80:184|148:224,1,185,4|0,0:1|0:0,0:0:0:0:
384,96,72516,2,0,P|476:148|476:220,1,185,8|8,0:0|0:0,0:0:0:0:
384,260,73016,2,0,L|384:360,1,92.5,4|0,0:0|0:0,0:0:0:0:
116,192,73349,6,0,L|188:128,2,92.5,8|0|0,0:0|0:0|0:0,0:0:0:0:
280,204,73849,2,0,P|336:284|268:324,1,185,8|0,0:0|0:0,0:0:0:0:
112,332,74349,2,0,L|112:236,1,92.5,4|0,0:0|0:0,0:0:0:0:
368,64,74683,6,0,L|209:156,1,185,4|0,0:0|0:0,0:0:0:0:
432,212,75183,2,0,P|488:292|420:332,1,185,8|8,0:0|0:0,0:0:0:0:
264,336,75683,2,0,L|264:232,1,92.5,4|0,0:0|0:0,0:0:0:0:
496,128,76016,6,0,L|404:128,1,92.5,4|0,0:0|0:0,0:0:0:0:
236,128,76349,2,0,L|140:128,1,92.5,8|8,0:3|0:0,0:0:0:0:
380,248,76683,2,0,L|480:248,1,92.5,0|0,0:0|0:3,0:0:0:0:
368,176,77016,2,0,L|368:80,1,92.5,4|0,0:0|0:0,0:0:0:0:
100,144,77349,6,0,L|172:80,2,92.5,4|0|8,0:0|0:0|0:0,0:0:0:0:
268,328,77849,2,0,L|360:328,1,92.5,4|0,0:0|0:0,0:0:0:0:
192,248,78183,2,0,L|96:248,1,92.5,0|4,0:0|0:0,0:0:0:0:
20,248,78516,1,0,0:0:0:0:
256,160,78683,6,0,L|256:64,1,92.5,4|0,0:0|0:0,0:0:0:0:
424,160,79016,2,0,L|424:64,1,92.5,8|4,0:0|0:0,0:0:0:0:
256,324,79349,2,0,L|160:324,1,92.5,0|0,0:0|0:0,0:0:0:0:
332,248,79683,2,0,L|436:248,1,92.5,4|0,0:0|0:0,0:0:0:0:
164,140,80016,6,0,P|108:220|176:260,1,185,4|8,0:0|0:0,0:0:0:0:
328,140,80516,2,0,P|384:220|316:260,1,185,4|0,0:0|0:0,0:0:0:0:
236,336,81016,2,0,L|140:336,1,92.5,4|0,0:0|0:0,0:0:0:0:
388,168,81349,6,0,L|388:68,1,92.5,4|0,0:0|0:0,0:0:0:0:
492,168,81683,2,0,L|492:76,1,92.5,0|4,0:0|0:0,0:0:0:0:
248,172,82016,2,0,L|248:72,1,92.5,0|8,0:0|0:0,0:0:0:0:
144,172,82350,2,0,L|144:80,1,92.5,4|0,0:0|0:0,0:0:0:0:
412,144,82683,6,0,L|340:80,2,92.5,4|0|8,0:2|0:0|0:0,0:0:0:0:
244,344,83183,2,0,L|244:244,1,92.5,4|0,0:0|0:0,0:0:0:0:
412,344,83516,2,0,L|412:248,1,92.5,0|4,0:0|0:0,0:0:0:0:
180,56,83849,6,0,L|21:148,1,185,0|0,0:0|0:0,0:0:0:0:
256,296,84349,2,0,L|352:296,1,92.5,8|4,0:0|0:0,0:0:0:0:
180,228,84683,2,0,L|180:128,1,92.5,0|0,0:0|0:0,0:0:0:0:
348,228,85016,2,0,L|348:128,1,92.5,4|0,0:0|0:0,0:0:0:0:
100,124,85349,6,0,P|44:204|112:244,1,185,4|0,0:0|0:0,0:0:0:0:
272,248,85849,2,0,L|380:248,1,92.5,4|0,0:0|0:0,0:0:0:0:
200,152,86183,2,0,L|104:152,1,92.5,8|4,0:0|0:0,0:0:0:0:
16,152,86516,1,8,0:0:0:0:
280,356,86683,6,0,L|280:256,1,92.5,4|0,0:0|0:0,0:0:0:0:
448,360,87016,2,0,L|448:264,1,92.5,0|4,0:0|0:0,0:0:0:0:
280,104,87349,2,0,L|176:104,1,92.5,0|8,0:0|0:0,0:0:0:0:
356,172,87683,2,0,L|448:172,1,92.5,4|0,0:0|0:0,0:0:0:0:
184,144,88016,6,0,L|256:80,2,92.5,4|0|8,0:0|0:0|0:0,0:0:0:0:
352,344,88516,2,0,L|352:244,1,92.5,4|0,0:0|0:0,0:0:0:0:
184,344,88849,2,0,L|184:248,1,92.5,0|4,0:0|0:0,0:0:0:0:
428,128,89183,6,0,P|484:208|416:248,1,185,12|0,0:0|0:0,0:0:0:0:
260,296,89682,2,0,L|164:296,1,92.5,8|4,0:0|0:0,0:0:0:0:
336,228,90016,2,0,L|336:128,1,92.5,0|0,0:0|0:0,0:0:0:0:
168,228,90349,2,0,L|168:128,1,92.5,4|0,0:0|0:0,0:0:0:0:
428,144,90683,6,0,L|356:80,2,92.5,4|0|8,0:0|0:0|0:0,0:0:0:0:
260,344,91183,2,0,L|260:244,1,92.5,4|0,0:0|0:0,0:0:0:0:
428,344,91516,2,0,L|428:248,1,92.5,0|4,0:0|0:0,0:0:0:0:
176,56,91849,6,0,L|17:148,1,185,8|0,0:0|0:1,0:0:0:0:
284,56,92349,2,0,L|380:56,1,92.5,8|4,0:0|0:0,0:0:0:0:
140,332,92683,1,8,0:0:0:0:
108,300,92766,1,8,0:0:0:0:
107,255,92849,1,8,0:0:0:0:
137,222,92933,1,8,0:0:0:0:
300,136,93016,1,8,0:0:0:0:
148,140,93183,1,8,0:0:0:0:
376,320,93349,6,0,L|476:320,2,92.5,4|0|0,0:0|0:0|0:0,0:0:0:0:
152,320,93849,2,0,L|52:320,2,92.5,4|0|0,0:0|0:0|0:0,0:0:0:0:
392,152,94349,6,0,L|320:88,2,92.5,4|0|0,0:0|0:0|0:0,0:0:0:0:
152,152,94849,2,0,L|224:88,2,92.5,4|0|0,0:0|0:0|0:0,0:0:0:0:
400,280,95349,5,4,0:0:0:0:
260,280,95516,1,0,0:0:0:0:
120,280,95683,1,4,0:0:0:0:
368,200,95849,1,0,0:0:0:0:
228,200,96016,1,4,0:0:0:0:
88,200,96183,1,0,0:0:0:0:
344,96,96349,6,0,L|236:96,2,92.5,0|4|0,0:0|0:0|0:0,0:0:0:0:
88,96,96849,2,0,L|196:96,2,92.5,0|4|0,0:0|0:0|0:0,0:0:0:0:
352,336,97349,6,0,L|256:336,1,92.5,0|4,0:0|0:0,0:0:0:0:
496,232,97683,2,0,L|400:232,1,92.5,0|0,0:0|0:0,0:0:0:0:
80,128,98016,2,0,L|176:128,1,92.5,4|0,0:0|0:0,0:0:0:0:
456,128,98349,1,4,0:0:0:0:
128,128,98516,5,4,0:1:0:0:
256,192,98683,12,0,102683,0:0:0:0:
