osu file format v14

[General]
AudioFilename: audio.mp3
AudioLeadIn: 0
PreviewTime: 63933
Countdown: 0
SampleSet: Soft
StackLeniency: 0.7
Mode: 2
LetterboxInBreaks: 0
WidescreenStoryboard: 1

[Editor]
DistanceSpacing: 1.2
BeatDivisor: 4
GridSize: 8
TimelineZoom: 1

[Metadata]
Title:Sakura no Uta
TitleUnicode:櫻ノ詩
Artist:Hana
ArtistUnicode:はな
Creator:Sanyi
Version:Platter
Source:サクラノ詩 -櫻の森の上を舞う-
Tags:sakura no uta - sakura no mori no ue o mau - metrowing makura 枕 eroge galgame jeir jeriyagtama
BeatmapID:1577014
BeatmapSetID:748610

[Difficulty]
HPDrainRate:4
CircleSize:3.5
OverallDifficulty:8
ApproachRate:8
SliderMultiplier:1.6
SliderTickRate:2

[Events]
//Background and Video events
0,0,"bg.jpg",0,0
//Break Periods
//Storyboard Layer 0 (Background)
//Storyboard Layer 1 (Fail)
//Storyboard Layer 2 (Pass)
//Storyboard Layer 3 (Foreground)
//Storyboard Sound Samples

[TimingPoints]
1350,333.333333333333,4,2,1,60,1,0
1683,-100,4,2,1,60,0,0
1849,-100,4,2,1,60,0,0
2016,-100,4,2,1,60,0,0
2183,-100,4,2,1,60,0,0
2349,-100,4,2,1,60,0,0
2849,-100,4,2,1,60,0,0
3016,-100,4,2,1,60,0,0
3183,-100,4,2,1,60,0,0
3349,-100,4,2,1,60,0,0
3516,-100,4,2,1,60,0,0
3683,-100,4,2,1,60,0,0
3849,-100,4,2,1,60,0,0
4016,-100,4,2,2,60,0,0
4349,-100,4,2,1,60,0,0
4516,-100,4,2,1,60,0,0
4849,-100,4,2,1,60,0,0
5016,-100,4,2,1,60,0,0
5849,-100,4,2,1,60,0,0
6016,-100,4,2,1,60,0,0
6183,-100,4,2,1,60,0,0
6349,-100,4,2,1,60,0,0
6516,-100,4,2,1,60,0,0
6683,-100,4,2,2,60,0,0
6849,-100,4,2,1,60,0,0
7016,-100,4,2,1,60,0,0
7183,-100,4,2,1,60,0,0
7349,-100,4,2,1,60,0,0
7516,-100,4,2,1,60,0,0
7683,-100,4,2,1,60,0,0
8183,-100,4,2,1,60,0,0
8349,-100,4,2,1,60,0,0
8683,-100,4,2,1,60,0,0
8849,-100,4,2,1,60,0,0
9016,-100,4,2,1,60,0,0
9349,-100,4,2,1,60,0,0
9683,-100,4,2,1,60,0,0
9849,-100,4,2,1,60,0,0
10183,-100,4,2,1,60,0,0
10349,-100,4,2,1,60,0,0
10516,-100,4,2,1,60,0,0
10683,-100,4,2,1,60,0,0
10849,-100,4,2,1,60,0,0
11516,-100,4,2,1,60,0,0
11683,-100,4,2,1,60,0,0
11849,-100,4,2,1,60,0,0
12016,-100,4,2,0,60,0,0
12183,-100,4,2,1,60,0,0
12266,-100,4,2,1,60,0,0
12349,-100,4,2,1,60,0,0
12683,-100,4,2,1,60,0,0
12849,-100,4,2,1,60,0,0
13016,-100,4,2,1,60,0,0
14016,-100,4,2,1,60,0,0
14183,-100,4,2,1,60,0,0
14683,-100,4,2,1,60,0,0
14933,-100,4,2,1,60,0,0
15016,-100,4,2,1,60,0,0
15183,-100,4,2,1,60,0,0
15349,-100,4,2,1,60,0,0
15683,-100,4,2,1,60,0,0
15849,-100,4,2,1,60,0,0
16016,-100,4,2,1,60,0,0
16349,-100,4,2,1,60,0,0
16599,-100,4,2,1,60,0,0
16683,-100,4,2,1,60,0,0
16849,-100,4,2,1,60,0,0
17016,-100,4,2,1,60,0,0
17183,-100,4,2,1,60,0,0
17349,-100,4,2,0,60,0,0
17516,-100,4,2,1,60,0,0
17683,-100,4,2,1,60,0,0
17849,-100,4,2,1,60,0,0
18016,-100,4,2,1,60,0,0
18183,-100,4,2,1,60,0,0
18516,-100,4,2,1,60,0,0
18683,-100,4,2,1,60,0,0
18849,-100,4,2,1,60,0,0
19016,-100,4,2,1,60,0,0
19183,-100,4,2,1,60,0,0
19349,-100,4,2,1,60,0,0
19516,-100,4,2,1,60,0,0
19683,-100,4,2,1,60,0,0
19849,-100,4,2,1,60,0,0
20016,-100,4,2,0,60,0,0
20183,-100,4,2,1,60,0,0
20349,-100,4,2,1,60,0,0
20516,-100,4,2,1,60,0,0
20683,-100,4,2,1,60,0,0
20849,-100,4,2,1,60,0,0
21016,-100,4,2,1,60,0,0
21183,-100,4,2,1,60,0,0
21349,-100,4,2,1,60,0,0
21683,-100,4,2,1,60,0,0
21849,-100,4,2,1,60,0,0
21933,-100,4,2,1,60,0,0
22349,-100,4,2,1,60,0,0
22516,-100,4,2,1,60,0,0
22683,-100,4,2,1,60,0,0
22849,-100,4,2,1,60,0,0
23016,-100,4,2,1,60,0,0
23183,-100,4,2,1,60,0,0
23349,-100,4,2,1,60,0,0
23516,-100,4,2,1,60,0,0
23683,-100,4,2,1,60,0,0
23849,-100,4,2,1,60,0,0
24016,-100,4,2,1,60,0,0
24349,-100,4,2,3,60,0,0
28183,-100,4,2,3,60,0,0
28349,-100,4,2,3,60,0,0
32849,-100,4,2,1,60,0,0
33016,-100,4,2,3,60,0,0
33516,-100,4,2,3,60,0,0
33683,-100,4,2,3,60,0,0
33849,-100,4,2,3,60,0,0
34016,-100,4,2,3,60,0,0
34349,-100,4,2,1,60,0,0
35016,-100,4,2,3,60,0,0
37516,-100,4,2,3,60,0,0
37683,-100,4,2,3,60,0,0
38183,-100,4,2,3,60,0,0
38349,-100,4,2,3,60,0,0
38516,-100,4,2,3,60,0,0
39683,-100,4,2,1,60,0,0
40016,-100,4,2,2,60,0,0
40516,-100,4,2,1,60,0,0
40599,-100,4,2,1,60,0,0
40683,-100,4,2,3,60,0,0
41183,-100,4,2,1,60,0,0
41349,-100,4,2,2,60,0,0
42349,-100,4,2,1,60,0,0
42433,-100,4,2,1,60,0,0
43183,-100,4,2,1,60,0,0
43349,-100,4,2,1,60,0,0
44516,-100,4,2,1,60,0,0
44599,-100,4,2,1,60,0,0
45516,-100,4,2,1,60,0,0
45849,-100,4,2,1,60,0,0
46183,-100,4,2,1,60,0,0
46349,-100,4,2,1,60,0,0
47183,-100,4,2,1,60,0,0
47349,-100,4,2,1,60,0,0
47433,-100,4,2,1,60,0,0
47683,-100,4,2,1,60,0,0
47766,-100,4,2,1,60,0,0
48016,-100,4,2,1,60,0,0
48099,-100,4,2,1,60,0,0
48516,-100,4,2,1,60,0,0
48683,-100,4,2,1,60,0,0
50183,-100,4,2,1,60,0,0
50349,-100,4,2,1,60,0,0
50683,-100,4,2,2,60,0,0
51016,-100,4,2,1,60,0,0
51183,-100,4,2,1,60,0,0
52016,-100,4,2,2,60,0,0
52516,-100,4,2,1,60,0,0
52683,-100,4,2,1,60,0,0
53016,-100,4,2,1,60,0,0
53183,-100,4,2,1,60,0,0
54349,-100,4,2,1,60,0,0
54516,-100,4,2,1,60,0,0
55016,-100,4,2,1,60,0,0
55349,-100,4,2,1,60,0,0
56849,-100,4,2,1,60,0,0
57183,-100,4,2,1,60,0,0
57516,-100,4,2,1,60,0,0
57683,-100,4,2,1,60,0,0
58016,-100,4,2,1,60,0,0
58349,-100,4,2,1,60,0,0
59183,-100,4,2,1,60,0,0
59349,-100,4,2,1,60,0,0
60016,-100,4,2,1,60,0,0
60183,-100,4,2,1,60,0,0
60683,-100,4,2,1,60,0,0
60849,-100,4,2,1,60,0,0
61349,-100,4,2,2,60,0,0
61683,-100,4,2,1,60,0,0
62683,-100,4,2,2,60,0,0
63016,-100,4,2,1,60,0,0
63516,-100,4,2,1,60,0,0
63599,-100,4,2,1,60,0,0
64016,-100,4,2,2,60,0,0
64683,-100,4,2,2,60,0,0
64849,-100,4,2,1,60,0,0
65349,-100,4,2,2,60,0,0
66016,-100,4,2,1,60,0,0
66183,-100,4,2,1,60,0,0
66516,-100,4,2,1,60,0,0
66599,-100,4,2,1,60,0,0
66683,-100,4,2,1,60,0,1
67183,-100,4,2,1,60,0,1
67266,-100,4,2,1,60,0,1
67849,-100,4,2,1,60,0,1
67933,-100,4,2,1,60,0,1
71016,-100,4,2,1,60,0,1
71099,-100,4,2,1,60,0,1
71183,-100,4,2,1,60,0,1
71266,-100,4,2,1,60,0,1
74683,-100,4,2,2,60,0,1
75183,-100,4,2,1,60,0,1
76016,-100,4,2,2,60,0,1
77016,-100,4,2,1,60,0,1
77266,-100,4,2,1,60,0,1
77349,-100,4,2,2,60,0,1
77683,-100,4,2,1,60,0,1
78349,-100,4,2,1,60,0,1
78516,-100,4,2,1,60,0,1
78599,-100,4,2,1,60,0,1
78683,-100,4,2,2,60,0,1
79016,-100,4,2,1,60,0,1
80016,-100,4,2,2,60,0,1
80183,-100,4,2,1,60,0,1
81016,-100,4,2,1,60,0,1
81183,-100,4,2,1,60,0,1
81266,-100,4,2,1,60,0,1
81349,-100,4,2,2,60,0,1
81683,-100,4,2,1,60,0,1
82683,-100,4,2,2,60,0,1
83016,-100,4,2,1,60,0,1
83266,-100,4,2,1,60,0,1
83683,-100,4,2,1,60,0,1
83849,-100,4,2,1,60,0,1
83933,-100,4,2,1,60,0,1
84016,-100,4,2,2,60,0,1
84183,-100,4,2,1,60,0,1
85349,-100,4,2,2,60,0,1
85683,-100,4,2,1,60,0,1
86349,-100,4,2,1,60,0,1
86599,-100,4,2,1,60,0,1
86683,-100,4,2,2,60,0,1
87016,-100,4,2,1,60,0,1
87349,-100,4,2,1,60,0,1
88016,-100,4,2,2,60,0,1
88349,-100,4,2,1,60,0,1
89099,-100,4,2,1,60,0,1
89266,-100,4,2,1,60,0,1
89349,-100,4,2,2,60,0,1
89683,-100,4,2,1,60,0,1
90349,-100,4,2,1,60,0,1
90599,-100,4,2,1,60,0,1
90683,-100,4,2,2,60,0,1
91016,-100,4,2,1,60,0,1
91849,-100,4,2,1,60,0,1
91933,-100,4,2,1,60,0,1
92516,-100,4,2,1,60,0,1
92683,-100,4,2,1,60,0,1
93016,-100,4,2,1,60,0,1
93099,-100,4,2,1,60,0,1
93349,-100,4,2,1,60,0,0
93849,-100,4,2,1,60,0,0
94016,-100,4,2,1,60,0,0
94349,-100,4,2,1,60,0,0
94516,-100,4,2,1,60,0,0
94849,-100,4,2,1,60,0,0
95016,-100,4,2,1,60,0,0
95349,-100,4,2,1,60,0,0
95516,-100,4,2,1,60,0,0
95683,-100,4,2,1,60,0,0
95849,-100,4,2,1,60,0,0
96016,-100,4,2,1,60,0,0
96349,-100,4,2,1,60,0,0
96516,-100,4,2,1,60,0,0
96683,-100,4,2,1,60,0,0
96849,-100,4,2,1,60,0,0
97016,-100,4,2,1,60,0,0
97183,-100,4,2,1,60,0,0
97349,-100,4,2,1,60,0,0
97516,-100,4,2,1,60,0,0
97683,-100,4,2,1,60,0,0
97849,-100,4,2,1,60,0,0
98016,-100,4,2,1,60,0,0
98099,-100,4,2,1,60,0,0

[Colours]
Combo1 : 0,255,255
Combo2 : 255,128,255
Combo3 : 255,255,255
Combo4 : 0,255,64

[HitObjects]
144,352,1350,6,0,P|104:256|144:232,1,160,2|0,0:0|0:0,0:0:0:0:
216,232,1849,1,0,0:0:0:0:
296,232,2016,1,2,0:0:0:0:
376,232,2183,1,0,0:0:0:0:
296,144,2349,1,2,0:0:0:0:
72,200,3016,6,0,L|72:120,1,80,2|0,0:0|0:0,0:0:0:0:
152,200,3349,2,0,L|152:112,1,80,2|0,0:0|0:0,0:0:0:0:
72,200,3683,2,0,L|72:120,1,80,2|0,0:0|0:0,0:0:0:0:
152,200,4016,6,0,L|408:200,2,240,2|2|2,0:0|0:0|0:0,0:0:0:0:
376,208,5683,6,0,L|376:128,1,80,2|0,0:0|0:0,0:0:0:0:
296,128,6016,2,0,L|216:128,1,80,2|0,0:0|0:0,0:0:0:0:
136,128,6349,2,0,L|136:216,1,80,0|0,0:0|0:0,0:0:0:0:
232,328,6683,5,2,0:0:0:0:
296,328,6849,1,0,0:0:0:0:
296,328,7016,1,2,0:0:0:0:
232,328,7183,1,0,0:0:0:0:
136,240,7349,1,2,0:0:0:0:
72,240,7516,1,0,0:0:0:0:
72,240,7683,1,2,0:0:0:0:
240,168,8183,5,0,0:0:0:0:
304,168,8349,1,2,0:0:0:0:
240,168,8516,1,0,0:0:0:0:
144,168,8683,1,2,0:0:0:0:
80,168,8849,1,0,0:0:0:0:
80,168,9016,1,2,0:0:0:0:
224,72,9349,6,0,L|464:72,2,240,2|2|2,0:0|0:0|0:0,0:0:0:0:
144,72,10516,1,0,0:0:0:0:
144,152,10683,5,4,0:1:0:0:
224,152,10849,1,0,0:0:0:0:
384,152,11016,2,0,L|384:232,1,80,8|0,0:0|0:0,0:0:0:0:
224,224,11349,2,0,L|224:312,1,80,10|0,0:0|0:0,0:0:0:0:
384,304,11683,2,0,L|488:304,1,80,8|8,0:0|0:0,0:0:0:0:
216,128,12016,6,0,P|160:240|224:328,1,240,4|0,0:0|0:0,0:0:0:0:
296,336,12683,2,0,L|400:336,1,80,4|0,0:0|0:0,0:0:0:0:
200,208,13016,5,4,0:0:0:0:
40,208,13349,1,4,0:0:0:0:
328,128,13683,2,0,L|416:128,1,80,4|0,0:0|0:0,0:0:0:0:
328,48,14016,2,0,L|248:48,1,80,4|0,0:0|0:0,0:0:0:0:
328,208,14349,2,0,L|424:208,1,80,4|0,0:0|0:0,0:0:0:0:
232,344,14683,6,0,P|192:256|240:208,1,160,4|4,0:0|0:0,0:0:0:0:
400,344,15183,2,0,P|440:256|392:208,1,160,0|0,0:0|0:0,0:0:0:0:
232,208,15683,1,4,0:0:0:0:
72,208,16016,5,4,0:0:0:0:
360,160,16349,2,0,L|360:72,1,80,4|0,0:0|0:0,0:0:0:0:
184,160,16683,2,0,L|80:160,1,80,4|0,0:0|0:0,0:0:0:0:
280,160,17016,2,0,L|368:160,1,80,4|0,0:0|0:0,0:0:0:0:
120,328,17349,5,4,0:0:0:0:
56,328,17515,1,0,0:0:0:0:
56,328,17682,1,4,0:0:0:0:
120,328,17849,1,0,0:0:0:0:
296,248,18015,1,4,0:0:0:0:
360,248,18182,1,0,0:0:0:0:
296,248,18349,1,4,0:0:0:0:
152,168,18683,5,4,0:0:0:0:
304,72,18849,1,0,0:0:0:0:
368,72,19015,1,4,0:0:0:0:
304,72,19182,1,0,0:0:0:0:
128,152,19349,1,12,0:0:0:0:
64,152,19515,1,0,0:0:0:0:
64,152,19682,1,12,0:0:0:0:
352,344,20016,6,0,P|392:256|344:208,1,160,4|4,0:0|0:0,0:0:0:0:
184,344,20516,2,0,P|144:256|192:208,1,160,0|0,0:0|0:0,0:0:0:0:
352,208,21016,5,4,0:0:0:0:
480,120,21349,1,4,0:1:0:0:
192,120,21683,2,0,L|192:40,1,80,4|0,0:0|0:0,0:0:0:0:
368,344,22016,1,8,0:0:0:0:
398,316,22099,1,8,0:0:0:0:
417,282,22182,1,8,0:0:0:0:
425,242,22265,1,8,0:0:0:0:
420,203,22349,1,8,0:0:0:0:
403,167,22432,1,8,0:0:0:0:
376,138,22515,1,8,0:0:0:0:
120,256,22683,5,2,0:0:0:0:
40,256,22849,1,0,0:0:0:0:
120,256,23016,1,0,0:0:0:0:
264,256,23183,1,2,0:0:0:0:
408,256,23349,1,0,0:0:0:0:
488,256,23516,1,0,0:0:0:0:
488,256,23683,1,2,0:0:0:0:
408,256,23849,1,0,0:0:0:0:
160,192,24016,6,0,L|160:96,1,80,4|0,0:1|0:0,0:0:0:0:
80,192,24349,2,0,L|80:112,1,80,2|0,0:0|0:0,0:0:0:0:
160,192,24683,2,0,L|160:104,1,80,2|0,0:0|0:0,0:0:0:0:
328,192,25016,6,0,L|416:192,1,80,2|0,0:0|0:0,0:0:0:0:
408,112,25349,1,2,0:0:0:0:
120,312,25683,2,0,L|40:312,1,80,2|0,0:0|0:0,0:0:0:0:
120,232,26016,2,0,L|200:232,1,80,2|0,0:0|0:0,0:0:0:0:
120,152,26349,2,0,L|40:152,1,80,2|0,0:0|0:0,0:0:0:0:
208,352,26683,6,0,L|208:272,1,80,2|0,0:0|0:0,0:0:0:0:
288,352,27016,2,0,L|288:272,1,80,2|0,0:0|0:0,0:0:0:0:
368,352,27349,2,0,L|368:272,1,80,2|0,0:0|0:0,0:0:0:0:
200,256,27683,6,0,P|152:144|200:40,1,240,2|0,0:0|0:0,0:0:0:0:
288,48,28349,2,0,L|288:128,1,80,2|0,0:0|0:0,0:0:0:0:
120,312,28683,2,0,L|32:312,2,80,8|0|4,0:3|0:0|0:3,0:0:0:0:
200,312,29183,1,0,0:0:0:0:
368,312,29349,6,0,L|368:224,1,80,4|0,0:1|0:0,0:0:0:0:
448,312,29683,2,0,L|448:224,1,80,2|0,0:0|0:0,0:0:0:0:
352,128,30016,2,0,L|264:128,1,80,2|0,0:0|0:0,0:0:0:0:
440,240,30349,6,0,P|488:128|440:24,1,240,2|0,0:0|0:0,0:0:0:0:
360,320,31016,2,0,L|272:320,1,80,2|0,0:0|0:0,0:0:0:0:
368,240,31349,2,0,L|448:240,1,80,8|0,0:3|0:0,0:0:0:0:
352,160,31683,2,0,L|264:160,1,80,4|2,0:3|0:0,0:0:0:0:
96,336,32016,6,0,P|56:248|104:200,1,160,4|2,0:0|0:0,0:0:0:0:
264,336,32516,2,0,P|304:248|256:200,1,160,2|0,0:0|0:0,0:0:0:0:
184,96,33016,6,0,L|184:200,1,80,2|0,0:0|0:0,0:0:0:0:
104,176,33349,2,0,L|104:96,1,80,2|0,0:0|0:0,0:0:0:0:
272,256,33683,2,0,L|352:256,1,80,8|0,0:3|0:0,0:0:0:0:
272,192,34016,2,0,L|192:192,1,80,4|4,0:3|0:3,0:0:0:0:
112,192,34349,2,0,L|16:192,1,80,8|0,0:0|0:0,0:0:0:0:
280,192,34682,6,0,L|280:96,1,80,4|0,0:1|0:0,0:0:0:0:
368,192,35015,2,0,L|368:112,1,80,2|0,0:0|0:0,0:0:0:0:
280,192,35349,2,0,L|280:104,1,80,2|0,0:0|0:0,0:0:0:0:
112,296,35682,6,0,L|24:296,1,80,2|0,0:0|0:0,0:0:0:0:
32,128,36015,1,2,0:0:0:0:
320,312,36349,2,0,L|400:312,1,80,2|0,0:0|0:0,0:0:0:0:
320,232,36682,2,0,L|240:232,1,80,2|0,0:0|0:0,0:0:0:0:
320,152,37015,2,0,L|400:152,1,80,2|0,0:0|0:0,0:0:0:0:
232,352,37349,6,0,L|232:272,1,80,2|0,0:0|0:0,0:0:0:0:
152,352,37682,2,0,L|152:272,1,80,2|0,0:0|0:0,0:0:0:0:
72,352,38015,2,0,L|72:272,1,80,2|0,0:0|0:0,0:0:0:0:
240,264,38349,6,0,P|288:152|240:48,1,240,2|0,0:0|0:0,0:0:0:0:
80,56,39015,2,0,L|80:136,1,80,8|0,0:3|0:0,0:0:0:0:
248,320,39349,2,0,L|336:320,2,80,4|0|8,0:3|0:0|0:0,0:0:0:0:
168,320,39849,1,0,0:0:0:0:
344,296,40016,6,0,P|384:208|336:160,1,160,4|0,0:2|0:0,0:0:0:0:
176,144,40516,1,0,0:0:0:0:
96,72,40683,2,0,L|176:72,1,80,2|0,0:0|0:0,0:0:0:0:
256,72,41016,2,0,L|336:72,1,80,8|0,0:3|0:0,0:0:0:0:
160,296,41349,6,0,P|120:208|168:160,1,160,4|0,0:0|0:0,0:0:0:0:
232,144,41849,1,0,0:0:0:0:
152,80,42016,2,0,L|64:80,1,80,8|8,0:3|0:3,0:0:0:0:
248,288,42349,2,0,L|328:288,1,80,8|0,0:0|0:0,0:0:0:0:
80,288,42683,6,0,P|40:200|88:152,1,160,4|0,0:1|0:0,0:0:0:0:
248,152,43183,2,0,L|408:152,1,160,8|0,0:0|0:0,0:0:0:0:
312,304,43683,6,0,L|232:304,1,80,8|0,0:0|0:0,0:0:0:0:
152,304,44016,2,0,L|152:208,1,80,4|0,0:1|0:0,0:0:0:0:
328,96,44349,2,0,L|408:96,1,80,8|0,0:0|0:0,0:0:0:0:
328,168,44683,2,0,L|240:168,1,80,4|0,0:0|0:0,0:0:0:0:
168,168,45016,1,8,0:0:0:0:
136,168,45099,1,8,0:0:0:0:
168,168,45183,1,8,0:0:0:0:
400,336,45349,6,0,L|480:336,2,80,8|0|0,0:0|0:0|0:0,0:0:0:0:
224,328,45849,1,4,0:0:0:0:
224,328,46183,1,0,0:0:0:0:
456,288,46349,6,0,P|488:200|448:144,1,160,8|0,0:0|0:0,0:0:0:0:
280,144,46849,1,4,0:0:0:0:
280,144,47183,1,0,0:0:0:0:
104,272,47349,2,0,L|24:272,1,80,8|0,0:0|0:0,0:0:0:0:
104,112,47683,2,0,L|184:112,1,80,4|0,0:0|0:0,0:0:0:0:
360,72,48016,6,0,L|360:152,1,80,4|0,0:1|0:0,0:0:0:0:
280,224,48349,1,8,0:3:0:0:
104,344,48516,2,0,L|24:344,1,80,8|0,0:0|0:0,0:0:0:0:
104,264,48849,2,0,L|192:264,1,80,8|4,0:3|0:0,0:0:0:0:
360,264,49183,6,0,P|400:176|352:128,1,160,0|8,0:0|0:0,0:0:0:0:
280,128,49683,2,0,L|192:128,1,80,8|12,0:0|0:0,0:0:0:0:
120,128,50016,2,0,L|120:216,1,80,0|8,0:3|0:3,0:0:0:0:
200,224,50349,2,0,L|280:224,1,80,4|0,0:0|0:0,0:0:0:0:
456,232,50683,6,0,L|456:144,1,80,4|0,0:2|0:0,0:0:0:0:
376,136,51016,1,4,0:3:0:0:
200,344,51183,2,0,L|120:344,1,80,4|0,0:0|0:0,0:0:0:0:
200,264,51516,2,0,L|280:264,1,80,8|4,0:3|0:0,0:0:0:0:
360,264,51849,1,0,0:0:0:0:
184,184,52016,6,0,L|184:104,1,80,4|0,0:2|0:0,0:0:0:0:
104,184,52349,2,0,L|104:96,1,80,8|4,0:3|0:0,0:0:0:0:
184,184,52683,2,0,L|184:96,1,80,0|8,0:0|0:0,0:0:0:0:
264,184,53016,2,0,L|352:184,1,80,4|0,0:0|0:0,0:0:0:0:
168,320,53349,6,0,P|120:208|168:104,1,240,4|0,0:1|0:0,0:0:0:0:
336,56,54016,2,0,L|96:56,1,240,8|0,0:3|0:0,0:0:0:0:
272,328,54683,6,0,P|320:216|272:112,1,240,8|4,0:3|0:3,0:0:0:0:
104,56,55349,1,8,0:0:0:0:
144,56,55432,1,8,0:0:0:0:
184,56,55515,1,8,0:0:0:0:
224,56,55599,1,8,0:0:0:0:
264,56,55682,1,8,0:0:0:0:
304,56,55765,1,8,0:0:0:0:
344,56,55849,1,8,0:0:0:0:
112,336,56016,6,0,L|32:336,2,80,8|0|0,0:0|0:0|0:0,0:0:0:0:
288,328,56516,1,4,0:0:0:0:
288,328,56850,1,0,0:0:0:0:
56,288,57016,6,0,P|24:200|64:144,1,160,8|0,0:0|0:0,0:0:0:0:
232,144,57516,1,4,0:0:0:0:
232,144,57850,1,0,0:0:0:0:
408,272,58016,2,0,L|488:272,1,80,8|0,0:0|0:0,0:0:0:0:
408,112,58349,2,0,L|328:112,1,80,4|0,0:0|0:0,0:0:0:0:
152,72,58683,6,0,L|152:152,1,80,4|0,0:1|0:0,0:0:0:0:
232,224,59016,1,8,0:0:0:0:
408,344,59183,2,0,L|488:344,1,80,4|0,0:0|0:0,0:0:0:0:
408,264,59516,2,0,L|320:264,1,80,8|4,0:0|0:0,0:0:0:0:
152,264,59850,6,0,P|112:176|160:128,1,160,8|0,0:0|0:0,0:0:0:0:
232,128,60350,2,0,L|320:128,1,80,8|4,0:0|0:0,0:0:0:0:
392,128,60683,2,0,L|392:216,1,80,0|8,0:0|0:0,0:0:0:0:
224,224,61016,2,0,L|144:224,1,80,4|0,0:0|0:0,0:0:0:0:
320,256,61349,6,0,P|360:168|312:120,1,160,4|0,0:0|0:0,0:0:0:0:
152,48,61849,2,0,L|312:48,1,160,4|0,0:0|0:0,0:0:0:0:
392,48,62349,2,0,L|392:136,1,80,8|8,0:0|0:3,0:0:0:0:
216,256,62683,6,0,P|176:168|224:120,1,160,4|0,0:0|0:0,0:0:0:0:
384,48,63183,2,0,L|224:48,1,160,4|0,0:0|0:0,0:0:0:0:
144,48,63683,2,0,L|144:136,1,80,8|8,0:0|0:3,0:0:0:0:
384,344,64016,6,0,P|424:256|376:208,1,160,4|8,0:2|0:3,0:0:0:0:
312,200,64516,1,0,0:0:0:0:
136,96,64683,2,0,L|296:96,1,160,4|8,0:0|0:3,0:0:0:0:
376,96,65183,1,0,0:0:0:0:
136,344,65349,6,0,P|96:256|144:208,1,160,4|8,0:0|0:0,0:0:0:0:
208,200,65849,1,0,0:0:0:0:
384,96,66016,2,0,L|224:96,1,160,8|8,0:0|0:0,0:0:0:0:
144,96,66516,1,8,0:0:0:0:
392,336,66683,6,0,B|472:336|472:336|384:336,1,160,4|8,0:0|0:0,0:0:0:0:
312,248,67183,1,4,0:0:0:0:
136,248,67349,2,0,L|56:248,1,80,0|8,0:0|0:0,0:0:0:0:
136,160,67683,6,0,L|216:160,1,80,4|0,0:0|0:0,0:0:0:0:
296,160,68016,2,0,L|296:72,1,80,8|0,0:3|0:0,0:0:0:0:
120,344,68349,2,0,L|32:344,1,80,8|4,0:0|0:0,0:0:0:0:
120,264,68683,2,0,L|208:264,1,80,0|8,0:0|0:0,0:0:0:0:
120,184,69016,2,0,L|120:104,1,80,4|0,0:0|0:0,0:0:0:0:
296,304,69349,6,0,L|456:304,1,160,4|8,0:1|0:0,0:0:0:0:
208,216,69849,2,0,P|176:128|232:72,1,160,4|8,0:0|0:0,0:0:0:0:
384,96,70349,6,0,L|464:96,1,80,4|0,0:0|0:0,0:0:0:0:
384,168,70683,2,0,L|384:248,1,80,8|0,0:0|0:0,0:0:0:0:
208,312,71016,2,0,L|120:312,1,80,8|4,0:3|0:0,0:0:0:0:
208,224,71349,2,0,L|296:224,1,80,0|8,0:0|0:0,0:0:0:0:
208,152,71683,2,0,L|128:152,1,80,4|0,0:0|0:0,0:0:0:0:
376,336,72016,6,0,P|416:248|368:200,1,160,4|0,0:1|0:0,0:0:0:0:
208,336,72516,2,0,P|168:248|216:200,1,160,8|8,0:0|0:0,0:0:0:0:
288,144,73016,2,0,L|288:48,1,80,4|0,0:0|0:0,0:0:0:0:
112,88,73349,6,0,L|32:88,2,80,8|0|0,0:0|0:0|0:0,0:0:0:0:
288,336,73849,2,0,P|328:248|280:200,1,160,8|0,0:0|0:0,0:0:0:0:
208,200,74349,2,0,L|104:200,1,80,4|0,0:0|0:0,0:0:0:0:
384,336,74683,6,0,P|424:248|376:200,1,160,4|0,0:0|0:0,0:0:0:0:
216,336,75183,2,0,P|176:248|224:200,1,160,8|8,0:0|0:0,0:0:0:0:
296,144,75683,2,0,L|376:144,1,80,4|0,0:0|0:0,0:0:0:0:
200,344,76016,6,0,L|200:248,1,80,4|0,0:0|0:0,0:0:0:0:
120,344,76349,2,0,L|120:264,1,80,8|8,0:3|0:0,0:0:0:0:
296,344,76683,2,0,L|296:256,1,80,0|0,0:0|0:3,0:0:0:0:
376,344,77016,2,0,L|376:264,1,80,4|0,0:0|0:0,0:0:0:0:
128,88,77349,6,0,L|48:88,2,80,4|0|8,0:0|0:0|0:0,0:0:0:0:
304,256,77849,2,0,L|384:256,1,80,4|0,0:0|0:0,0:0:0:0:
304,176,78183,2,0,L|224:176,1,80,0|4,0:0|0:0,0:0:0:0:
144,176,78516,1,0,0:0:0:0:
320,48,78683,6,0,P|320:128|320:120,1,80,4|0,0:0|0:0,0:0:0:0:
400,48,79016,2,0,L|400:144,1,80,8|4,0:0|0:0,0:0:0:0:
224,344,79349,2,0,L|144:344,1,80,0|0,0:0|0:0,0:0:0:0:
224,256,79683,2,0,L|304:256,1,80,4|0,0:0|0:0,0:0:0:0:
64,304,80016,6,0,P|24:216|72:168,1,160,4|8,0:0|0:0,0:0:0:0:
232,168,80516,2,0,L|328:168,1,80,4|0,0:0|0:0,0:0:0:0:
232,72,80849,2,0,L|128:72,1,80,0|4,0:0|0:0,0:0:0:0:
72,72,81183,1,0,0:0:0:0:
248,352,81349,6,0,L|248:264,1,80,4|0,0:0|0:0,0:0:0:0:
328,352,81683,2,0,L|328:272,1,80,0|4,0:0|0:0,0:0:0:0:
152,352,82016,2,0,L|152:272,1,80,0|8,0:0|0:0,0:0:0:0:
72,352,82349,2,0,L|72:272,1,80,4|0,0:0|0:0,0:0:0:0:
328,152,82683,6,0,L|408:152,2,80,4|0|8,0:2|0:0|0:0,0:0:0:0:
152,336,83183,2,0,L|152:240,1,80,4|0,0:0|0:0,0:0:0:0:
72,336,83516,2,0,L|72:248,1,80,0|4,0:0|0:0,0:0:0:0:
248,288,83849,6,0,P|288:200|240:152,1,160,0|0,0:0|0:0,0:0:0:0:
80,64,84349,2,0,L|160:64,1,80,8|4,0:0|0:0,0:0:0:0:
240,64,84683,2,0,L|240:152,1,80,0|0,0:0|0:0,0:0:0:0:
160,144,85016,2,0,L|160:248,1,80,4|0,0:0|0:0,0:0:0:0:
400,304,85349,6,0,P|440:216|392:168,1,160,4|0,0:0|0:0,0:0:0:0:
232,168,85849,2,0,L|136:168,1,80,4|0,0:0|0:0,0:0:0:0:
232,72,86182,2,0,L|336:72,1,80,8|4,0:0|0:0,0:0:0:0:
392,72,86516,1,8,0:0:0:0:
216,320,86683,6,0,L|128:320,1,80,4|0,0:0|0:0,0:0:0:0:
56,320,87016,2,0,L|56:232,1,80,0|4,0:0|0:0,0:0:0:0:
232,216,87349,2,0,L|320:216,1,80,0|8,0:0|0:0,0:0:0:0:
392,216,87683,2,0,L|472:216,1,80,4|0,0:0|0:0,0:0:0:0:
216,152,88016,6,0,L|136:152,2,80,4|0|8,0:0|0:0|0:0,0:0:0:0:
392,336,88516,2,0,L|392:240,1,80,4|0,0:0|0:0,0:0:0:0:
472,336,88849,2,0,L|472:248,1,80,0|4,0:0|0:0,0:0:0:0:
296,288,89182,6,0,P|256:200|304:152,1,160,12|0,0:0|0:0,0:0:0:0:
464,64,89682,2,0,L|384:64,1,80,8|4,0:0|0:0,0:0:0:0:
304,64,90016,2,0,L|304:152,1,80,0|0,0:0|0:0,0:0:0:0:
384,144,90349,2,0,L|384:248,1,80,4|0,0:0|0:0,0:0:0:0:
128,288,90683,6,0,L|48:288,2,80,4|0|8,0:0|0:0|0:0,0:0:0:0:
304,168,91183,2,0,L|400:168,1,80,4|0,0:0|0:0,0:0:0:0:
304,72,91516,2,0,L|200:72,1,80,0|4,0:0|0:0,0:0:0:0:
144,72,91850,1,8,0:0:0:0:
320,320,92017,6,0,L|408:320,1,80,4|0,0:1|0:1,0:0:0:0:
480,320,92350,2,0,L|480:232,1,80,8|4,0:0|0:0,0:0:0:0:
304,216,92683,2,0,L|216:216,1,80,8|8,0:0|0:0,0:0:0:0:
144,216,93017,2,0,L|64:216,1,80,8|8,0:0|0:0,0:0:0:0:
320,128,93349,6,0,L|416:128,2,80,4|0|0,0:0|0:0|0:0,0:0:0:0:
144,128,93849,2,0,L|48:128,2,80,4|0|0,0:0|0:0|0:0,0:0:0:0:
320,280,94349,5,4,0:0:0:0:
400,280,94516,1,0,0:0:0:0:
480,280,94683,1,0,0:0:0:0:
304,192,94849,1,4,0:0:0:0:
384,192,95016,1,0,0:0:0:0:
464,192,95183,1,0,0:0:0:0:
216,88,95349,6,0,L|120:88,2,80,4|0|4,0:0|0:0|0:0,0:0:0:0:
392,88,95849,2,0,L|488:88,2,80,0|4|0,0:0|0:0|0:0,0:0:0:0:
216,304,96349,5,0,0:0:0:0:
136,304,96516,1,4,0:0:0:0:
56,304,96683,1,0,0:0:0:0:
232,208,96849,1,0,0:0:0:0:
152,208,97016,1,4,0:0:0:0:
72,208,97183,1,0,0:0:0:0:
320,168,97349,6,0,L|408:168,1,80,0|4,0:0|0:0,0:0:0:0:
224,88,97683,2,0,L|144:88,1,80,0|0,0:0|0:0,0:0:0:0:
392,88,98016,2,0,L|472:88,2,80,4|0|4,0:0|0:0|0:0,0:0:0:0:
136,264,98516,5,4,0:1:0:0:
256,192,98683,12,0,102683,0:0:0:0:
