osu file format v14

[General]
AudioFilename: audio.mp3
AudioLeadIn: 0
PreviewTime: 174666
Countdown: 0
SampleSet: Soft
StackLeniency: 0.7
Mode: 0
LetterboxInBreaks: 0
WidescreenStoryboard: 0

[Editor]
DistanceSpacing: 1
BeatDivisor: 4
GridSize: 4
TimelineZoom: 2.3

[Metadata]
Title:Sakura no Uta
TitleUnicode:櫻ノ詩
Artist:Hana
ArtistUnicode:はな
Creator:Mnyui
Version:Eternal Bliss
Source:サクラノ詩
Tags:櫻の森の上を舞う
BeatmapID:2142370
BeatmapSetID:1024184

[Difficulty]
HPDrainRate:5.5
CircleSize:3.9
OverallDifficulty:9.2
ApproachRate:9.2
SliderMultiplier:1.75
SliderTickRate:1

[Events]
//Background and Video events
0,0,"anime-1566295776372-7305.jpg",0,0
//Break Periods
//Storyboard Layer 0 (Background)
//Storyboard Layer 1 (Fail)
//Storyboard Layer 2 (Pass)
//Storyboard Layer 3 (Foreground)
//Storyboard Layer 4 (Overlay)
//Storyboard Sound Samples

[TimingPoints]
1333,333.333333333333,4,2,0,50,1,0
1333,-181.818181818181,4,2,0,50,0,0
9332,-133.333333333333,4,2,0,50,0,0
11999,-86.9565217391304,4,2,0,50,0,0
34666,-117.647058823529,4,2,0,50,0,0
53332,-105.263157894737,4,2,0,50,0,0
74666,-86.9565217391304,4,2,0,50,0,0
77332,-83.3333333333333,4,2,0,50,0,0
103999,-100,4,2,0,50,0,0
109832,-133.333333333333,4,2,0,50,0,0
111999,-86.9565217391304,4,2,0,50,0,0
134666,-95.2380952380952,4,2,0,50,0,0
153332,-105.263157894737,4,2,0,50,0,0
168666,-95.2380952380954,4,2,0,50,0,0
171999,-86.9565217391304,4,2,0,50,0,0
174666,-80,4,2,0,50,0,0
177332,-74.0740740740741,4,2,0,50,0,0
230499,-204.081632653061,4,2,0,50,0,0

[Colours]
Combo1 : 181,106,106
Combo2 : 255,128,255
Combo3 : 91,0,183
Combo4 : 185,0,148

[HitObjects]
172,114,1333,6,0,L|72:86,1,96.250002937317,0|0,0:0|0:0,0:0:0:0:
112,177,1832,1,0,0:0:0:0:
170,112,1999,1,0,0:0:0:0:
197,198,2166,1,0,0:0:0:0:
231,49,2332,2,0,P|300:26|369:41,1,144.375004405975,0|0,0:0|0:0,0:0:0:0:
329,151,2999,6,0,L|296:94,1,48.1250014686585,0|0,0:0|0:0,0:0:0:0:
412,189,3332,2,0,L|477:189,1,48.1250014686585,0|0,0:0|0:0,0:0:0:0:
338,242,3666,2,0,L|305:298,1,48.1250014686585,0|0,0:0|0:0,0:0:0:0:
149,102,3999,2,0,P|176:163|167:210,1,96.250002937317,0|0,0:0|0:0,0:0:0:0:
73,282,4499,2,0,P|46:221|55:174,1,96.250002937317,0|0,0:0|0:0,0:0:0:0:
302,290,4999,2,0,B|254:291|254:291|215:313|215:313|163:311,1,144.375004405975,0|0,0:0|0:0,0:0:0:0:
134,204,5666,5,0,0:0:0:0:
77,276,5832,1,0,0:0:0:0:
224,216,5999,1,0,0:0:0:0:
199,121,6166,1,0,0:0:0:0:
264,298,6332,1,0,0:0:0:0:
199,121,6499,1,0,0:0:0:0:
166,294,6666,5,0,0:0:0:0:
224,216,6832,1,0,0:0:0:0:
199,121,6999,5,0,0:0:0:0:
134,204,7166,1,0,0:0:0:0:
303,135,7332,5,0,0:0:0:0:
95,107,7499,1,0,0:0:0:0:
264,298,7666,1,0,0:0:0:0:
264,38,8166,5,0,0:0:0:0:
303,135,8332,1,0,0:0:0:0:
199,121,8499,1,0,0:0:0:0:
373,57,8666,2,0,P|412:60|433:74,1,48.1250014686585,0|0,0:0|0:0,0:0:0:0:
405,175,8999,2,0,P|388:139|389:114,1,48.1250014686585,0|0,0:0|0:0,0:0:0:0:
364,248,9332,6,0,P|324:215|303:120,1,131.25000500679,0|0,0:0|0:0,0:0:0:0:
463,318,9832,2,0,B|399:293|405:362|309:318,1,131.25000500679,0|0,0:0|0:0,0:0:0:0:
248,273,10332,2,0,P|233:311|236:357,1,65.6250025033952,0|0,0:0|0:0,0:0:0:0:
165,224,10666,5,0,0:0:0:0:
362,309,10832,1,0,0:0:0:0:
196,125,10999,1,0,0:0:0:0:
248,273,11166,1,0,0:0:0:0:
325,56,11332,1,0,0:0:0:0:
165,224,11499,1,0,0:0:0:0:
136,207,11582,1,0,0:0:0:0:
115,182,11665,1,0,0:0:0:0:
104,151,11749,1,0,0:0:0:0:
103,119,11832,1,0,0:0:0:0:
112,87,11915,1,0,0:0:0:0:
130,60,11999,6,0,B|196:50|196:50|269:69|269:69|335:56,1,201.250003838539,0|0,0:0|0:0,0:0:0:0:
424,9,12499,1,0,0:0:0:0:
451,177,12666,1,0,0:0:0:0:
326,57,12832,1,0,0:0:0:0:
267,280,12999,6,0,B|205:292|177:250|177:250|156:296|80:290,1,201.250003838539,0|0,0:0|0:0,0:0:0:0:
189,351,13499,1,0,0:0:0:0:
239,104,13666,2,0,L|242:220,1,100.62500191927,0|0,0:0|0:0,0:0:0:0:
130,65,13999,2,0,P|163:14|227:4,1,100.62500191927,0|0,0:0|0:0,0:0:0:0:
148,162,14332,2,0,P|87:158|46:108,1,100.62500191927,0|0,0:0|0:0,0:0:0:0:
369,93,14666,6,0,B|208:76|208:76|260:122,1,201.250003838539,0|0,0:0|0:0,0:0:0:0:
329,176,15166,1,0,0:0:0:0:
215,257,15332,1,0,0:0:0:0:
414,208,15499,1,0,0:0:0:0:
257,381,15666,2,0,L|241:178,1,201.250003838539,0|0,0:0|0:0,0:0:0:0:
320,94,16166,5,0,0:0:0:0:
249,280,16332,2,0,L|109:291,1,100.62500191927,0|0,0:0|0:0,0:0:0:0:
56,124,16666,2,0,L|67:264,1,100.62500191927,0|0,0:0|0:0,0:0:0:0:
161,73,16999,2,0,L|150:213,1,100.62500191927,0|0,0:0|0:0,0:0:0:0:
65,19,17332,5,0,0:0:0:0:
251,129,17499,1,0,0:0:0:0:
62,235,17666,1,0,0:0:0:0:
173,64,17832,1,0,0:0:0:0:
267,292,17999,5,0,0:0:0:0:
82,118,18166,1,0,0:0:0:0:
287,37,18332,2,0,P|345:112|306:204,1,201.250003838539,0|0,0:0|0:0,0:0:0:0:
80,121,18832,5,0,0:0:0:0:
259,119,18999,1,0,0:0:0:0:
16,208,19166,1,0,0:0:0:0:
82,37,19332,1,0,0:0:0:0:
187,284,19499,1,0,0:0:0:0:
212,54,19666,2,0,P|263:39|330:82,1,100.62500191927,0|0,0:0|0:0,0:0:0:0:
350,199,19999,6,0,B|321:248|321:248|249:99,1,201.250003838539,0|0,0:0|0:0,0:0:0:0:
370,311,20499,2,0,P|318:327|266:303,1,100.62500191927,0|0,0:0|0:0,0:0:0:0:
349,121,20832,1,0,0:0:0:0:
415,316,20999,2,0,P|317:345|220:301,1,201.250003838539,0|0,0:0|0:0,0:0:0:0:
169,169,21499,5,0,0:0:0:0:
105,284,21666,2,0,L|93:394,1,100.62500191927,0|0,0:0|0:0,0:0:0:0:
62,134,21999,1,0,0:0:0:0:
282,198,22166,1,0,0:0:0:0:
280,160,22249,1,0,0:0:0:0:
279,122,22332,1,0,0:0:0:0:
278,84,22415,1,0,0:0:0:0:
277,47,22499,1,0,0:0:0:0:
433,287,22666,6,0,B|454:166,1,100.62500191927,0|0,0:0|0:0,0:0:0:0:
345,291,22999,2,0,P|363:345|421:378,1,100.62500191927,0|0,0:0|0:0,0:0:0:0:
358,185,23332,1,0,0:0:0:0:
242,308,23499,1,0,0:0:0:0:
188,71,23666,2,0,L|164:284,1,201.250003838539,0|0,0:0|0:0,0:0:0:0:
82,366,24166,5,0,0:0:0:0:
0,215,24332,2,0,P|54:228|87:264,1,100.62500191927,0|0,0:0|0:0,0:0:0:0:
76,94,24666,2,0,P|116:132|126:180,1,100.62500191927,0|0,0:0|0:0,0:0:0:0:
199,27,24999,2,0,P|215:80|200:126,1,100.62500191927,0|0,0:0|0:0,0:0:0:0:
58,372,25332,6,0,B|-9:305|-7:255|31:221|88:234|101:292,1,201.250003838539,0|0,0:0|0:0,0:0:0:0:
242,289,25832,1,0,0:0:0:0:
53,166,25999,1,0,0:0:0:0:
263,78,26166,1,0,0:0:0:0:
159,312,26332,2,0,L|160:101,1,201.250003838539,0|0,0:0|0:0,0:0:0:0:
252,171,26832,5,0,0:0:0:0:
424,110,26999,2,0,L|312:99,1,100.62500191927,0|0,0:0|0:0,0:0:0:0:
315,280,27332,2,0,P|325:222|365:188,1,100.62500191927,0|0,0:0|0:0,0:0:0:0:
460,341,27666,2,0,P|404:360|355:343,1,100.62500191927,0|0,0:0|0:0,0:0:0:0:
245,169,27999,5,0,0:0:0:0:
402,273,28166,1,0,0:0:0:0:
145,349,28332,1,0,0:0:0:0:
353,193,28499,5,0,0:0:0:0:
256,383,28666,1,0,0:0:0:0:
139,121,28832,1,0,0:0:0:0:
401,270,28999,2,0,L|168:271,1,201.250003838539,0|0,0:0|0:0,0:0:0:0:
0,95,29499,5,0,0:0:0:0:
115,237,29666,1,0,0:0:0:0:
183,16,29832,1,0,0:0:0:0:
81,134,29999,5,0,0:0:0:0:
324,146,30166,1,0,0:0:0:0:
81,154,30332,1,0,0:0:0:0:
323,124,30499,1,0,0:0:0:0:
150,325,30666,6,0,L|124:196,1,100.62500191927,0|0,0:0|0:0,0:0:0:0:
269,322,30999,1,0,0:0:0:0:
388,168,31166,2,0,L|368:266,1,100.62500191927,0|0,0:0|0:0,0:0:0:0:
300,57,31499,1,0,0:0:0:0:
212,248,31666,2,0,B|195:188|195:188|214:116|214:116|192:47,1,201.250003838539,0|0,0:0|0:0,0:0:0:0:
121,126,32166,5,0,0:0:0:0:
303,238,32332,2,0,P|273:311|132:296,1,201.250003838539,0|0,0:0|0:0,0:0:0:0:
220,165,32832,1,0,0:0:0:0:
252,138,32915,1,0,0:0:0:0:
291,125,32998,1,0,0:0:0:0:
333,129,33082,1,0,0:0:0:0:
370,148,33165,1,0,0:0:0:0:
397,180,33248,1,0,0:0:0:0:
409,220,33332,5,0,0:0:0:0:
309,212,33499,1,0,0:0:0:0:
452,311,33666,1,0,0:0:0:0:
465,136,33832,1,0,0:0:0:0:
252,296,33999,1,0,0:0:0:0:
354,304,34166,1,0,0:0:0:0:
252,138,34332,1,0,0:0:0:0:
194,222,34499,1,0,0:0:0:0:
350,119,34666,6,0,L|362:195,1,74.3750014185906,0|0,0:0|0:0,0:0:0:0:
286,54,34999,2,0,L|345:5,1,74.3750014185906,0|0,0:0|0:0,0:0:0:0:
252,138,35332,2,0,L|180:110,1,74.3750014185906,0|0,0:0|0:0,0:0:0:0:
110,0,35666,2,0,P|43:56|38:113,1,148.750002837181,0|0,0:0|0:0,0:0:0:0:
114,81,36166,1,0,0:0:0:0:
108,239,36332,6,0,L|98:156,1,74.3750014185906,0|0,0:0|0:0,0:0:0:0:
76,312,36666,2,0,P|113:320|160:297,1,74.3750014185906,0|0,0:0|0:0,0:0:0:0:
225,170,36999,2,0,P|199:198|195:250,1,74.3750014185906,0|0,0:0|0:0,0:0:0:0:
265,380,37332,6,0,L|251:276,1,74.3750014185906,0|0,0:0|0:0,0:0:0:0:
365,238,37666,2,0,L|351:342,1,74.3750014185906,0|0,0:0|0:0,0:0:0:0:
305,181,37999,2,0,P|339:161|385:163,1,74.3750014185906,0|0,0:0|0:0,0:0:0:0:
201,174,38332,2,0,P|225:102|314:66,1,148.750002837181,0|0,0:0|0:0,0:0:0:0:
384,80,38832,5,0,0:0:0:0:
440,214,38999,2,0,L|462:125,1,74.3750014185906,0|0,0:0|0:0,0:0:0:0:
352,221,39332,1,0,0:0:0:0:
411,294,39499,1,0,0:0:0:0:
317,139,39666,1,0,0:0:0:0:
281,259,39832,1,0,0:0:0:0:
384,80,39999,6,0,P|348:56|285:52,1,74.3750014185906,0|0,0:0|0:0,0:0:0:0:
257,180,40332,2,0,P|295:160|330:108,1,74.3750014185906,0|0,0:0|0:0,0:0:0:0:
233,23,40666,2,0,P|230:66|258:122,1,74.3750014185906,0|0,0:0|0:0,0:0:0:0:
466,58,40999,2,0,L|305:48,1,148.750002837181,0|0,0:0|0:0,0:0:0:0:
386,127,41499,5,0,0:0:0:0:
442,201,41666,2,0,P|474:157|477:126,1,74.3750014185906,0|0,0:0|0:0,0:0:0:0:
329,195,41999,2,0,P|300:148|299:117,1,74.3750014185906,0|0,0:0|0:0,0:0:0:0:
382,262,42332,2,0,L|375:355,1,74.3750014185906,0|0,0:0|0:0,0:0:0:0:
386,127,42666,5,0,0:0:0:0:
463,277,42832,1,0,0:0:0:0:
295,269,42999,1,0,0:0:0:0:
471,140,43166,2,0,L|295:170,1,148.750002837181,0|0,0:0|0:0,0:0:0:0:
199,85,43666,2,0,L|375:55,1,148.750002837181,0|0,0:0|0:0,0:0:0:0:
225,181,44166,5,0,0:0:0:0:
225,181,44332,2,0,L|151:192,1,74.3750014185906,0|0,0:0|0:0,0:0:0:0:
75,130,44666,1,0,0:0:0:0:
75,130,44832,1,0,0:0:0:0:
44,221,44999,1,0,0:0:0:0:
120,278,45166,1,0,0:0:0:0:
205,36,45332,6,0,B|207:87|207:87|223:119|223:119|225:203,2,148.750002837181,0|0|0,0:0|0:0|0:0,0:0:0:0:
146,139,46166,1,0,0:0:0:0:
286,68,46332,2,0,P|325:60|356:72,1,74.3750014185906,0|0,0:0|0:0,0:0:0:0:
304,211,46666,6,0,L|319:113,1,74.3750014185906,0|0,0:0|0:0,0:0:0:0:
364,263,46999,2,0,P|329:289|272:290,1,74.3750014185906,0|0,0:0|0:0,0:0:0:0:
379,186,47332,2,0,P|418:202|448:251,1,74.3750014185906,0|0,0:0|0:0,0:0:0:0:
420,373,47666,2,0,P|420:329|455:284,1,74.3750014185906,0|0,0:0|0:0,0:0:0:0:
494,352,47999,6,0,L|352:326,1,111.562502127886,0|0,0:0|0:0,0:0:0:0:
353,310,48332,2,0,P|316:306|281:318,1,74.3750014185906,0|0,0:0|0:0,0:0:0:0:
126,362,48666,2,0,P|162:365|197:353,1,74.3750014185906,0|0,0:0|0:0,0:0:0:0:
166,137,48999,2,0,L|156:306,1,148.750002837181,0|0,0:0|0:0,0:0:0:0:
85,107,49499,5,0,0:0:0:0:
176,54,49666,1,0,0:0:0:0:
254,124,49832,1,0,0:0:0:0:
85,107,49999,2,0,L|81:19,1,74.3750014185906,0|0,0:0|0:0,0:0:0:0:
211,219,50332,1,0,0:0:0:0:
106,208,50499,1,0,0:0:0:0:
299,49,50666,6,0,P|339:117|312:187,1,148.750002837181,0|0,0:0|0:0,0:0:0:0:
195,366,51166,2,0,L|210:218,1,148.750002837181,0|0,0:0|0:0,0:0:0:0:
303,279,51666,2,0,L|310:352,1,74.3750014185906,0|0,0:0|0:0,0:0:0:0:
222,128,51999,6,0,B|137:136|164:81|56:101,1,148.750002837181,0|0,0:0|0:0,0:0:0:0:
82,309,52499,2,0,P|121:240|101:170,1,148.750002837181,0|0,0:0|0:0,0:0:0:0:
21,228,52999,1,0,0:0:0:0:
206,245,53166,1,0,0:0:0:0:
86,10,53332,6,0,L|106:184,1,166.249995560646,0|0,0:0|0:0,0:0:0:0:
313,98,53832,2,0,P|261:57|166:104,1,166.249995560646,0|0,0:0|0:0,0:0:0:0:
388,158,54332,2,0,L|403:34,1,124.687496670485,0|0,0:0|0:0,0:0:0:0:
436,8,54666,6,0,L|451:91,1,83.1249977803231,0|0,0:0|0:0,0:0:0:0:
316,208,54999,2,0,L|301:125,1,83.1249977803231,0|0,0:0|0:0,0:0:0:0:
262,109,55249,1,0,0:0:0:0:
225,128,55332,2,0,L|161:124,1,41.5624988901615,0|0,0:0|0:0,0:0:0:0:
60,128,55499,2,0,L|124:124,1,41.5624988901615,0|0,0:0|0:0,0:0:0:0:
228,257,55666,2,0,L|248:195,1,41.5624988901615,0|0,0:0|0:0,0:0:0:0:
67,259,55832,2,0,L|47:197,1,41.5624988901615,0|0,0:0|0:0,0:0:0:0:
149,368,55999,6,0,L|144:156,1,207.812494450808,0|0,0:0|0:0,0:0:0:0:
142,118,56499,1,0,0:0:0:0:
240,217,56832,5,0,0:0:0:0:
467,92,56999,2,0,B|387:89|387:89|353:112|353:112|253:114,1,207.812494450808,0|0,0:0|0:0,0:0:0:0:
224,117,57499,1,0,0:0:0:0:
325,35,57832,5,0,0:0:0:0:
374,238,57999,2,0,P|408:194|409:151,1,83.1249977803231,0|0,0:0|0:0,0:0:0:0:
293,244,58332,2,0,P|314:295|350:317,1,83.1249977803231,0|0,0:0|0:0,0:0:0:0:
325,166,58665,6,0,B|261:127|224:213|138:142,1,166.249995560646,0|0,0:0|0:0,0:0:0:0:
119,75,59166,2,0,P|77:106|61:139,1,83.1249977803231,0|0,0:0|0:0,0:0:0:0:
208,82,59499,2,0,P|202:30|181:0,1,83.1249977803231,0|0,0:0|0:0,0:0:0:0:
164,159,59832,1,0,0:0:0:0:
164,159,59916,1,0,0:0:0:0:
164,159,59999,5,0,0:0:0:0:
334,199,60166,1,0,0:0:0:0:
283,31,60332,1,0,0:0:0:0:
244,202,60499,5,0,0:0:0:0:
411,151,60666,1,0,0:0:0:0:
283,31,60832,1,0,0:0:0:0:
337,282,60999,2,0,L|332:178,1,83.1249977803231,0|0,0:0|0:0,0:0:0:0:
197,90,61332,6,0,P|143:82|90:106,1,83.1249977803231,0|0,0:0|0:0,0:0:0:0:
156,164,61666,1,0,0:0:0:0:
72,16,61832,2,0,P|37:52|34:115,1,83.1249977803231,0|0,0:0|0:0,0:0:0:0:
200,237,62166,2,0,P|234:200|237:137,1,83.1249977803231,0|0,0:0|0:0,0:0:0:0:
108,233,62499,1,0,0:0:0:0:
291,72,62666,6,0,B|367:35|372:110|473:73,1,166.249995560646,0|0,0:0|0:0,0:0:0:0:
421,4,63166,1,0,0:0:0:0:
501,148,63332,1,0,0:0:0:0:
335,144,63499,1,0,0:0:0:0:
505,64,63666,2,0,P|430:86|375:72,1,124.687496670485,0|0,0:0|0:0,0:0:0:0:
348,58,63999,6,0,B|285:48|285:48|237:61|237:61|163:56,1,166.249995560646,0|0,0:0|0:0,0:0:0:0:
90,22,64499,1,0,0:0:0:0:
292,128,64666,5,0,0:0:0:0:
97,268,64832,1,0,0:0:0:0:
211,134,64999,1,0,0:0:0:0:
283,306,65166,1,0,0:0:0:0:
94,134,65332,5,0,0:0:0:0:
295,206,65499,1,0,0:0:0:0:
33,196,65666,1,0,0:0:0:0:
176,39,65832,1,0,0:0:0:0:
174,292,65999,2,0,P|192:249|187:202,1,83.1249977803231,0|0,0:0|0:0,0:0:0:0:
173,174,66249,1,0,0:0:0:0:
185,134,66332,1,0,0:0:0:0:
214,105,66415,1,0,0:0:0:0:
253,92,66498,1,0,0:0:0:0:
294,97,66582,1,0,0:0:0:0:
328,120,66666,6,0,B|392:173|396:237|330:275|277:229|275:177,1,207.812494450808,0|0,0:0|0:0,0:0:0:0:
264,177,67166,1,0,0:0:0:0:
389,19,67499,5,0,0:0:0:0:
475,109,67666,2,0,B|471:167|447:205|447:205|476:243|479:315,1,207.812494450808,0|0,0:0|0:0,0:0:0:0:
473,346,68166,1,0,0:0:0:0:
388,147,68332,1,0,0:0:0:0:
290,317,68666,6,0,P|238:340|161:320,1,124.687496670485,0|0,0:0|0:0,0:0:0:0:
167,286,68999,2,0,P|227:298|283:275,1,124.687496670485,0|0,0:0|0:0,0:0:0:0:
279,233,69332,2,0,P|255:176|268:116,1,124.687496670485,0|0,0:0|0:0,0:0:0:0:
293,81,69666,1,0,0:0:0:0:
426,187,69832,2,0,L|324:167,1,83.1249977803231,0|0,0:0|0:0,0:0:0:0:
399,341,70166,2,0,L|467:262,1,83.1249977803231,0|0,0:0|0:0,0:0:0:0:
297,313,70499,1,0,0:0:0:0:
297,313,70582,1,0,0:0:0:0:
297,313,70666,5,0,0:0:0:0:
426,187,70832,1,0,0:0:0:0:
179,182,70999,1,0,0:0:0:0:
371,248,71166,1,0,0:0:0:0:
305,23,71332,1,0,0:0:0:0:
240,246,71499,1,0,0:0:0:0:
470,119,71666,2,0,P|432:90|328:105,1,124.687496670485,0|0,0:0|0:0,0:0:0:0:
329,118,71999,6,0,B|277:121|277:121|230:153|230:153|147:158,1,166.249995560646,0|0,0:0|0:0,0:0:0:0:
57,39,72499,2,0,B|45:83|75:117|75:117|106:157|79:206,1,166.249995560646,0|0,0:0|0:0,0:0:0:0:
59,309,72999,1,0,0:0:0:0:
5,170,73166,1,0,0:0:0:0:
207,383,73332,6,0,P|233:309|206:223,1,166.249995560646,0|0,0:0|0:0,0:0:0:0:
119,89,73832,2,0,B|172:93|193:54|193:54|224:89|299:71,1,166.249995560646,0|0,0:0|0:0,0:0:0:0:
322,260,74332,2,0,L|333:219,1,41.5624988901615,0|0,0:0|0:0,0:0:0:0:
375,47,74499,2,0,L|388:86,1,41.5624988901615,0|0,0:0|0:0,0:0:0:0:
448,355,74666,6,0,B|442:284|442:284|471:220|471:220|472:134,1,201.250003838539,0|0,0:0|0:0,0:0:0:0:
375,47,75166,1,0,0:0:0:0:
188,226,75332,1,0,0:0:0:0:
366,318,75499,1,0,0:0:0:0:
195,77,75666,1,0,0:0:0:0:
167,340,75832,1,0,0:0:0:0:
301,81,75999,5,0,0:0:0:0:
43,183,76166,1,0,0:0:0:0:
307,100,76332,1,0,0:0:0:0:
36,163,76499,1,0,0:0:0:0:
344,175,76666,6,0,L|294:186,1,50.3125009596348,0|0,0:0|0:0,0:0:0:0:
59,262,76832,2,0,L|108:250,1,50.3125009596348,0|0,0:0|0:0,0:0:0:0:
364,275,76999,6,0,L|315:261,1,50.3125009596348,0|0,0:0|0:0,0:0:0:0:
108,357,77166,2,0,L|143:321,1,50.3125009596348,0|0,0:0|0:0,0:0:0:0:
163,91,77332,6,0,L|231:300,1,209.999993591309,0|0,0:0|0:0,0:0:0:0:
305,118,77832,1,0,0:0:0:0:
37,79,77999,1,0,0:0:0:0:
261,17,78166,1,0,0:0:0:0:
127,249,78332,2,0,P|115:200|107:145,1,104.999996795654,0|0,0:0|0:0,0:0:0:0:
137,11,78666,5,0,0:0:0:0:
30,215,78832,1,0,0:0:0:0:
275,128,78999,2,0,P|223:112|169:122,1,104.999996795654,0|0,0:0|0:0,0:0:0:0:
321,240,79332,2,0,P|360:203|379:151,1,104.999996795654,0|0,0:0|0:0,0:0:0:0:
190,223,79666,2,0,P|201:275|237:317,1,104.999996795654,0|0,0:0|0:0,0:0:0:0:
494,238,79999,6,0,B|410:237|322:241|322:241|360:218,1,209.999993591309,0|0,0:0|0:0,0:0:0:0:
456,157,80499,1,0,0:0:0:0:
263,298,80666,2,0,P|241:241|256:184,1,104.999996795654,0|0,0:0|0:0,0:0:0:0:
373,49,80999,2,0,P|374:110|340:158,1,104.999996795654,0|0,0:0|0:0,0:0:0:0:
229,81,81332,5,0,0:0:0:0:
453,112,81499,1,0,0:0:0:0:
248,199,81666,2,0,P|194:193|136:181,1,104.999996795654,0|0,0:0|0:0,0:0:0:0:
342,267,81999,2,0,P|396:273|454:285,1,104.999996795654,0|0,0:0|0:0,0:0:0:0:
237,319,82332,2,0,P|183:313|125:301,1,104.999996795654,0|0,0:0|0:0,0:0:0:0:
494,64,82666,6,0,B|430:65|430:65|363:98|363:98|275:101,1,209.999993591309,0|0,0:0|0:0,0:0:0:0:
34,195,83166,1,0,0:0:0:0:
249,160,83332,1,0,0:0:0:0:
55,62,83499,1,0,0:0:0:0:
153,253,83665,1,0,0:0:0:0:
189,39,83832,1,0,0:0:0:0:
303,222,83999,6,0,L|319:338,1,104.999996795654,0|0,0:0|0:0,0:0:0:0:
407,220,84332,1,0,0:0:0:0:
235,165,84499,1,0,0:0:0:0:
235,165,84582,1,0,0:0:0:0:
235,165,84666,2,0,P|282:133|369:160,1,104.999996795654,0|0,0:0|0:0,0:0:0:0:
185,232,84999,2,0,P|128:226|79:149,1,104.999996795654,0|0,0:0|0:0,0:0:0:0:
333,377,85332,6,0,B|304:220|304:220|327:252|381:258,1,209.999993591309,0|0,0:0|0:0,0:0:0:0:
455,317,85832,1,0,0:0:0:0:
373,175,85999,1,0,0:0:0:0:
214,295,86166,1,0,0:0:0:0:
477,226,86332,2,0,P|478:168|475:108,1,104.999996795654,0|0,0:0|0:0,0:0:0:0:
268,89,86666,6,0,P|270:148|276:198,1,104.999996795654,0|0,0:0|0:0,0:0:0:0:
380,279,86999,2,0,P|378:220|372:170,1,104.999996795654,0|0,0:0|0:0,0:0:0:0:
155,39,87332,2,0,P|157:98|163:148,1,104.999996795654,0|0,0:0|0:0,0:0:0:0:
168,239,87666,1,0,0:0:0:0:
66,112,87832,1,0,0:0:0:0:
244,116,87999,5,0,0:0:0:0:
120,310,88166,2,0,P|172:326|221:309,1,104.999996795654,0|0,0:0|0:0,0:0:0:0:
45,237,88499,2,0,P|17:297|29:349,1,104.999996795654,0|0,0:0|0:0,0:0:0:0:
277,239,88832,2,0,P|303:284|301:336,1,104.999996795654,0|0,0:0|0:0,0:0:0:0:
157,224,89166,1,0,0:0:0:0:
68,38,89332,6,0,P|56:97|40:165,1,104.999996795654,0|0,0:0|0:0,0:0:0:0:
237,35,89666,2,0,P|248:94|265:162,1,104.999996795654,0|0,0:0|0:0,0:0:0:0:
73,330,89999,2,0,P|63:278|51:227,1,104.999996795654,0|0,0:0|0:0,0:0:0:0:
242,327,90333,2,0,P|251:275|263:224,1,104.999996795654,0|0,0:0|0:0,0:0:0:0:
129,127,90666,6,0,P|185:83|243:89,1,104.999996795654,0|0,0:0|0:0,0:0:0:0:
348,192,90999,1,0,0:0:0:0:
380,55,91166,1,0,0:0:0:0:
263,224,91332,2,0,P|214:239|147:248,1,104.999996795654,0|0,0:0|0:0,0:0:0:0:
343,320,91666,1,0,0:0:0:0:
431,249,91832,1,0,0:0:0:0:
287,68,91999,5,0,0:0:0:0:
263,224,92166,1,0,0:0:0:0:
192,59,92332,2,0,P|145:51|75:62,1,104.999996795654,0|0,0:0|0:0,0:0:0:0:
327,151,92666,2,0,P|374:159|444:148,1,104.999996795654,0|0,0:0|0:0,0:0:0:0:
184,243,92999,1,0,0:0:0:0:
143,133,93166,1,0,0:0:0:0:
373,254,93332,5,0,0:0:0:0:
325,384,93499,1,0,0:0:0:0:
184,243,93666,1,0,0:0:0:0:
436,310,93832,2,0,P|455:266|450:202,1,104.999996795654,0|0,0:0|0:0,0:0:0:0:
307,85,94166,2,0,P|295:131|311:193,1,104.999996795654,0|0,0:0|0:0,0:0:0:0:
455,61,94499,5,0,0:0:0:0:
455,61,94582,1,0,0:0:0:0:
455,61,94666,1,0,0:0:0:0:
189,101,94832,1,0,0:0:0:0:
362,256,94999,2,0,P|379:219|375:148,1,104.999996795654,0|0,0:0|0:0,0:0:0:0:
290,16,95332,1,0,0:0:0:0:
225,242,95499,1,0,0:0:0:0:
479,196,95666,1,0,0:0:0:0:
270,129,95832,1,0,0:0:0:0:
316,339,95999,5,0,0:0:0:0:
342,82,96166,1,0,0:0:0:0:
475,287,96332,1,0,0:0:0:0:
270,129,96499,2,0,P|263:82|266:22,1,104.999996795654,0|0,0:0|0:0,0:0:0:0:
210,230,96832,2,0,P|157:247|104:259,1,104.999996795654,0|0,0:0|0:0,0:0:0:0:
174,135,97166,1,0,0:0:0:0:
230,335,97332,5,0,0:0:0:0:
273,101,97499,1,0,0:0:0:0:
439,230,97666,1,0,0:0:0:0:
202,336,97832,1,0,0:0:0:0:
410,72,97999,5,0,0:0:0:0:
474,314,98166,1,0,0:0:0:0:
451,332,98249,1,0,0:0:0:0:
423,345,98332,2,0,P|374:351|312:343,1,104.999996795654,0|0,0:0|0:0,0:0:0:0:
207,124,98666,5,0,0:0:0:0:
45,315,98832,1,0,0:0:0:0:
297,237,98999,1,0,0:0:0:0:
87,147,99166,1,0,0:0:0:0:
254,381,99332,1,0,0:0:0:0:
379,93,99499,1,0,0:0:0:0:
147,215,99666,1,0,0:0:0:0:
365,314,99832,1,0,0:0:0:0:
263,108,99999,5,0,0:0:0:0:
254,381,100166,1,0,0:0:0:0:
431,150,100332,1,0,0:0:0:0:
226,258,100499,1,0,0:0:0:0:
408,384,100666,2,0,P|461:386|518:384,1,104.999996795654,0|0,0:0|0:0,0:0:0:0:
487,271,100999,2,0,P|496:228|502:167,1,104.999996795654,0|0,0:0|0:0,0:0:0:0:
378,53,101332,5,0,0:0:0:0:
221,180,101499,1,0,0:0:0:0:
400,251,101666,1,0,0:0:0:0:
245,62,101832,1,0,0:0:0:0:
283,274,101999,5,0,0:0:0:0:
126,115,102166,1,0,0:0:0:0:
363,160,102332,1,0,0:0:0:0:
113,247,102499,1,0,0:0:0:0:
123,14,102666,5,0,0:0:0:0:
46,175,102832,1,0,0:0:0:0:
263,168,102999,1,0,0:0:0:0:
29,77,103166,1,0,0:0:0:0:
234,62,103332,5,0,0:0:0:0:
221,269,103499,1,0,0:0:0:0:
134,143,103666,1,0,0:0:0:0:
50,349,103832,1,0,0:0:0:0:
342,121,103999,6,0,P|380:178|363:278,1,175,0|0,0:0|0:0,0:0:0:0:
248,130,104499,2,0,P|278:68|373:33,1,175,0|0,0:0|0:0,0:0:0:0:
299,200,104999,1,0,0:0:0:0:
169,57,105166,1,0,0:0:0:0:
121,298,105332,5,0,0:0:0:0:
273,118,105499,1,0,0:0:0:0:
51,88,105666,1,0,0:0:0:0:
230,243,105832,1,0,0:0:0:0:
160,45,105999,5,0,0:0:0:0:
41,237,106166,1,0,0:0:0:0:
334,194,106332,1,0,0:0:0:0:
89,161,106499,1,0,0:0:0:0:
235,378,106666,5,0,0:0:0:0:
256,98,106832,1,0,0:0:0:0:
411,260,106999,1,0,0:0:0:0:
172,286,107166,1,0,0:0:0:0:
402,56,107332,5,0,0:0:0:0:
318,336,107499,1,0,0:0:0:0:
256,98,107666,1,0,0:0:0:0:
486,314,107832,1,0,0:0:0:0:
485,110,107999,5,0,0:0:0:0:
223,189,108166,1,0,0:0:0:0:
409,301,108332,1,0,0:0:0:0:
497,79,108499,1,0,0:0:0:0:
281,335,108666,5,0,0:0:0:0:
269,60,108832,1,0,0:0:0:0:
342,255,108999,1,0,0:0:0:0:
101,249,109166,1,0,0:0:0:0:
332,146,109332,6,0,B|425:182|418:119|512:144,1,175,0|0,0:0|0:0,0:0:0:0:
233,97,109832,6,0,P|181:98|247:154,1,196.875007510186,0|0,0:0|0:0,0:0:0:0:
295,46,110499,1,0,0:0:0:0:
295,46,110582,1,0,0:0:0:0:
295,46,110666,2,0,P|225:17|215:17,1,65.6250025033952,0|0,0:0|0:0,0:0:0:0:
378,172,110999,2,0,L|375:22,1,131.25000500679,0|0,0:0|0:0,0:0:0:0:
308,345,111999,6,0,B|244:306|233:235|233:235|224:275|195:311,1,201.250003838539,0|0,0:0|0:0,0:0:0:0:
66,364,112499,1,0,0:0:0:0:
153,237,112666,1,0,0:0:0:0:
5,214,112832,1,0,0:0:0:0:
250,369,112999,6,0,P|290:321|229:204,1,201.250003838539,0|0,0:0|0:0,0:0:0:0:
153,237,113499,1,0,0:0:0:0:
348,382,113666,2,0,P|371:337|369:264,1,100.62500191927,0|0,0:0|0:0,0:0:0:0:
419,128,113999,1,0,0:0:0:0:
451,269,114166,1,0,0:0:0:0:
345,86,114332,1,0,0:0:0:0:
313,227,114499,1,0,0:0:0:0:
492,34,114666,6,0,B|454:35|418:34|418:34|372:6|372:6|336:6|263:6,1,201.250003838539,0|0,0:0|0:0,0:0:0:0:
116,69,115166,1,0,0:0:0:0:
345,86,115332,1,0,0:0:0:0:
97,197,115499,1,0,0:0:0:0:
230,42,115666,2,0,B|261:88|261:88|243:156|222:237,1,201.250003838539,0|0,0:0|0:0,0:0:0:0:
249,329,116166,5,0,0:0:0:0:
345,86,116332,2,0,L|371:183,1,100.62500191927,0|0,0:0|0:0,0:0:0:0:
396,322,116666,1,0,0:0:0:0:
472,221,116832,1,0,0:0:0:0:
270,160,116999,1,0,0:0:0:0:
396,322,117166,1,0,0:0:0:0:
385,133,117332,5,0,0:0:0:0:
274,268,117499,1,0,0:0:0:0:
488,304,117666,1,0,0:0:0:0:
337,210,117832,1,0,0:0:0:0:
460,384,117999,5,0,0:0:0:0:
458,177,118166,1,0,0:0:0:0:
315,363,118332,2,0,P|202:359|101:367,1,201.250003838539,0|0,0:0|0:0,0:0:0:0:
40,140,118832,5,0,0:0:0:0:
170,280,118999,1,0,0:0:0:0:
230,112,119166,1,0,0:0:0:0:
79,241,119332,1,0,0:0:0:0:
131,63,119499,1,0,0:0:0:0:
275,285,119666,2,0,P|332:291|390:270,1,100.62500191927,0|0,0:0|0:0,0:0:0:0:
314,15,119999,6,0,B|277:113|359:113|320:216,1,201.250003838539,0|0,0:0|0:0,0:0:0:0:
383,64,120499,2,0,P|428:53|487:72,1,100.62500191927,0|0,0:0|0:0,0:0:0:0:
251,166,120832,1,0,0:0:0:0:
468,283,120999,2,0,P|421:341|293:332,1,201.250003838539,0|0,0:0|0:0,0:0:0:0:
369,257,121499,5,0,0:0:0:0:
187,226,121666,2,0,P|145:221|77:214,1,100.62500191927,0|0,0:0|0:0,0:0:0:0:
140,317,121999,1,0,0:0:0:0:
70,121,122166,1,0,0:0:0:0:
103,104,122249,1,0,0:0:0:0:
140,98,122332,1,0,0:0:0:0:
178,103,122415,1,0,0:0:0:0:
212,119,122499,1,0,0:0:0:0:
376,358,122666,6,0,P|368:301|367:228,1,100.62500191927,0|0,0:0|0:0,0:0:0:0:
372,153,122999,2,0,P|381:89|388:40,1,100.62500191927,0|0,0:0|0:0,0:0:0:0:
499,110,123332,1,0,0:0:0:0:
235,179,123499,1,0,0:0:0:0:
475,309,123666,2,0,P|488:216|499:96,1,201.250003838539,0|0,0:0|0:0,0:0:0:0:
372,153,124166,5,0,0:0:0:0:
254,57,124332,2,0,P|190:34|136:48,1,100.62500191927,0|0,0:0|0:0,0:0:0:0:
170,213,124666,2,0,L|191:108,1,100.62500191927,0|0,0:0|0:0,0:0:0:0:
69,278,124999,2,0,L|48:173,1,100.62500191927,0|0,0:0|0:0,0:0:0:0:
204,302,125332,6,0,B|263:319|315:290|315:290|356:283|412:301,1,201.250003838539,0|0,0:0|0:0,0:0:0:0:
512,284,125832,1,0,0:0:0:0:
312,195,125999,1,0,0:0:0:0:
489,107,126166,1,0,0:0:0:0:
400,297,126332,2,0,P|392:190|391:74,1,201.250003838539,0|0,0:0|0:0,0:0:0:0:
312,195,126832,5,0,0:0:0:0:
214,285,126999,2,0,P|209:327|197:392,1,100.62500191927,0|0,0:0|0:0,0:0:0:0:
74,173,127332,2,0,P|93:125|148:94,1,100.62500191927,0|0,0:0|0:0,0:0:0:0:
106,278,127666,2,0,P|55:285|1:253,1,100.62500191927,0|0,0:0|0:0,0:0:0:0:
241,237,127999,5,0,0:0:0:0:
192,23,128166,1,0,0:0:0:0:
399,114,128332,1,0,0:0:0:0:
157,178,128499,5,0,0:0:0:0:
340,31,128666,1,0,0:0:0:0:
342,253,128832,1,0,0:0:0:0:
109,103,128999,2,0,B|163:82|206:105|206:105|262:133|342:97,1,201.250003838539,0|0,0:0|0:0,0:0:0:0:
454,25,129499,5,0,0:0:0:0:
257,28,129666,1,0,0:0:0:0:
512,88,129832,1,0,0:0:0:0:
450,265,129999,5,0,0:0:0:0:
344,36,130166,1,0,0:0:0:0:
286,233,130332,1,0,0:0:0:0:
430,104,130499,1,0,0:0:0:0:
329,313,130666,6,0,P|273:313|199:305,1,100.62500191927,0|0,0:0|0:0,0:0:0:0:
286,233,130999,1,0,0:0:0:0:
122,152,131166,2,0,P|172:152|222:148,1,100.62500191927,0|0,0:0|0:0,0:0:0:0:
95,233,131499,1,0,0:0:0:0:
333,55,131666,2,0,B|343:117|331:142|331:142|386:178|381:263,1,201.250003838539,0|0,0:0|0:0,0:0:0:0:
329,313,132166,5,0,0:0:0:0:
451,24,132332,2,0,P|461:124|468:268,1,201.250003838539,0|0,0:0|0:0,0:0:0:0:
189,151,132832,1,0,0:0:0:0:
206,113,132915,1,0,0:0:0:0:
237,85,132998,1,0,0:0:0:0:
276,72,133082,1,0,0:0:0:0:
318,76,133165,1,0,0:0:0:0:
354,96,133248,1,0,0:0:0:0:
379,129,133332,5,0,0:0:0:0:
393,380,133499,1,0,0:0:0:0:
456,184,133666,1,0,0:0:0:0:
235,220,133832,5,0,0:0:0:0:
510,254,133999,1,0,0:0:0:0:
290,149,134166,1,0,0:0:0:0:
307,345,134332,5,0,0:0:0:0:
512,111,134499,1,0,0:0:0:0:
235,220,134666,2,0,P|185:220|139:220,1,91.8749971961976,0|0,0:0|0:0,0:0:0:0:
74,168,134999,2,0,P|65:114|68:61,1,91.8749971961976,0|0,0:0|0:0,0:0:0:0:
206,119,135332,1,0,0:0:0:0:
74,168,135499,1,0,0:0:0:0:
173,31,135666,2,0,B|269:6|270:63|361:46,1,183.749994392395,0|0,0:0|0:0,0:0:0:0:
426,0,136166,5,0,0:0:0:0:
436,186,136332,2,0,P|440:140|437:94,1,91.8749971961976,0|0,0:0|0:0,0:0:0:0:
330,153,136666,2,0,P|325:198|328:244,1,91.8749971961976,0|0,0:0|0:0,0:0:0:0:
496,350,136999,2,0,P|500:304|497:258,1,91.8749971961976,0|0,0:0|0:0,0:0:0:0:
273,334,137332,6,0,P|317:345|363:340,1,91.8749971961976,0|0,0:0|0:0,0:0:0:0:
210,229,137666,2,0,P|166:218|120:223,1,91.8749971961976,0|0,0:0|0:0,0:0:0:0:
305,162,137999,2,0,P|349:173|395:168,1,91.8749971961976,0|0,0:0|0:0,0:0:0:0:
123,46,138332,2,0,B|114:99|142:143|142:143|110:255,1,183.749994392395,0|0,0:0|0:0,0:0:0:0:
207,73,138832,5,0,0:0:0:0:
298,77,138999,2,0,L|197:72,1,91.8749971961976,0|0,0:0|0:0,0:0:0:0:
291,204,139332,1,0,0:0:0:0:
394,74,139499,1,0,0:0:0:0:
456,229,139666,1,0,0:0:0:0:
343,139,139832,1,0,0:0:0:0:
240,275,139999,6,0,P|195:277|137:272,1,91.8749971961976,0|0,0:0|0:0,0:0:0:0:
288,358,140332,2,0,P|359:361|393:364,1,91.8749971961976,0|0,0:0|0:0,0:0:0:0:
433,217,140666,2,0,P|465:253|462:312,1,91.8749971961976,0|0,0:0|0:0,0:0:0:0:
322,244,140999,2,0,B|322:102|322:102|331:122|343:140,1,183.749994392395,0|0,0:0|0:0,0:0:0:0:
239,165,141499,5,0,0:0:0:0:
433,217,141666,2,0,P|437:167|438:115,1,91.8749971961976,0|0,0:0|0:0,0:0:0:0:
266,47,141999,2,0,P|308:26|366:38,1,91.8749971961976,0|0,0:0|0:0,0:0:0:0:
239,165,142332,2,0,P|199:139|181:82,1,91.8749971961976,0|0,0:0|0:0,0:0:0:0:
266,47,142666,5,0,0:0:0:0:
96,169,142832,1,0,0:0:0:0:
286,207,142999,1,0,0:0:0:0:
181,99,143166,2,0,P|188:191|179:300,1,183.749994392395,0|0,0:0|0:0,0:0:0:0:
93,311,143666,2,0,B|142:324|182:282|182:282|206:321|290:321,1,183.749994392395,0|0,0:0|0:0,0:0:0:0:
360,357,144166,5,0,0:0:0:0:
431,199,144332,2,0,P|437:249|444:311,1,91.8749971961976,0|0,0:0|0:0,0:0:0:0:
341,132,144666,2,0,P|336:187|328:244,1,91.8749971961976,0|0,0:0|0:0,0:0:0:0:
360,357,144999,1,0,0:0:0:0:
441,290,145166,1,0,0:0:0:0:
252,183,145332,6,0,P|186:162|114:177,1,137.812495794296,0|0,0:0|0:0,0:0:0:0:
86,205,145665,2,0,L|89:113,2,91.8749971961976,0|0|0,0:0|0:0|0:0,0:0:0:0:
182,251,146166,1,0,0:0:0:0:
228,93,146332,2,0,P|276:67|347:80,1,91.8749971961976,0|0,0:0|0:0,0:0:0:0:
298,168,146666,5,0,0:0:0:0:
375,128,146832,1,0,0:0:0:0:
343,270,146999,2,0,P|381:244|403:204,1,91.8749971961976,0|0,0:0|0:0,0:0:0:0:
266,249,147332,2,0,P|268:294|292:333,1,91.8749971961976,0|0,0:0|0:0,0:0:0:0:
461,147,147666,2,0,P|420:126|374:127,1,91.8749971961976,0|0,0:0|0:0,0:0:0:0:
266,249,147999,6,0,P|303:223|325:183,1,91.8749971961976,0|0,0:0|0:0,0:0:0:0:
274,27,148332,2,0,P|276:72|300:111,1,91.8749971961976,0|0,0:0|0:0,0:0:0:0:
443,52,148666,2,0,B|323:51|324:51,1,91.8749971961976,0|0,0:0|0:0,0:0:0:0:
142,171,148999,2,0,L|367:187,1,183.749994392395,0|0,0:0|0:0,0:0:0:0:
241,87,149499,5,0,0:0:0:0:
409,264,149666,2,0,L|399:365,1,91.8749971961976,0|0,0:0|0:0,0:0:0:0:
325,183,149999,1,0,0:0:0:0:
276,296,150166,1,0,0:0:0:0:
163,110,150332,1,0,0:0:0:0:
179,219,150499,1,0,0:0:0:0:
343,98,150666,6,0,P|394:133|369:258,1,183.749994392395,0|0,0:0|0:0,0:0:0:0:
264,125,151166,2,0,B|248:82|255:44|284:20|319:11|319:11|350:20|384:16,1,183.749994392395,0|0,0:0|0:0,0:0:0:0:
325,183,151666,1,0,0:0:0:0:
325,183,151832,1,0,0:0:0:0:
156,97,151999,6,0,P|103:86|51:113,1,91.8749971961976,0|0,0:0|0:0,0:0:0:0:
115,176,152332,1,0,0:0:0:0:
193,22,152499,2,0,P|95:1|0:51,1,183.749994392395,0|0,0:0|0:0,0:0:0:0:
115,176,152999,2,0,L|114:79,1,91.8749971961976,0|0,0:0|0:0,0:0:0:0:
41,277,153332,6,0,B|122:242|120:326|232:272,1,166.249995560646,0|0,0:0|0:0,0:0:0:0:
342,351,153832,2,0,B|289:351|289:351|242:376|242:376|148:383,1,166.249995560646,0|0,0:0|0:0,0:0:0:0:
427,384,154332,2,0,P|438:325|409:278,1,83.1249977803231,0|0,0:0|0:0,0:0:0:0:
287,125,154666,6,0,L|276:207,1,83.1249977803231,0|0,0:0|0:0,0:0:0:0:
268,280,154999,1,0,0:0:0:0:
379,93,155166,1,0,0:0:0:0:
379,93,155249,1,0,0:0:0:0:
379,93,155332,2,0,L|390:53,1,41.5624988901615,0|0,0:0|0:0,0:0:0:0:
180,81,155499,2,0,L|169:42,1,41.5624988901615,0|0,0:0|0:0,0:0:0:0:
375,182,155666,2,0,L|386:221,1,41.5624988901615,0|0,0:0|0:0,0:0:0:0:
171,173,155832,2,0,L|156:225,1,41.5624988901615,0|0,0:0|0:0,0:0:0:0:
498,133,155999,6,0,L|257:129,1,207.812494450808,0|0,0:0|0:0,0:0:0:0:
248,131,156499,1,0,0:0:0:0:
86,49,156832,5,0,0:0:0:0:
111,241,156999,2,0,P|66:141|93:36,1,207.812494450808,0|0,0:0|0:0,0:0:0:0:
106,11,157499,1,0,0:0:0:0:
199,288,157832,5,0,0:0:0:0:
198,207,157999,2,0,P|206:248|188:312,1,83.1249977803231,0|0,0:0|0:0,0:0:0:0:
246,135,158332,2,0,P|273:166|289:230,1,83.1249977803231,0|0,0:0|0:0,0:0:0:0:
48,251,158666,6,0,B|76:217|76:217|225:204,1,166.249995560646,0|0,0:0|0:0,0:0:0:0:
131,373,159166,2,0,P|113:328|120:292,1,83.1249977803231,0|0,0:0|0:0,0:0:0:0:
205,197,159499,1,0,0:0:0:0:
257,316,159666,1,0,0:0:0:0:
66,135,159832,1,0,0:0:0:0:
301,230,159999,5,0,0:0:0:0:
118,294,160166,1,0,0:0:0:0:
162,121,160332,1,0,0:0:0:0:
193,363,160499,1,0,0:0:0:0:
287,134,160666,1,0,0:0:0:0:
98,213,160832,1,0,0:0:0:0:
316,339,160999,2,0,B|374:322|384:367|445:342,1,124.687496670485,0|0,0:0|0:0,0:0:0:0:
477,358,161332,6,0,P|466:318|475:261,1,83.1249977803231,0|0,0:0|0:0,0:0:0:0:
336,253,161666,1,0,0:0:0:0:
411,120,161832,2,0,P|443:154|449:211,1,83.1249977803231,0|0,0:0|0:0,0:0:0:0:
281,128,162166,2,0,P|294:83|340:49,1,83.1249977803231,0|0,0:0|0:0,0:0:0:0:
336,253,162499,1,0,0:0:0:0:
191,223,162666,6,0,B|131:234|131:234|92:215|92:215|26:228,1,166.249995560646,0|0,0:0|0:0,0:0:0:0:
171,334,163166,1,0,0:0:0:0:
146,152,163332,1,0,0:0:0:0:
6,300,163499,1,0,0:0:0:0:
232,178,163666,2,0,P|230:121|203:86,1,83.1249977803231,0|0,0:0|0:0,0:0:0:0:
295,302,163999,6,0,P|337:273|354:148,1,166.249995560646,0|0,0:0|0:0,0:0:0:0:
232,178,164499,1,0,0:0:0:0:
323,33,164666,5,0,0:0:0:0:
110,62,164832,1,0,0:0:0:0:
373,197,164999,1,0,0:0:0:0:
143,260,165166,1,0,0:0:0:0:
202,37,165332,5,0,0:0:0:0:
302,253,165499,1,0,0:0:0:0:
105,159,165666,1,0,0:0:0:0:
352,114,165832,1,0,0:0:0:0:
112,329,165999,2,0,P|83:308|64:253,1,83.1249977803231,0|0,0:0|0:0,0:0:0:0:
45,230,166249,1,0,0:0:0:0:
26,193,166332,1,0,0:0:0:0:
23,151,166415,1,0,0:0:0:0:
36,112,166499,1,0,0:0:0:0:
63,81,166582,1,0,0:0:0:0:
100,63,166666,6,0,B|166:49|166:49|212:70|212:70|237:23|307:7,1,207.812494450808,0|0,0:0|0:0,0:0:0:0:
321,7,167166,1,0,0:0:0:0:
301,103,167499,5,0,0:0:0:0:
299,305,167666,2,0,B|291:238|291:238|313:170|313:170|297:80,1,207.812494450808,0|0,0:0|0:0,0:0:0:0:
299,60,168166,1,0,0:0:0:0:
378,239,168332,1,0,0:0:0:0:
75,268,168666,6,0,P|41:209|73:123,1,137.812495794296,0|0,0:0|0:0,0:0:0:0:
92,117,168999,2,0,L|-18:71,1,91.8749971961976,0|0,0:0|0:0,0:0:0:0:
125,196,169332,6,0,B|171:173|213:208|213:208|260:248|319:217,1,183.749994392395,0|0,0:0|0:0,0:0:0:0:
394,348,169832,2,0,P|415:313|401:247,1,91.8749971961976,0|0,0:0|0:0,0:0:0:0:
357,138,170166,1,0,0:0:0:0:
339,291,170332,1,0,0:0:0:0:
480,231,170499,1,0,0:0:0:0:
216,198,170666,5,0,0:0:0:0:
366,123,170832,1,0,0:0:0:0:
341,309,170999,1,0,0:0:0:0:
262,103,171166,1,0,0:0:0:0:
479,253,171332,1,0,0:0:0:0:
339,291,171499,1,0,0:0:0:0:
502,156,171666,2,0,P|516:82|442:34,1,137.812495794296,0|0,0:0|0:0,0:0:0:0:
429,31,171999,6,0,B|403:65|364:82|364:82|294:50|239:85,1,201.250003838539,0|0,0:0|0:0,0:0:0:0:
287,306,172499,2,0,B|277:186|277:186|241:145|180:195,1,201.250003838539,0|0,0:0|0:0,0:0:0:0:
184,276,172999,1,0,0:0:0:0:
367,255,173166,1,0,0:0:0:0:
109,236,173332,6,0,B|94:271|90:321|130:357|171:366|171:366|200:354|229:358,1,201.250003838539,0|0,0:0|0:0,0:0:0:0:
158,162,173832,2,0,B|152:125|76:142|72:129|72:129|76:142|8:167|29:219,1,201.250003838539,0|0,0:0|0:0,0:0:0:0:
186,288,174332,2,0,L|170:216,1,50.3125009596348,0|0,0:0|0:0,0:0:0:0:
259,115,174499,2,0,L|248:164,1,50.3125009596348,0|0,0:0|0:0,0:0:0:0:
349,351,174666,6,0,B|365:298|355:257|355:257|382:216|382:216|372:168|389:132,1,218.75,0|0,0:0|0:0,0:0:0:0:
407,0,175166,1,0,0:0:0:0:
457,190,175332,1,0,0:0:0:0:
242,130,175499,1,0,0:0:0:0:
499,91,175666,5,0,0:0:0:0:
304,261,175832,1,0,0:0:0:0:
289,35,175999,5,0,0:0:0:0:
439,314,176166,1,0,0:0:0:0:
421,51,176332,5,0,0:0:0:0:
351,357,176499,1,0,0:0:0:0:
121,47,176666,5,0,0:0:0:0:
177,328,176832,1,0,0:0:0:0:
177,328,176916,1,0,0:0:0:0:
177,328,176999,2,0,L|183:270,1,54.6875,0|0,0:0|0:0,0:0:0:0:
340,112,177166,2,0,L|334:170,1,54.6875,0|0,0:0|0:0,0:0:0:0:
254,346,177332,6,0,B|270:263|270:263|247:185|247:185|260:108,1,236.250000901222,0|0,0:0|0:0,0:0:0:0:
356,0,177832,1,0,0:0:0:0:
343,186,177999,1,0,0:0:0:0:
174,96,178166,1,0,0:0:0:0:
430,89,178332,1,0,0:0:0:0:
277,258,178499,1,0,0:0:0:0:
133,23,178666,2,0,L|-28:25,1,118.125000450611,0|0,0:0|0:0,0:0:0:0:
223,167,178999,6,0,P|275:120|278:55,1,118.125000450611,0|0,0:0|0:0,0:0:0:0:
113,163,179332,2,0,P|127:231|182:266,1,118.125000450611,0|0,0:0|0:0,0:0:0:0:
133,23,179666,2,0,L|-28:25,1,118.125000450611,0|0,0:0|0:0,0:0:0:0:
223,167,179999,6,0,B|273:178|313:169|313:169|371:206|371:206|410:194|474:207,1,236.250000901222,0|0,0:0|0:0,0:0:0:0:
258,93,180499,1,0,0:0:0:0:
360,379,180666,2,0,P|409:314|403:260,1,118.125000450611,0|0,0:0|0:0,0:0:0:0:
388,119,180999,1,0,0:0:0:0:
297,254,181166,1,0,0:0:0:0:
258,93,181332,6,0,P|287:47|374:17,1,118.125000450611,0|0,0:0|0:0,0:0:0:0:
142,140,181666,2,0,P|85:131|25:119,1,118.125000450611,0|0,0:0|0:0,0:0:0:0:
180,233,181999,2,0,P|235:246|296:253,1,118.125000450611,0|0,0:0|0:0,0:0:0:0:
116,301,182332,2,0,P|58:288|0:280,1,118.125000450611,0|0,0:0|0:0,0:0:0:0:
227,103,182666,6,0,B|259:164|259:164|219:341,1,236.250000901222,0|0,0:0|0:0,0:0:0:0:
169,177,183166,1,0,0:0:0:0:
169,177,183332,1,0,0:0:0:0:
43,308,183499,1,0,0:0:0:0:
230,348,183666,1,0,0:0:0:0:
37,163,183832,1,0,0:0:0:0:
130,382,183999,6,0,P|146:311|153:238,1,118.125000450611,0|0,0:0|0:0,0:0:0:0:
29,192,184332,1,0,0:0:0:0:
16,343,184499,1,0,0:0:0:0:
212,141,184666,2,0,P|151:119|82:155,1,118.125000450611,0|0,0:0|0:0,0:0:0:0:
297,208,184999,2,0,P|346:166|349:88,1,118.125000450611,0|0,0:0|0:0,0:0:0:0:
151,266,185332,6,0,B|215:238|215:238|269:329|379:267,1,236.250000901222,0|0,0:0|0:0,0:0:0:0:
414,179,185832,1,0,0:0:0:0:
414,179,185999,2,0,P|458:228|463:288,1,118.125000450611,0|0,0:0|0:0,0:0:0:0:
297,208,186332,2,0,P|294:142|329:92,1,118.125000450611,0|0,0:0|0:0,0:0:0:0:
374,269,186666,2,0,P|318:304|216:258,1,177.187500675917,0|0,0:0|0:0,0:0:0:0:
221,248,186999,2,0,P|296:287|373:249,1,177.187500675917,0|0,0:0|0:0,0:0:0:0:
297,208,187332,2,0,L|305:345,1,118.125000450611,0|0,0:0|0:0,0:0:0:0:
202,158,187666,1,0,0:0:0:0:
367,142,187832,1,0,0:0:0:0:
131,86,187999,5,0,0:0:0:0:
63,267,188166,2,0,L|75:392,1,118.125000450611,0|0,0:0|0:0,0:0:0:0:
190,275,188499,2,0,L|201:157,1,118.125000450611,0|0,0:0|0:0,0:0:0:0:
95,187,188832,1,0,0:0:0:0:
181,354,188999,1,0,0:0:0:0:
279,213,189166,1,0,0:0:0:0:
355,360,189332,6,0,P|374:294|357:227,1,118.125000450611,0|0,0:0|0:0,0:0:0:0:
320,170,189666,2,0,L|259:233,1,59.0625002253056,0|0,0:0|0:0,0:0:0:0:
418,172,189832,2,0,L|393:87,1,59.0625002253056,0|0,0:0|0:0,0:0:0:0:
371,270,189999,2,0,P|444:285|508:225,1,118.125000450611,0|0,0:0|0:0,0:0:0:0:
306,85,190332,2,0,P|231:82|178:153,1,118.125000450611,0|0,0:0|0:0,0:0:0:0:
145,324,190666,6,0,P|154:253|154:183,1,118.125000450611,0|0,0:0|0:0,0:0:0:0:
74,108,190999,1,0,0:0:0:0:
24,342,191166,1,0,0:0:0:0:
24,342,191249,1,0,0:0:0:0:
24,342,191332,2,0,P|33:271|33:201,1,118.125000450611,0|0,0:0|0:0,0:0:0:0:
74,108,191666,1,0,0:0:0:0:
154,206,191832,1,0,0:0:0:0:
223,26,191999,6,0,P|265:87|210:173,1,177.187500675917,0|0,0:0|0:0,0:0:0:0:
190,97,192332,2,0,L|329:97,1,118.125000450611,0|0,0:0|0:0,0:0:0:0:
480,128,192666,1,0,0:0:0:0:
298,203,192832,1,0,0:0:0:0:
456,49,192999,1,0,0:0:0:0:
266,11,193166,1,0,0:0:0:0:
387,290,193332,6,0,P|395:223|396:155,1,118.125000450611,0|0,0:0|0:0,0:0:0:0:
327,118,193666,1,0,0:0:0:0:
198,231,193832,2,0,P|200:290|207:348,1,118.125000450611,0|0,0:0|0:0,0:0:0:0:
387,290,194166,2,0,P|395:223|396:155,1,118.125000450611,0|0,0:0|0:0,0:0:0:0:
295,282,194499,5,0,0:0:0:0:
295,282,194582,1,0,0:0:0:0:
295,282,194666,1,0,0:0:0:0:
327,118,194832,1,0,0:0:0:0:
165,136,194999,2,0,P|160:81|164:5,1,118.125000450611,0|0,0:0|0:0,0:0:0:0:
417,213,195332,2,0,L|358:201,1,59.0625002253056,0|0,0:0|0:0,0:0:0:0:
113,223,195499,2,0,L|171:234,1,59.0625002253056,0|0,0:0|0:0,0:0:0:0:
306,340,195666,2,0,L|294:281,1,59.0625002253056,0|0,0:0|0:0,0:0:0:0:
236,60,195833,2,0,L|245:119,1,59.0625002253056,0|0,0:0|0:0,0:0:0:0:
330,365,195999,6,0,P|330:304|316:226,1,118.125000450611,0|0,0:0|0:0,0:0:0:0:
165,133,196332,1,0,0:0:0:0:
66,351,196499,2,0,P|134:367|193:357,1,118.125000450611,0|0,0:0|0:0,0:0:0:0:
423,180,196832,2,0,P|355:164|296:174,1,118.125000450611,0|0,0:0|0:0,0:0:0:0:
153,279,197166,5,0,0:0:0:0:
353,237,197332,1,0,0:0:0:0:
94,138,197499,1,0,0:0:0:0:
269,326,197666,1,0,0:0:0:0:
311,53,197832,1,0,0:0:0:0:
55,247,197999,6,0,L|77:172,1,59.0625002253056,0|0,0:0|0:0,0:0:0:0:
287,66,198166,2,0,L|274:124,1,59.0625002253056,0|0,0:0|0:0,0:0:0:0:
241,316,198332,2,0,L|233:249,1,59.0625002253056,0|0,0:0|0:0,0:0:0:0:
138,25,198499,2,0,L|151:83,1,59.0625002253056,0|0,0:0|0:0,0:0:0:0:
294,201,198666,6,0,B|354:177|403:228|403:228|469:255|520:212,1,236.250000901222,0|0,0:0|0:0,0:0:0:0:
330,277,199166,2,0,P|218:240|268:119,1,236.250000901222,0|0,0:0|0:0,0:0:0:0:
357,89,199666,2,0,L|297:74,1,59.0625002253056,0|0,0:0|0:0,0:0:0:0:
213,49,199832,1,0,0:0:0:0:
410,173,199999,2,0,P|454:106|448:46,1,118.125000450611,0|0,0:0|0:0,0:0:0:0:
330,277,200332,2,0,P|366:348|420:373,1,118.125000450611,0|0,0:0|0:0,0:0:0:0:
394,160,200666,1,0,0:0:0:0:
417,285,200832,1,0,0:0:0:0:
205,198,200999,2,0,P|256:184|324:198,1,118.125000450611,0|0,0:0|0:0,0:0:0:0:
124,378,201332,6,0,B|145:317|145:317|140:248,1,118.125000450611,0|0,0:0|0:0,0:0:0:0:
79,144,201666,1,0,0:0:0:0:
27,284,201832,1,0,0:0:0:0:
225,117,201999,2,0,B|230:164|212:195|212:195|238:256|238:256|208:300|229:353,1,236.250000901222,0|0,0:0|0:0,0:0:0:0:
305,313,202499,1,0,0:0:0:0:
444,124,202666,6,0,P|472:176|446:254,1,118.125000450611,0|0,0:0|0:0,0:0:0:0:
314,71,202999,2,0,P|345:20|426:3,1,118.125000450611,0|0,0:0|0:0,0:0:0:0:
334,194,203332,2,0,P|274:192|219:131,1,118.125000450611,0|0,0:0|0:0,0:0:0:0:
112,41,203666,2,0,P|171:42|226:103,1,118.125000450611,0|0,0:0|0:0,0:0:0:0:
137,349,203999,6,0,B|126:264|126:264|152:203|152:203|141:120,1,236.250000901222,0|0,0:0|0:0,0:0:0:0:
213,281,204499,2,0,P|268:298|336:279,1,118.125000450611,0|0,0:0|0:0,0:0:0:0:
401,165,204832,1,0,0:0:0:0:
321,302,204999,1,0,0:0:0:0:
473,313,205166,1,0,0:0:0:0:
240,163,205332,6,0,P|184:144|129:162,1,118.125000450611,0|0,0:0|0:0,0:0:0:0:
60,285,205666,1,0,0:0:0:0:
307,114,205832,1,0,0:0:0:0:
307,114,205916,1,0,0:0:0:0:
307,114,205999,2,0,P|323:185|295:237,1,118.125000450611,0|0,0:0|0:0,0:0:0:0:
303,19,206332,2,0,P|372:40|403:90,1,118.125000450611,0|0,0:0|0:0,0:0:0:0:
130,102,206666,6,0,B|214:123|306:114|306:114|264:90|226:83,1,236.250000901222,0|0,0:0|0:0,0:0:0:0:
208,189,207166,1,0,0:0:0:0:
193,38,207332,1,0,0:0:0:0:
114,235,207499,1,0,0:0:0:0:
63,38,207666,2,0,P|38:94|55:164,1,118.125000450611,0|0,0:0|0:0,0:0:0:0:
205,272,207999,6,0,B|255:300|255:300|325:295,1,118.125000450611,0|0,0:0|0:0,0:0:0:0:
409,142,208332,2,0,P|348:131|284:154,1,118.125000450611,0|0,0:0|0:0,0:0:0:0:
401,368,208666,2,0,B|432:302|404:247|404:247|377:194|413:134,1,236.250000901222,0|0,0:0|0:0,0:0:0:0:
470,202,209166,1,0,0:0:0:0:
298,201,209332,5,0,0:0:0:0:
512,271,209499,1,0,0:0:0:0:
242,266,209666,1,0,0:0:0:0:
401,368,209832,2,0,P|418:306|395:233,1,118.125000450611,0|0,0:0|0:0,0:0:0:0:
252,131,210166,2,0,P|241:73|258:17,1,118.125000450611,0|0,0:0|0:0,0:0:0:0:
335,83,210499,1,0,0:0:0:0:
179,208,210666,6,0,B|119:223|119:223|48:213,1,118.125000450611,0|0,0:0|0:0,0:0:0:0:
151,111,210999,1,0,0:0:0:0:
52,309,211166,1,0,0:0:0:0:
252,297,211332,2,0,P|313:294|383:309,1,118.125000450611,0|0,0:0|0:0,0:0:0:0:
179,208,211666,2,0,P|120:197|62:200,1,118.125000450611,0|0,0:0|0:0,0:0:0:0:
276,78,211999,6,0,P|302:144|279:212,1,118.125000450611,0|0,0:0|0:0,0:0:0:0:
134,113,212332,1,0,0:0:0:0:
248,289,212499,1,0,0:0:0:0:
273,30,212666,1,0,0:0:0:0:
141,223,212832,1,0,0:0:0:0:
396,145,212999,1,0,0:0:0:0:
167,0,213166,1,0,0:0:0:0:
335,261,213332,6,0,P|397:268|470:224,1,118.125000450611,0|0,0:0|0:0,0:0:0:0:
166,103,213666,2,0,B|153:164|153:164|155:272,1,118.125000450611,0|0,0:0|0:0,0:0:0:0:
442,61,213999,2,0,P|387:39|329:46,1,118.125000450611,0|0,0:0|0:0,0:0:0:0:
298,193,214332,1,0,0:0:0:0:
252,81,214499,1,0,0:0:0:0:
80,291,214666,5,0,0:0:0:0:
207,169,214832,1,0,0:0:0:0:
37,120,214999,1,0,0:0:0:0:
250,340,215166,2,0,L|367:309,1,118.125000450611,0|0,0:0|0:0,0:0:0:0:
494,222,215499,2,0,L|379:191,1,118.125000450611,0|0,0:0|0:0,0:0:0:0:
364,309,215832,1,0,0:0:0:0:
171,96,215999,5,0,0:0:0:0:
278,249,216166,1,0,0:0:0:0:
365,45,216332,1,0,0:0:0:0:
365,45,216499,1,0,0:0:0:0:
168,199,216666,5,0,0:0:0:0:
419,172,216832,1,0,0:0:0:0:
249,15,216999,1,0,0:0:0:0:
157,223,217166,1,0,0:0:0:0:
429,190,217332,6,0,B|458:223|458:223|481:-4,1,236.250000901222,0|0,0:0|0:0,0:0:0:0:
281,241,217832,1,0,0:0:0:0:
227,23,217999,1,0,0:0:0:0:
390,119,218166,1,0,0:0:0:0:
154,145,218332,1,0,0:0:0:0:
366,0,218499,1,0,0:0:0:0:
381,284,218666,6,0,L|188:261,1,177.187500675917,0|0,0:0|0:0,0:0:0:0:
182,322,218999,2,0,P|205:262|195:200,1,118.125000450611,0|0,0:0|0:0,0:0:0:0:
46,89,219332,1,0,0:0:0:0:
119,256,219499,1,0,0:0:0:0:
228,51,219666,1,0,0:0:0:0:
26,184,219832,1,0,0:0:0:0:
277,167,219999,5,0,0:0:0:0:
28,10,220166,1,0,0:0:0:0:
312,51,220332,1,0,0:0:0:0:
124,277,220499,2,0,L|101:160,1,118.125000450611,0|0,0:0|0:0,0:0:0:0:
395,263,220832,2,0,L|305:342,1,118.125000450611,0|0,0:0|0:0,0:0:0:0:
305,132,221166,5,0,0:0:0:0:
488,226,221332,2,0,L|499:379,1,118.125000450611,0|0,0:0|0:0,0:0:0:0:
386,158,221666,2,0,L|418:20,1,118.125000450611,0|0,0:0|0:0,0:0:0:0:
293,283,221999,2,0,P|237:304|162:270,1,118.125000450611,0|0,0:0|0:0,0:0:0:0:
101,153,222332,1,0,0:0:0:0:
26,339,222499,1,0,0:0:0:0:
206,145,222666,5,0,0:0:0:0:
19,38,222832,1,0,0:0:0:0:
63,254,222999,1,0,0:0:0:0:
227,39,223166,2,0,P|289:23|360:43,1,118.125000450611,0|0,0:0|0:0,0:0:0:0:
464,204,223499,1,0,0:0:0:0:
206,145,223666,1,0,0:0:0:0:
397,108,223832,1,0,0:0:0:0:
248,355,223999,5,0,0:0:0:0:
248,355,224082,1,0,0:0:0:0:
248,355,224166,1,0,0:0:0:0:
341,33,224332,1,0,0:0:0:0:
388,290,224499,1,0,0:0:0:0:
79,228,224666,6,0,L|164:210,1,59.0625002253056,0|0,0:0|0:0,0:0:0:0:
442,167,224832,2,0,L|359:183,1,59.0625002253056,0|0,0:0|0:0,0:0:0:0:
72,246,224999,2,0,L|202:222,1,118.125000450611,0|0,0:0|0:0,0:0:0:0:
492,278,225332,5,0,0:0:0:0:
281,383,225499,1,0,0:0:0:0:
295,148,225666,1,0,0:0:0:0:
398,359,225832,5,0,0:0:0:0:
174,211,225999,1,0,0:0:0:0:
413,93,226166,1,0,0:0:0:0:
169,328,226332,5,0,0:0:0:0:
196,18,226499,1,0,0:0:0:0:
451,188,226666,1,0,0:0:0:0:
37,185,226832,5,0,0:0:0:0:
332,12,226999,1,0,0:0:0:0:
309,363,227166,1,0,0:0:0:0:
60,91,227332,5,0,0:0:0:0:
445,92,227499,1,0,0:0:0:0:
132,166,227666,1,0,0:0:0:0:
135,185,227749,1,0,0:0:0:0:
139,204,227832,1,0,0:0:0:0:
407,208,227999,5,0,0:0:0:0:
147,13,228166,1,0,0:0:0:0:
150,32,228249,1,0,0:0:0:0:
154,51,228332,1,0,0:0:0:0:
432,68,228499,1,0,0:0:0:0:
229,289,228666,1,0,0:0:0:0:
271,11,228832,5,0,0:0:0:0:
377,280,228999,1,0,0:0:0:0:
90,246,229166,1,0,0:0:0:0:
440,120,229332,5,0,0:0:0:0:
141,359,229499,1,0,0:0:0:0:
74,67,229666,1,0,0:0:0:0:
377,355,229832,1,0,0:0:0:0:
409,72,229999,1,0,0:0:0:0:
406,91,230082,1,0,0:0:0:0:
402,110,230165,1,0,0:0:0:0:
136,333,230332,1,0,0:0:0:0:
473,289,230499,6,0,B|462:329|441:341|441:341|461:355|515:331|533:286|530:224|493:162|416:146|364:168|326:223|312:271|312:271|121:270|64:251|5:203|-6:169|17:98|68:71|136:118|136:118|70:16|162:-33|245:-13|233:54|305:81|289:192|312:272,1,1414.87498704643,0|0,0:0|0:0,0:0:0:0:
