osu file format v14

[General]
AudioFilename: audio.mp3
AudioLeadIn: 0
PreviewTime: 173534
Countdown: 0
SampleSet: Soft
StackLeniency: 0.4
Mode: 0
LetterboxInBreaks: 0
EpilepsyWarning: 1
WidescreenStoryboard: 1

[Editor]
DistanceSpacing: 1.3
BeatDivisor: 4
GridSize: 32
TimelineZoom: 1.1

[Metadata]
Title:Sakura no Uta
TitleUnicode:櫻ノ詩
Artist:Hana
ArtistUnicode:はな
Creator:Dored
Version:The Happy Prince
Source:サクラノ詩 -櫻の森の上を舞う-
Tags:- Sakura no Mori no Ue o Mau - Metrowing 枕 Makura 松本文紀 szak Matsumoto Fuminori うさ Usa Eroge Visual Novel Galgame Video Game Japanese Pop Jpop J-pop Opening OP Full Version Silky Kanau Mamayu fuyuyu- Irohas SuperDalouBot Liszt Little CloudSplash16 Kowari Kujinn Reform Moeka Momoka Shioi No Dap Erisu Lanzhu
BeatmapID:2169502
BeatmapSetID:1037744

[Difficulty]
HPDrainRate:6
CircleSize:4.1
OverallDifficulty:9
ApproachRate:9.3
SliderMultiplier:1.8
SliderTickRate:1

[Events]
//Background and Video events
0,0,"Ai.jpg",0,0
//Break Periods
//Storyboard Layer 0 (Background)
Sprite,Background,Centre,"Ai.jpg",320,240
//Storyboard Layer 1 (Fail)
//Storyboard Layer 2 (Pass)
//Storyboard Layer 3 (Foreground)
//Storyboard Layer 4 (Overlay)
//Storyboard Sound Samples

[TimingPoints]
285,333.333333333333,4,2,22,50,1,0
285,-142.857142857143,4,2,22,50,0,0
9284,-142.857142857143,4,2,22,60,0,0
9618,-111.111111111111,4,2,22,70,0,0
10368,-111.111111111111,4,2,22,20,0,0
10451,-111.111111111111,4,2,22,70,0,0
10951,-100,4,2,22,70,0,0
11201,-100,4,2,22,5,0,0
11284,-100,4,2,22,70,0,0
11701,-100,4,2,22,20,0,0
11784,-100,4,2,22,70,0,0
11868,-100,4,2,22,20,0,0
11951,-100,4,2,22,70,0,0
12534,-100,4,2,22,5,0,0
12618,-100,4,2,22,70,0,0
13868,-100,4,2,22,5,0,0
13951,-100,4,2,22,70,0,0
15201,-100,4,2,22,5,0,0
15284,-100,4,2,22,70,0,0
16201,-100,4,2,22,5,0,0
16284,-100,4,2,22,70,0,0
18868,-100,4,2,22,5,0,0
18951,-100,4,2,22,70,0,0
19201,-100,4,2,22,5,0,0
19284,-100,4,2,22,70,0,0
21034,-100,4,2,22,20,0,0
21118,-100,4,2,22,70,0,0
21868,-100,4,2,22,5,0,0
21951,-100,4,2,22,70,0,0
22368,-100,4,2,22,20,0,0
22451,-100,4,2,22,70,0,0
22534,-100,4,2,22,20,0,0
22618,-100,4,2,22,70,0,0
23201,-100,4,2,22,5,0,0
23284,-100,4,2,22,70,0,0
24534,-100,4,2,22,5,0,0
24618,-100,4,2,22,70,0,0
25868,-100,4,2,22,5,0,0
25951,-100,4,2,22,70,0,0
26868,-100,4,2,22,5,0,0
26951,-100,4,2,22,70,0,0
29534,-100,4,2,22,5,0,0
29618,-100,4,2,22,70,0,0
29868,-100,4,2,22,5,0,0
29951,-100,4,2,22,70,0,0
31701,-100,4,2,22,20,0,0
31784,-100,4,2,22,70,0,0
32284,-100,4,2,22,60,0,0
32951,-100,4,2,22,50,0,0
33618,-125,4,2,22,60,0,0
43201,-125,4,2,22,5,0,0
43284,-125,4,2,22,60,0,0
48201,-125,4,2,22,5,0,0
48284,-125,4,2,22,60,0,0
49868,-125,4,2,22,5,0,0
49951,-125,4,2,22,60,0,0
51201,-125,4,2,22,5,0,0
51284,-125,4,2,22,60,0,0
52284,-111.111111111111,4,2,22,70,0,0
53868,-111.111111111111,4,2,22,5,0,0
53951,-111.111111111111,4,2,22,70,0,0
54701,-111.111111111111,4,2,22,20,0,0
54784,-111.111111111111,4,2,22,70,0,0
54868,-111.111111111111,4,2,22,20,0,0
54951,-111.111111111111,4,2,22,70,0,0
57868,-111.111111111111,4,2,22,5,0,0
57951,-111.111111111111,4,2,22,70,0,0
60201,-111.111111111111,4,2,22,5,0,0
60284,-111.111111111111,4,2,22,70,0,0
60534,-111.111111111111,4,2,22,5,0,0
60618,-111.111111111111,4,2,22,70,0,0
62868,-111.111111111111,4,2,22,5,0,0
62951,-111.111111111111,4,2,22,70,0,0
65868,-111.111111111111,4,2,22,5,0,0
65951,-111.111111111111,4,2,22,70,0,0
68534,-111.111111111111,4,2,22,5,0,0
68618,-111.111111111111,4,2,22,70,0,0
70868,-111.111111111111,4,2,22,5,0,0
70951,-111.111111111111,4,2,22,70,0,0
72034,-111.111111111111,4,2,22,20,0,0
72118,-111.111111111111,4,2,22,70,0,0
72201,-111.111111111111,4,2,22,20,0,0
72284,-111.111111111111,4,2,22,70,0,0
73034,-111.111111111111,4,2,22,20,0,0
73118,-111.111111111111,4,2,22,70,0,0
73618,-99.9999999999999,4,2,22,80,0,1
76201,-99.9999999999999,4,2,22,80,0,0
76284,-90.9090909090908,4,2,22,80,0,1
80534,-90.9090909090908,4,2,22,5,0,1
80618,-90.9090909090908,4,2,22,80,0,1
84201,-90.9090909090908,4,2,22,5,0,1
84284,-90.9090909090908,4,2,22,80,0,1
89534,-90.9090909090908,4,2,22,5,0,1
89618,-90.9090909090908,4,2,22,80,0,1
91534,-90.9090909090908,4,2,22,5,0,1
91618,-90.9090909090908,4,2,22,80,0,1
94201,-90.9090909090908,4,2,22,5,0,1
94284,-90.9090909090908,4,2,22,80,0,1
97368,-90.9090909090908,4,2,22,20,0,1
97451,-90.9090909090908,4,2,22,80,0,1
97534,-90.9090909090908,4,2,22,20,0,1
97618,-111.111111111111,4,2,22,60,0,0
109451,-111.111111111111,4,2,22,50,0,0
109951,-142.857142857143,4,2,22,40,0,0
110618,-142.857142857143,4,2,22,30,0,0
110951,-100,4,2,22,70,0,0
111201,-100,4,2,22,5,0,0
111284,-100,4,2,22,70,0,0
111701,-100,4,2,22,20,0,0
111784,-100,4,2,22,70,0,0
111868,-100,4,2,22,20,0,0
111951,-100,4,2,22,70,0,0
112534,-100,4,2,22,5,0,0
112618,-100,4,2,22,70,0,0
113868,-100,4,2,22,5,0,0
113951,-100,4,2,22,70,0,0
115201,-100,4,2,22,5,0,0
115284,-100,4,2,22,70,0,0
116201,-100,4,2,22,5,0,0
116284,-100,4,2,22,70,0,0
118868,-100,4,2,22,5,0,0
118951,-100,4,2,22,70,0,0
119201,-100,4,2,22,5,0,0
119284,-100,4,2,22,70,0,0
121034,-100,4,2,22,20,0,0
121118,-100,4,2,22,70,0,0
121868,-100,4,2,22,5,0,0
121951,-100,4,2,22,70,0,0
122368,-100,4,2,22,20,0,0
122451,-100,4,2,22,70,0,0
122534,-100,4,2,22,20,0,0
122618,-100,4,2,22,70,0,0
123201,-100,4,2,22,5,0,0
123284,-100,4,2,22,70,0,0
124534,-100,4,2,22,5,0,0
124618,-100,4,2,22,70,0,0
125868,-100,4,2,22,5,0,0
125951,-100,4,2,22,70,0,0
126868,-100,4,2,22,5,0,0
126951,-100,4,2,22,70,0,0
129534,-100,4,2,22,5,0,0
129618,-100,4,2,22,70,0,0
129868,-100,4,2,22,5,0,0
129951,-100,4,2,22,70,0,0
131701,-100,4,2,22,20,0,0
131784,-100,4,2,22,70,0,0
132951,-100,4,2,22,60,0,0
133618,-125,4,2,22,60,0,0
143201,-125,4,2,22,5,0,0
143284,-125,4,2,22,60,0,0
148201,-125,4,2,22,5,0,0
148284,-125,4,2,22,60,0,0
149868,-125,4,2,22,5,0,0
149951,-125,4,2,22,60,0,0
151201,-125,4,2,22,5,0,0
151284,-125,4,2,22,60,0,0
152284,-111.111111111111,4,2,22,70,0,0
153868,-111.111111111111,4,2,22,5,0,0
153951,-111.111111111111,4,2,22,70,0,0
154701,-111.111111111111,4,2,22,20,0,0
154784,-111.111111111111,4,2,22,70,0,0
154868,-111.111111111111,4,2,22,20,0,0
154951,-111.111111111111,4,2,22,70,0,0
157868,-111.111111111111,4,2,22,5,0,0
157951,-111.111111111111,4,2,22,70,0,0
160201,-111.111111111111,4,2,22,5,0,0
160284,-111.111111111111,4,2,22,70,0,0
160534,-111.111111111111,4,2,22,5,0,0
160618,-111.111111111111,4,2,22,70,0,0
162868,-111.111111111111,4,2,22,5,0,0
162951,-111.111111111111,4,2,22,70,0,0
165868,-111.111111111111,4,2,22,5,0,0
165951,-111.111111111111,4,2,22,70,0,0
168534,-111.111111111111,4,2,22,5,0,0
168618,-111.111111111111,4,2,22,70,0,0
170868,-111.111111111111,4,2,22,5,0,0
170951,-111.111111111111,4,2,22,70,0,0
172034,-111.111111111111,4,2,22,20,0,0
172118,-111.111111111111,4,2,22,70,0,0
172201,-111.111111111111,4,2,22,20,0,0
172284,-111.111111111111,4,2,22,70,0,0
173034,-111.111111111111,4,2,22,20,0,0
173118,-111.111111111111,4,2,22,70,0,0
173618,-100,4,2,22,80,0,1
176201,-100,4,2,22,80,0,0
176284,-90.9090909090909,4,2,22,80,0,1
180534,-90.9090909090909,4,2,22,5,0,1
180618,-90.9090909090909,4,2,22,80,0,1
184201,-90.9090909090909,4,2,22,5,0,1
184284,-90.9090909090909,4,2,22,80,0,1
189534,-90.9090909090909,4,2,22,5,0,1
189618,-90.9090909090909,4,2,22,80,0,1
191534,-90.9090909090909,4,2,22,5,0,1
191618,-90.9090909090909,4,2,22,80,0,1
194201,-90.9090909090909,4,2,22,5,0,1
194284,-90.9090909090909,4,2,22,80,0,1
197368,-90.9090909090909,4,2,22,20,0,1
197451,-90.9090909090909,4,2,22,80,0,1
200201,-90.9090909090909,4,2,22,5,0,1
200284,-90.9090909090909,4,2,22,80,0,1
200534,-90.9090909090909,4,2,22,5,0,1
200618,-90.9090909090909,4,2,22,80,0,1
201868,-90.9090909090909,4,2,22,5,0,1
201951,-90.9090909090909,4,2,22,80,0,1
205534,-90.9090909090909,4,2,22,5,0,1
205618,-90.9090909090909,4,2,22,80,0,1
210868,-90.9090909090909,4,2,22,5,0,1
210951,-90.9090909090909,4,2,22,80,0,1
212868,-90.9090909090909,4,2,22,5,0,1
212951,-90.9090909090909,4,2,22,80,0,1
215534,-90.9090909090909,4,2,22,5,0,1
215618,-90.9090909090909,4,2,22,80,0,1
220868,-90.9090909090909,4,2,22,5,0,1
220951,-90.9090909090909,4,2,22,80,0,1
224034,-90.9090909090909,4,2,22,20,0,1
224118,-90.9090909090909,4,2,22,80,0,1
224201,-90.9090909090909,4,2,22,20,0,0
224284,-90.9090909090909,4,2,22,80,0,1
229451,-90.9090909090909,4,2,22,80,0,0

[Colours]
Combo1 : 166,166,255
Combo2 : 253,179,225
Combo3 : 167,245,241
Combo4 : 218,137,252

[HitObjects]
42,181,285,6,0,P|94:253|180:232,1,188.999994232178,2|2,0:0|0:0,0:0:0:0:
230,167,951,1,0,0:0:0:0:
165,117,1118,1,2,0:0:0:0:
215,52,1284,2,0,P|307:70|401:84,1,188.999994232178,2|0,0:0|0:0,0:0:0:0:
480,230,1951,6,0,P|448:234|418:241,1,62.9999980773926,2|0,0:0|0:0,0:0:0:0:
313,157,2284,2,0,P|343:163|375:167,1,62.9999980773926,2|0,0:0|0:0,0:0:0:0:
342,303,2618,2,0,P|337:271|331:240,1,62.9999980773926,2|0,0:0|0:0,0:0:0:0:
230,167,2951,6,0,P|169:158|120:196,1,125.999996154785,2|0,0:0|0:0,0:0:0:0:
28,305,3451,2,0,P|88:287|150:273,1,125.999996154785,2|0,0:0|0:0,0:0:0:0:
228,307,3951,1,2,0:0:0:0:
228,307,4618,5,2,0:0:0:0:
150,274,4784,1,0,0:0:0:0:
296,256,4951,5,2,0:0:0:0:
139,189,5117,1,0,0:0:0:0:
285,171,5284,5,2,0:0:0:0:
207,138,5451,1,0,0:0:0:0:
296,256,5618,5,2,0:0:0:0:
364,205,5784,1,0,0:0:0:0:
353,120,5951,1,2,0:0:0:0:
275,87,6118,1,0,0:0:0:0:
285,171,6284,5,2,0:0:0:0:
218,223,6451,1,0,0:0:0:0:
139,189,6618,1,2,0:0:0:0:
139,189,7118,5,2,0:0:0:0:
218,223,7284,1,0,0:0:0:0:
285,171,7451,1,2,0:0:0:0:
375,290,7618,5,2,0:0:0:0:
296,256,7784,1,2,0:0:0:0:
228,307,7951,1,0,0:0:0:0:
228,307,8284,6,0,P|166:295|103:286,1,125.999996154785,2|0,0:0|0:0,0:0:0:0:
285,171,8784,2,0,P|347:183|410:192,1,125.999996154785,2|0,0:0|0:0,0:0:0:0:
503,146,9284,1,2,0:0:0:0:
375,290,9451,1,0,3:0:0:0:
271,91,9618,6,0,P|278:127|285:170,1,80.9999975280763,4|0,0:0|3:0,0:0:0:0:
366,30,9951,1,10,0:0:0:0:
294,255,10118,1,2,3:0:0:0:
150,149,10284,6,0,P|146:128|142:109,1,40.4999987640381,8|0,0:0|0:0,0:0:0:0:
233,15,10451,2,0,P|253:11|272:7,1,40.4999987640381,10|8,0:0|0:0,0:0:0:0:
394,197,10618,1,8,0:3:0:0:
364,168,10701,1,8,0:3:0:0:
324,158,10784,1,4,0:3:0:0:
285,170,10868,1,4,0:3:0:0:
257,199,10951,6,0,P|243:265|233:331,1,135,6|0,3:2|0:0,0:0:0:0:
159,368,11284,2,0,P|118:359|70:352,1,90,8|2,0:0|0:0,0:0:0:0:
326,285,11618,2,0,P|348:289|370:292,1,45,10|0,0:0|0:0,0:0:0:0:
442,361,11784,2,0,P|464:357|486:354,1,45,2|0,3:2|0:0,0:0:0:0:
482,182,11951,2,0,P|441:190|393:197,1,90,10|0,0:0|0:0,0:0:0:0:
232,331,12284,6,0,P|221:264|207:198,1,135,8|0,0:0|0:0,0:0:0:0:
169,125,12618,2,0,P|213:118|257:109,1,90,10|0,0:0|0:0,0:0:0:0:
370,12,12951,1,10,0:0:0:0:
300,197,13118,1,0,3:0:0:0:
200,27,13284,1,10,0:0:0:0:
424,109,13451,1,0,3:0:0:0:
302,313,13618,6,0,P|235:299|169:288,1,135,10|0,0:0|0:0,0:0:0:0:
129,292,13951,1,8,0:0:0:0:
283,108,14118,2,0,P|292:152|299:196,1,90,2|8,0:0|0:0,0:0:0:0:
370,12,14451,1,0,3:0:0:0:
412,249,14618,2,0,P|456:239|500:232,1,90,10|0,0:0|0:0,0:0:0:0:
283,108,14951,6,0,P|216:121|150:132,1,135,8|0,0:0|0:0,0:0:0:0:
78,97,15284,2,0,P|68:52|61:8,1,90,10|0,0:0|0:0,0:0:0:0:
15,246,15618,2,0,P|9:201|0:157,1,90,10|0,0:0|3:0,0:0:0:0:
101,302,15951,2,0,P|151:260|216:271,1,135,10|0,0:0|0:0,0:0:0:0:
247,299,16284,5,14,0:0:0:0:
150,132,16451,1,2,0:0:0:0:
210,31,16618,5,10,0:0:0:0:
0,158,16784,1,2,0:0:0:0:
59,56,16951,5,10,0:0:0:0:
101,302,17118,1,2,3:2:0:0:
324,178,17284,2,0,P|235:156|150:131,1,180,10|8,0:0|0:0,0:0:0:0:
247,299,17784,5,2,3:2:0:0:
310,62,17951,1,10,0:0:0:0:
484,236,18118,1,2,0:0:0:0:
324,178,18284,5,10,0:0:0:0:
455,69,18451,1,2,3:2:0:0:
377,333,18618,2,0,P|312:314|246:298,1,135,10|0,0:0|0:0,0:0:0:0:
181,247,18951,6,0,P|131:289|66:278,1,135,10|0,0:0|0:0,0:0:0:0:
32,256,19284,1,8,0:0:0:0:
213,99,19451,2,0,P|222:54|229:10,1,90,2|8,0:0|0:0,0:0:0:0:
181,247,19784,1,0,3:0:0:0:
340,89,19951,2,0,P|330:133|323:177,1,90,10|0,0:0|0:0,0:0:0:0:
229,10,20284,5,12,0:0:0:0:
323,177,20451,1,0,3:0:0:0:
94,124,20618,2,0,P|49:122|12:147,1,90,10|0,0:0|3:0,0:0:0:0:
188,290,20951,6,0,P|185:268|181:246,1,45,8|0,0:0|0:0,0:0:0:0:
264,116,21117,1,8,0:0:0:0:
299,93,21201,1,8,0:0:0:0:
340,89,21284,1,8,0:3:0:0:
377,109,21368,1,8,0:3:0:0:
402,142,21451,1,4,0:3:0:0:
452,319,21618,6,0,P|385:304|319:293,1,135,6|0,3:2|0:0,0:0:0:0:
269,229,21951,2,0,P|225:238|181:245,1,90,8|2,0:0|0:0,0:0:0:0:
25,361,22284,2,0,P|21:338|17:316,1,45,10|0,0:0|0:0,0:0:0:0:
92,237,22451,2,0,P|95:259|99:281,1,45,2|0,3:2|0:0,0:0:0:0:
205,384,22618,2,0,P|249:376|293:370,1,90,10|0,0:0|0:0,0:0:0:0:
277,143,22951,6,0,P|210:158|144:169,1,135,8|0,0:0|0:0,0:0:0:0:
180,245,23284,2,0,P|224:235|268:228,1,90,10|0,0:0|0:0,0:0:0:0:
308,33,23618,1,10,0:0:0:0:
144,168,23784,1,0,3:0:0:0:
347,194,23951,1,10,0:0:0:0:
170,31,24118,1,0,3:0:0:0:
99,281,24284,6,0,P|165:291|231:305,1,135,10|0,0:0|0:0,0:0:0:0:
265,330,24618,1,8,0:0:0:0:
144,168,24784,2,0,P|99:175|55:183,1,90,2|8,0:0|0:0,0:0:0:0:
0,311,25118,1,0,3:0:0:0:
39,90,25284,2,0,P|83:82|127:72,1,90,10|0,0:0|0:0,0:0:0:0:
333,163,25618,6,0,P|283:121|218:132,1,135,8|0,0:0|0:0,0:0:0:0:
144,168,25951,2,0,P|154:213|161:257,1,90,10|0,0:0|0:0,0:0:0:0:
290,88,26284,2,0,P|280:44|273:0,1,90,10|0,0:0|3:0,0:0:0:0:
275,227,26618,2,0,P|341:212|407:202,1,135,10|0,0:0|0:0,0:0:0:0:
448,207,26951,5,14,0:0:0:0:
290,88,27118,1,2,0:0:0:0:
413,20,27284,5,10,0:0:0:0:
275,227,27451,1,2,0:0:0:0:
144,168,27618,5,10,0:0:0:0:
331,354,27784,1,2,3:2:0:0:
440,115,27951,2,0,P|371:61|289:89,1,180,10|8,0:0|0:0,0:0:0:0:
151,11,28451,5,2,3:2:0:0:
275,227,28618,1,10,0:0:0:0:
26,227,28784,1,2,0:0:0:0:
194,91,28951,5,10,0:0:0:0:
1,247,29118,1,2,3:2:0:0:
194,91,29284,2,0,P|182:157|169:223,1,135,10|0,0:0|0:0,0:0:0:0:
99,268,29618,6,0,P|163:257|213:299,1,135,10|0,0:0|0:0,0:0:0:0:
219,339,29951,1,8,0:0:0:0:
372,207,30118,2,0,P|363:162|356:118,1,90,2|8,0:0|0:0,0:0:0:0:
465,296,30451,1,0,3:0:0:0:
275,227,30618,2,0,P|267:177|259:138,1,90,10|0,0:0|0:0,0:0:0:0:
369,21,30951,5,12,0:0:0:0:
275,227,31118,1,0,3:0:0:0:
184,25,31284,2,0,P|225:34|273:41,1,90,10|0,0:0|3:0,0:0:0:0:
275,227,31618,6,0,P|252:222|230:219,1,45,8|0,0:0|0:0,0:0:0:0:
137,140,31784,1,8,0:0:0:0:
98,131,31868,1,8,0:0:0:0:
59,143,31951,1,8,0:3:0:0:
31,173,32034,1,8,0:3:0:0:
22,213,32118,2,0,P|26:235|29:257,1,45,4|4,0:3|0:3,0:0:0:0:
45,374,32284,5,10,0:0:0:0:
98,308,32451,1,2,0:0:0:0:
182,298,32618,1,2,0:0:0:0:
248,350,32784,1,2,0:0:0:0:
382,274,32951,5,2,0:0:0:0:
331,340,33118,1,2,0:0:0:0:
248,350,33284,5,2,0:0:0:0:
371,191,33451,1,2,0:0:0:0:
248,350,33618,6,0,P|237:278|223:208,1,144,6|0,3:2|3:0,0:0:0:0:
256,125,34118,1,2,0:0:0:0:
256,125,34284,2,0,P|291:119|326:112,1,72,0|0,3:0|0:0,0:0:0:0:
371,191,34618,2,0,P|406:183|441:178,1,72,2|0,3:2|0:0,0:0:0:0:
478,82,34951,5,0,3:0:0:0:
478,82,35284,2,0,P|442:76|407:69,1,72,2|0,3:2|0:0,0:0:0:0:
326,111,35618,2,0,P|318:75|312:40,1,72,2|0,3:2|0:0,0:0:0:0:
233,0,35951,2,0,P|197:7|162:12,1,72,2|0,3:2|0:0,0:0:0:0:
46,168,36284,6,0,P|100:123|169:135,1,144,2|2,3:2|3:2,0:0:0:0:
223,208,36784,1,0,0:0:0:0:
223,208,36951,2,0,P|230:243|236:278,1,72,2|0,3:2|0:0,0:0:0:0:
399,147,37284,6,0,P|384:217|374:288,1,144,2|0,3:2|3:0,0:0:0:0:
344,374,37784,1,0,0:0:0:0:
344,374,37951,2,0,P|309:366|274:361,1,72,2|0,3:2|0:0,0:0:0:0:
154,315,38284,5,2,3:2:0:0:
343,214,38451,1,8,0:0:0:0:
123,141,38618,1,8,0:3:0:0:
312,40,38784,1,4,0:3:0:0:
234,84,38951,6,0,P|304:98|375:108,1,144,6|2,3:2|3:2,0:0:0:0:
457,70,39451,1,0,0:0:0:0:
457,70,39618,2,0,P|463:34|468:0,1,72,2|0,3:2|0:0,0:0:0:0:
465,247,39951,6,0,P|411:202|342:213,1,144,2|0,3:2|3:0,0:0:0:0:
264,257,40451,1,0,0:0:0:0:
264,257,40618,2,0,P|257:292|251:327,1,72,2|0,3:2|0:0,0:0:0:0:
182,384,40951,2,0,P|147:377|112:371,1,72,2|0,3:2|0:0,0:0:0:0:
70,291,41284,2,0,P|35:298|0:304,1,72,2|0,3:2|0:0,0:0:0:0:
147,169,41618,5,2,3:2:0:0:
174,173,41784,1,2,0:0:0:0:
202,178,41951,1,2,3:2:0:0:
105,79,42118,5,2,0:0:0:0:
186,91,42284,1,2,3:2:0:0:
270,106,42451,1,2,0:0:0:0:
147,169,42618,5,2,3:2:0:0:
309,28,42784,1,0,0:0:0:0:
351,239,42951,6,0,P|403:228|457:219,1,108,2|0,3:2|0:0,0:0:0:0:
426,143,43284,2,0,P|390:150|355:156,1,72,2|0,3:2|0:0,0:0:0:0:
186,91,43618,5,2,3:2:0:0:
351,239,43784,1,8,0:0:0:0:
309,28,43951,1,8,0:3:0:0:
196,242,44118,1,4,0:3:0:0:
44,66,44284,6,0,P|114:80|185:90,2,144,6|0|0,3:2|3:0|3:0,0:0:0:0:
0,146,45118,1,0,0:0:0:0:
0,146,45284,2,0,P|7:181|13:216,1,72,2|0,3:2|0:0,0:0:0:0:
76,331,45618,5,0,3:0:0:0:
76,331,45951,2,0,P|111:324|146:319,1,72,2|0,3:2|0:0,0:0:0:0:
196,242,46284,2,0,P|231:249|266:254,1,72,2|0,3:2|0:0,0:0:0:0:
340,306,46618,2,0,P|332:341|327:376,1,72,2|0,3:2|0:0,0:0:0:0:
479,207,46951,6,0,P|464:136|454:65,1,144,2|2,3:2|3:2,0:0:0:0:
379,15,47451,1,0,0:0:0:0:
379,15,47618,2,0,P|344:22|309:27,1,72,2|0,3:2|0:0,0:0:0:0:
203,138,47951,6,0,P|247:167|300:163,1,108,2|0,3:2|0:0,0:0:0:0:
369,115,48284,2,0,P|376:150|382:185,1,72,0|0,3:2|0:0,0:0:0:0:
340,306,48618,5,2,3:2:0:0:
196,242,48784,1,8,0:0:0:0:
250,316,48951,5,2,3:2:0:0:
142,168,49118,1,8,0:3:0:0:
105,252,49284,5,4,0:3:0:0:
191,53,49451,1,8,0:0:0:0:
12,125,49618,6,0,P|65:133|118:145,1,108,6|0,3:2|0:0,0:0:0:0:
142,168,49951,1,0,3:0:0:0:
313,86,50118,2,0,P|244:97|190:52,1,144,2|0,0:0|0:0,0:0:0:0:
359,9,50618,1,0,3:0:0:0:
290,178,50784,1,0,0:0:0:0:
450,118,50951,6,0,P|396:109|343:97,1,108,6|0,3:2|0:0,0:0:0:0:
313,86,51284,1,2,3:2:0:0:
252,299,51451,2,0,P|305:254|374:265,1,144,2|0,0:0|3:0,0:0:0:0:
471,228,51951,1,10,0:2:0:0:
353,358,52118,1,0,0:0:0:0:
290,178,52284,6,0,P|249:171|210:163,1,80.9999975280763,6|0,3:2|0:0,0:0:0:0:
252,299,52618,1,8,0:0:0:0:
93,261,52784,2,0,P|132:252|172:246,1,80.9999975280763,2|0,0:0|3:0,0:0:0:0:
108,110,53118,1,0,3:0:0:0:
17,330,53284,2,0,P|10:289|2:250,1,80.9999975280763,10|0,0:0|0:0,0:0:0:0:
41,76,53618,6,0,P|101:66|160:53,1,121.499996292114,4|0,3:2|0:0,0:0:0:0:
195,43,53951,1,10,0:0:0:0:
290,178,54118,1,8,0:0:0:0:
326,42,54284,1,2,3:2:0:0:
167,193,54451,1,8,0:3:0:0:
374,265,54618,2,0,P|377:245|380:224,1,40.4999987640381,10|0,0:0|0:0,0:0:0:0:
284,137,54784,2,0,P|287:156|290:176,1,40.4999987640381,8|0,0:3|0:0,0:0:0:0:
242,267,54951,5,6,3:2:0:0:
443,147,55118,1,0,3:0:0:0:
326,42,55284,1,4,0:3:0:0:
467,249,55451,1,14,0:0:0:0:
467,249,55784,1,0,3:0:0:0:
289,177,55951,5,14,0:0:0:0:
428,53,56118,1,0,3:0:0:0:
374,265,56284,1,4,0:3:0:0:
167,193,56451,1,14,0:0:0:0:
167,193,56784,1,0,3:0:0:0:
256,357,56951,6,0,P|297:362|336:370,1,80.9999975280763,10|0,0:0|3:0,0:0:0:0:
167,193,57284,2,0,P|127:201|87:205,1,80.9999975280763,10|0,0:0|3:0,0:0:0:0:
275,45,57618,6,0,P|334:57|394:66,1,121.499996292114,6|0,3:2|0:0,0:0:0:0:
428,53,57951,1,10,0:0:0:0:
487,239,58118,2,0,P|427:189|351:206,1,161.999995056153,2|2,3:2|3:2,0:0:0:0:
256,357,58618,1,8,0:0:0:0:
191,249,58784,1,2,3:2:0:0:
191,249,58868,1,2,0:0:0:0:
191,249,58951,6,0,P|230:256|270:262,2,80.9999975280763,2|2|10,0:0|3:2|0:0,0:0:0:0:
351,206,59451,1,0,0:0:0:0:
256,357,59618,2,0,P|216:349|176:343,1,80.9999975280763,2|0,3:2|3:0,0:0:0:0:
25,239,59951,2,0,P|66:197|125:201,1,121.499996292114,10|0,0:0|0:0,0:0:0:0:
191,249,60284,6,0,P|204:189|213:129,1,121.499996292114,6|0,3:2|0:0,0:0:0:0:
209,92,60618,1,10,0:0:0:0:
322,280,60784,2,0,P|361:272|401:266,1,80.9999975280763,2|0,3:2|0:0,0:0:0:0:
456,144,61118,2,0,P|415:138|376:131,1,80.9999975280763,2|8,3:2|0:0,0:0:0:0:
253,199,61451,1,2,3:2:0:0:
160,10,61618,6,0,P|220:60|296:43,1,161.999995056153,2|8,0:0|0:0,0:0:0:0:
84,154,62118,2,0,P|124:147|163:140,1,80.9999975280763,2|2,0:0|3:2,0:0:0:0:
22,62,62451,1,0,3:0:0:0:
71,270,62618,2,0,P|130:257|190:248,1,121.499996292114,10|0,0:0|0:0,0:0:0:0:
253,199,62951,6,0,P|292:207|332:211,1,80.9999975280763,6|0,3:2|0:0,0:0:0:0:
453,316,63284,2,0,P|412:320|373:328,1,80.9999975280763,8|0,0:0|0:0,0:0:0:0:
345,123,63618,5,2,3:2:0:0:
509,233,63784,1,0,3:0:0:0:
278,298,63951,1,8,0:0:0:0:
456,145,64117,1,0,3:0:0:0:
268,32,64284,5,14,0:0:0:0:
367,219,64451,1,0,3:0:0:0:
423,0,64618,1,8,0:0:0:0:
196,134,64784,1,0,3:0:0:0:
413,252,64951,5,10,0:0:0:0:
392,232,65034,1,0,3:0:0:0:
367,219,65117,1,0,3:0:0:0:
338,213,65201,1,0,3:0:0:0:
310,215,65284,1,8,0:0:0:0:
282,225,65368,1,8,0:0:0:0:
260,241,65451,1,0,3:0:0:0:
242,265,65535,1,0,3:0:0:0:
231,291,65618,6,0,P|222:230|208:171,1,121.499996292114,6|0,3:2|0:0,0:0:0:0:
196,134,65951,1,8,0:0:0:0:
318,319,66118,2,0,P|237:331|158:347,1,161.999995056153,2|0,3:2|3:0,0:0:0:0:
82,193,66618,5,10,0:0:0:0:
231,291,66784,1,0,3:0:0:0:
306,120,66951,1,0,3:0:0:0:
235,312,67118,1,2,3:2:0:0:
196,134,67284,2,0,P|185:94|174:55,1,80.9999975280763,12|0,0:0|0:0,0:0:0:0:
82,193,67618,5,10,0:0:0:0:
270,30,67784,1,0,3:0:0:0:
155,20,67951,5,8,0:0:0:0:
294,217,68118,1,0,3:0:0:0:
426,15,68284,6,0,P|366:28|306:37,1,121.499996292114,6|0,3:2|0:0,0:0:0:0:
270,30,68618,1,10,0:0:0:0:
463,126,68784,2,0,P|513:186|495:262,1,161.999995056153,2|2,3:2|3:2,0:0:0:0:
323,337,69284,1,8,0:0:0:0:
388,202,69451,1,2,3:2:0:0:
388,202,69534,1,2,0:0:0:0:
388,202,69618,6,0,P|395:242|402:281,2,80.9999975280763,2|2|8,0:0|3:2|0:0,0:0:0:0:
463,126,70118,1,0,3:0:0:0:
306,36,70284,2,0,P|345:43|385:49,1,80.9999975280763,2|0,0:0|3:0,0:0:0:0:
259,143,70618,2,0,P|200:147|159:104,1,121.499996292114,10|0,0:0|0:0,0:0:0:0:
105,37,70951,6,0,P|121:116|132:196,1,161.999995056153,6|8,3:2|0:0,0:0:0:0:
48,307,71451,1,2,0:0:0:0:
231,231,71618,1,2,3:2:0:0:
45,157,71784,1,2,3:2:0:0:
150,340,71951,2,0,P|169:336|189:332,1,40.4999987640381,10|0,0:0|0:0,0:0:0:0:
271,223,72118,2,0,P|251:227|231:231,1,40.4999987640381,2|0,3:2|0:0,0:0:0:0:
308,364,72284,6,0,P|368:314|444:331,1,161.999995056153,6|8,0:0|0:0,0:0:0:0:
512,220,72784,1,2,3:2:0:0:
379,162,72951,2,0,P|383:181|387:201,1,40.4999987640381,2|0,3:2|0:0,0:0:0:0:
487,99,73118,1,10,0:0:0:0:
489,70,73201,1,0,3:0:0:0:
482,43,73284,1,8,0:3:0:0:
465,18,73368,1,8,0:3:0:0:
442,5,73451,1,4,0:3:0:0:
415,0,73534,1,4,0:3:0:0:
387,4,73618,6,0,P|344:12|298:19,1,90,14|0,0:0|0:0,0:0:0:0:
153,8,73951,1,0,3:0:0:0:
296,138,74118,1,12,0:0:0:0:
132,196,74284,5,2,3:2:0:0:
298,18,74451,1,0,3:0:0:0:
83,92,74618,1,12,0:0:0:0:
264,251,74784,1,0,0:0:0:0:
21,256,74951,5,10,0:0:0:0:
203,87,75118,1,0,3:0:0:0:
193,360,75284,1,12,0:0:0:0:
375,191,75451,1,0,0:0:0:0:
132,196,75618,5,10,3:2:0:0:
90,175,75701,1,8,0:0:0:0:
63,139,75784,1,8,0:0:0:0:
55,97,75868,1,8,0:0:0:0:
66,58,75951,1,8,0:3:0:0:
90,29,76034,1,8,0:3:0:0:
123,14,76118,1,4,0:3:0:0:
156,11,76202,1,4,0:3:0:0:
186,15,76284,6,0,P|205:112|220:209,1,198.000006042481,6|8,3:2|0:0,0:0:0:0:
377,104,76784,1,2,0:0:0:0:
350,279,76951,1,0,3:0:0:0:
244,108,77118,1,0,3:0:0:0:
415,200,77284,2,0,P|463:188|510:175,1,99.0000030212403,10|0,0:0|3:0,0:0:0:0:
402,380,77618,6,0,P|338:309|244:323,1,198.000006042481,2|10,0:0|0:0,0:0:0:0:
138,365,78118,1,0,3:0:0:0:
138,365,78201,1,0,3:0:0:0:
138,365,78284,1,2,3:2:0:0:
350,279,78451,1,0,3:0:0:0:
244,322,78618,2,0,P|236:273|226:224,1,99.0000030212403,10|0,0:0|0:0,0:0:0:0:
296,7,78951,6,0,P|233:78|139:65,1,198.000006042481,2|8,3:2|0:0,0:0:0:0:
18,153,79451,2,0,P|66:164|113:178,1,99.0000030212403,2|0,0:0|3:0,0:0:0:0:
226,224,79784,1,0,3:0:0:0:
234,40,79951,2,0,P|186:54|138:65,1,99.0000030212403,10|0,0:0|3:0,0:0:0:0:
166,289,80284,6,0,P|237:268|309:250,1,148.50000453186,2|0,0:0|0:0,0:0:0:0:
352,251,80618,1,10,0:0:0:0:
426,32,80784,1,0,3:0:0:0:
230,132,80951,1,2,3:2:0:0:
455,178,81118,1,0,3:0:0:0:
296,7,81284,1,10,0:0:0:0:
237,268,81451,1,0,3:0:0:0:
237,268,81534,1,0,3:0:0:0:
237,268,81618,6,0,P|142:239|45:216,1,198.000006042481,6|8,3:2|0:0,0:0:0:0:
230,132,82118,1,2,0:0:0:0:
117,315,82284,1,0,3:0:0:0:
113,104,82451,1,0,3:0:0:0:
237,268,82618,2,0,P|284:254|332:242,1,99.0000030212403,8|0,0:0|3:0,0:0:0:0:
508,215,82951,6,0,P|494:262|482:310,1,99.0000030212403,2|0,0:0|3:0,0:0:0:0:
425,66,83284,1,8,0:0:0:0:
332,242,83451,1,2,3:2:0:0:
332,242,83534,1,0,3:0:0:0:
332,242,83618,2,0,P|320:193|305:146,1,99.0000030212403,0|0,3:0|3:0,0:0:0:0:
226,27,83951,2,0,P|153:22|101:72,1,148.50000453186,10|0,0:0|0:0,0:0:0:0:
0,92,84284,6,0,P|97:111|194:126,1,198.000006042481,2|8,3:2|0:0,0:0:0:0:
166,315,84784,1,2,3:2:0:0:
166,315,84868,1,0,3:0:0:0:
166,315,84950,2,0,P|117:305|68:297,1,99.0000030212403,0|0,3:0|3:0,0:0:0:0:
0,187,85284,2,0,P|48:197|97:205,1,99.0000030212403,10|0,0:0|3:0,0:0:0:0:
306,146,85618,5,2,0:0:0:0:
166,315,85784,1,0,3:0:0:0:
182,99,85951,1,10,0:0:0:0:
315,297,86118,1,0,3:0:0:0:
97,205,86284,5,2,3:2:0:0:
285,16,86451,1,0,3:0:0:0:
213,221,86618,1,8,0:0:0:0:
91,4,86784,1,0,3:0:0:0:
306,146,86951,6,0,P|353:132|401:120,1,99.0000030212403,6|0,3:2|0:0,0:0:0:0:
451,0,87284,1,8,0:0:0:0:
236,79,87451,2,0,P|214:171|279:240,1,198.000006042481,2|2,0:0|3:2,0:0:0:0:
445,286,87951,1,8,0:0:0:0:
401,120,88118,1,2,3:2:0:0:
401,120,88201,1,0,3:0:0:0:
401,120,88284,6,0,P|386:167|375:215,1,99.0000030212403,2|0,3:2|3:0,0:0:0:0:
197,320,88618,2,0,P|185:271|171:224,1,99.0000030212403,10|0,0:0|0:0,0:0:0:0:
279,240,88951,1,2,3:2:0:0:
107,366,89118,1,0,3:0:0:0:
107,366,89201,1,0,3:0:0:0:
107,366,89284,2,0,P|89:293|67:222,1,148.50000453186,10|0,0:0|0:0,0:0:0:0:
0,163,89618,6,0,P|94:176|157:105,1,198.000006042481,2|8,3:2|0:0,0:0:0:0:
264,147,90118,1,2,0:0:0:0:
90,13,90284,1,0,3:0:0:0:
171,224,90451,1,2,3:2:0:0:
276,24,90618,1,8,0:0:0:0:
357,235,90784,1,2,3:2:0:0:
357,235,90868,1,0,3:0:0:0:
357,235,90951,6,0,P|405:225|454:217,1,99.0000030212403,2|0,3:2|0:0,0:0:0:0:
464,6,91284,2,0,P|390:19|317:30,1,148.50000453186,10|0,0:0|0:0,0:0:0:0:
276,24,91618,1,2,3:2:0:0:
480,136,91784,1,0,3:0:0:0:
264,229,91951,1,10,0:0:0:0:
396,57,92118,1,0,3:0:0:0:
247,252,92284,6,0,P|239:203|229:154,1,99.0000030212403,6|0,3:2|0:0,0:0:0:0:
339,311,92618,1,8,0:0:0:0:
298,74,92784,2,0,P|346:66|395:56,1,99.0000030212403,2|0,0:0|3:0,0:0:0:0:
247,252,93118,2,0,P|198:242|149:234,1,99.0000030212403,2|8,3:2|0:0,0:0:0:0:
138,27,93451,1,2,3:2:0:0:
138,27,93534,1,0,3:0:0:0:
138,27,93618,6,0,P|130:75|120:124,1,99.0000030212403,0|0,3:0|3:0,0:0:0:0:
25,279,93951,2,0,P|78:229|150:234,1,148.50000453186,10|0,0:0|0:0,0:0:0:0:
182,261,94284,1,2,3:2:0:0:
298,74,94451,1,0,3:0:0:0:
200,289,94618,1,8,0:0:0:0:
23,148,94784,1,0,3:0:0:0:
133,366,94951,6,0,P|181:373|230:384,1,99.0000030212403,2|0,3:2|0:0,0:0:0:0:
395,241,95284,1,8,0:0:0:0:
267,193,95451,2,0,P|282:244|292:288,1,99.0000030212403,2|0,0:2|3:0,0:0:0:0:
385,354,95784,1,2,3:2:0:0:
503,175,95951,1,8,0:0:0:0:
324,57,96118,1,2,3:2:0:0:
324,57,96201,1,0,3:0:0:0:
324,57,96284,5,8,0:0:0:0:
395,241,96451,1,0,3:0:0:0:
180,143,96618,1,10,0:0:0:0:
437,74,96784,1,0,3:0:0:0:
292,288,96951,5,10,0:0:0:0:
132,129,97118,1,0,3:0:0:0:
132,129,97201,1,0,3:0:0:0:
132,129,97285,2,0,P|155:136|179:142,1,49.5000015106202,10|0,0:0|0:0,0:0:0:0:
324,57,97451,2,0,P|328:32|331:7,1,49.5000015106202,8|0,0:0|0:0,0:0:0:0:
258,190,97618,6,0,P|297:182|337:176,2,80.9999975280763,6|0|0,3:2|3:0|3:0,0:0:0:0:
179,142,98118,2,0,P|119:192|43:175,1,161.999995056153,14|2,0:0|0:0,0:0:0:0:
20,85,98618,2,0,P|14:44|6:5,1,80.9999975280763,2|2,0:0|0:0,0:0:0:0:
42,174,98951,5,8,0:0:0:0:
47,196,99117,1,8,0:3:0:0:
53,219,99284,1,4,0:3:0:0:
118,280,99451,5,12,0:0:0:0:
133,189,99617,1,2,0:0:0:0:
148,98,99784,1,0,0:0:0:0:
118,280,99951,6,0,P|157:286|197:294,1,80.9999975280763,2|0,0:0|0:0,0:0:0:0:
358,84,100284,5,6,3:2:0:0:
301,150,100450,1,2,0:0:0:0:
214,156,100617,1,8,0:0:0:0:
148,98,100784,1,6,3:2:0:0:
230,145,100951,5,2,0:0:0:0:
251,174,101118,1,0,0:0:0:0:
254,209,101284,1,2,0:0:0:0:
239,240,101451,1,8,0:0:0:0:
210,259,101618,5,6,3:2:0:0:
270,328,101784,1,10,0:0:0:0:
339,268,101951,1,8,0:3:0:0:
399,337,102118,1,4,0:3:0:0:
468,277,102284,5,2,0:0:0:0:
279,199,102451,1,4,0:3:0:0:
412,143,102618,1,2,0:0:0:0:
270,328,102784,1,2,0:0:0:0:
195,116,102951,6,0,P|278:96|351:74,1,161.999995056153,6|8,3:2|0:0,0:0:0:0:
210,259,103451,2,0,P|150:209|74:226,1,161.999995056153,2|0,3:2|0:0,0:0:0:0:
8,293,103951,1,2,0:0:0:0:
8,293,104118,1,2,0:0:0:0:
59,146,104284,6,0,P|66:185|73:225,1,80.9999975280763,2|2,3:2|0:0,0:0:0:0:
210,259,104618,1,8,0:0:0:0:
82,361,104784,1,2,3:2:0:0:
82,361,104950,2,0,P|120:349|160:340,1,80.9999975280763,0|2,0:0|0:0,0:0:0:0:
210,259,105284,2,0,P|248:270|288:279,1,80.9999975280763,0|2,0:0|0:0,0:0:0:0:
476,327,105618,5,4,3:2:0:0:
388,343,105784,1,2,0:0:0:0:
319,287,105951,1,10,0:0:0:0:
319,196,106118,1,2,3:2:0:0:
385,138,106284,5,0,0:0:0:0:
411,114,106451,1,0,0:0:0:0:
421,80,106618,1,2,0:0:0:0:
412,45,106784,1,0,0:0:0:0:
200,26,106951,5,2,3:2:0:0:
142,94,107118,1,2,0:0:0:0:
156,181,107284,1,8,0:0:0:0:
234,227,107451,1,2,3:2:0:0:
319,196,107618,5,0,0:0:0:0:
354,188,107784,1,2,3:2:0:0:
384,207,107951,2,0,P|379:247|376:287,1,80.9999975280763,8|4,0:3|0:3,0:0:0:0:
412,45,108284,6,0,P|334:68|255:86,1,161.999995056153,4|4,3:2|0:3,0:0:0:0:
113,92,108784,2,0,P|255:86|232:226,1,323.999990112305,12|2,0:0|0:0,0:0:0:0:
203,244,109534,1,2,0:0:0:0:
203,244,109618,1,2,0:0:0:0:
277,315,109951,5,0,0:0:0:0:
95,267,110118,2,0,P|186:289|277:315,1,188.999994232178,2|0,0:0|0:0,0:0:0:0:
277,315,110951,6,0,P|290:250|300:182,1,135,6|0,3:2|0:0,0:0:0:0:
292,101,111284,2,0,P|337:109|381:116,1,90,8|2,0:0|0:0,0:0:0:0:
504,310,111618,2,0,P|481:306|459:303,1,45,10|0,0:0|0:0,0:0:0:0:
338,254,111784,2,0,P|360:251|382:247,1,45,2|0,3:2|0:0,0:0:0:0:
483,119,111951,2,0,P|474:163|467:207,1,90,10|0,0:0|0:0,0:0:0:0:
333,367,112284,6,0,P|266:353|200:343,1,135,8|0,0:0|0:0,0:0:0:0:
123,314,112618,2,0,P|116:269|107:225,1,90,10|0,0:0|0:0,0:0:0:0:
239,52,112951,1,10,0:0:0:0:
211,248,113118,1,0,3:0:0:0:
89,70,113284,1,10,0:0:0:0:
299,182,113451,1,0,3:0:0:0:
46,199,113618,6,0,P|112:209|178:222,1,135,10|0,0:0|0:0,0:0:0:0:
211,248,113951,1,8,0:0:0:0:
316,93,114118,2,0,P|308:137|299:181,1,90,2|8,0:0|0:0,0:0:0:0:
419,218,114451,1,0,3:0:0:0:
227,336,114618,2,0,P|219:291|210:247,1,90,10|0,0:0|0:0,0:0:0:0:
89,70,114951,6,0,P|139:112|203:101,1,135,8|0,0:0|0:0,0:0:0:0:
285,92,115284,2,0,P|293:136|299:180,1,90,10|0,0:0|0:0,0:0:0:0:
391,0,115618,2,0,P|397:44|405:88,1,90,10|0,0:0|3:0,0:0:0:0:
512,285,115951,2,0,P|445:271|379:260,1,135,10|0,0:0|0:0,0:0:0:0:
340,264,116284,5,14,0:0:0:0:
501,156,116451,1,2,0:0:0:0:
405,89,116618,5,10,0:0:0:0:
416,352,116784,1,2,0:0:0:0:
512,285,116952,5,10,0:0:0:0:
305,141,117118,1,2,3:2:0:0:
220,381,117284,2,0,P|133:355|46:334,1,180,10|8,0:0|0:0,0:0:0:0:
214,240,117784,5,2,3:2:0:0:
8,114,117951,1,10,0:0:0:0:
221,0,118118,1,2,0:0:0:0:
148,119,118284,5,10,0:0:0:0:
340,264,118451,1,2,3:2:0:0:
84,384,118618,2,0,P|73:317|60:251,1,135,10|0,0:0|0:0,0:0:0:0:
14,186,118951,6,0,P|78:196|128:154,1,135,6|0,3:2|0:0,0:0:0:0:
148,119,119284,1,8,0:0:0:0:
251,281,119451,2,0,P|295:271|339:264,1,90,2|8,0:0|0:0,0:0:0:0:
280,47,119784,1,0,3:0:0:0:
432,159,119951,2,0,P|387:151|343:141,1,90,10|0,0:0|0:0,0:0:0:0:
148,119,120284,5,4,3:2:0:0:
251,281,120451,1,0,3:0:0:0:
432,159,120618,2,0,P|422:203|415:247,1,90,0|0,3:0|3:0,0:0:0:0:
280,47,120951,6,0,P|284:68|287:91,1,45,8|0,0:0|0:0,0:0:0:0:
199,198,121118,1,8,0:0:0:0:
161,217,121202,1,8,0:0:0:0:
120,217,121285,1,8,0:0:0:0:
85,194,121369,1,8,0:0:0:0:
63,159,121452,1,8,0:0:0:0:
208,26,121618,6,0,P|274:16|340:3,1,135,6|0,3:2|0:0,0:0:0:0:
403,56,121951,2,0,P|447:64|491:70,1,90,8|2,0:0|0:0,0:0:0:0:
348,217,122284,2,0,P|325:212|303:209,1,45,10|0,0:0|0:0,0:0:0:0:
432,159,122451,2,0,P|454:163|476:166,1,45,2|0,3:2|0:0,0:0:0:0:
450,326,122618,2,0,P|406:318|362:312,1,90,10|0,0:0|0:0,0:0:0:0:
276,119,122951,6,0,P|209:134|143:145,1,135,8|0,0:0|0:0,0:0:0:0:
63,159,123284,2,0,P|73:203|80:247,1,90,10|0,0:0|0:0,0:0:0:0:
201,377,123618,1,10,0:0:0:0:
0,297,123784,1,0,3:0:0:0:
199,209,123951,1,10,0:0:0:0:
62,384,124118,1,0,3:0:0:0:
143,144,124284,6,0,P|209:158|275:168,1,135,10|0,0:0|0:0,0:0:0:0:
316,156,124618,1,8,0:0:0:0:
438,17,124784,2,0,P|430:61|424:105,1,90,2|8,0:0|0:0,0:0:0:0:
242,54,125118,1,0,3:0:0:0:
331,245,125284,2,0,P|324:200|316:156,1,90,10|0,0:0|0:0,0:0:0:0:
84,240,125618,6,0,P|148:250|198:208,1,135,8|0,0:0|0:0,0:0:0:0:
254,266,125951,2,0,P|245:310|239:354,1,90,10|0,0:0|0:0,0:0:0:0:
84,240,126284,2,0,P|92:195|98:151,1,90,10|0,0:0|3:0,0:0:0:0:
242,54,126618,2,0,P|175:43|109:28,1,135,10|0,0:0|0:0,0:0:0:0:
71,19,126951,5,14,0:0:0:0:
198,207,127118,1,2,0:0:0:0:
316,156,127284,5,10,0:0:0:0:
102,319,127451,1,2,0:0:0:0:
238,354,127618,5,10,0:0:0:0:
11,201,127784,1,2,3:2:0:0:
242,54,127951,2,0,P|323:78|415:100,1,180,10|8,0:0|0:0,0:0:0:0:
198,207,128451,5,2,3:2:0:0:
352,10,128618,1,10,0:0:0:0:
446,242,128784,1,2,0:0:0:0:
316,156,128951,5,10,0:0:0:0:
210,374,129118,1,2,3:2:0:0:
316,156,129284,2,0,P|251:165|202:122,1,135,10|0,0:0|0:0,0:0:0:0:
139,173,129618,6,0,P|152:106|162:40,1,135,10|0,0:0|0:0,0:0:0:0:
156,0,129951,1,8,0:0:0:0:
332,67,130118,2,0,P|325:111|316:155,1,90,2|8,0:0|0:0,0:0:0:0:
231,272,130451,1,0,3:0:0:0:
414,175,130618,2,0,P|420:130|429:86,1,90,10|0,0:0|0:0,0:0:0:0:
456,310,130951,5,12,0:0:0:0:
316,155,131118,1,0,3:0:0:0:
271,375,131284,2,0,P|315:365|359:359,1,90,10|0,0:0|0:0,0:0:0:0:
316,155,131618,6,0,P|293:160|271:163,1,45,8|0,0:0|0:0,0:0:0:0:
168,232,131784,1,8,0:0:0:0:
128,247,131868,1,8,0:0:0:0:
87,244,131951,1,8,0:3:0:0:
54,218,132035,1,8,0:3:0:0:
35,181,132118,2,0,P|40:158|43:136,1,45,4|4,0:3|0:3,0:0:0:0:
64,21,132284,5,6,3:2:0:0:
116,88,132451,1,2,0:0:0:0:
195,56,132618,1,10,0:0:0:0:
247,123,132785,1,2,3:2:0:0:
378,158,132951,5,0,3:0:0:0:
326,91,133118,1,8,0:0:0:0:
326,225,133284,5,8,0:0:0:0:
378,24,133451,1,4,0:3:0:0:
326,225,133618,6,0,P|255:210|184:200,1,144,6|8,3:2|0:0,0:0:0:0:
113,146,134118,1,2,0:0:0:0:
113,146,134285,2,0,P|77:153|42:159,1,72,0|0,3:0|0:0,0:0:0:0:
0,238,134618,2,0,P|8:273|13:308,1,72,10|0,0:0|0:0,0:0:0:0:
88,384,134951,5,0,3:0:0:0:
88,384,135284,2,0,P|123:376|158:371,1,72,10|0,0:0|0:0,0:0:0:0:
248,357,135618,2,0,P|256:321|262:286,1,72,2|0,3:2|0:0,0:0:0:0:
326,225,135951,2,0,P|361:231|396:236,1,72,10|0,0:0|0:0,0:0:0:0:
485,79,136284,6,0,P|431:123|362:112,1,144,2|10,3:2|0:0,0:0:0:0:
283,70,136784,1,0,0:0:0:0:
283,70,136951,2,0,P|276:35|270:0,1,72,2|0,3:2|0:0,0:0:0:0:
190,240,137284,6,0,P|179:168|164:98,1,144,10|0,0:0|3:0,0:0:0:0:
104,33,137784,1,0,0:0:0:0:
104,33,137951,2,0,P|69:41|34:46,1,72,10|0,0:0|0:0,0:0:0:0:
269,0,138284,5,2,3:2:0:0:
147,178,138451,1,8,0:0:0:0:
377,199,138618,1,8,0:3:0:0:
255,377,138784,1,4,0:3:0:0:
335,339,138951,6,0,P|265:325|194:315,1,144,6|10,3:2|0:0,0:0:0:0:
136,249,139451,1,0,0:0:0:0:
136,249,139618,2,0,P|142:215|146:177,1,72,0|0,3:2|0:0,0:0:0:0:
192,38,139951,6,0,P|261:27|314:72,1,144,10|0,0:0|3:0,0:0:0:0:
333,160,140451,1,0,0:0:0:0:
333,160,140617,2,0,P|368:153|403:146,1,72,10|0,0:0|0:3,0:0:0:0:
512,241,140950,2,0,P|477:235|442:228,1,72,0|0,3:2|0:0,0:0:0:0:
360,330,141284,2,0,P|395:322|430:316,1,72,10|0,0:0|0:0,0:0:0:0:
333,160,141618,5,2,3:2:0:0:
313,178,141784,1,2,0:0:0:0:
285,176,141951,1,10,0:0:0:0:
136,249,142118,5,2,0:0:0:0:
220,253,142284,1,2,3:2:0:0:
274,320,142451,1,2,0:0:0:0:
285,176,142618,5,10,0:0:0:0:
207,374,142784,1,0,0:0:0:0:
36,247,142951,6,0,P|27:193|15:140,1,108,2|0,3:2|0:0,0:0:0:0:
0,65,143284,2,0,P|39:58|70:51,1,72,10|0,0:0|0:0,0:0:0:0:
36,247,143618,5,2,3:2:0:0:
240,126,143784,1,8,0:3:0:0:
70,51,143951,1,10,0:0:0:0:
220,253,144118,1,6,0:3:0:0:
382,101,144284,6,0,P|312:115|241:125,2,144,6|8|0,3:2|0:0|3:0,0:0:0:0:
465,145,145118,1,0,0:0:0:0:
465,145,145284,2,0,P|457:180|451:215,1,72,10|0,0:0|0:0,0:0:0:0:
502,348,145618,5,0,3:0:0:0:
502,348,145951,2,0,P|466:353|431:360,1,72,10|0,0:0|0:0,0:0:0:0:
388,281,146284,2,0,P|352:275|317:268,1,72,2|0,3:2|0:0,0:0:0:0:
234,304,146618,2,0,P|226:339|221:374,1,72,10|0,0:0|0:0,0:0:0:0:
57,252,146951,6,0,P|72:181|82:110,1,144,2|10,3:2|0:0,0:0:0:0:
167,81,147451,1,0,0:0:0:0:
167,81,147618,2,0,P|161:45|154:10,1,72,2|0,3:2|0:0,0:0:0:0:
345,104,147951,6,0,P|293:116|240:125,1,108,10|0,0:0|0:0,0:0:0:0:
273,201,148284,2,0,P|308:194|343:188,1,72,0|0,3:0|0:0,0:0:0:0:
284,35,148618,5,10,0:0:0:0:
173,187,148784,1,0,3:0:0:0:
81,110,148951,5,2,3:2:0:0:
273,201,149118,1,8,0:3:0:0:
345,104,149284,5,4,0:3:0:0:
210,280,149451,1,8,0:0:0:0:
81,110,149618,6,0,P|92:162|101:216,1,108,6|0,3:2|0:0,0:0:0:0:
100,250,149951,1,8,0:0:0:0:
246,374,150118,2,0,P|176:360|105:350,1,144,2|0,0:0|0:0,0:0:0:0:
10,266,150618,1,8,0:0:0:0:
173,187,150784,1,0,0:0:0:0:
19,76,150951,6,0,P|73:67|126:55,1,108,6|0,3:2|0:0,0:0:0:0:
156,44,151284,1,10,0:0:0:0:
220,257,151451,2,0,P|151:268|97:223,1,144,2|0,0:0|3:0,0:0:0:0:
243,140,151951,1,10,0:0:0:0:
334,293,152118,1,4,0:3:0:0:
454,99,152284,6,0,P|445:138|438:178,1,80.9999975280763,6|0,3:2|0:0,0:0:0:0:
443,278,152618,1,8,0:0:0:0:
336,109,152784,2,0,P|344:69|351:29,1,80.9999975280763,2|0,0:0|3:0,0:0:0:0:
452,11,153118,1,0,3:0:0:0:
349,207,153284,2,0,P|309:198|269:191,1,80.9999975280763,10|0,0:0|0:0,0:0:0:0:
196,10,153618,6,0,P|255:23|315:33,1,121.499996292114,4|8,3:2|0:0,0:0:0:0:
351,29,153951,1,10,0:0:0:0:
187,124,154118,1,8,0:0:0:0:
349,207,154284,1,2,3:2:0:0:
196,10,154451,1,8,0:3:0:0:
89,202,154618,2,0,P|110:204|130:207,1,40.4999987640381,10|0,0:0|0:0,0:0:0:0:
227,118,154784,2,0,P|209:121|187:124,1,40.4999987640381,8|0,0:3|0:0,0:0:0:0:
87,83,154951,5,6,3:2:0:0:
241,239,155118,1,0,3:0:0:0:
32,298,155284,1,4,0:3:0:0:
227,118,155451,1,14,0:0:0:0:
227,118,155784,1,0,3:0:0:0:
353,272,155951,5,14,0:0:0:0:
129,206,156118,1,0,3:0:0:0:
333,102,156284,1,4,0:3:0:0:
208,351,156451,1,14,0:0:0:0:
208,351,156784,1,0,3:0:0:0:
436,331,156951,6,0,P|442:291|450:251,1,80.9999975280763,10|0,0:0|0:0,0:0:0:0:
333,102,157284,2,0,P|339:133|347:181,1,80.9999975280763,10|0,0:0|0:0,0:0:0:0:
277,305,157618,6,0,P|217:293|157:283,1,121.499996292114,6|0,3:2|0:0,0:0:0:0:
121,291,157951,1,10,0:0:0:0:
0,146,158118,2,0,P|76:163|136:113,1,161.999995056153,2|2,3:2|3:2,0:0:0:0:
270,215,158618,1,8,0:0:0:0:
230,68,158784,1,2,3:2:0:0:
230,68,158868,1,2,0:0:0:0:
230,68,158951,6,0,P|224:108|216:147,2,80.9999975280763,2|2|8,0:0|3:2|0:0,0:0:0:0:
128,197,159451,1,0,0:0:0:0:
312,138,159618,2,0,P|351:146|391:152,1,80.9999975280763,2|0,3:2|3:0,0:0:0:0:
362,334,159951,2,0,P|302:322|242:312,1,121.499996292114,10|0,0:0|0:0,0:0:0:0:
172,350,160284,6,0,P|131:307|72:310,1,121.499996292114,6|0,3:2|0:0,0:0:0:0:
40,329,160618,1,10,0:0:0:0:
128,197,160784,2,0,P|121:157|112:117,1,80.9999975280763,2|0,3:2|0:0,0:0:0:0:
243,313,161118,2,0,P|235:273|228:233,1,80.9999975280763,2|8,3:2|0:0,0:0:0:0:
314,57,161451,1,2,3:2:0:0:
112,116,161618,6,0,P|193:132|271:144,1,161.999995056153,2|8,0:0|0:0,0:0:0:0:
416,28,162118,2,0,P|409:68|403:108,1,80.9999975280763,2|2,0:0|3:2,0:0:0:0:
465,225,162451,1,0,3:0:0:0:
271,143,162618,2,0,P|282:198|292:263,1,121.499996292114,10|0,0:0|0:0,0:0:0:0:
354,318,162951,6,0,P|393:311|433:302,1,80.9999975280763,6|0,3:2|0:0,0:0:0:0:
209,384,163284,2,0,P|169:375|129:368,1,80.9999975280763,8|0,0:0|0:0,0:0:0:0:
11,192,163618,5,2,3:2:0:0:
191,283,163784,1,0,3:0:0:0:
173,50,163951,1,8,0:0:0:0:
70,280,164118,1,0,3:0:0:0:
271,145,164284,5,14,0:0:0:0:
38,81,164451,1,0,3:0:0:0:
191,283,164618,1,8,0:0:0:0:
393,130,164784,1,0,0:0:0:0:
173,50,164951,5,10,0:0:0:0:
149,62,165034,1,0,3:0:0:0:
129,81,165117,1,0,3:0:0:0:
110,103,165201,1,0,3:0:0:0:
101,130,165284,1,8,0:0:0:0:
100,161,165368,1,8,0:0:0:0:
106,188,165451,1,8,0:3:0:0:
118,215,165535,1,4,0:3:0:0:
139,236,165618,6,0,P|199:226|258:214,1,121.499996292114,6|0,3:2|0:0,0:0:0:0:
288,197,165951,1,8,0:0:0:0:
159,349,166118,2,0,P|79:333|0:320,1,161.999995056153,2|0,3:2|3:0,0:0:0:0:
0,118,166618,5,10,0:0:0:0:
204,144,166784,1,0,3:0:0:0:
91,15,166951,1,0,0:0:0:0:
139,236,167118,1,2,3:2:0:0:
269,52,167284,2,0,P|310:64|347:73,1,80.9999975280763,12|0,0:0|0:0,0:0:0:0:
456,7,167618,5,10,0:0:0:0:
310,183,167784,1,0,3:0:0:0:
347,73,167951,5,10,0:0:0:0:
436,294,168118,1,0,3:0:0:0:
210,223,168284,6,0,P|251:180|310:183,1,121.499996292114,6|0,3:2|0:0,0:0:0:0:
343,200,168618,1,10,0:0:0:0:
238,362,168784,2,0,P|158:346|78:332,1,161.999995056153,2|2,3:2|3:2,0:0:0:0:
148,148,169284,1,8,0:0:0:0:
32,252,169451,1,2,3:2:0:0:
32,252,169534,1,2,0:0:0:0:
32,252,169618,6,0,P|72:246|111:238,2,80.9999975280763,2|2|8,0:0|3:2|0:0,0:0:0:0:
148,148,170118,1,0,3:0:0:0:
173,313,170284,2,0,P|212:305|252:299,1,80.9999975280763,2|0,0:0|3:0,0:0:0:0:
267,125,170618,2,0,P|207:137|147:147,1,121.499996292114,10|0,0:0|0:0,0:0:0:0:
210,40,170951,6,0,P|270:90|346:72,1,161.999995056153,6|8,3:2|0:0,0:0:0:0:
464,5,171451,1,2,0:0:0:0:
379,193,171618,1,0,3:0:0:0:
295,0,171784,1,0,3:0:0:0:
478,101,171951,2,0,P|474:120|470:140,1,40.4999987640381,8|0,0:0|0:0,0:0:0:0:
388,232,172118,2,0,P|383:212|379:192,1,40.4999987640381,0|0,3:2|0:0,0:0:0:0:
267,125,172284,6,0,P|282:201|296:284,1,161.999995056153,6|8,0:0|0:0,0:0:0:0:
435,325,172784,1,2,3:2:0:0:
302,384,172951,2,0,P|282:379|262:375,1,40.4999987640381,2|0,3:2|0:0,0:0:0:0:
208,223,173118,1,10,0:0:0:0:
236,217,173201,1,0,3:0:0:0:
265,212,173284,1,8,0:3:0:0:
293,207,173368,1,8,0:3:0:0:
322,202,173451,1,4,0:3:0:0:
350,197,173535,1,4,0:3:0:0:
379,192,173618,6,0,P|372:155|363:103,1,90,14|0,0:0|0:0,0:0:0:0:
263,0,173951,1,0,3:0:0:0:
129,141,174118,1,12,0:0:0:0:
293,207,174284,5,2,3:2:0:0:
143,22,174451,1,0,3:0:0:0:
364,103,174618,1,12,0:0:0:0:
178,256,174784,1,0,3:0:0:0:
263,0,174951,5,10,0:0:0:0:
396,234,175118,1,0,3:0:0:0:
129,141,175284,1,8,0:0:0:0:
262,375,175451,1,0,3:0:0:0:
333,139,175618,5,10,0:0:0:0:
364,103,175701,1,8,0:0:0:0:
406,87,175784,1,8,0:0:0:0:
449,91,175868,1,8,0:0:0:0:
484,110,175951,1,8,0:3:0:0:
505,142,176034,1,8,0:3:0:0:
511,178,176118,1,4,0:3:0:0:
505,213,176202,1,4,0:3:0:0:
488,241,176284,6,0,P|390:225|293:206,1,198.000006042481,6|8,3:2|0:0,0:0:0:0:
129,141,176784,1,2,0:0:0:0:
173,344,176951,1,0,3:2:0:0:
257,199,177118,1,0,3:0:0:0:
48,247,177284,2,0,P|57:295|64:344,1,99.0000030212403,14|0,0:0|0:0,0:0:0:0:
21,90,177618,6,0,P|115:100|179:30,1,198.000006042481,2|10,0:0|0:0,0:0:0:0:
277,89,178118,1,0,3:0:0:0:
277,89,178201,1,0,3:0:0:0:
277,89,178284,1,2,3:2:0:0:
477,36,178451,1,0,3:0:0:0:
365,16,178618,2,0,P|374:64|381:113,1,99.0000030212403,10|0,0:0|0:0,0:0:0:0:
430,321,178951,6,0,P|501:257|491:162,1,198.000006042481,2|8,3:2|0:0,0:0:0:0:
312,196,179451,2,0,P|359:210|407:221,1,99.0000030212403,2|0,0:0|3:0,0:0:0:0:
277,89,179784,1,0,3:0:0:0:
268,299,179951,2,0,P|219:309|172:323,1,99.0000030212403,10|0,0:0|3:0,0:0:0:0:
94,144,180284,6,0,P|166:126|237:104,1,148.50000453186,2|0,0:2|0:0,0:0:0:0:
277,89,180618,1,10,0:0:0:0:
133,234,180784,1,0,3:0:0:0:
55,54,180951,1,2,3:2:0:0:
242,193,181118,1,0,3:0:0:0:
44,314,181284,1,10,0:0:0:0:
166,82,181451,1,4,0:3:0:0:
166,82,181534,1,0,3:0:0:0:
166,82,181618,6,0,P|263:101|360:116,1,198.000006042481,6|8,3:2|0:0,0:0:0:0:
480,76,182118,1,2,0:0:0:0:
334,209,182284,1,0,0:0:0:0:
512,285,182451,1,0,3:0:0:0:
360,116,182618,2,0,P|312:125|263:132,1,99.0000030212403,8|0,0:0|3:0,0:0:0:0:
132,233,182951,6,0,P|126:184|116:136,1,99.0000030212403,2|0,0:0|3:0,0:0:0:0:
243,292,183284,1,8,0:0:0:0:
39,341,183451,1,2,3:2:0:0:
39,341,183534,1,0,3:0:0:0:
39,341,183618,2,0,P|88:347|136:357,1,99.0000030212403,0|0,3:0|3:0,0:0:0:0:
262,161,183951,2,0,P|188:149|115:135,1,148.50000453186,10|0,0:0|0:0,0:0:0:0:
17,112,184284,6,0,P|80:41|174:54,1,198.000006042481,2|8,3:2|0:0,0:0:0:0:
262,160,184784,1,2,3:2:0:0:
262,160,184868,1,0,3:0:0:0:
262,160,184951,2,0,P|271:209|278:258,1,99.0000030212403,0|0,3:0|0:0,0:0:0:0:
383,97,185284,2,0,P|393:48|400:0,1,99.0000030212403,10|0,0:0|3:0,0:0:0:0:
476,199,185618,5,2,0:0:0:0:
283,62,185784,1,0,3:0:0:0:
345,309,185951,1,10,0:0:0:0:
152,172,186118,1,0,3:0:0:0:
383,97,186284,5,2,3:2:0:0:
193,269,186451,1,0,0:0:0:0:
427,377,186618,1,12,0:0:0:0:
289,161,186784,1,0,3:0:0:0:
113,354,186951,6,0,P|161:365|208:380,1,99.0000030212403,6|0,3:2|0:0,0:0:0:0:
60,200,187284,1,8,0:0:0:0:
289,161,187451,2,0,P|192:180|95:195,1,198.000006042481,2|2,0:0|3:2,0:0:0:0:
193,269,187951,1,8,0:0:0:0:
262,65,188118,1,2,3:2:0:0:
262,65,188201,1,0,3:0:0:0:
262,65,188284,6,0,P|277:112|288:160,1,99.0000030212403,2|0,3:2|0:0,0:0:0:0:
412,263,188618,2,0,P|424:214|438:167,1,99.0000030212403,10|0,0:0|0:0,0:0:0:0:
305,300,188951,1,2,3:2:0:0:
369,69,189118,1,0,3:0:0:0:
369,69,189201,1,0,3:0:0:0:
369,69,189284,2,0,P|439:90|512:108,1,148.50000453186,10|0,0:0|0:0,0:0:0:0:
498,12,189618,6,0,P|425:74|438:168,1,198.000006042481,6|8,3:2|0:0,0:0:0:0:
512,262,190118,1,2,0:0:0:0:
300,195,190284,1,0,3:0:0:0:
512,108,190451,1,2,3:2:0:0:
405,297,190618,1,8,0:0:0:0:
369,69,190784,1,0,3:0:0:0:
369,69,190868,1,0,3:0:0:0:
369,69,190951,6,0,P|321:79|272:85,1,99.0000030212403,6|0,0:0|0:0,0:0:0:0:
94,195,191284,2,0,P|107:121|118:48,1,148.50000453186,10|0,0:0|0:0,0:0:0:0:
118,4,191618,1,2,3:2:0:0:
197,195,191784,1,0,3:0:0:0:
0,101,191951,1,14,0:0:0:0:
79,292,192118,1,0,3:0:0:0:
215,97,192284,6,0,P|205:145|197:194,1,99.0000030212403,6|0,3:2|0:0,0:0:0:0:
117,48,192618,1,8,0:0:0:0:
302,170,192784,2,0,P|350:158|397:144,1,99.0000030212403,2|0,0:0|3:0,0:0:0:0:
174,317,193118,2,0,P|126:302|78:291,1,99.0000030212403,2|8,3:2|0:0,0:0:0:0:
117,48,193451,1,2,3:2:0:0:
117,48,193534,1,0,3:0:0:0:
117,48,193618,6,0,P|109:96|99:145,1,99.0000030212403,0|0,3:0|3:0,0:0:0:0:
174,317,193951,2,0,P|227:267|299:272,1,148.50000453186,10|0,0:0|0:0,0:0:0:0:
333,295,194284,1,2,3:2:0:0:
215,97,194451,1,2,3:2:0:0:
174,317,194618,1,10,0:0:0:0:
350,158,194784,1,2,3:2:0:0:
417,384,194951,6,0,P|464:369|512:358,1,99.0000030212403,2|0,3:2|0:0,0:0:0:0:
333,295,195284,1,8,0:0:0:0:
478,171,195451,2,0,P|463:218|452:266,1,99.0000030212403,2|0,0:0|3:0,0:0:0:0:
426,54,195784,1,2,3:2:0:0:
256,208,195951,1,8,0:0:0:0:
117,48,196118,1,2,3:2:0:0:
117,48,196201,1,0,3:0:0:0:
117,48,196284,5,12,0:0:0:0:
350,158,196451,1,0,3:0:0:0:
174,317,196618,1,14,0:0:0:0:
272,69,196784,1,0,3:0:0:0:
452,266,196951,5,14,0:0:0:0:
208,195,197118,1,0,3:0:0:0:
208,195,197201,1,0,3:0:0:0:
208,195,197284,2,0,P|232:200|255:207,1,49.5000015106202,10|0,0:0|0:0,0:0:0:0:
117,48,197451,2,0,P|93:54|69:59,1,49.5000015106202,8|8,0:0|0:0,0:0:0:0:
272,69,197618,5,14,0:0:0:0:
64,209,197784,1,0,3:0:0:0:
290,341,197951,1,0,3:0:0:0:
139,122,198118,6,0,P|158:214|173:316,1,198.000006042481,14|0,0:0|3:0,0:0:0:0:
303,220,198618,1,8,0:0:0:0:
120,384,198784,1,2,3:2:0:0:
120,384,198868,1,0,3:0:0:0:
120,384,198951,6,0,P|72:369|24:358,1,99.0000030212403,0|0,3:0|3:0,0:0:0:0:
208,195,199284,2,0,P|255:209|303:220,1,99.0000030212403,10|0,0:0|0:0,0:0:0:0:
173,316,199618,1,2,3:2:0:0:
66,134,199784,1,0,3:0:0:0:
303,220,199951,2,0,P|324:149|342:77,1,148.50000453186,10|0,0:0|0:0,0:0:0:0:
303,3,200284,6,0,P|355:52|427:46,1,148.50000453186,2|0,3:2|0:0,0:0:0:0:
466,27,200618,1,8,0:0:0:0:
400,236,200784,2,0,P|351:226|302:219,1,99.0000030212403,2|0,0:0|3:0,0:0:0:0:
452,325,201118,1,0,3:0:0:0:
400,132,201284,2,0,P|449:125|497:115,1,99.0000030212403,10|0,0:0|3:0,0:0:0:0:
267,304,201618,6,0,P|257:230|242:158,1,148.50000453186,2|0,0:0|0:0,0:0:0:0:
230,119,201951,1,10,0:0:0:0:
400,236,202118,1,0,3:0:0:0:
159,240,202284,1,2,3:2:0:0:
342,77,202451,1,0,3:2:0:0:
267,304,202618,1,10,0:0:0:0:
66,166,202784,1,0,3:0:0:0:
66,166,202868,1,0,3:0:0:0:
66,166,202951,6,0,P|135:100|229:118,1,198.000006042481,6|8,3:2|0:0,0:0:0:0:
342,77,203451,1,2,0:0:0:0:
191,11,203618,1,0,3:0:0:0:
295,200,203784,1,0,3:0:0:0:
454,40,203951,2,0,P|445:88|438:137,1,99.0000030212403,8|0,0:0|3:0,0:0:0:0:
397,345,204284,6,0,P|349:330|301:318,1,99.0000030212403,2|0,0:0|3:0,0:0:0:0:
510,276,204618,1,8,0:0:0:0:
342,164,204784,1,2,3:2:0:0:
342,164,204867,1,0,3:0:0:0:
342,164,204951,2,0,P|391:152|438:137,1,99.0000030212403,0|0,3:0|3:0,0:0:0:0:
301,318,205284,2,0,P|228:323|176:273,1,148.50000453186,10|0,0:0|0:0,0:0:0:0:
167,170,205617,6,0,P|148:267|133:364,1,198.000006042481,2|8,3:2|0:0,0:0:0:0:
0,295,206117,1,2,3:2:0:0:
0,295,206201,1,0,3:0:0:0:
0,295,206283,2,0,P|10:246|18:197,1,99.0000030212403,0|0,3:0|3:0,0:0:0:0:
139,63,206617,2,0,P|187:73|236:81,1,99.0000030212403,10|0,0:0|3:0,0:0:0:0:
33,10,206951,5,2,0:0:0:0:
167,170,207117,1,0,3:0:0:0:
0,295,207284,1,10,0:0:0:0:
106,83,207451,1,0,3:0:0:0:
276,254,207617,5,2,3:2:0:0:
18,197,207784,1,0,3:0:0:0:
236,81,207951,1,8,0:0:0:0:
138,335,208118,1,0,3:0:0:0:
387,307,208284,5,6,3:2:0:0:
167,170,208451,1,0,3:0:0:0:
387,307,208618,1,8,0:0:0:0:
344,68,208784,2,0,P|329:115|318:163,1,99.0000030212403,2|0,0:0|3:0,0:0:0:0:
193,265,209118,2,0,P|181:216|166:169,1,99.0000030212403,2|8,3:2|0:0,0:0:0:0:
140,8,209451,1,2,3:2:0:0:
140,8,209534,1,0,3:0:0:0:
140,8,209618,6,0,P|187:23|235:34,1,99.0000030212403,2|0,3:2|0:0,0:0:0:0:
413,137,209951,2,0,P|364:149|317:163,1,99.0000030212403,10|0,0:0|0:0,0:0:0:0:
356,35,210284,1,2,3:2:0:0:
220,228,210451,1,0,3:0:0:0:
220,228,210534,1,0,3:0:0:0:
220,228,210618,2,0,P|292:245|363:267,1,148.50000453186,10|0,0:0|0:0,0:0:0:0:
317,162,210951,6,0,P|221:189|125:212,1,198.000006042481,6|8,3:2|0:0,0:0:0:0:
43,305,211451,1,2,0:0:0:0:
121,100,211617,1,0,3:0:0:0:
205,309,211784,1,2,3:2:0:0:
18,197,211951,1,8,0:0:0:0:
242,138,212118,1,0,3:0:0:0:
242,138,212201,1,0,3:0:0:0:
242,138,212284,6,0,P|233:90|226:41,1,99.0000030212403,2|0,3:2|0:0,0:0:0:0:
4,11,212618,2,0,P|17:83|29:157,1,148.50000453186,10|0,0:0|0:0,0:0:0:0:
18,197,212951,1,2,3:2:0:0:
205,309,213118,1,0,3:0:0:0:
121,100,213284,1,10,0:0:0:0:
308,212,213451,1,0,3:0:0:0:
98,268,213618,5,6,3:2:0:0:
225,40,213784,1,0,3:0:0:0:
98,268,213951,1,8,0:0:0:0:
313,110,214118,2,0,P|360:125|408:136,1,99.0000030212403,2|0,0:0|3:0,0:0:0:0:
281,329,214451,2,0,P|232:340|185:355,1,99.0000030212403,2|8,3:2|0:0,0:0:0:0:
176,144,214784,1,2,3:2:0:0:
176,144,214868,1,0,3:0:0:0:
176,144,214951,6,0,P|190:191|202:239,1,99.0000030212403,0|0,3:0|3:0,0:0:0:0:
394,345,215284,2,0,P|398:272|348:220,1,148.50000453186,10|0,0:0|0:0,0:0:0:0:
308,212,215618,1,2,3:2:0:0:
503,266,215784,1,0,3:0:0:0:
281,329,215951,1,10,0:0:0:0:
408,136,216117,1,0,3:0:0:0:
160,97,216284,6,0,P|208:106|257:113,1,99.0000030212403,6|0,3:2|0:0,0:0:0:0:
308,212,216618,1,8,0:0:0:0:
98,268,216784,2,0,P|86:219|72:172,1,99.0000030212403,2|0,0:0|3:0,0:0:0:0:
186,1,217118,2,0,P|174:49|160:96,1,99.0000030212403,2|8,3:2|0:0,0:0:0:0:
319,27,217451,1,2,3:2:0:0:
319,27,217534,1,0,3:0:0:0:
319,27,217617,5,4,3:2:0:0:
203,240,217784,1,0,3:0:0:0:
75,88,217951,1,14,0:0:0:0:
308,212,218118,1,0,3:0:0:0:
160,352,218284,5,10,0:0:0:0:
257,113,218451,1,0,3:0:0:0:
365,314,218617,1,14,0:0:0:0:
462,75,218784,1,8,0:3:0:0:
490,231,218951,5,6,3:2:0:0:
319,27,219118,1,0,3:0:0:0:
490,231,219285,1,8,0:0:0:0:
249,194,219451,2,0,P|297:182|344:167,1,99.0000030212403,2|0,0:0|3:0,0:0:0:0:
255,378,219784,2,0,P|207:362|159:351,1,99.0000030212403,2|8,3:2|0:0,0:0:0:0:
30,200,220118,1,2,3:2:0:0:
30,200,220201,1,0,3:0:0:0:
30,200,220284,6,0,P|77:215|125:226,1,99.0000030212403,0|0,3:0|3:0,0:0:0:0:
344,167,220618,2,0,P|348:94|298:42,1,148.50000453186,10|0,0:0|0:0,0:0:0:0:
260,28,220951,1,2,3:2:0:0:
53,99,221118,1,0,3:0:0:0:
249,194,221285,1,10,0:0:0:0:
135,0,221451,1,0,3:0:0:0:
125,226,221618,5,2,3:2:0:0:
298,42,221784,1,0,3:0:0:0:
125,226,221951,1,8,0:0:0:0:
370,208,222118,2,0,P|360:256|353:305,1,99.0000030212403,2|0,0:0|3:0,0:0:0:0:
232,96,222451,2,0,P|242:144|249:194,1,99.0000030212403,2|8,3:2|0:0,0:0:0:0:
135,0,222784,1,2,3:2:0:0:
125,226,222951,5,8,0:0:0:0:
125,226,223034,1,0,3:0:0:0:
125,226,223118,1,0,3:0:0:0:
298,42,223284,2,0,P|346:52|396:59,1,99.0000030212403,10|0,0:0|3:0,0:0:0:0:
492,222,223618,5,10,0:0:0:0:
467,199,223701,1,8,0:0:0:0:
435,186,223785,1,0,3:0:0:0:
400,190,223868,1,0,3:0:0:0:
370,208,223951,2,0,P|346:215|322:220,1,49.5000015106202,10|0,0:0|0:0,0:0:0:0:
266,335,224118,2,0,P|242:327|218:322,1,49.5000015106202,8|0,0:0|0:0,0:0:0:0:
125,226,224284,5,14,0:0:0:0:
337,103,224451,1,0,3:0:0:0:
266,335,224618,1,0,3:0:0:0:
73,123,224784,5,14,0:0:0:0:
322,219,224951,1,0,3:0:0:0:
89,355,225118,1,0,3:0:0:0:
395,326,225284,5,14,0:0:0:0:
125,226,225451,1,2,3:2:0:0:
347,43,225618,1,2,3:2:0:0:
266,335,225784,5,14,0:0:0:0:
73,123,225951,1,2,3:2:0:0:
385,138,226118,1,2,3:2:0:0:
385,138,226201,1,0,3:0:0:0:
385,138,226284,5,14,0:0:0:0:
81,239,226451,1,2,3:2:0:0:
395,326,226618,1,2,3:2:0:0:
247,22,226784,5,14,0:0:0:0:
266,335,226951,1,2,3:2:0:0:
480,100,227118,1,2,3:2:0:0:
480,100,227201,1,0,3:0:0:0:
480,100,227284,5,14,0:0:0:0:
169,213,227451,1,2,3:2:0:0:
498,245,227618,1,2,3:2:0:0:
158,74,227784,5,14,0:0:0:0:
395,326,227951,1,2,3:2:0:0:
47,310,228118,1,2,3:2:0:0:
346,89,228284,5,14,0:0:0:0:
149,384,228451,1,2,3:2:0:0:
24,156,228618,5,14,0:0:0:0:
389,221,228784,1,2,3:2:0:0:
125,226,228951,5,10,0:0:0:0:
478,46,229118,1,4,0:3:0:0:
236,7,229284,5,4,0:3:0:0:
504,350,229451,1,6,3:2:0:0:
