osu file format v14

[General]
AudioFilename: audio.mp3
AudioLeadIn: 0
PreviewTime: 173534
Countdown: 0
SampleSet: Soft
StackLeniency: 0.5
Mode: 0
LetterboxInBreaks: 0
EpilepsyWarning: 1
WidescreenStoryboard: 1

[Editor]
Bookmarks: 10951,21618,33618,44284,54951,65618,76284,97618,110951,111284,111618,111951,112284,112618,112951,113284,113618,113951,114284,114618,114951,115284,115618,115951,116284,116618,116951,117284,117618,117951,118284,118618,118951,119284,119618,119951,120284,120618,120951,121284,121618,133618,144284,154951,165618,176284,197618,208284,218951,229451
DistanceSpacing: 2
BeatDivisor: 4
GridSize: 32
TimelineZoom: 1.5

[Metadata]
Title:Sakura no Uta
TitleUnicode:櫻ノ詩
Artist:Hana
ArtistUnicode:はな
Creator:Dored
Version:Silkiszt's Expert
Source:サクラノ詩 -櫻の森の上を舞う-
Tags:- Sakura no Mori no Ue o Mau - Metrowing 枕 Makura 松本文紀 szak Matsumoto Fuminori うさ Usa Eroge Visual Novel Galgame Video Game Japanese Pop Jpop J-pop Opening OP Full Version Silky Kanau Mamayu fuyuyu- Irohas SuperDalouBot Liszt Little CloudSplash16 Kowari Kujinn Reform Moeka Momoka Shioi No Dap Erisu Lanzhu
BeatmapID:2169511
BeatmapSetID:1037744

[Difficulty]
HPDrainRate:6
CircleSize:4
OverallDifficulty:8.3
ApproachRate:9.3
SliderMultiplier:1.8
SliderTickRate:1

[Events]
//Background and Video events
0,0,"Rina.jpg",0,0
//Break Periods
2,110951,121064
//Storyboard Layer 0 (Background)
Sprite,Background,Centre,"Rina.jpg",320,240
//Storyboard Layer 1 (Fail)
//Storyboard Layer 2 (Pass)
//Storyboard Layer 3 (Foreground)
//Storyboard Layer 4 (Overlay)
//Storyboard Sound Samples

[TimingPoints]
285,333.333333333333,4,2,22,50,1,0
285,-125,4,2,22,50,0,0
784,-166.666666666667,4,2,22,50,0,0
1284,-125,4,2,22,50,0,0
2284,-133.333333333333,4,2,22,50,0,0
2618,-166.666666666667,4,2,22,50,0,0
2951,-111.111111111111,4,2,22,50,0,0
3451,-166.666666666667,4,2,22,50,0,0
3951,-200,4,2,22,50,0,0
4618,-125,4,2,22,50,0,0
4951,-100,4,2,22,50,0,0
5284,-111.111111111111,4,2,22,50,0,0
5618,-166.666666666667,4,2,22,50,0,0
8284,-125,4,2,22,50,0,0
8784,-100,4,2,22,50,0,0
9284,-133.333333333333,4,2,22,60,0,0
9784,-100,4,2,22,70,0,0
10951,-100,4,2,22,70,0,0
12201,-100,4,2,22,5,0,0
12284,-100,4,2,22,70,0,0
17534,-100,4,2,22,5,0,0
17618,-100,4,2,22,70,0,0
20201,-100,4,2,22,5,0,0
20284,-100,4,2,22,70,0,0
21868,-100,4,2,22,5,0,0
21951,-100,4,2,22,70,0,0
24534,-100,4,2,22,5,0,0
24618,-100,4,2,22,70,0,0
25951,-86.9565217391303,4,2,22,70,0,0
26284,-74.074074074074,4,2,22,100,0,0
26618,-66.6666666666667,4,2,22,70,0,0
26951,-100,4,2,22,70,0,0
32284,-100,4,2,22,60,0,0
32951,-100,4,2,22,50,0,0
33618,-111.111111111111,4,2,22,60,0,0
38201,-111.111111111111,4,2,22,5,0,0
38284,-111.111111111111,4,2,22,60,0,0
41534,-111.111111111111,4,2,22,5,0,0
41618,-111.111111111111,4,2,22,60,0,0
46201,-111.111111111111,4,2,22,5,0,0
46284,-111.111111111111,4,2,22,60,0,0
47201,-111.111111111111,4,2,22,5,0,0
47284,-111.111111111111,4,2,22,60,0,0
48201,-111.111111111111,4,2,22,5,0,0
48284,-111.111111111111,4,2,22,60,0,0
51201,-111.111111111111,4,2,22,5,0,0
51284,-111.111111111111,4,2,22,60,0,0
52284,-111.111111111111,4,2,22,70,0,0
53534,-111.111111111111,4,2,22,5,0,0
53618,-111.111111111111,4,2,22,70,0,0
54951,-100,4,2,22,70,0,0
60201,-100,4,2,22,5,0,0
60284,-100,4,2,22,70,0,0
62868,-100,4,2,22,5,0,0
62951,-100,4,2,22,70,0,0
68534,-100,4,2,22,5,0,0
68618,-100,4,2,22,70,0,0
70868,-100,4,2,22,5,0,0
70951,-100,4,2,22,70,0,0
73618,-100,4,2,22,80,0,1
74868,-100,4,2,22,5,0,1
74951,-100,4,2,22,80,0,1
75534,-100,4,2,22,5,0,1
75618,-100,4,2,22,80,0,1
76201,-100,4,2,22,80,0,0
76284,-90.9090909090909,4,2,22,80,0,1
81534,-90.9090909090909,4,2,22,5,0,1
81618,-90.9090909090909,4,2,22,80,0,1
89534,-90.9090909090909,4,2,22,5,0,1
89618,-90.9090909090909,4,2,22,80,0,1
97618,-111.111111111111,4,2,22,60,0,0
98118,-153.846153846153,4,2,22,60,0,0
102951,-117.647058823529,4,2,22,60,0,0
103451,-153.846153846153,4,2,22,60,0,0
108284,-105.263157894736,4,2,22,60,0,0
108784,-153.846153846153,4,2,22,60,0,0
109618,-153.846153846153,4,2,22,50,0,0
121618,-100,4,2,22,70,0,0
122868,-100,4,2,22,5,0,0
122951,-100,4,2,22,70,0,0
128201,-100,4,2,22,5,0,0
128284,-100,4,2,22,70,0,0
130868,-100,4,2,22,5,0,0
130951,-100,4,2,22,70,0,0
133618,-100,4,2,22,70,0,0
133868,-100,4,2,22,5,0,0
133951,-100,4,2,22,70,0,0
139201,-100,4,2,22,5,0,0
139284,-100,4,2,22,70,0,0
141534,-100,4,2,22,5,0,0
141618,-100,4,2,22,70,0,0
144534,-100,4,2,22,5,0,0
144618,-100,4,2,22,70,0,0
147201,-100,4,2,22,5,0,0
147284,-100,4,2,22,70,0,0
148201,-100,4,2,22,5,0,0
148284,-100,4,2,22,70,0,0
156201,-100,4,2,22,5,0,0
156284,-100,4,2,22,70,0,0
157868,-100,4,2,22,5,0,0
157951,-100,4,2,22,70,0,0
160201,-100,4,2,22,5,0,0
160284,-100,4,2,22,70,0,0
160534,-100,4,2,22,5,0,0
160618,-100,4,2,22,70,0,0
161868,-100,4,2,22,5,0,0
161951,-100,4,2,22,70,0,0
162868,-100,4,2,22,5,0,0
162951,-100,4,2,22,70,0,0
173618,-90.9090909090909,4,2,22,80,0,1
176201,-90.9090909090909,4,2,22,80,0,0
176284,-90.9090909090909,4,2,22,80,0,1
176534,-90.9090909090909,4,2,22,5,0,1
176618,-90.9090909090909,4,2,22,80,0,1
176951,-90.9090909090909,4,2,22,80,0,1
177284,-90.9090909090909,4,2,22,60,0,1
177618,-90.9090909090909,4,2,22,80,0,1
183201,-90.9090909090909,4,2,22,5,0,1
183284,-90.9090909090909,4,2,22,80,0,1
185201,-90.9090909090909,4,2,22,5,0,1
185284,-90.9090909090909,4,2,22,80,0,1
186534,-90.9090909090909,4,2,22,5,0,1
186618,-90.9090909090909,4,2,22,65,0,1
186951,-90.9090909090909,4,2,22,80,0,1
188118,-90.9090909090909,4,2,22,60,0,1
188284,-90.9090909090909,4,2,22,80,0,1
188534,-90.9090909090909,4,2,22,5,0,1
188618,-90.9090909090909,4,2,22,80,0,1
189201,-90.9090909090909,4,2,22,5,0,1
189284,-90.9090909090909,4,2,22,80,0,1
189868,-90.9090909090909,4,2,22,5,0,1
189951,-90.9090909090909,4,2,22,80,0,1
190951,-90.9090909090909,4,2,22,66,0,1
191201,-90.9090909090909,4,2,22,5,0,1
191284,-90.9090909090909,4,2,22,80,0,1
191868,-90.9090909090909,4,2,22,5,0,1
191951,-90.9090909090909,4,2,22,50,0,1
192284,-90.9090909090909,4,2,22,80,0,1
192534,-90.9090909090909,4,2,22,5,0,1
192618,-90.9090909090909,4,2,22,80,0,1
194284,-90.9090909090909,4,2,22,60,0,1
194951,-90.9090909090909,4,2,22,80,0,1
197618,-76.9230769230769,4,2,22,80,0,1
197868,-76.9230769230769,4,2,22,5,0,1
197951,-76.9230769230769,4,2,22,80,0,1
198118,-66.6666666666667,4,2,22,80,0,1
198368,-66.6666666666667,4,2,22,5,0,1
198451,-90.9090909090909,4,2,22,80,0,1
202868,-90.9090909090909,4,2,22,5,0,1
202951,-90.9090909090909,4,2,22,80,0,1
209868,-90.9090909090909,4,2,22,5,0,1
209951,-90.9090909090909,4,2,22,80,0,1
210868,-90.9090909090909,4,2,22,5,0,1
210951,-90.9090909090909,4,2,22,80,0,1
211201,-90.9090909090909,4,2,22,5,0,1
211284,-90.9090909090909,4,2,22,80,0,1
212534,-90.9090909090909,4,2,22,5,0,1
212618,-90.9090909090909,4,2,22,80,0,1
213201,-90.9090909090909,4,2,22,5,0,1
213284,-90.9090909090909,4,2,22,80,0,1
216534,-90.9090909090909,4,2,22,5,0,1
216618,-90.9090909090909,4,2,22,80,0,1
224201,-90.9090909090909,4,2,22,80,0,0
224284,-90.9090909090909,4,2,22,80,0,1
229451,-90.9090909090909,4,2,22,80,0,0

[Colours]
Combo1 : 166,166,255
Combo2 : 253,179,225
Combo3 : 167,245,241
Combo4 : 218,137,252

[HitObjects]
113,76,285,6,0,P|96:144|131:205,1,144,2|0,0:0|0:0,0:0:0:0:
97,332,784,1,2,0:0:0:0:
131,205,951,1,0,0:0:0:0:
235,300,1118,1,2,0:0:0:0:
21,311,1284,6,0,B|50:305|87:289|87:289|143:302|143:302|246:274,1,216,2|0,0:0|0:0,0:0:0:0:
386,278,1951,1,2,0:0:0:0:
273,143,2284,6,0,P|254:172|249:207,1,67.5000025749208,2|0,0:0|0:0,0:0:0:0:
229,279,2618,6,0,P|214:256|213:230,1,53.9999983520508,2|0,0:0|0:0,0:0:0:0:
305,41,2951,6,0,P|312:122|348:209,1,161.999995056153,2|0,0:0|0:0,0:0:0:0:
402,85,3451,2,0,P|379:134|368:187,1,107.999996704102,2|0,0:0|0:0,0:0:0:0:
448,217,3951,2,0,P|377:229|304:254,1,135,2|0,0:0|0:0,0:0:0:0:
207,343,4618,6,0,L|136:328,1,72,2|0,0:0|0:0,0:0:0:0:
275,155,4951,2,0,P|230:167|197:197,1,90,2|0,0:0|0:0,0:0:0:0:
483,284,5284,2,0,P|442:281|406:263,1,80.9999975280763,2|0,0:0|0:0,0:0:0:0:
506,97,5618,5,2,0:0:0:0:
392,82,5784,1,2,0:0:0:0:
323,174,5951,5,2,0:0:0:0:
277,253,6118,1,2,0:0:0:0:
199,298,6284,5,2,0:0:0:0:
85,275,6451,1,2,0:0:0:0:
0,351,6618,5,2,0:0:0:0:
80,260,7118,5,2,0:0:0:0:
85,275,7284,1,2,0:0:0:0:
199,298,7451,1,2,0:0:0:0:
313,321,7618,5,2,0:0:0:0:
313,182,7784,1,2,0:0:0:0:
343,349,7951,1,2,0:0:0:0:
343,349,8284,6,0,P|318:282|330:212,1,144,2|0,0:0|0:0,0:0:0:0:
402,1,8784,2,0,P|421:79|342:84,1,180,2|0,0:0|0:0,0:0:0:0:
145,183,9284,2,0,P|189:134|254:139,1,135.000005149842,2|4,0:0|0:0,0:0:0:0:
359,221,9784,6,0,P|370:240|373:262,1,45,0|0,3:0|0:0,0:0:0:0:
439,313,9951,2,0,P|416:310|397:299,1,45,10|0,0:0|0:0,0:0:0:0:
343,349,10118,2,0,P|346:326|357:306,1,45,2|0,3:0|0:0,0:0:0:0:
435,128,10284,6,0,L|391:115,1,45,8|0,0:0|0:0,0:0:0:0:
312,41,10451,2,0,L|268:54,1,45,10|0,0:0|0:0,0:0:0:0:
152,220,10618,6,0,L|108:207,1,45,8|0,0:3|0:0,0:0:0:0:
47,179,10784,2,0,L|91:166,1,45,4|0,0:3|0:0,0:0:0:0:
185,335,10951,6,0,P|105:311|33:384,1,180,6|8,3:2|0:0,0:0:0:0:
246,210,11451,1,2,0:0:0:0:
87,119,11618,2,0,P|97:159|112:221,1,90,10|2,0:0|3:2,0:0:0:0:
224,33,11951,6,0,P|290:26|342:66,1,135,10|0,0:0|0:0,0:0:0:0:
363,91,12284,2,0,P|373:47|384:3,1,90,8|0,0:0|3:0,0:0:0:0:
512,188,12618,2,0,P|464:197|413:208,1,90,10|0,0:0|0:0,0:0:0:0:
313,372,12951,1,10,0:0:0:0:
472,297,13118,1,0,3:0:0:0:
302,173,13284,2,0,P|313:216|323:260,1,90,10|0,0:0|3:0,0:0:0:0:
185,367,13618,6,0,P|106:380|43:303,1,180,10|8,0:0|0:0,0:0:0:0:
0,163,14118,2,0,P|32:169|100:184,1,90,2|8,0:0|0:0,0:0:0:0:
283,112,14451,1,0,3:0:0:0:
229,290,14618,2,0,P|218:245|205:197,1,90,10|0,0:0|3:0,0:0:0:0:
335,8,14951,6,0,P|323:51|312:95,1,90,8|0,0:0|3:0,0:0:0:0:
417,224,15284,2,0,P|460:214|505:205,1,90,10|0,0:0|0:0,0:0:0:0:
423,91,15618,1,10,0:0:0:0:
313,212,15784,1,0,3:0:0:0:
464,332,15951,2,0,P|453:288|440:244,1,90,10|0,0:0|3:0,0:0:0:0:
189,364,16284,6,0,P|233:372|276:382,1,90,14|2,0:0|0:0,0:0:0:0:
417,224,16618,1,10,0:0:0:0:
255,293,16784,1,2,0:0:0:0:
190,116,16951,1,10,0:0:0:0:
313,212,17118,1,2,3:2:0:0:
166,340,17284,2,0,P|101:351|48:312,1,135,10|0,0:0|0:0,0:0:0:0:
15,320,17618,6,0,P|25:276|38:233,1,90,8|2,0:0|3:2,0:0:0:0:
142,54,17951,2,0,P|154:97|165:140,1,90,10|2,0:0|0:0,0:0:0:0:
245,13,18284,1,10,0:0:0:0:
37,111,18451,1,2,3:2:0:0:
146,245,18618,2,0,P|189:254|234:262,1,90,10|0,0:0|3:0,0:0:0:0:
423,91,18951,6,0,P|339:70|270:135,1,180,10|8,0:0|0:0,0:0:0:0:
491,223,19451,2,0,P|503:179|513:132,1,90,2|8,0:0|0:0,0:0:0:0:
368,186,19784,1,0,3:0:0:0:
465,345,19951,2,0,P|415:304|345:315,1,135,10|0,0:0|0:0,0:0:0:0:
326,342,20284,6,0,P|283:351|238:359,1,90,12|0,0:0|3:0,0:0:0:0:
92,175,20618,1,10,0:0:0:0:
256,249,20784,1,0,3:0:0:0:
256,249,20868,1,0,3:0:0:0:
256,249,20951,1,8,0:0:0:0:
105,381,21118,1,8,0:0:0:0:
105,381,21201,1,8,0:0:0:0:
105,381,21284,2,0,L|118:321,1,45,8|8,0:3|0:3,0:0:0:0:
18,286,21451,2,0,L|5:226,1,45,4|4,0:3|0:3,0:0:0:0:
167,153,21618,6,0,L|35:123,1,135,6|0,3:2|0:0,0:0:0:0:
7,117,21951,2,0,L|102:96,1,90,8|2,0:0|0:0,0:0:0:0:
329,108,22284,1,10,0:0:0:0:
225,17,22451,2,0,P|238:41|239:74,1,45,2|0,3:2|0:0,0:0:0:0:
305,229,22618,2,0,P|294:163|329:108,1,135,10|0,0:0|0:0,0:0:0:0:
240,58,22951,5,8,0:0:0:0:
378,181,23118,1,0,3:0:0:0:
214,155,23284,2,0,L|125:136,1,90,10|0,0:0|0:0,0:0:0:0:
414,36,23618,2,0,P|433:78|439:131,1,90,10|0,0:0|3:0,0:0:0:0:
467,351,23951,2,0,P|468:306|483:263,1,90,10|0,0:0|3:0,0:0:0:0:
329,289,24284,6,0,B|275:274|275:274|240:298|204:307,1,135,10|0,0:0|0:0,0:0:0:0:
173,312,24618,1,8,0:0:0:0:
46,179,24784,2,0,P|37:158|34:135,1,45,2|0,0:0|0:0,0:0:0:0:
129,232,24951,2,0,L|41:210,1,90,8|0,0:0|3:0,0:0:0:0:
325,15,25284,6,0,P|320:81|208:88,1,180,8|8,0:0|0:0,0:0:0:0:
90,33,25784,1,0,3:0:0:0:
222,100,25951,2,0,P|233:150|226:201,1,103.500001974106,10|0,0:0|0:0,0:0:0:0:
61,340,26284,2,0,P|119:325|179:332,1,121.500000463486,10|0,0:0|3:0,0:0:0:0:
444,316,26618,2,0,P|376:319|311:305,1,135.000005149842,10|0,0:0|3:0,0:0:0:0:
179,332,26951,5,14,0:0:0:0:
358,177,27118,1,2,0:0:0:0:
312,306,27284,1,10,0:0:0:0:
226,201,27451,1,2,0:0:0:0:
345,319,27618,1,10,0:0:0:0:
193,188,27784,1,2,3:2:0:0:
434,255,27951,2,0,B|399:228|399:228|366:169|394:81,1,180,10|8,0:0|0:0,0:0:0:0:
289,23,28451,5,2,3:2:0:0:
389,95,28618,1,10,0:0:0:0:
273,137,28784,1,2,0:0:0:0:
160,175,28951,1,10,0:0:0:0:
196,26,29118,1,2,3:2:0:0:
6,57,29284,2,0,P|48:75|95:89,1,90,10|0,0:0|3:0,0:0:0:0:
19,319,29618,6,0,L|107:301,1,90,10|0,0:0|0:0,0:0:0:0:
174,102,29951,2,0,P|169:124|159:143,1,45,8|0,0:0|0:0,0:0:0:0:
90,87,30118,2,0,P|76:44|72:0,2,90,2|8|0,0:0|0:0|3:0,0:0:0:0:
269,260,30618,2,0,P|226:246|182:236,1,90,10|2,0:0|0:3,0:0:0:0:
410,99,30951,6,0,L|419:55,3,45,12|0|0|0,0:0|0:0|3:0|0:0,0:0:0:0:
428,26,31284,2,0,P|442:68|444:113,1,90,10|0,0:0|3:0,0:0:0:0:
366,323,31618,1,8,0:0:0:0:
221,231,31784,1,8,0:0:0:0:
214,241,31868,1,8,0:0:0:0:
208,248,31951,1,8,0:3:0:0:
175,217,32034,1,8,0:3:0:0:
161,173,32118,1,4,0:3:0:0:
168,128,32201,1,4,0:3:0:0:
197,94,32284,5,10,0:0:0:0:
374,111,32451,1,2,0:0:0:0:
280,154,32618,1,2,0:0:0:0:
382,6,32784,1,2,0:0:0:0:
364,214,32951,5,2,0:0:0:0:
321,121,33118,1,2,0:0:0:0:
371,230,33284,2,0,P|378:270|365:322,1,90,2|2,0:0|0:0,0:0:0:0:
424,384,33618,6,0,P|364:332|286:344,1,161.999995056153,6|0,3:2|3:0,0:0:0:0:
153,269,34118,1,2,0:0:0:0:
236,156,34284,2,0,P|245:195|254:246,1,80.9999975280763,0|0,3:0|0:0,0:0:0:0:
197,367,34618,6,0,P|119:378|59:327,1,161.999995056153,2|0,3:2|3:0,0:0:0:0:
37,209,35118,1,0,0:0:0:0:
37,209,35284,2,0,P|73:216|127:230,1,80.9999975280763,2|0,3:2|0:0,0:0:0:0:
290,115,35618,2,0,P|254:122|200:136,1,80.9999975280763,2|0,3:2|0:0,0:0:0:0:
119,31,35951,2,0,P|110:70|101:121,1,80.9999975280763,2|0,3:2|0:0,0:0:0:0:
252,235,36284,6,0,P|291:225|330:217,1,80.9999975280763,2|0,3:2|0:0,0:0:0:0:
406,131,36618,2,0,P|397:91|387:52,1,80.9999975280763,2|0,3:2|0:0,0:0:0:0:
488,269,36951,2,0,P|496:229|506:190,1,80.9999975280763,2|0,3:2|0:0,0:0:0:0:
419,368,37284,6,0,P|366:318|276:335,1,161.999995056153,2|0,3:2|3:0,0:0:0:0:
168,384,37784,1,0,0:0:0:0:
75,260,37951,2,0,P|121:225|183:230,1,121.499996292114,2|0,3:2|0:0,0:0:0:0:
209,245,38284,2,0,P|217:203|227:156,1,80.9999975280763,2|8,3:2|0:0,0:0:0:0:
98,37,38618,1,8,0:3:0:0:
120,145,38784,1,4,0:3:0:0:
284,83,38951,6,0,P|241:73|190:64,1,80.9999975280763,6|0,3:2|0:0,0:0:0:0:
386,16,39284,2,0,P|395:52|407:104,1,80.9999975280763,2|0,3:2|0:0,0:0:0:0:
512,171,39618,2,0,P|503:210|492:249,1,80.9999975280763,2|0,3:2|0:0,0:0:0:0:
259,246,39951,6,0,P|320:187|397:205,1,161.999995056153,2|0,3:2|3:0,0:0:0:0:
284,363,40451,1,0,0:0:0:0:
284,363,40618,2,0,P|243:353|186:342,1,80.9999975280763,2|0,3:2|0:0,0:0:0:0:
25,281,40951,2,0,P|65:271|123:260,1,80.9999975280763,2|0,3:2|0:0,0:0:0:0:
202,161,41284,2,0,P|208:102|171:55,1,121.499996292114,2|0,3:2|0:0,0:0:0:0:
143,42,41618,5,2,3:2:0:0:
0,185,41784,1,2,0:0:0:0:
120,129,41951,1,2,3:2:0:0:
44,8,42118,2,0,P|34:52|28:93,1,80.9999975280763,2|2,0:0|3:2,0:0:0:0:
91,237,42451,1,2,0:0:0:0:
227,172,42618,6,0,P|306:166|362:229,1,161.999995056153,2|2,3:2|3:2,0:0:0:0:
391,53,43118,1,0,0:0:0:0:
511,127,43284,2,0,P|472:134|432:144,1,80.9999975280763,2|0,3:2|0:0,0:0:0:0:
452,335,43618,2,0,P|463:295|475:245,1,80.9999975280763,2|8,3:2|0:0,0:0:0:0:
329,129,43951,1,8,0:3:0:0:
260,286,44118,1,4,0:3:0:0:
329,129,44284,6,0,P|350:213|364:312,1,161.999995056153,6|0,3:2|3:0,0:0:0:0:
452,335,44784,1,2,0:0:0:0:
260,286,44951,1,0,3:0:0:0:
373,243,45118,1,0,0:0:0:0:
203,369,45284,6,0,P|222:290|235:210,1,161.999995056153,2|0,3:2|3:0,0:0:0:0:
73,238,45784,1,0,0:0:0:0:
129,41,45951,2,0,P|141:101|152:160,1,121.499996292114,2|0,3:2|0:0,0:0:0:0:
158,188,46284,2,0,L|236:211,1,80.9999975280763,2|0,3:2|0:0,0:0:0:0:
391,113,46618,2,0,P|351:121|313:135,1,80.9999975280763,2|0,3:2|0:0,0:0:0:0:
218,332,46951,6,0,P|272:306|331:314,1,121.499996292114,2|0,3:2|0:0,0:0:0:0:
332,315,47284,2,0,P|345:277|353:237,1,80.9999975280763,2|0,3:2|0:0,0:0:0:0:
235,113,47618,2,0,P|272:126|312:134,1,80.9999975280763,2|0,3:2|0:0,0:0:0:0:
94,11,47951,6,0,L|118:158,1,121.499996292114,2|0,3:2|0:0,0:0:0:0:
116,155,48284,2,0,L|37:133,1,80.9999975280763,0|0,3:2|0:0,0:0:0:0:
235,113,48618,1,2,3:2:0:0:
255,228,48784,1,8,0:0:0:0:
401,143,48951,1,2,3:2:0:0:
227,173,49118,1,8,0:3:0:0:
352,44,49284,1,4,0:3:0:0:
387,253,49451,1,8,0:0:0:0:
324,50,49618,6,0,B|311:110|311:110|321:153|321:153|307:207,1,161.999995056153,6|0,3:2|3:0,0:0:0:0:
229,69,50118,2,0,B|174:81|133:114|133:114|69:100,1,161.999995056153,2|0,0:0|0:0,0:0:0:0:
411,105,50618,1,0,3:0:0:0:
411,105,50784,1,0,0:0:0:0:
239,246,50951,6,0,P|299:248|356:269,1,121.499996292114,6|0,3:2|0:0,0:0:0:0:
373,276,51284,1,2,3:2:0:0:
321,81,51451,2,0,P|325:121|338:159,1,80.9999975280763,2|0,0:0|3:0,0:0:0:0:
243,24,51784,1,0,3:0:0:0:
432,162,51951,2,0,P|429:182|422:201,1,40.4999987640381,10|0,0:2|0:0,0:0:0:0:
406,44,52118,1,4,0:3:0:0:
371,311,52284,6,0,P|420:251|498:253,1,161.999995056153,6|8,3:2|0:0,0:0:0:0:
293,78,52784,2,0,P|253:70|214:59,2,80.9999975280763,2|0|0,0:0|3:0|3:0,0:0:0:0:
156,11,53284,2,0,P|170:68|185:136,1,121.499996292114,10|0,0:0|0:0,0:0:0:0:
189,157,53618,6,0,L|110:137,1,80.9999975280763,4|0,3:2|3:0,0:0:0:0:
63,139,53868,1,0,0:0:0:0:
26,167,53951,2,0,P|29:189|36:207,3,40.4999987640381,10|0|8|0,0:0|0:0|0:0|0:0,0:0:0:0:
0,294,54284,2,0,P|8:312|19:329,3,40.4999987640381,2|0|8|0,3:2|0:0|0:3|0:0,0:0:0:0:
146,372,54618,2,0,P|152:353|155:332,3,40.4999987640381,10|8|8|4,0:0|0:0|0:3|0:3,0:0:0:0:
127,237,54951,5,6,3:2:0:0:
306,378,55118,1,8,0:3:0:0:
406,143,55284,1,4,0:3:0:0:
248,269,55451,1,14,0:0:0:0:
248,269,55784,5,0,3:0:0:0:
456,344,55951,1,14,0:0:0:0:
276,161,56118,1,0,0:0:0:0:
465,60,56284,1,4,0:3:0:0:
375,251,56451,1,14,0:0:0:0:
375,251,56784,5,0,3:0:0:0:
510,175,56951,2,0,P|461:161|403:146,1,90,10|0,0:0|3:0,0:0:0:0:
211,66,57284,2,0,P|251:53|297:42,1,90,10|0,0:0|3:0,0:0:0:0:
375,251,57618,6,0,P|303:313|213:284,1,180,6|10,3:2|0:0,0:0:0:0:
46,358,58118,2,0,P|88:366|143:379,1,90,2|0,3:2|0:0,0:0:0:0:
278,194,58451,1,2,3:2:0:0:
110,272,58618,1,8,0:0:0:0:
307,356,58784,1,2,3:2:0:0:
177,158,58951,5,0,0:0:0:0:
212,320,59118,1,2,3:2:0:0:
383,243,59284,2,0,P|339:232|295:223,1,90,10|0,0:0|0:0,0:0:0:0:
479,101,59618,2,0,P|490:143|503:208,1,90,2|0,3:2|3:0,0:0:0:0:
424,376,59951,2,0,P|370:339|306:355,1,135,10|0,0:0|0:0,0:0:0:0:
285,378,60284,6,0,P|188:361|103:351,1,180,6|10,3:2|0:0,0:0:0:0:
17,247,60784,2,0,P|56:238|110:228,1,90,2|0,3:2|0:0,0:0:0:0:
222,132,61118,1,2,3:2:0:0:
98,27,61284,2,0,P|86:71|75:124,1,90,8|2,0:0|3:2,0:0:0:0:
361,59,61618,6,0,P|295:2|212:25,1,180,2|8,0:0|0:0,0:0:0:0:
304,173,62118,1,2,0:0:0:0:
460,130,62284,2,0,P|471:81|481:35,1,90,2|0,3:2|3:0,0:0:0:0:
409,245,62618,2,0,P|454:284|436:372,1,135,10|0,0:0|0:0,0:0:0:0:
426,384,62951,6,0,P|367:341|258:353,1,180,6|8,3:2|0:0,0:0:0:0:
127,256,63451,1,0,0:0:0:0:
246,149,63618,2,0,P|234:194|224:250,1,90,2|0,3:2|3:0,0:0:0:0:
51,368,63951,2,0,P|40:324|31:280,1,90,8|0,0:0|3:0,0:0:0:0:
142,102,64284,5,14,0:0:0:0:
226,236,64451,1,0,3:0:0:0:
10,138,64618,1,8,0:0:0:0:
208,4,64784,1,0,0:0:0:0:
90,194,64951,1,10,0:0:0:0:
318,260,65118,1,0,3:0:0:0:
318,260,65201,1,0,3:0:0:0:
318,260,65284,2,0,L|331:200,1,45,8|8,0:0|0:0,0:0:0:0:
196,95,65451,2,0,L|205:139,1,45,0|0,3:0|3:0,0:0:0:0:
408,72,65618,6,0,L|451:62,5,45,6|0|0|0|8|0,3:2|0:0|0:0|0:0|0:0|0:0,0:0:0:0:
508,141,66118,2,0,B|388:108|388:108|336:126,1,180,2|0,3:2|3:0,0:0:0:0:
248,152,66618,6,0,L|203:138,5,45,10|0|0|0|0|0,0:0|0:0|3:0|0:0|0:0|0:0,0:0:0:0:
108,32,67118,6,0,L|118:76,1,45,2|0,3:2|0:0,0:0:0:0:
57,141,67284,1,12,0:0:0:0:
57,141,67451,1,0,0:0:0:0:
165,255,67618,2,0,P|124:235|80:229,1,90,10|2,0:0|0:0,0:0:0:0:
96,328,67951,2,0,P|51:339|9:353,1,90,8|0,0:0|3:0,0:0:0:0:
235,197,68284,6,0,B|217:243|217:243|248:337,1,135,6|0,3:2|0:0,0:0:0:0:
253,347,68618,1,10,0:0:0:0:
366,70,68784,2,0,B|360:114|360:114|351:158,1,90,2|0,3:2|0:0,0:0:0:0:
176,90,69118,2,0,L|163:1,1,90,2|8,3:2|0:0,0:0:0:0:
311,246,69450,1,2,3:2:0:0:
311,246,69534,1,0,0:0:0:0:
311,246,69618,1,0,0:0:0:0:
392,360,69784,6,0,P|402:340|405:318,1,45,2|0,3:2|0:0,0:0:0:0:
253,347,69951,2,0,L|165:361,1,90,8|0,0:0|3:0,0:0:0:0:
272,136,70284,2,0,L|183:123,1,90,2|0,0:0|3:0,0:0:0:0:
37,277,70618,2,0,P|75:307|54:263,1,135,10|0,0:0|0:0,0:0:0:0:
19,190,70951,6,0,B|95:172|147:223|147:223|128:186|127:149,1,180,6|8,3:2|0:0,0:0:0:0:
392,268,71451,2,0,L|401:223,1,45,2|0,0:0|0:0,0:0:0:0:
440,216,71618,2,0,L|431:171,1,45,2|0,3:2|0:0,0:0:0:0:
460,136,71784,2,0,L|428:96,1,45,2|0,3:2|0:0,0:0:0:0:
432,60,71951,2,0,L|372:44,1,45,10|0,0:0|0:0,0:0:0:0:
375,17,72118,2,0,L|332:28,1,45,2|0,3:2|0:0,0:0:0:0:
158,152,72284,6,0,B|191:150|218:140|218:140|273:156|273:156|305:145|358:136,1,180,4|0,3:2|0:0,0:0:0:0:
432,284,72784,2,0,L|387:293,1,45,2|0,3:2|0:0,0:0:0:0:
373,251,72951,2,0,L|328:242,1,45,2|0,3:2|0:0,0:0:0:0:
297,315,73118,2,0,L|252:323,1,45,10|0,0:0|0:0,0:0:0:0:
233,183,73284,2,0,L|189:175,1,45,8|8,0:3|0:3,0:0:0:0:
172,360,73451,2,0,L|127:369,1,45,4|4,0:3|0:3,0:0:0:0:
84,216,73618,6,0,L|40:207,5,45,14|0|0|0|0|0,0:0|0:0|0:0|0:0|3:0|0:0,0:0:0:0:
82,125,74118,2,0,P|76:105|73:82,1,45,12|0,0:0|0:3,0:3:0:0:
253,81,74284,2,0,P|275:78|298:73,3,45,2|0|0|0,3:2|0:0|3:0|0:0,0:0:0:0:
351,12,74618,2,0,B|326:49|341:111|341:111|387:148,1,135,12|0,0:0|0:0,0:0:0:0:
441,188,74951,6,0,P|438:210|431:231,3,45,10|0|0|0,0:0|0:0|3:0|0:0,0:0:0:0:
454,320,75284,2,0,B|430:282|430:282|385:262|350:241,1,135,12|0,0:0|0:0,0:0:0:0:
320,244,75618,2,0,L|276:256,1,45,2|0,3:2|0:0,0:0:0:0:
224,352,75784,2,0,L|180:340,1,45,8|8,0:0|0:0,0:0:0:0:
60,280,75951,2,0,L|104:268,1,45,8|8,0:3|0:3,0:0:0:0:
152,172,76118,2,0,L|196:184,1,45,4|4,0:3|0:3,0:0:0:0:
337,337,76284,6,0,B|407:330|453:368|453:368|491:349|482:304,1,198.000006042481,6|8,3:2|0:0,0:0:0:0:
509,177,76784,2,0,P|460:186|408:202,1,99.0000030212403,2|0,0:0|3:0,0:0:0:0:
246,91,77118,1,0,3:0:0:0:
378,3,77284,2,0,P|368:50|358:99,1,99.0000030212403,10|0,0:0|3:0,0:0:0:0:
163,228,77618,6,0,P|153:179|142:131,1,99.0000030212403,2|0,0:0|3:0,0:0:0:0:
13,336,77951,2,0,P|59:343|118:357,1,99.0000030212403,10|0,0:0|0:0,0:0:0:0:
245,163,78284,1,2,3:2:0:0:
69,240,78451,1,0,3:0:0:0:
263,367,78618,2,0,P|274:318|283:270,1,99.0000030212403,10|0,0:0|0:0,0:0:0:0:
189,40,78951,6,0,P|88:33|37:113,1,198.000006042481,2|8,3:2|0:0,0:0:0:0:
148,185,79451,2,0,P|196:172|245:163,1,99.0000030212403,2|0,0:0|3:0,0:0:0:0:
444,223,79784,1,0,3:0:0:0:
392,33,79951,2,0,P|380:80|363:159,1,99.0000030212403,10|0,0:0|3:0,0:0:0:0:
344,351,80284,6,0,P|332:302|321:254,1,99.0000030212403,2|0,0:0|3:0,0:0:0:0:
148,185,80618,1,10,0:0:0:0:
79,377,80784,1,0,0:0:0:0:
234,312,80951,2,0,P|188:302|130:291,1,99.0000030212403,2|0,3:2|3:0,0:0:0:0:
30,140,81284,2,0,P|118:137|160:80,1,148.50000453186,10|0,0:0|0:0,0:0:0:0:
146,63,81618,6,0,B|221:68|268:115|268:115|294:97|338:91,1,198.000006042481,6|8,3:2|0:0,0:0:0:0:
512,230,82118,1,2,0:0:0:0:
327,188,82284,1,0,3:0:0:0:
507,82,82451,1,0,3:0:0:0:
437,283,82618,2,0,P|426:232|415:180,1,99.0000030212403,8|0,0:0|3:0,0:0:0:0:
223,294,82951,5,2,0:0:0:0:
370,380,83118,1,0,3:0:0:0:
370,380,83201,1,0,0:0:0:0:
370,380,83284,1,8,0:0:0:0:
252,194,83451,2,0,P|201:204|150:218,1,99.0000030212403,2|0,0:0|3:0,0:0:0:0:
18,108,83784,1,0,3:0:0:0:
159,3,83951,2,0,P|149:46|135:114,1,99.0000030212403,10|0,0:0|0:0,0:0:0:0:
2,299,84284,6,0,B|116:263|80:345|191:314,1,198.000006042481,2|8,3:2|0:0,0:0:0:0:
370,380,84784,2,0,P|357:328|342:269,1,99.0000030212403,2|0,0:0|3:0,0:0:0:0:
429,127,85118,1,0,3:0:0:0:
284,193,85284,1,10,0:0:0:0:
484,284,85451,1,0,3:0:0:0:
299,93,85618,5,2,0:0:0:0:
486,27,85784,1,0,3:0:0:0:
381,213,85951,2,0,P|332:202|283:193,1,99.0000030212403,10|0,0:0|0:0,0:0:0:0:
139,18,86284,2,0,P|152:59|171:127,1,99.0000030212403,2|0,3:2|3:0,0:0:0:0:
4,283,86618,1,8,0:0:0:0:
69,96,86784,1,0,3:0:0:0:
192,248,86951,5,6,3:2:0:0:
5,185,87118,1,0,0:0:0:0:
5,185,87201,1,0,0:0:0:0:
5,185,87284,1,8,0:0:0:0:
79,382,87451,2,0,P|89:327|100:271,1,99.0000030212403,2|0,0:0|3:0,0:0:0:0:
265,95,87784,2,0,P|274:143|283:192,1,99.0000030212403,2|8,3:2|0:0,0:0:0:0:
136,128,88118,1,2,3:2:0:0:
243,348,88284,6,0,P|293:335|351:326,1,99.0000030212403,2|0,0:0|3:0,0:0:0:0:
417,151,88618,1,10,0:0:0:0:
269,236,88784,1,0,0:0:0:0:
456,360,88951,2,0,P|466:311|478:251,1,99.0000030212403,2|0,3:2|3:0,0:0:0:0:
451,59,89284,2,0,P|402:114|324:99,1,148.50000453186,10|0,0:0|0:0,0:0:0:0:
301,122,89618,6,0,P|234:54|133:94,1,198.000006042481,2|8,3:2|0:0,0:0:0:0:
30,9,90118,2,0,P|18:57|6:123,1,99.0000030212403,2|0,0:0|3:0,0:0:0:0:
185,259,90451,2,0,P|196:210|209:145,1,99.0000030212403,2|8,3:2|0:0,0:0:0:0:
47,282,90784,1,2,3:2:0:0:
240,383,90951,6,0,P|291:374|364:364,1,99.0000030212403,2|0,0:0|3:0,0:0:0:0:
446,183,91284,1,10,0:0:0:0:
277,277,91451,1,0,0:0:0:0:
214,86,91618,1,2,3:2:0:0:
336,180,91784,1,0,3:0:0:0:
170,309,91951,2,0,P|158:256|148:196,1,99.0000030212403,10|0,0:0|3:0,0:0:0:0:
314,65,92284,5,6,3:2:0:0:
256,253,92451,1,0,0:0:0:0:
256,253,92534,1,0,0:0:0:0:
256,253,92618,1,8,0:0:0:0:
430,209,92784,2,0,P|385:191|336:180,1,99.0000030212403,2|0,0:0|3:0,0:0:0:0:
202,53,93118,2,0,P|154:63|107:81,1,99.0000030212403,2|8,3:2|0:0,0:0:0:0:
31,225,93451,5,2,3:2:0:0:
223,286,93618,1,0,0:0:0:0:
157,150,93784,1,0,3:0:0:0:
36,365,93951,2,0,B|67:321|132:333|132:333|157:379|225:388,1,198.000006042481,10|2,0:0|3:2,0:0:0:0:
384,216,94451,1,0,3:0:0:0:
223,286,94618,1,8,0:0:0:0:
442,358,94784,1,0,3:0:0:0:
268,154,94951,5,2,3:2:0:0:
331,364,95118,1,0,0:0:0:0:
331,364,95201,1,0,0:0:0:0:
331,364,95284,1,8,0:0:0:0:
480,237,95451,2,0,P|432:225|383:215,1,99.0000030212403,2|0,0:2|3:0,0:0:0:0:
270,103,95784,1,2,3:2:0:0:
409,42,95951,1,8,0:0:0:0:
276,242,96118,1,2,3:2:0:0:
125,129,96284,6,0,L|137:73,1,49.5000015106202,8|0,0:0|0:0,0:0:0:0:
23,21,96451,2,0,L|33:69,1,49.5000015106202,0|0,3:0|0:0,0:0:0:0:
61,238,96618,2,0,P|113:226|170:216,1,99.0000030212403,10|0,0:0|3:0,0:0:0:0:
396,140,96951,5,10,0:0:0:0:
373,110,97034,1,8,0:0:0:0:
341,93,97117,1,0,3:0:0:0:
304,90,97200,1,0,3:0:0:0:
270,103,97284,1,10,0:0:0:0:
347,338,97451,2,0,P|356:315|362:275,1,49.5000015106202,8|0,0:0|0:0,0:0:0:0:
316,180,97618,6,0,L|347:338,1,161.999995056153,6|0,3:2|3:0,0:0:0:0:
436,256,98118,2,0,P|448:223|448:192,1,58.4999973220826,14|0,0:0|0:0,0:0:0:0:
440,80,98451,1,2,0:0:0:0:
432,72,98618,1,2,0:0:0:0:
304,32,98784,1,2,0:0:0:0:
292,40,98951,5,8,0:0:0:0:
256,192,99118,1,8,0:3:0:0:
344,128,99284,1,4,0:3:0:0:
208,96,99451,5,12,0:0:0:0:
196,104,99618,1,2,0:0:0:0:
292,40,99784,1,0,0:0:0:0:
256,192,99951,2,0,L|192:208,1,58.4999973220826,2|0,0:0|0:0,0:0:0:0:
12,160,100284,5,6,3:2:0:0:
92,96,100451,1,2,0:0:0:0:
32,260,100618,1,8,0:0:0:0:
192,312,100784,1,6,3:2:0:0:
108,196,100951,5,2,0:0:0:0:
120,360,101118,1,0,0:0:0:0:
200,292,101284,2,0,L|143:277,1,58.4999973220826,2|8,0:0|0:0,0:0:0:0:
388,352,101618,5,6,3:2:0:0:
340,280,101784,1,10,0:0:0:0:
464,312,101951,5,8,0:3:0:0:
264,232,102118,1,4,0:3:0:0:
480,152,102284,5,2,0:0:0:0:
228,88,102451,1,4,0:3:0:0:
420,228,102618,5,2,0:0:0:0:
288,12,102784,1,0,0:0:0:0:
480,152,102951,6,0,P|408:126|333:108,1,153.000002918243,6|8,3:2|0:0,0:0:0:0:
281,248,103451,2,0,L|224:261,1,58.4999973220826,2|0,3:2|0:0,0:0:0:0:
64,332,103784,1,0,0:0:0:0:
40,325,103951,1,0,0:0:0:0:
124,240,104118,1,2,0:0:0:0:
225,262,104284,5,2,3:2:0:0:
258,360,104451,1,2,0:0:0:0:
157,338,104618,1,8,0:0:0:0:
150,318,104784,5,2,3:2:0:0:
192,164,104951,1,0,0:0:0:0:
325,281,105118,1,2,0:0:0:0:
261,87,105284,5,0,0:0:0:0:
225,262,105451,1,2,0:0:0:0:
293,184,105618,5,4,3:2:0:0:
361,106,105784,1,2,0:0:0:0:
192,164,105951,1,10,0:0:0:0:
168,159,106118,1,2,3:2:0:0:
325,281,106284,5,2,0:0:0:0:
293,184,106451,1,0,0:0:0:0:
412,196,106618,1,0,0:0:0:0:
225,262,106784,1,2,0:0:0:0:
92,144,106951,5,2,3:2:0:0:
192,164,107118,1,2,0:0:0:0:
292,184,107284,1,8,0:0:0:0:
168,159,107451,1,2,3:2:0:0:
361,106,107618,5,0,0:0:0:0:
192,164,107784,1,2,3:2:0:0:
261,87,107951,1,8,0:3:0:0:
292,184,108118,1,4,0:3:0:0:
325,281,108284,6,0,B|278:219|303:152|303:152|344:120,1,170.999995433807,4|4,3:2|0:3,0:0:0:0:
152,346,108784,2,0,B|280:302|252:390|379:359,1,233.999989288331,12|0,0:0|0:0,0:0:0:0:
183,251,109618,1,2,0:0:0:0:
388,198,109951,1,0,0:0:0:0:
388,198,110118,1,2,0:0:0:0:
335,159,121618,6,0,P|272:101|186:126,1,180,6|8,3:2|0:0,0:0:0:0:
162,307,122118,1,2,0:0:0:0:
11,244,122284,2,0,P|51:232|109:218,1,90,10|2,0:0|3:2,0:0:0:0:
274,347,122618,6,0,P|339:363|404:382,1,135,10|0,0:0|0:0,0:0:0:0:
437,371,122951,2,0,P|447:324|460:273,1,90,8|0,0:0|3:0,0:0:0:0:
303,147,123284,2,0,P|313:190|323:234,1,90,10|0,0:0|0:0,0:0:0:0:
423,75,123618,1,10,0:0:0:0:
257,19,123784,1,0,3:0:0:0:
403,180,123951,2,0,P|446:170|519:156,1,90,10|0,0:0|3:0,0:0:0:0:
381,325,124284,6,0,P|295:341|232:274,1,180,10|8,0:0|0:0,0:0:0:0:
77,384,124784,2,0,P|84:339|97:280,1,90,2|8,0:0|0:0,0:0:0:0:
50,119,125118,1,0,3:0:0:0:
252,177,125284,2,0,P|210:186|152:202,1,90,10|0,0:0|3:0,0:0:0:0:
341,291,125618,6,0,P|384:301|428:312,1,90,8|0,0:0|3:0,0:0:0:0:
512,192,125951,2,0,P|502:147|491:95,1,90,10|0,0:0|0:0,0:0:0:0:
286,37,126284,1,10,0:0:0:0:
398,190,126451,1,0,3:0:0:0:
232,264,126618,2,0,P|242:219|253:167,1,90,10|0,0:0|3:0,0:0:0:0:
134,357,126951,5,14,0:0:0:0:
336,278,127118,1,2,0:0:0:0:
158,133,127284,1,10,0:0:0:0:
232,264,127451,1,2,0:0:0:0:
294,103,127618,1,10,0:0:0:0:
91,239,127784,1,2,3:2:0:0:
266,375,127951,2,0,P|312:338|397:355,1,135,10|0,0:0|0:0,0:0:0:0:
409,369,128284,6,0,P|418:320|427:275,1,90,8|2,0:0|3:2,0:0:0:0:
466,132,128618,2,0,P|421:142|358:160,1,90,10|2,0:0|0:0,0:0:0:0:
205,12,128951,1,10,0:0:0:0:
381,61,129118,1,2,3:2:0:0:
276,213,129284,2,0,P|267:169|259:124,1,90,10|0,0:0|3:0,0:0:0:0:
147,272,129618,6,0,P|85:210|0:225,1,180,10|8,0:0|0:0,0:0:0:0:
120,384,130118,2,0,P|164:376|208:368,1,90,2|8,0:0|0:0,0:0:0:0:
341,284,130451,1,0,3:0:0:0:
210,177,130618,2,0,P|196:112|253:52,1,135,10|0,0:0|0:0,0:0:0:0:
224,29,130951,6,0,P|263:36|315:47,1,90,12|0,0:0|3:0,0:0:0:0:
512,138,131284,2,0,P|467:146|423:155,1,90,10|0,0:0|0:0,0:0:0:0:
295,247,131618,2,0,L|306:188,1,45,8|0,0:0|0:0,0:0:0:0:
422,336,131784,1,8,0:0:0:0:
422,336,131868,1,8,0:0:0:0:
422,336,131951,2,0,L|368:350,1,45,8|8,0:3|0:3,0:0:0:0:
173,267,132118,5,4,0:3:0:0:
173,267,132201,1,4,0:3:0:0:
173,267,132284,1,6,3:2:0:0:
310,169,132451,1,2,0:0:0:0:
200,376,132618,2,0,P|153:366|106:357,1,90,10|2,0:0|3:2,0:0:0:0:
33,186,132951,5,0,3:0:0:0:
173,267,133118,1,8,0:0:0:0:
232,90,133284,1,8,0:0:0:0:
129,180,133451,1,4,0:3:0:0:
269,261,133618,6,0,P|319:221|409:228,1,135,6|0,3:2|0:0,0:0:0:0:
414,234,133951,6,0,P|430:192|430:147,1,90,8|2,0:0|0:0,0:0:0:0:
300,12,134284,2,0,P|300:56|316:98,1,90,0|0,3:0|0:0,0:0:0:0:
510,127,134618,2,0,P|468:110|423:110,1,90,10|0,0:0|0:0,0:0:0:0:
232,112,134951,2,0,P|273:128|318:128,1,90,0|0,3:0|0:0,0:0:0:0:
108,24,135284,6,0,P|124:65|125:110,1,90,10|0,0:0|0:0,0:0:0:0:
1,250,135618,2,0,P|33:219|76:205,1,90,2|0,3:2|0:0,0:0:0:0:
262,238,135951,2,0,P|218:228|182:202,1,90,10|0,0:0|0:0,0:0:0:0:
298,59,136284,2,0,P|299:103|316:145,1,90,2|0,3:2|0:0,0:0:0:0:
502,182,136618,2,0,P|465:156|421:146,1,90,10|0,0:0|0:0,0:0:0:0:
334,319,136951,2,0,P|359:281|368:238,1,90,2|0,3:2|0:0,0:0:0:0:
91,249,137284,6,0,B|147:257|202:219|202:219|262:238,1,180,10|0,0:0|3:0,0:0:0:0:
334,319,137784,1,0,0:0:0:0:
262,238,137951,2,0,P|244:192|243:149,1,90,10|0,0:0|0:0,0:0:0:0:
288,21,138284,1,2,3:2:0:0:
344,173,138451,1,8,0:0:0:0:
242,151,138618,1,8,0:3:0:0:
378,75,138784,1,4,0:3:0:0:
165,116,138951,6,0,P|212:70|285:79,1,135,6|0,3:2|0:0,0:0:0:0:
288,56,139284,2,0,L|308:167,1,90,10|0,0:0|0:0,0:0:0:0:
396,202,139618,2,0,L|380:290,1,90,0|0,3:2|0:0,0:0:0:0:
124,299,139951,2,0,P|179:233|264:246,1,180,10|0,0:0|3:0,0:0:0:0:
379,290,140451,1,0,0:0:0:0:
304,363,140618,2,0,L|219:335,1,90,10|0,0:0|0:3,0:3:0:0:
246,159,140951,2,0,L|268:262,1,90,0|0,3:2|0:0,0:0:0:0:
99,183,141284,2,0,P|118:104|133:29,1,135,10|0,0:0|0:0,0:0:0:0:
122,32,141618,5,2,3:2:0:0:
246,159,141784,1,0,0:0:0:0:
426,156,141951,1,8,0:0:0:0:
246,57,142118,5,2,0:0:0:0:
246,159,142284,1,0,3:2:0:0:
339,209,142451,1,0,0:0:0:0:
335,108,142618,5,10,0:0:0:0:
335,108,142784,1,0,0:0:0:0:
256,250,142951,1,2,3:2:0:0:
256,250,143118,1,0,0:0:0:0:
99,288,143284,5,10,0:0:0:0:
254,233,143451,1,0,0:0:0:0:
153,196,143618,1,2,3:2:0:0:
357,211,143784,1,8,0:3:0:0:
75,126,143951,1,10,0:0:0:0:
423,52,144118,1,6,0:3:0:0:
254,233,144284,6,0,P|232:166|259:98,1,135,6|0,3:2|0:0,0:0:0:0:
321,30,144618,2,0,P|337:82|347:131,1,90,8|2,0:0|0:0,0:0:0:0:
480,245,144951,2,0,P|496:193|506:144,1,90,0|0,3:0|0:0,0:0:0:0:
424,384,145284,6,0,P|377:332|268:356,1,180,10|0,0:0|3:0,0:0:0:0:
129,213,145784,1,0,0:0:0:0:
174,377,145951,2,0,P|186:326|198:275,1,90,10|0,0:0|0:0,0:0:0:0:
38,188,146284,1,2,3:2:0:0:
193,133,146451,1,0,0:0:0:0:
86,309,146618,2,0,P|43:298|0:289,1,90,10|0,0:0|0:0,0:0:0:0:
273,374,146951,6,0,P|339:361|420:348,1,135,2|0,3:2|0:0,0:0:0:0:
435,371,147284,2,0,P|445:323|458:263,1,90,10|0,0:0|0:0,0:0:0:0:
315,156,147618,2,0,P|324:200|333:243,1,90,2|0,3:2|0:0,0:0:0:0:
512,98,147951,2,0,P|468:112|399:54,1,135,10|0,0:0|0:0,0:0:0:0:
401,29,148284,6,0,P|351:42|288:60,1,90,0|0,3:0|0:0,0:0:0:0:
106,118,148618,1,10,0:0:0:0:
315,156,148784,1,0,3:0:0:0:
155,21,148951,1,2,3:2:0:0:
82,236,149118,1,8,0:3:0:0:
222,101,149284,1,4,0:3:0:0:
32,24,149451,1,8,0:0:0:0:
188,203,149618,6,0,P|281:196|323:273,1,180,6|8,3:2|0:0,0:0:0:0:
439,351,150118,2,0,P|349:348|268:384,1,180,2|0,0:0|0:0,0:0:0:0:
436,222,150618,1,8,0:0:0:0:
265,114,150784,1,0,0:0:0:0:
323,262,150951,6,0,P|333:209|344:161,1,90,6|0,3:2|0:0,0:0:0:0:
131,73,151284,1,10,0:0:0:0:
251,211,151451,1,2,0:0:0:0:
51,284,151618,1,0,3:0:0:0:
167,164,151784,1,0,3:0:0:0:
17,57,151951,2,0,L|-2:128,1,45,10|0,0:0|0:0,0:0:0:0:
66,190,152118,1,4,0:3:0:0:
265,114,152284,6,0,P|222:55|109:68,1,180,6|8,3:2|0:0,0:0:0:0:
239,233,152784,2,0,P|269:225|341:213,1,90,2|0,0:0|3:0,0:0:0:0:
500,132,153118,1,0,3:0:0:0:
389,29,153284,2,0,P|380:70|369:137,1,90,10|0,0:0|0:0,0:0:0:0:
239,233,153618,5,4,3:2:0:0:
467,316,153784,1,0,3:0:0:0:
334,189,153951,1,10,0:0:0:0:
259,367,154118,1,8,0:0:0:0:
442,210,154284,1,2,3:2:0:0:
252,87,154451,1,8,0:3:0:0:
252,87,154534,1,0,0:0:0:0:
252,87,154618,2,0,L|237:166,3,45,10|8|8|4,0:0|0:0|0:3|0:3,0:0:0:0:
213,24,154951,6,0,L|220:68,1,45,6|0,3:2|0:0,0:0:0:0:
334,189,155118,2,0,L|327:233,1,45,8|0,0:3|0:0,0:0:0:0:
129,168,155284,2,0,L|122:123,1,45,4|0,0:3|0:0,0:0:0:0:
332,77,155451,5,14,0:0:0:0:
337,58,155784,1,0,3:0:0:0:
235,169,155951,2,0,B|255:307,1,135,14|0,0:0|0:0,0:0:0:0:
256,330,156284,2,0,L|213:319,1,45,4|0,0:3|0:0,0:0:0:0:
412,239,156451,1,14,0:0:0:0:
430,245,156784,5,0,3:0:0:0:
333,192,156951,2,0,P|324:171|321:148,3,45,10|0|0|0,0:0|0:0|0:0|0:0,0:0:0:0:
430,56,157284,2,0,L|474:67,3,45,10|0|0|0,0:0|0:0|0:0|0:0,0:0:0:0:
340,22,157618,6,0,B|384:53|384:53|402:133,1,135,6|0,3:2|0:0,0:0:0:0:
407,162,157951,1,10,0:0:0:0:
97,84,158118,2,0,L|184:102,1,90,2|0,3:2|0:0,0:0:0:0:
239,259,158451,1,2,3:2:0:0:
273,75,158618,1,8,0:0:0:0:
376,229,158784,1,2,3:2:0:0:
249,173,158951,1,0,0:0:0:0:
318,292,159118,5,2,3:2:0:0:
334,154,159284,1,8,0:0:0:0:
239,259,159451,1,0,0:0:0:0:
376,229,159618,1,2,3:2:0:0:
249,173,159784,1,0,3:0:0:0:
323,322,159951,2,0,B|240:301|240:301|190:318,1,135,10|0,0:0|0:0,0:0:0:0:
18,348,160284,6,0,B|94:307|94:307|105:275|114:264,1,135,6|0,3:2|0:0,0:0:0:0:
133,246,160618,1,10,0:0:0:0:
7,127,160784,2,0,L|92:150,1,90,2|0,3:2|0:0,0:0:0:0:
23,237,161118,1,2,3:2:0:0:
75,53,161284,1,8,0:0:0:0:
135,148,161451,1,2,3:2:0:0:
352,206,161618,6,0,L|222:168,1,135,2|0,0:0|0:0,0:0:0:0:
198,187,161951,2,0,P|184:138|197:94,1,90,8|2,0:0|0:0,0:0:0:0:
287,371,162284,2,0,P|300:328|293:285,1,90,2|0,3:2|3:0,0:0:0:0:
445,16,162618,2,0,P|381:38|314:43,1,135,10|0,0:0|0:0,0:0:0:0:
293,36,162951,5,6,3:2:0:0:
368,227,163118,1,0,0:0:0:0:
280,137,163284,1,8,0:0:0:0:
280,137,163451,1,0,0:0:0:0:
384,325,163618,5,2,3:2:0:0:
384,325,163784,1,0,3:0:0:0:
430,117,163951,1,8,0:0:0:0:
270,238,164118,1,0,3:0:0:0:
346,62,164284,5,14,0:0:0:0:
467,211,164451,1,0,3:0:0:0:
280,137,164618,1,8,0:0:0:0:
384,325,164784,1,0,0:0:0:0:
430,117,164951,1,10,0:0:0:0:
368,227,165118,1,0,3:0:0:0:
366,234,165201,1,0,3:0:0:0:
364,242,165284,2,0,L|349:188,1,45,8|8,0:0|0:0,0:0:0:0:
264,64,165451,2,0,L|251:107,1,45,8|4,0:3|0:3,0:0:0:0:
111,279,165618,6,0,P|167:213|261:238,1,180,6|8,3:2|0:0,0:0:0:0:
398,362,166118,2,0,P|354:353|303:345,1,90,2|0,3:2|0:0,0:0:0:0:
511,246,166451,1,0,3:0:0:0:
381,159,166618,2,0,P|392:203|405:258,1,90,10|0,0:0|3:0,0:0:0:0:
268,85,166951,5,0,0:0:0:0:
415,32,167118,1,2,3:2:0:0:
274,198,167284,2,0,P|227:186|172:175,1,90,12|0,0:0|0:0,0:0:0:0:
24,55,167618,2,0,P|70:43|126:32,1,90,10|0,0:0|3:0,0:0:0:0:
57,256,167951,2,0,P|67:208|81:160,1,90,10|0,0:0|3:0,0:0:0:0:
267,376,168284,6,0,P|218:317|114:343,1,180,6|10,3:2|0:0,0:0:0:0:
334,273,168784,2,0,P|376:282|431:295,1,90,2|0,3:2|0:0,0:0:0:0:
512,114,169118,1,2,3:2:0:0:
381,197,169284,1,8,0:0:0:0:
321,26,169451,1,2,3:2:0:0:
484,201,169618,5,0,0:0:0:0:
297,286,169784,1,2,3:2:0:0:
361,109,169951,2,0,P|371:152|380:196,1,90,8|0,0:0|3:0,0:0:0:0:
140,292,170284,2,0,P|161:297|183:302,1,45,2|0,0:0|0:0,0:0:0:0:
278,190,170451,2,0,P|252:196|207:208,1,45,2|0,3:0|0:0,0:0:0:0:
278,374,170618,2,0,P|289:331|297:287,1,90,10|0,0:0|3:0,0:0:0:0:
213,84,170951,6,0,P|139:67|71:141,1,180,6|8,3:2|0:0,0:0:0:0:
0,260,171451,1,2,0:0:0:0:
0,260,171534,1,0,0:0:0:0:
0,260,171618,2,0,P|46:269|98:283,1,90,0|0,3:0|3:0,0:0:0:0:
302,217,171951,1,8,0:0:0:0:
161,159,172118,1,0,3:0:0:0:
191,373,172284,6,0,P|261:329|369:357,1,180,6|8,0:0|0:0,0:0:0:0:
467,115,172784,1,2,3:2:0:0:
467,115,172868,1,0,0:0:0:0:
467,115,172951,2,0,L|447:190,1,45,2|0,3:2|0:0,0:0:0:0:
331,187,173118,2,0,L|342:230,1,45,10|0,0:0|0:0,0:0:0:0:
456,321,173284,2,0,L|467:277,3,45,8|8|4|4,0:3|0:3|0:3|0:3,0:0:0:0:
476,354,173618,6,0,B|412:323|355:316|355:316|322:331|296:363,1,198.000006042481,14|0,0:0|3:0,0:0:0:0:
159,183,174118,1,12,0:0:0:0:
342,230,174284,1,2,3:2:0:0:
110,310,174451,1,0,3:0:0:0:
271,121,174618,1,12,0:0:0:0:
86,37,174784,1,0,3:0:0:0:
236,273,174951,6,0,P|284:264|333:258,1,99.0000030212403,10|0,0:0|3:0,0:0:0:0:
31,151,175284,1,8,0:0:0:0:
226,32,175451,1,0,3:0:0:0:
159,182,175618,6,0,L|147:134,1,49.5000015106202,10|0,0:0|0:0,0:0:0:0:
346,210,175784,1,8,0:0:0:0:
346,210,175867,1,8,0:0:0:0:
346,210,175951,2,0,L|334:258,1,49.5000015106202,8|8,0:3|0:3,0:0:0:0:
214,373,176118,1,4,0:3:0:0:
214,373,176201,1,4,0:3:0:0:
214,373,176284,6,0,P|148:350|39:344,1,148.50000453186,6|0,3:2|0:0,0:0:0:0:
35,349,176618,2,0,B|22:301,1,49.5000015106202,8|0,0:0|0:0,0:0:0:0:
175,222,176784,2,0,B|188:269,1,49.5000015106202,2|0,0:0|0:0,0:0:0:0:
67,201,176951,2,0,B|55:153|55:153|64:135|70:106,1,99.0000030212403,0|0,3:2|3:0,0:0:0:0:
190,57,177284,2,0,B|136:60|98:81|98:81|43:89|-6:62,1,198.000006042481,14|0,0:0|0:0,0:0:0:0:
307,91,177784,5,0,3:0:0:0:
248,261,177951,2,0,P|227:217|229:168,1,99.0000030212403,10|0,0:0|0:0,0:0:0:0:
356,279,178284,2,0,P|357:328|337:373,1,99.0000030212403,2|0,3:2|3:0,0:0:0:0:
382,170,178618,2,0,P|426:149|475:150,1,99.0000030212403,10|0,0:0|0:0,0:0:0:0:
227,293,178951,6,0,B|189:289|159:275|159:275|109:292|109:292|75:279|31:273,1,198.000006042481,2|8,3:2|0:0,0:0:0:0:
223,191,179451,1,2,0:0:0:0:
223,191,179534,1,0,0:0:0:0:
223,191,179618,2,0,P|202:147|204:98,1,99.0000030212403,0|0,3:0|3:0,0:0:0:0:
424,276,179951,2,0,L|412:378,1,99.0000030212403,10|0,0:0|3:0,0:0:0:0:
452,165,180284,6,0,P|402:165|358:185,1,99.0000030212403,2|0,0:2|3:0,0:0:0:0:
239,354,180618,1,10,0:0:0:0:
137,230,180784,1,0,0:0:0:0:
324,301,180951,1,2,3:2:0:0:
141,354,181118,1,0,3:0:0:0:
255,195,181284,1,10,0:0:0:0:
233,332,181451,1,4,0:3:0:0:
173,135,181618,6,0,B|212:144|241:159|241:159|295:154|295:154|329:169|368:179,1,198.000006042481,6|8,3:2|0:0,0:0:0:0:
46,109,182118,2,0,B|72:103|106:91|106:91|163:104|163:104|199:89|238:76,1,198.000006042481,2|0,0:0|3:0,0:0:0:0:
440,260,182618,1,8,0:0:0:0:
262,193,182784,1,0,3:0:0:0:
363,36,182951,6,0,B|352:87|340:121|340:121|362:177,1,148.50000453186,2|0,0:0|0:0,0:0:0:0:
375,203,183284,1,8,0:0:0:0:
441,111,183451,1,2,0:0:0:0:
262,193,183618,2,0,L|164:175,1,99.0000030212403,0|0,3:0|3:0,0:0:0:0:
350,382,183951,2,0,P|361:334|348:283,1,99.0000030212403,10|0,0:0|0:0,0:0:0:0:
445,233,184284,6,0,B|397:215|349:230|349:230|320:273|268:285,1,198.000006042481,2|8,3:2|0:0,0:0:0:0:
122,295,184784,1,2,0:0:0:0:
234,363,184951,2,0,P|230:290|203:206,1,148.50000453186,0|0,3:0|0:0,0:0:0:0:
154,161,185284,2,0,P|196:178|247:192,1,99.0000030212403,10|0,0:0|3:0,0:0:0:0:
407,320,185618,5,2,0:0:0:0:
362,182,185784,1,0,3:0:0:0:
268,284,185951,1,10,0:0:0:0:
404,84,186118,1,0,0:0:0:0:
158,31,186284,2,0,L|303:63,1,148.50000453186,2|0,3:2|0:0,0:0:0:0:
329,67,186618,2,0,L|235:98,1,99.0000030212403,12|0,0:0|3:0,0:0:0:0:
362,182,186951,5,6,3:2:0:0:
234,98,187118,1,0,0:0:0:0:
191,279,187284,1,8,0:0:0:0:
263,200,187451,2,0,L|167:178,1,99.0000030212403,2|0,0:0|3:0,0:0:0:0:
309,291,187784,1,2,3:2:0:0:
234,98,187951,1,8,0:0:0:0:
328,266,188118,1,2,3:0:0:0:
166,177,188284,6,0,P|139:86|160:25,1,148.50000453186,2|0,0:0|0:0,0:0:0:0:
163,16,188618,1,10,0:0:0:0:
256,238,188784,1,0,0:0:0:0:
66,363,188951,6,0,P|128:324|201:319,1,148.50000453186,2|0,3:2|0:0,0:0:0:0:
352,260,189284,2,0,P|304:249|256:238,1,99.0000030212403,10|0,0:0|0:0,0:0:0:0:
475,369,189618,6,0,P|449:289|459:219,1,148.50000453186,6|0,3:2|0:0,0:0:0:0:
470,195,189951,1,8,0:0:0:0:
352,260,190118,1,2,0:0:0:0:
278,122,190284,1,0,3:0:0:0:
396,57,190451,1,2,3:2:0:0:
374,160,190618,1,8,0:0:0:0:
223,191,190784,1,0,3:0:0:0:
223,191,190868,1,0,0:0:0:0:
223,191,190951,6,0,P|292:164|364:144,1,148.50000453186,6|0,0:0|0:0,0:0:0:0:
278,122,191284,2,0,L|181:100,1,99.0000030212403,10|0,0:0|0:0,0:0:0:0:
476,300,191618,6,0,P|497:229|472:152,1,148.50000453186,2|0,3:2|0:0,0:0:0:0:
306,207,191951,2,0,L|402:229,1,99.0000030212403,14|0,0:0|3:0,0:0:0:0:
50,31,192284,6,0,B|86:70|86:70|81:117|107:175,1,148.50000453186,6|0,3:2|0:0,0:0:0:0:
115,183,192618,1,8,0:0:0:0:
215,9,192784,2,0,B|188:50|188:50|180:99,1,99.0000030212403,2|0,0:0|3:0,0:0:0:0:
22,294,193118,2,0,L|120:280,1,99.0000030212403,2|8,3:2|0:0,0:0:0:0:
305,208,193451,1,2,3:2:0:0:
305,208,193534,1,0,0:0:0:0:
305,208,193618,1,0,0:0:0:0:
267,79,193784,5,0,3:0:0:0:
414,181,193951,2,0,B|418:232|418:232|398:275,1,99.0000030212403,10|0,0:0|0:0,0:0:0:0:
315,91,194284,2,0,L|267:79,3,49.5000015106202,2|2|2|2,3:2|0:0|3:2|0:0,0:0:0:0:
265,179,194618,2,0,L|216:189,3,49.5000015106202,10|2|2|2,0:0|0:0|3:2|0:0,0:0:0:0:
414,88,194951,5,2,3:2:0:0:
485,307,195118,1,0,0:0:0:0:
331,212,195284,1,8,0:0:0:0:
375,353,195451,2,0,L|278:330,1,99.0000030212403,2|0,0:0|3:0,0:0:0:0:
400,105,195784,2,0,P|404:154|417:201,1,99.0000030212403,2|8,3:2|0:0,0:0:0:0:
130,296,196118,1,2,3:2:0:0:
130,296,196201,1,0,0:0:0:0:
130,296,196284,6,0,L|81:284,3,49.5000015106202,12|0|0|0,0:0|0:0|3:0|0:0,0:0:0:0:
55,62,196618,2,0,L|104:74,3,49.5000015106202,14|0|0|0,0:0|0:0|3:0|0:0,0:0:0:0:
54,181,196951,2,0,L|5:192,3,49.5000015106202,14|8|0|0,0:0|0:0|3:0|3:0,0:0:0:0:
242,69,197284,1,10,0:0:0:0:
260,51,197368,1,8,0:0:0:0:
261,27,197451,1,8,0:0:0:0:
239,18,197534,1,8,0:0:0:0:
215,25,197618,6,0,B|187:136|187:136|206:175|251:157,1,175.499991966248,14|0,0:0|0:0,0:0:0:0:
329,181,197951,2,0,L|317:123,1,58.4999973220826,2|0,3:2|0:0,0:0:0:0:
512,223,198118,6,0,B|470:186|419:204|419:204|407:257|349:272,1,202.500007724762,14|0,0:0|0:0,0:0:0:0:
350,272,198451,1,0,3:0:0:0:
492,97,198618,1,8,0:0:0:0:
414,364,198784,6,0,P|381:315|255:328,1,198.000006042481,2|0,3:2|3:0,0:0:0:0:
23,357,199284,2,0,P|69:366|141:384,1,99.0000030212403,10|0,0:0|0:0,0:0:0:0:
262,184,199618,1,2,3:2:0:0:
81,271,199784,1,0,3:0:0:0:
132,72,199951,2,0,P|144:115|161:180,1,99.0000030212403,10|0,0:0|0:0,0:0:0:0:
415,92,200284,6,0,P|337:21|248:54,1,198.000006042481,2|8,3:2|0:0,0:0:0:0:
390,211,200784,2,0,P|438:199|486:189,1,99.0000030212403,2|0,0:0|3:0,0:0:0:0:
327,361,201118,1,0,3:0:0:0:
512,274,201284,1,10,0:0:0:0:
313,144,201451,1,0,3:0:0:0:
409,384,201618,6,0,P|420:326|431:268,1,99.0000030212403,2|0,0:0|3:0,0:0:0:0:
208,115,201951,2,0,P|217:163|226:212,1,99.0000030212403,10|0,0:0|0:0,0:0:0:0:
91,104,202284,1,2,3:2:0:0:
268,20,202451,1,0,3:2:0:0:
120,227,202618,2,0,P|51:218|0:283,1,148.50000453186,10|0,0:0|0:0,0:0:0:0:
0,304,202951,6,0,B|47:354|96:355|96:355|133:328|203:323,1,198.000006042481,6|8,3:2|0:0,0:0:0:0:
378,383,203451,1,2,0:0:0:0:
432,141,203618,1,0,3:0:0:0:
279,296,203784,1,0,3:0:0:0:
494,271,203951,2,0,P|447:259|379:244,1,99.0000030212403,8|0,0:0|3:0,0:0:0:0:
210,108,204284,5,2,0:0:0:0:
401,7,204451,1,0,3:0:0:0:
401,7,204534,1,0,0:0:0:0:
401,7,204618,1,8,0:0:0:0:
338,174,204784,2,0,P|327:124|313:59,1,99.0000030212403,2|0,0:0|3:0,0:0:0:0:
219,223,205118,1,0,3:0:0:0:
397,293,205284,2,0,P|439:282|500:269,1,99.0000030212403,10|0,0:0|0:0,0:0:0:0:
231,368,205618,6,0,B|165:349|102:333|102:333|79:361|24:369,1,198.000006042481,2|8,3:2|0:0,0:0:0:0:
169,155,206118,2,0,P|180:203|190:252,1,99.0000030212403,2|0,0:0|3:0,0:0:0:0:
385,108,206451,1,0,3:0:0:0:
238,32,206618,1,10,0:0:0:0:
331,219,206784,1,0,3:0:0:0:
474,46,206951,5,2,0:0:0:0:
262,148,207118,1,0,3:0:0:0:
493,270,207284,1,10,0:0:0:0:
385,139,207451,1,0,0:0:0:0:
293,343,207618,2,0,B|321:350|350:366|350:366|408:310|355:243,1,198.000006042481,2|8,3:2|0:0,0:0:0:0:
135,134,208118,1,0,3:0:0:0:
135,134,208201,1,0,0:0:0:0:
135,134,208284,5,6,3:2:0:0:
47,227,208451,1,0,0:0:0:0:
43,60,208618,1,8,0:0:0:0:
159,108,208784,2,0,P|106:97|62:88,1,99.0000030212403,2|0,0:0|3:0,0:0:0:0:
300,87,209118,1,2,3:2:0:0:
160,242,209284,1,8,0:0:0:0:
242,164,209451,1,2,3:2:0:0:
242,164,209534,1,0,0:0:0:0:
242,164,209618,6,0,B|270:101|236:50|236:50|194:36,1,148.50000453186,2|0,0:0|0:0,0:0:0:0:
139,67,209951,2,0,P|185:60|243:50,1,99.0000030212403,10|0,0:0|0:0,0:0:0:0:
27,247,210284,2,0,L|124:231,1,99.0000030212403,2|0,3:2|3:0,0:0:0:0:
305,310,210618,2,0,B|400:295|400:295|450:312,1,148.50000453186,10|0,0:0|0:0,0:0:0:0:
512,366,210951,6,0,B|539:316|520:264|520:264|469:238,1,148.50000453186,6|0,3:2|0:0,0:0:0:0:
431,164,211284,1,8,0:0:0:0:
449,311,211451,1,2,0:0:0:0:
298,183,211617,1,0,3:0:0:0:
181,254,211784,1,2,3:2:0:0:
305,310,211951,1,8,0:0:0:0:
206,166,212118,1,0,3:0:0:0:
206,166,212201,1,0,0:0:0:0:
206,166,212284,6,0,B|228:261|228:261|206:315,1,148.50000453186,2|0,0:0|0:0,0:0:0:0:
90,352,212618,2,0,P|138:341|188:336,1,99.0000030212403,10|0,0:0|0:0,0:0:0:0:
211,66,212951,6,0,B|242:72|265:83|265:83|299:72|299:72|332:87|351:87,1,148.50000453186,2|0,3:2|0:0,0:0:0:0:
420,40,213284,2,0,B|436:98|436:98|420:139,1,99.0000030212403,10|0,0:0|3:0,0:0:0:0:
119,234,213618,5,6,3:2:0:0:
298,183,213784,1,0,0:0:0:0:
350,1,213951,1,8,0:0:0:0:
421,134,214118,1,2,0:0:0:0:
421,134,214201,1,0,0:0:0:0:
421,134,214284,1,0,3:0:0:0:
254,19,214451,2,0,P|234:64|231:113,1,99.0000030212403,2|8,3:2|0:0,0:0:0:0:
400,342,214784,1,2,3:2:0:0:
400,342,214867,1,0,0:0:0:0:
400,342,214951,5,0,0:0:0:0:
306,166,215118,1,0,3:0:0:0:
486,63,215284,2,0,B|460:106|460:106|420:134,1,99.0000030212403,10|0,0:0|0:0,0:0:0:0:
280,76,215618,2,0,P|259:63|235:58,3,49.5000015106202,2|0|0|0,3:2|0:0|3:0|0:0,0:0:0:0:
67,98,215951,2,0,P|43:106|19:110,3,49.5000015106202,14|0|0|0,0:0|0:0|3:0|0:0,0:0:0:0:
127,24,216284,6,0,B|157:68|155:128|155:128|135:169,1,148.50000453186,6|0,3:2|0:0,0:0:0:0:
225,344,216618,1,8,0:0:0:0:
354,203,216784,2,0,B|315:250|315:250|303:300,1,99.0000030212403,2|0,0:0|3:0,0:0:0:0:
19,284,217118,2,0,P|67:274|114:259,1,99.0000030212403,2|8,3:2|0:0,0:0:0:0:
168,80,217451,1,2,0:0:0:0:
168,80,217534,1,0,0:0:0:0:
168,80,217618,6,0,L|156:32,3,49.5000015106202,4|0|0|0,3:2|0:0|3:0|0:0,0:0:0:0:
226,202,217951,6,0,L|214:251,3,49.5000015106202,14|0|0|0,0:0|0:0|3:0|0:0,0:0:0:0:
44,166,218284,6,0,L|109:150,1,49.5000015106202,10|0,0:0|0:0,0:0:0:0:
269,70,218451,2,0,L|317:81,1,49.5000015106202,0|0,3:0|3:0,0:0:0:0:
412,348,218618,6,0,L|396:283,1,49.5000015106202,14|8,0:0|0:0,0:0:0:0:
310,221,218784,2,0,L|321:172,1,49.5000015106202,8|0,0:3|0:3,0:0:0:0:
465,95,218951,5,6,3:2:0:0:
288,314,219118,1,0,0:0:0:0:
288,314,219201,1,0,0:0:0:0:
288,314,219284,1,8,0:0:0:0:
511,219,219451,2,0,P|461:205|409:195,1,99.0000030212403,2|0,0:0|3:0,0:0:0:0:
214,60,219784,2,0,P|258:51|310:37,1,99.0000030212403,2|8,3:2|0:0,0:0:0:0:
137,182,220118,5,2,3:2:0:0:
66,29,220284,1,0,0:0:0:0:
248,147,220451,1,0,3:0:0:0:
40,263,220618,2,0,B|95:310|153:291|153:291|175:254|216:245,1,198.000006042481,10|2,0:0|3:2,0:0:0:0:
366,384,221118,1,0,3:0:0:0:
425,195,221284,1,10,0:0:0:0:
240,340,221451,1,0,3:0:0:0:
512,271,221618,5,2,3:2:0:0:
341,121,221784,1,0,0:0:0:0:
341,121,221868,1,0,0:0:0:0:
341,121,221951,1,8,0:0:0:0:
403,292,222118,2,0,L|425:195,1,99.0000030212403,2|0,0:0|3:0,0:0:0:0:
296,14,222451,1,2,3:2:0:0:
497,121,222618,1,8,0:0:0:0:
325,236,222784,1,2,3:2:0:0:
430,16,222951,6,0,L|413:79,1,49.5000015106202,8|0,0:0|0:0,0:0:0:0:
307,146,223118,2,0,L|294:98,1,49.5000015106202,0|0,3:0|0:0,0:0:0:0:
512,271,223284,2,0,P|461:260|407:249,1,99.0000030212403,10|0,0:0|3:0,0:0:0:0:
104,373,223618,5,10,0:0:0:0:
125,329,223701,1,8,0:0:0:0:
166,301,223784,1,0,3:0:0:0:
215,298,223868,1,0,3:0:0:0:
259,320,223951,1,10,0:0:0:0:
443,163,224118,2,0,L|384:151,1,49.5000015106202,8|0,0:0|0:0,0:0:0:0:
219,62,224284,6,0,B|255:27|255:27|316:93|258:165,1,198.000006042481,14|0,0:0|3:0,0:0:0:0:
48,279,224784,2,0,B|85:235|140:245|140:245|160:289|214:297,1,198.000006042481,14|0,0:0|3:0,0:0:0:0:
443,163,225284,5,14,0:0:0:0:
239,196,225451,1,2,3:2:0:0:
470,282,225618,1,2,3:2:0:0:
256,88,225784,1,14,0:0:0:0:
452,20,225951,1,2,3:2:0:0:
344,242,226118,1,2,3:2:0:0:
157,56,226284,5,14,0:0:0:0:
351,138,226451,1,2,3:2:0:0:
351,138,226534,1,0,0:0:0:0:
351,138,226618,1,2,3:2:0:0:
145,303,226784,1,14,0:0:0:0:
217,160,226951,1,2,3:2:0:0:
217,160,227034,1,0,0:0:0:0:
217,160,227118,1,2,3:2:0:0:
311,344,227284,5,14,0:0:0:0:
111,196,227451,1,2,3:2:0:0:
327,115,227618,1,2,3:2:0:0:
145,303,227784,1,14,0:0:0:0:
393,211,227951,1,2,3:2:0:0:
211,53,228118,1,2,3:2:0:0:
48,325,228284,6,0,P|96:313|145:303,1,99.0000030212403,14|2,0:0|3:2,0:0:0:0:
489,233,228618,2,0,P|440:221|392:210,1,99.0000030212403,14|2,0:0|3:2,0:0:0:0:
121,151,228951,5,10,0:0:0:0:
121,151,229034,1,8,0:3:0:0:
121,151,229118,1,4,0:3:0:0:
374,52,229284,1,4,0:3:0:0:
256,352,229451,1,6,3:2:0:0:
