osu file format v14

[General]
AudioFilename: audio.mp3
AudioLeadIn: 0
PreviewTime: 173534
Countdown: 0
SampleSet: Soft
StackLeniency: 0.7
Mode: 0
LetterboxInBreaks: 0
EpilepsyWarning: 1
WidescreenStoryboard: 1

[Editor]
Bookmarks: 10951,12951,21618,33618,44284,54951,65618,76284,97618,110951,121618,133618,144284,154951,165618,176284,197618,208284,218951,229451
DistanceSpacing: 1.4
BeatDivisor: 4
GridSize: 32
TimelineZoom: 2

[Metadata]
Title:Sakura no Uta
TitleUnicode:櫻ノ詩
Artist:Hana
ArtistUnicode:はな
Creator:Dored
Version:Kujinn's Extra
Source:サクラノ詩 -櫻の森の上を舞う-
Tags:- Sakura no Mori no Ue o Mau - Metrowing 枕 Makura 松本文紀 szak Matsumoto Fuminori うさ Usa Eroge Visual Novel Galgame Video Game Japanese Pop Jpop J-pop Opening OP Full Version Silky Kanau Mamayu fuyuyu- Irohas SuperDalouBot Liszt Little CloudSplash16 Kowari Kujinn Reform Moeka Momoka Shioi No Dap Erisu Lanzhu
BeatmapID:3691246
BeatmapSetID:1037744

[Difficulty]
HPDrainRate:5.5
CircleSize:4
OverallDifficulty:8.5
ApproachRate:9.2
SliderMultiplier:1.72
SliderTickRate:1

[Events]
//Background and Video events
0,0,"Mizuna.jpg",0,0
//Break Periods
2,111151,121048
//Storyboard Layer 0 (Background)
Sprite,Background,Centre,"Mizuna.jpg",320,240
//Storyboard Layer 1 (Fail)
//Storyboard Layer 2 (Pass)
//Storyboard Layer 3 (Foreground)
//Storyboard Layer 4 (Overlay)
//Storyboard Sound Samples

[TimingPoints]
285,333.333333333333,4,2,22,50,1,0
285,-153.846153846153,4,2,22,50,0,0
9284,-153.846153846153,4,2,22,60,0,0
9618,-117.647058823529,4,2,22,70,0,0
10951,-95.238095238095,4,2,22,70,0,0
32284,-117.647058823529,4,2,22,60,0,0
32951,-117.647058823529,4,2,22,50,0,0
33618,-133.333333333333,4,2,22,60,0,0
52284,-105.263157894737,4,2,22,70,0,0
57618,-117.64705882353,4,2,22,70,0,0
65618,-105.263157894737,4,2,22,70,0,0
68284,-117.64705882353,4,2,22,70,0,0
73618,-86.9565217391307,4,2,22,80,0,0
76284,-95.2380952380952,4,2,22,80,0,1
97618,-133.333333333333,4,2,22,60,0,0
108784,-222.222222222221,4,2,22,50,0,0
110118,-222.222222222221,4,2,22,40,0,0
110951,-95.2380952380951,4,2,22,70,0,0
133618,-117.647058823529,4,2,22,60,0,0
152284,-105.263157894737,4,2,22,70,0,0
157618,-117.64705882353,4,2,22,70,0,0
165618,-105.263157894737,4,2,22,70,0,0
173618,-95.2380952380954,4,2,22,80,0,0
176284,-86.9565217391304,4,2,22,80,0,1
229451,-86.9565217391304,4,2,22,80,0,0

[Colours]
Combo1 : 166,166,255
Combo2 : 253,179,225
Combo3 : 167,245,241
Combo4 : 218,137,252

[HitObjects]
16,54,285,6,0,P|65:38|156:104,1,167.699992323304,2|2,0:0|0:0,0:0:0:0:
201,167,951,2,0,P|194:200|188:235,1,55.8999974411012,0|2,0:0|0:0,0:0:0:0:
106,271,1284,6,0,P|187:251|275:235,1,167.699992323304,2|0,0:0|0:0,0:0:0:0:
338,289,1951,2,0,P|360:315|439:313,2,111.799994882202,2|2|0,0:0|0:0|0:0,0:0:0:0:
472,14,2951,6,0,P|457:90|445:147,1,111.799994882202,2|0,0:0|0:0,0:0:0:0:
375,148,3451,2,0,P|390:224|402:281,1,111.799994882202,2|0,0:0|0:0,0:0:0:0:
478,354,3951,2,0,P|452:315|327:323,1,167.699992323304,2|0,0:0|0:0,0:0:0:0:
260,359,4618,6,0,P|229:368|196:378,1,55.8999974411012,2|0,0:0|0:0,0:0:0:0:
157,295,4951,2,0,P|130:286|103:279,1,55.8999974411012,2|0,0:0|0:0,0:0:0:0:
32,331,5284,2,0,P|40:357|47:384,1,55.8999974411012,2|0,0:0|0:0,0:0:0:0:
19,251,5618,6,0,P|26:224|34:197,2,55.8999974411012,2|0|2,0:0|0:0|0:0,0:0:0:0:
120,180,6118,2,0,P|112:153|104:126,2,55.8999974411012,0|2|0,0:0|0:0|0:0,0:0:0:0:
225,120,6618,2,0,B|209:180|180:290,1,167.699992323304,2|2,0:0|0:0,0:0:0:0:
239,350,7284,6,0,P|267:372|304:373,1,55.8999974411012,0|2,0:0|0:0,0:0:0:0:
295,249,7618,2,0,P|289:284|307:316,1,55.8999974411012,2|2,0:0|0:0,0:0:0:0:
414,243,7951,2,0,P|380:256|361:287,1,55.8999974411012,2|0,0:0|0:0,0:0:0:0:
460,318,8284,6,0,B|445:265|427:191,1,111.799994882202,2|0,0:0|0:0,0:0:0:0:
511,169,8784,2,0,P|469:177|410:119,1,111.799994882202,2|0,0:0|0:0,0:0:0:0:
356,38,9284,1,2,0:0:0:0:
356,38,9451,1,0,3:0:0:0:
133,149,9618,6,0,P|124:98|117:59,1,73.1000013942719,4|0,0:0|3:0,0:0:0:0:
290,250,9951,2,0,P|299:199|306:160,1,73.1000013942719,10|2,0:0|3:0,0:0:0:0:
211,346,10284,1,8,0:0:0:0:
394,241,10451,1,10,0:0:0:0:
394,241,10534,1,8,0:0:0:0:
394,241,10618,1,8,0:3:0:0:
216,150,10784,1,4,0:3:0:0:
366,344,10951,6,0,P|421:352|491:241,1,180.599994488526,6|8,3:2|0:0,0:0:0:0:
299,124,11451,1,2,0:0:0:0:
394,241,11618,2,0,P|403:188|416:134,1,90.2999972442628,10|2,0:0|3:2,0:0:0:0:
274,19,11951,6,0,P|222:9|173:131,1,180.599994488526,10|8,0:0|0:0,0:0:0:0:
277,217,12451,1,0,3:0:0:0:
277,217,12618,2,0,P|286:164|299:110,1,90.2999972442628,10|0,0:0|0:0,0:0:0:0:
79,288,12951,2,0,P|71:243|61:199,1,90.2999972442628,10|0,0:0|3:0,0:0:0:0:
252,344,13284,2,0,P|200:354|145:382,1,90.2999972442628,10|0,0:0|3:0,0:0:0:0:
332,182,13618,6,0,B|373:157|414:193|414:193|442:240|494:219,1,180.599994488526,10|8,0:0|0:0,0:0:0:0:
494,71,14118,2,0,P|451:73|418:130,1,90.2999972442628,2|8,0:0|0:0,0:0:0:0:
364,262,14451,1,0,3:0:0:0:
228,34,14618,6,0,P|240:99|259:232,1,180.599994488526,10|8,0:0|0:0,0:0:0:0:
173,357,15118,1,0,3:0:0:0:
55,228,15284,2,0,P|78:193|146:192,1,90.2999972442628,10|0,0:0|0:0,0:0:0:0:
267,296,15618,2,0,P|255:348|245:405,1,90.2999972442628,10|0,0:0|3:0,0:0:0:0:
418,205,15951,2,0,P|409:160|399:116,1,90.2999972442628,10|0,0:0|3:0,0:0:0:0:
304,0,16284,5,14,0:0:0:0:
483,102,16451,1,2,0:0:0:0:
291,205,16618,1,10,0:0:0:0:
428,19,16784,1,2,0:0:0:0:
423,255,16951,1,10,0:0:0:0:
265,92,17118,1,2,3:2:0:0:
446,160,17284,6,0,P|400:153|338:271,1,180.599994488526,10|8,0:0|0:0,0:0:0:0:
482,307,17784,1,2,3:2:0:0:
287,360,17951,2,0,P|344:373|397:395,1,90.2999972442628,10|2,0:0|0:0,0:0:0:0:
106,206,18284,1,10,0:0:0:0:
185,352,18451,1,2,3:2:0:0:
243,145,18618,2,0,P|226:201|210:263,1,90.2999972442628,10|0,0:0|3:0,0:0:0:0:
29,33,18951,6,0,P|124:43|137:144,1,180.599994488526,10|8,0:0|0:0,0:0:0:0:
21,246,19451,2,0,P|73:227|129:220,1,90.2999972442628,2|8,0:0|0:0,0:0:0:0:
201,306,19784,1,0,3:0:0:0:
324,159,19951,2,0,P|272:140|216:133,1,90.2999972442628,10|0,0:0|0:0,0:0:0:0:
439,349,20284,6,0,P|452:292|468:236,1,90.2999972442628,12|0,0:0|3:0,0:0:0:0:
311,63,20618,2,0,P|322:106|332:150,1,90.2999972442628,10|0,0:0|3:0,0:0:0:0:
279,314,20951,1,8,0:0:0:0:
448,173,21118,1,8,0:0:0:0:
448,173,21201,1,8,0:0:0:0:
448,173,21284,2,0,P|473:179|512:188,2,45.1499986221314,8|8|4,0:3|0:3|0:3,0:0:0:0:
89,45,21618,6,0,B|136:22|171:56|171:56|203:104|251:82,1,180.599994488526,6|8,3:2|0:0,0:0:0:0:
396,12,22118,1,2,0:0:0:0:
335,234,22284,2,0,P|324:182|307:126,1,90.2999972442628,10|2,0:0|3:2,0:0:0:0:
436,291,22618,6,0,P|412:344|289:333,1,180.599994488526,10|8,0:0|0:0,0:0:0:0:
101,215,23118,1,0,3:0:0:0:
171,380,23284,2,0,P|182:328|199:272,1,90.2999972442628,10|0,0:0|0:0,0:0:0:0:
77,132,23618,2,0,P|37:142|9:205,1,90.2999972442628,10|0,0:0|3:0,0:0:0:0:
238,105,23951,2,0,P|227:53|210:-3,1,90.2999972442628,10|0,0:0|3:0,0:0:0:0:
345,215,24284,6,0,B|399:191|458:255|402:237|461:300|512:265,1,180.599994488526,10|8,0:0|0:0,0:0:0:0:
365,384,24784,2,0,P|348:337|367:287,1,90.2999972442628,2|8,0:0|0:0,0:0:0:0:
471,165,25118,1,0,3:0:0:0:
327,38,25284,6,0,P|243:29|204:105,1,180.599994488526,8|8,0:0|0:0,0:0:0:0:
287,233,25784,1,0,3:0:0:0:
287,233,25951,2,0,P|233:217|173:202,1,90.2999972442628,10|0,0:0|0:0,0:0:0:0:
16,315,26284,1,10,0:0:0:0:
88,169,26451,1,0,3:0:0:0:
149,367,26618,2,0,P|135:299|119:248,1,90.2999972442628,10|0,0:0|3:0,0:0:0:0:
370,91,26951,5,14,0:0:0:0:
236,210,27118,1,2,0:0:0:0:
457,124,27284,1,10,0:0:0:0:
268,31,27451,1,2,0:0:0:0:
402,253,27618,1,10,0:0:0:0:
172,132,27784,1,2,3:2:0:0:
368,14,27951,6,0,P|352:90|332:224,1,180.599994488526,10|8,0:0|0:0,0:0:0:0:
377,353,28451,1,2,3:2:0:0:
190,214,28618,2,0,P|202:263|214:329,1,90.2999972442628,10|2,0:0|0:0,0:0:0:0:
122,124,28951,1,10,0:0:0:0:
295,203,29118,1,2,3:2:0:0:
47,372,29284,2,0,P|55:327|66:283,1,90.2999972442628,10|0,0:0|3:0,0:0:0:0:
36,137,29618,6,0,P|63:195|185:177,1,180.599994488526,10|8,0:0|0:0,0:0:0:0:
144,36,30118,2,0,P|129:92|116:150,1,90.2999972442628,2|8,0:0|0:0,0:0:0:0:
295,239,30451,1,0,3:0:0:0:
295,239,30618,2,0,P|284:195|272:151,1,90.2999972442628,10|0,0:0|0:0,0:0:0:0:
188,341,30951,6,0,P|235:350|288:371,1,90.2999972442628,12|0,0:0|3:0,0:0:0:0:
379,148,31284,1,10,0:0:0:0:
193,233,31451,1,0,3:0:0:0:
380,358,31618,1,8,0:0:0:0:
380,358,31701,1,0,0:0:0:0:
380,358,31784,2,0,L|391:295,1,45.1499986221314,8|8,0:0|0:0,0:0:0:0:
298,222,31951,2,0,L|287:159,3,45.1499986221314,8|8|4|4,0:3|0:3|0:3|0:3,0:0:0:0:
498,67,32284,5,10,0:0:0:0:
470,153,32451,1,2,0:0:0:0:
390,173,32618,1,2,0:0:0:0:
330,108,32784,1,2,0:0:0:0:
303,8,32951,2,0,P|308:45|315:80,1,73.1000013942719,2|2,0:0|0:0,0:0:0:0:
215,215,33284,2,0,P|210:178|204:143,1,73.1000013942719,2|2,0:0|0:0,0:0:0:0:
59,302,33618,6,0,P|120:290|161:336,1,129.00000492096,6|0,3:2|3:0,0:0:0:0:
235,380,34118,2,0,P|273:368|318:358,1,64.5000024604798,2|0,0:0|3:0,0:0:0:0:
359,304,34451,1,0,0:0:0:0:
359,304,34618,2,0,P|397:316|442:326,1,64.5000024604798,2|0,3:2|0:0,0:0:0:0:
477,376,34951,6,0,P|465:317|447:220,1,129.00000492096,0|2,3:0|3:2,0:0:0:0:
368,203,35451,1,0,0:0:0:0:
368,203,35618,2,0,P|379:159|387:127,1,64.5000024604798,2|0,3:2|0:0,0:0:0:0:
462,89,35951,2,0,P|451:45|443:13,1,64.5000024604798,2|0,3:2|0:0,0:0:0:0:
359,0,36284,6,0,P|297:-1|265:51,2,129.00000492096,2|2|2,3:2|3:2|3:2,0:0:0:0:
462,89,37118,1,0,0:0:0:0:
462,89,37284,2,0,P|430:96|399:105,1,64.5000024604798,2|0,3:2|0:0,0:0:0:0:
325,170,37618,6,0,P|337:210|347:249,1,64.5000024604798,0|0,3:0|0:0,0:0:0:0:
415,287,37951,2,0,P|403:327|393:366,1,64.5000024604798,2|0,3:2|0:0,0:0:0:0:
272,263,38284,1,2,3:2:0:0:
411,188,38451,1,8,0:0:0:0:
265,267,38618,2,0,P|226:252|192:242,1,64.5000024604798,8|4,0:3|0:3,0:0:0:0:
60,272,38951,6,0,P|23:298|40:389,2,129.00000492096,6|2|2,3:2|3:2|3:2,0:0:0:0:
147,316,39784,1,0,0:0:0:0:
147,316,39951,2,0,P|132:252|105:171,1,129.00000492096,2|0,3:2|3:0,0:0:0:0:
33,138,40451,5,0,0:0:0:0:
33,138,40618,2,0,P|64:118|107:117,1,64.5000024604798,2|0,3:2|0:0,0:0:0:0:
105,11,40951,2,0,P|137:27|160:64,1,64.5000024604798,2|0,3:2|0:0,0:0:0:0:
258,36,41284,2,0,P|259:72|239:110,1,64.5000024604798,2|0,3:2|0:0,0:0:0:0:
167,174,41618,6,0,P|181:236|201:298,1,129.00000492096,2|2,3:2|3:2,0:0:0:0:
316,373,42118,2,0,P|326:330|342:291,1,64.5000024604798,2|0,0:0|3:2,0:0:0:0:
414,277,42451,1,2,0:0:0:0:
414,277,42618,2,0,P|361:285|313:222,1,129.00000492096,2|2,3:2|3:2,0:0:0:0:
235,174,43118,1,0,0:0:0:0:
235,174,43284,2,0,P|225:131|209:92,1,64.5000024604798,2|0,3:2|0:0,0:0:0:0:
129,6,43618,5,2,3:2:0:0:
288,73,43784,1,8,0:0:0:0:
133,161,43951,1,8,0:3:0:0:
133,161,44118,1,4,0:3:0:0:
241,1,44284,6,0,P|285:-13|366:51,2,129.00000492096,6|0|0,3:2|3:0|3:0,0:0:0:0:
151,86,45118,1,0,0:0:0:0:
151,86,45284,2,0,P|113:76|70:61,1,64.5000024604798,2|0,3:2|0:0,0:0:0:0:
192,198,45618,2,0,P|230:208|273:223,1,64.5000024604798,0|0,3:0|0:0,0:0:0:0:
46,238,45951,6,0,P|36:200|21:157,1,64.5000024604798,2|0,3:2|0:0,0:0:0:0:
105,368,46284,2,0,P|115:330|130:287,1,64.5000024604798,2|0,3:2|0:0,0:0:0:0:
253,215,46618,2,0,P|243:245|235:276,1,64.5000024604798,2|0,3:2|0:0,0:0:0:0:
290,375,46951,6,0,P|333:389|396:323,2,129.00000492096,2|2|2,3:2|3:2|3:2,0:0:0:0:
208,349,47784,1,0,0:0:0:0:
208,349,47951,2,0,P|171:360|129:380,1,64.5000024604798,2|0,3:2|0:0,0:0:0:0:
61,301,48284,2,0,P|98:290|140:270,1,64.5000024604798,0|0,3:2|0:0,0:0:0:0:
177,175,48618,6,0,P|192:222|202:259,1,64.5000024604798,2|8,3:2|0:0,0:0:0:0:
253,39,48951,1,2,3:2:0:0:
107,121,49118,1,8,0:3:0:0:
266,192,49284,1,4,0:3:0:0:
266,192,49451,1,8,0:0:0:0:
124,40,49618,6,0,P|76:42|23:127,1,129.00000492096,6|0,3:2|3:0,0:0:0:0:
94,193,50118,1,2,0:0:0:0:
94,193,50284,2,0,P|107:237|118:280,1,64.5000024604798,0|0,3:0|0:0,0:0:0:0:
203,365,50618,2,0,P|211:333|220:303,1,64.5000024604798,0|0,3:0|0:0,0:0:0:0:
374,267,50951,6,0,P|336:248|292:230,1,64.5000024604798,6|0,3:2|0:0,0:0:0:0:
197,166,51284,1,2,3:2:0:0:
197,166,51451,2,0,P|252:175|303:111,1,129.00000492096,2|0,0:0|3:0,0:0:0:0:
206,16,51951,2,0,P|215:46|223:78,1,64.5000024604798,10|0,0:2|0:0,0:0:0:0:
460,40,52284,6,0,P|446:93|418:215,1,163.399995636749,6|8,3:2|0:0,0:0:0:0:
455,369,52784,1,2,0:0:0:0:
257,236,52951,2,0,P|282:204|351:207,1,81.6999978183747,0|0,3:0|3:0,0:0:0:0:
353,384,53284,2,0,P|312:369|257:353,1,81.6999978183747,10|0,0:0|0:0,0:0:0:0:
166,192,53618,5,4,3:2:0:0:
332,280,53784,1,0,3:0:0:0:
332,280,53868,1,0,0:0:0:0:
332,280,53951,1,10,0:0:0:0:
172,362,54118,1,8,0:0:0:0:
243,159,54284,1,2,3:2:0:0:
339,370,54451,1,8,0:3:0:0:
131,265,54618,1,10,0:0:0:0:
348,156,54784,1,8,0:3:0:0:
249,362,54951,6,0,P|234:284|208:172,1,163.399995636749,6|4,3:2|0:3,0:0:0:0:
192,129,55451,1,14,0:0:0:0:
192,129,55784,1,0,3:0:0:0:
471,33,55951,6,0,P|427:24|364:112,1,163.399995636749,14|4,0:0|0:3,0:0:0:0:
391,184,56451,1,14,0:0:0:0:
391,184,56784,1,0,3:0:0:0:
512,289,56951,6,0,P|474:273|436:261,1,81.6999978183747,10|0,0:0|3:0,0:0:0:0:
356,66,57284,2,0,P|394:82|433:95,1,81.6999978183747,10|0,0:0|3:0,0:0:0:0:
194,12,57618,6,0,P|206:74|223:173,1,146.200002788544,6|10,3:2|0:0,0:0:0:0:
78,256,58118,2,0,P|123:239|168:229,1,73.1000013942719,2|0,3:2|0:0,0:0:0:0:
276,384,58451,2,0,P|231:367|186:357,1,73.1000013942719,2|8,3:2|0:0,0:0:0:0:
332,240,58784,1,2,3:2:0:0:
459,371,58951,6,0,P|469:328|483:276,1,73.1000013942719,0|2,0:0|3:2,0:0:0:0:
324,156,59284,2,0,P|333:191|341:227,1,73.1000013942719,10|0,0:0|0:0,0:0:0:0:
377,39,59618,1,2,3:2:0:0:
246,118,59784,1,0,3:0:0:0:
433,201,59951,2,0,P|441:165|450:129,1,73.1000013942719,10|0,0:0|0:0,0:0:0:0:
266,31,60284,6,0,P|220:25|164:112,1,146.200002788544,6|10,3:2|0:0,0:0:0:0:
251,223,60784,2,0,P|210:208|165:193,1,73.1000013942719,2|0,3:2|0:0,0:0:0:0:
9,289,61118,1,2,3:2:0:0:
63,164,61284,1,8,0:0:0:0:
160,334,61451,6,0,P|201:319|246:304,1,73.1000013942719,2|2,3:2|0:0,0:0:0:0:
393,364,61784,1,0,3:0:0:0:
331,170,61951,2,0,P|321:224|312:270,1,73.1000013942719,8|2,0:0|0:0,0:0:0:0:
276,76,62284,1,2,3:2:0:0:
419,172,62451,1,0,3:0:0:0:
224,294,62618,2,0,P|217:258|210:222,1,73.1000013942719,10|0,0:0|0:0,0:0:0:0:
30,73,62951,6,0,P|56:120|161:114,1,146.200002788544,6|8,3:2|0:0,0:0:0:0:
268,15,63451,1,0,0:0:0:0:
341,150,63618,2,0,P|306:160|271:173,1,73.1000013942719,2|0,3:2|3:0,0:0:0:0:
117,48,63951,2,0,P|151:58|186:71,1,73.1000013942719,8|0,0:0|3:0,0:0:0:0:
181,190,64284,5,14,0:0:0:0:
303,30,64451,1,0,3:0:0:0:
287,244,64618,2,0,P|276:193|265:146,1,73.1000013942719,8|0,0:0|0:0,0:0:0:0:
179,28,64951,1,10,0:0:0:0:
377,118,65118,1,0,3:0:0:0:
377,118,65201,1,0,3:0:0:0:
377,118,65284,2,0,P|368:153|361:189,1,73.1000013942719,8|0,0:0|3:0,0:0:0:0:
503,321,65618,6,0,B|409:287|436:380|326:326,1,163.399995636749,6|8,3:2|0:0,0:0:0:0:
266,376,66118,2,0,P|257:323|246:268,1,81.6999978183747,2|0,3:2|0:0,0:0:0:0:
306,225,66451,1,0,3:0:0:0:
0,134,66618,6,0,B|94:100|67:193|177:139,1,163.399995636749,10|0,0:0|0:0,0:0:0:0:
237,189,67118,2,0,P|246:136|257:81,1,81.6999978183747,2|12,3:2|0:0,0:0:0:0:
200,42,67451,1,0,0:0:0:0:
325,21,67618,6,0,P|371:33|420:37,1,81.6999978183747,10|2,0:0|0:0,0:0:0:0:
154,148,67951,2,0,P|108:136|59:132,1,81.6999978183747,8|0,0:0|3:0,0:0:0:0:
235,46,68284,6,0,P|247:115|266:219,1,146.200002788544,6|10,3:2|0:0,0:0:0:0:
331,273,68784,2,0,P|322:319|312:376,1,73.1000013942719,2|0,3:2|0:0,0:0:0:0:
421,194,69118,2,0,P|430:240|440:297,1,73.1000013942719,2|8,3:2|0:0,0:0:0:0:
320,129,69451,1,2,3:2:0:0:
448,77,69618,6,0,P|402:62|367:46,1,73.1000013942719,0|2,0:0|3:2,0:0:0:0:
242,184,69951,2,0,P|275:169|310:159,1,73.1000013942719,8|0,0:0|3:0,0:0:0:0:
120,110,70284,1,2,0:0:0:0:
196,258,70451,1,0,3:0:0:0:
290,83,70618,2,0,P|256:68|221:58,1,73.1000013942719,10|0,0:0|0:0,0:0:0:0:
53,18,70951,6,0,P|68:78|92:177,1,146.200002788544,6|8,3:2|0:0,0:0:0:0:
45,296,71451,1,2,0:0:0:0:
206,206,71618,2,0,P|194:254|183:300,1,73.1000013942719,2|2,3:2|3:2,0:0:0:0:
30,374,71951,2,0,P|21:338|12:303,1,73.1000013942719,10|2,0:0|3:2,0:0:0:0:
168,133,72284,6,0,P|211:125|284:215,1,146.200002788544,6|8,0:0|0:0,0:0:0:0:
339,298,72784,1,2,3:2:0:0:
459,179,72951,1,2,3:2:0:0:
459,179,73034,1,0,3:0:0:0:
459,179,73118,2,0,L|447:236,1,36.5500006971359,10|0,0:0|0:0,0:0:0:0:
420,380,73284,2,0,L|412:344,3,36.5500006971359,8|8|4|4,0:3|0:3|0:3|0:3,0:0:0:0:
282,187,73618,6,0,B|222:161|165:233|229:209|165:298|98:242,1,197.800003772736,14|0,0:0|3:0,0:0:0:0:
45,106,74118,2,0,P|98:112|125:162,1,98.9000018863678,12|2,0:0|3:2,0:0:0:0:
185,329,74451,1,0,3:0:0:0:
239,65,74618,2,0,P|227:132|218:184,1,98.9000018863678,12|0,0:0|0:0,0:0:0:0:
309,353,74951,5,10,0:0:0:0:
86,220,75118,1,0,3:0:0:0:
319,154,75284,1,12,0:0:0:0:
105,336,75451,1,0,0:0:0:0:
186,95,75618,1,10,3:2:0:0:
186,95,75701,1,8,0:0:0:0:
186,95,75784,2,0,L|197:161,1,49.4500009431839,8|8,0:0|0:0,0:0:0:0:
339,315,75951,2,0,L|347:266,3,49.4500009431839,8|8|4|4,0:3|0:3|0:3|0:3,0:0:0:0:
500,138,76284,6,0,B|455:114|418:149|418:149|390:196|338:175,1,180.599994488526,6|8,3:2|0:0,0:0:0:0:
164,107,76784,1,2,0:0:0:0:
355,35,76951,1,0,3:0:0:0:
254,238,77118,1,0,3:0:0:0:
128,27,77284,2,0,P|192:26|235:66,1,90.2999972442628,10|0,0:0|3:0,0:0:0:0:
51,203,77618,6,0,P|42:144|32:96,1,90.2999972442628,2|0,0:0|3:0,0:0:0:0:
258,302,77951,2,0,P|267:243|277:195,1,90.2999972442628,10|0,0:0|0:0,0:0:0:0:
356,21,78284,1,2,3:2:0:0:
183,115,78451,1,0,3:0:0:0:
408,211,78618,2,0,P|399:152|389:104,1,90.2999972442628,10|0,0:0|0:0,0:0:0:0:
333,318,78951,6,0,P|375:360|495:325,1,180.599994488526,2|8,3:2|0:0,0:0:0:0:
232,173,79451,2,0,P|223:217|217:262,1,90.2999972442628,2|0,0:0|3:0,0:0:0:0:
115,111,79784,1,0,3:0:0:0:
310,17,79951,2,0,P|318:61|324:106,1,90.2999972442628,10|0,0:0|3:0,0:0:0:0:
445,270,80284,6,0,P|399:256|339:247,1,90.2999972442628,2|0,0:0|0:0,0:0:0:0:
144,194,80618,2,0,P|190:180|250:171,1,90.2999972442628,10|0,0:0|0:0,0:0:0:0:
401,94,80951,1,2,3:2:0:0:
280,292,81118,1,0,3:0:0:0:
171,59,81284,2,0,P|215:66|258:80,1,90.2999972442628,10|0,0:0|0:0,0:0:0:0:
479,172,81618,6,0,B|425:148|366:212|422:194|363:257|312:222,1,180.599994488526,6|8,3:2|0:0,0:0:0:0:
190,372,82118,2,0,P|178:310|161:250,1,90.2999972442628,2|0,0:0|3:0,0:0:0:0:
250,93,82451,1,0,3:0:0:0:
77,271,82618,2,0,P|87:227|95:182,1,90.2999972442628,8|0,0:0|3:0,0:0:0:0:
0,8,82951,5,2,0:0:0:0:
174,101,83118,1,0,3:0:0:0:
0,171,83284,1,8,0:0:0:0:
143,14,83451,2,0,P|196:13|260:122,1,180.599994488526,2|0,0:0|3:0,0:0:0:0:
157,230,83951,2,0,P|148:185|138:141,1,90.2999972442628,10|0,0:0|0:0,0:0:0:0:
425,2,84284,6,0,P|411:67|390:208,1,180.599994488526,2|8,3:2|0:0,0:0:0:0:
205,272,84784,2,0,P|241:243|303:250,1,90.2999972442628,2|0,0:0|3:0,0:0:0:0:
465,368,85118,1,0,3:0:0:0:
354,194,85284,2,0,P|368:254|379:315,1,90.2999972442628,10|0,0:0|3:0,0:0:0:0:
253,40,85618,5,2,0:0:0:0:
430,126,85784,1,0,3:0:0:0:
251,245,85951,1,10,0:0:0:0:
357,78,86118,1,0,0:0:0:0:
455,260,86284,1,2,3:2:0:0:
248,149,86451,1,0,3:0:0:0:
455,26,86618,2,0,P|446:82|437:149,1,90.2999972442628,8|0,0:0|3:0,0:0:0:0:
276,337,86951,6,0,P|269:292|262:247,1,90.2999972442628,6|0,3:2|0:0,0:0:0:0:
333,79,87284,1,8,0:0:0:0:
127,255,87451,2,0,P|133:210|140:165,1,90.2999972442628,2|0,0:0|0:0,0:0:0:0:
0,32,87784,2,0,P|30:74|89:71,1,90.2999972442628,2|8,3:2|0:0,0:0:0:0:
198,0,88118,1,2,3:2:0:0:
335,159,88284,6,0,P|299:124|240:127,1,90.2999972442628,2|0,0:0|3:0,0:0:0:0:
120,259,88618,2,0,P|173:246|223:236,1,90.2999972442628,10|0,0:0|0:0,0:0:0:0:
0,186,88951,1,2,3:2:0:0:
66,339,89118,1,0,3:0:0:0:
171,147,89284,2,0,P|118:134|68:124,1,90.2999972442628,10|0,0:0|0:0,0:0:0:0:
235,371,89618,6,0,P|246:297|278:159,1,180.599994488526,2|8,3:2|0:0,0:0:0:0:
132,25,90118,2,0,P|145:81|154:134,1,90.2999972442628,2|0,0:0|3:0,0:0:0:0:
0,224,90451,2,0,P|8:179|18:135,1,90.2999972442628,2|8,3:2|0:0,0:0:0:0:
137,293,90784,1,2,3:2:0:0:
233,132,90951,6,0,B|278:108|315:143|315:143|347:189|395:169,1,180.599994488526,2|10,0:0|0:0,0:0:0:0:
512,95,91451,1,0,0:0:0:0:
361,0,91618,2,0,P|371:56|378:107,1,90.2999972442628,2|0,3:2|3:0,0:0:0:0:
308,323,91951,1,10,0:0:0:0:
465,208,92118,1,0,3:0:0:0:
253,215,92284,5,6,3:2:0:0:
444,350,92451,1,0,0:0:0:0:
379,126,92618,1,8,0:0:0:0:
308,376,92784,2,0,P|321:320|339:259,1,90.2999972442628,2|0,0:0|3:0,0:0:0:0:
142,154,93118,2,0,P|153:197|163:241,1,90.2999972442628,2|8,3:2|0:0,0:0:0:0:
225,41,93451,6,0,P|186:15|125:28,1,90.2999972442628,2|0,3:2|0:0,0:0:0:0:
9,103,93784,1,0,3:0:0:0:
247,198,93951,2,0,P|298:181|355:170,1,90.2999972442628,10|0,0:0|0:0,0:0:0:0:
102,334,94284,2,0,P|51:316|-6:305,1,90.2999972442628,2|0,3:2|3:0,0:0:0:0:
157,109,94618,1,8,0:0:0:0:
246,295,94784,1,0,3:0:0:0:
65,179,94951,5,2,3:2:0:0:
289,72,95118,1,0,0:0:0:0:
166,302,95284,1,8,0:0:0:0:
60,47,95451,2,0,P|107:42|159:82,1,90.2999972442628,2|0,0:2|3:0,0:0:0:0:
295,217,95784,2,0,P|349:205|408:199,1,90.2999972442628,2|8,3:2|0:0,0:0:0:0:
125,255,96118,1,2,3:2:0:0:
329,358,96284,5,8,0:0:0:0:
224,126,96451,1,0,3:0:0:0:
423,269,96618,1,10,0:0:0:0:
147,228,96784,1,0,3:0:0:0:
377,88,96951,5,10,0:0:0:0:
273,331,97118,1,0,3:0:0:0:
205,61,97284,1,10,0:0:0:0:
352,258,97451,1,8,0:0:0:0:
296,15,97618,5,6,3:2:0:0:
214,259,97785,1,0,3:0:0:0:
447,110,97951,1,0,3:0:0:0:
210,111,98118,6,0,B|158:80|103:129|155:123|78:183|24:134,1,193.50000738144,14|2,0:0|0:0,0:0:0:0:
72,64,98784,1,2,0:0:0:0:
72,64,98951,2,0,L|57:-22,2,64.5000024604798,8|8|4,0:0|0:3|0:3,0:0:0:0:
180,175,99451,1,12,0:0:0:0:
180,175,99618,2,0,L|156:310,1,129.00000492096,2|2,0:0|0:0,0:0:0:0:
157,302,100284,5,6,3:2:0:0:
259,177,100451,1,2,0:0:0:0:
114,240,100618,1,8,0:0:0:0:
252,330,100784,1,6,3:2:0:0:
172,183,100951,6,0,P|164:138|156:90,1,64.5000024604798,2|0,0:0|0:0,0:0:0:0:
257,4,101284,2,0,P|249:49|241:97,1,64.5000024604798,2|8,0:0|0:0,0:0:0:0:
316,152,101618,6,0,P|358:164|397:180,1,64.5000024604798,6|10,3:2|0:0,0:0:0:0:
481,240,101951,2,0,P|439:252|400:268,1,64.5000024604798,8|4,0:3|0:3,0:0:0:0:
250,252,102284,5,2,0:0:0:0:
377,326,102451,1,4,0:3:0:0:
232,376,102618,1,2,0:0:0:0:
343,216,102784,1,0,0:0:0:0:
493,374,102951,6,0,P|480:301|458:220,1,129.00000492096,6|8,3:2|0:0,0:0:0:0:
349,210,103451,2,0,P|362:137|384:56,1,129.00000492096,2|0,3:2|0:0,0:0:0:0:
506,44,103951,2,0,P|471:33|437:15,1,64.5000024604798,0|2,0:0|0:0,0:0:0:0:
236,79,104284,6,0,P|265:64|295:55,1,64.5000024604798,2|2,3:2|0:0,0:0:0:0:
424,219,104618,1,8,0:0:0:0:
300,137,104784,1,2,3:2:0:0:
435,124,104951,1,0,0:0:0:0:
347,280,105118,1,2,0:0:0:0:
298,143,105284,1,0,0:0:0:0:
429,224,105451,1,2,0:0:0:0:
220,212,105618,6,0,P|180:234|193:316,1,129.00000492096,4|10,3:2|0:0,0:0:0:0:
231,380,106118,2,0,P|192:367|94:350,1,129.00000492096,2|0,3:2|0:0,0:0:0:0:
17,290,106618,2,0,P|53:278|98:268,1,64.5000024604798,2|0,0:0|0:0,0:0:0:0:
158,111,106951,6,0,P|149:66|138:27,2,64.5000024604798,2|2|8,3:2|0:0|0:0,0:0:0:0:
237,193,107451,2,0,P|229:224|223:255,2,64.5000024604798,2|0|2,3:2|0:0|3:2,0:0:0:0:
340,124,107951,1,8,0:3:0:0:
340,124,108118,1,4,0:3:0:0:
443,249,108284,6,0,P|410:236|373:228,1,64.5000024604798,4|0,3:2|0:0,0:0:0:0:
253,303,108618,1,4,0:3:0:0:
321,187,108784,2,0,P|341:248|369:379,1,193.499994094849,12|2,0:0|0:0,0:0:0:0:
261,327,110118,6,0,B|212:295|164:335|164:335|138:385|78:362,1,193.499994094849,2|0,0:0|0:0,0:0:0:0:
420,293,121618,6,0,B|370:267|318:324|368:313|316:376|253:343,1,180.599994488526,6|8,3:2|0:0,0:0:0:0:
80,176,122118,1,2,0:0:0:0:
265,254,122284,1,10,0:0:0:0:
95,365,122451,1,2,3:2:0:0:
204,182,122618,6,0,P|215:256|230:404,1,180.599994488526,10|8,0:0|0:0,0:0:0:0:
443,262,123118,1,0,3:0:0:0:
337,136,123284,2,0,P|325:188|312:256,1,90.2999972442628,10|0,0:0|0:0,0:0:0:0:
221,52,123618,2,0,P|251:28|329:34,1,90.2999972442628,10|0,0:0|3:0,0:0:0:0:
179,191,123951,2,0,P|128:175|68:161,1,90.2999972442628,10|0,0:0|3:0,0:0:0:0:
294,256,124284,6,0,B|341:232|379:272|379:272|402:317|454:303,1,180.599994488526,10|8,0:0|0:0,0:0:0:0:
512,191,124784,2,0,P|484:180|427:223,1,90.2999972442628,2|8,0:0|0:0,0:0:0:0:
331,350,125118,1,0,3:0:0:0:
211,200,125284,6,0,P|230:288|242:377,1,180.599994488526,10|8,0:0|0:0,0:0:0:0:
299,140,125784,1,0,3:0:0:0:
145,291,125951,2,0,P|115:255|132:191,1,90.2999972442628,10|0,0:0|0:0,0:0:0:0:
238,47,126284,2,0,P|221:90|157:108,1,90.2999972442628,10|0,0:0|3:0,0:0:0:0:
0,105,126618,2,0,P|46:97|93:143,1,90.2999972442628,10|0,0:0|3:0,0:0:0:0:
248,307,126951,5,14,0:0:0:0:
352,105,127118,1,2,0:0:0:0:
398,344,127284,1,10,0:0:0:0:
249,153,127451,1,2,0:0:0:0:
454,242,127618,1,10,0:0:0:0:
277,351,127784,1,2,3:2:0:0:
325,103,127951,6,0,P|337:169|361:308,1,180.599994488526,10|8,0:0|0:0,0:0:0:0:
440,59,128451,1,2,3:2:0:0:
204,224,128618,2,0,P|212:179|219:135,1,90.2999972442628,10|2,0:0|0:0,0:0:0:0:
170,3,128951,1,10,0:0:0:0:
327,84,129118,1,2,3:2:0:0:
128,171,129284,2,0,P|112:122|144:70,1,90.2999972442628,10|0,0:0|3:0,0:0:0:0:
341,249,129618,6,0,B|292:223|235:281|292:270|227:333|178:298,1,180.599994488526,10|8,0:0|0:0,0:0:0:0:
0,220,130118,2,0,P|44:221|74:264,1,90.2999972442628,2|8,0:0|0:0,0:0:0:0:
155,381,130451,1,0,3:0:0:0:
212,131,130618,2,0,P|198:184|186:244,1,90.2999972442628,10|0,0:0|0:0,0:0:0:0:
30,84,130951,6,0,P|86:67|140:59,1,90.2999972442628,12|0,0:0|3:0,0:0:0:0:
318,196,131284,1,10,0:0:0:0:
236,0,131451,1,0,0:0:0:0:
97,171,131618,1,8,0:0:0:0:
97,171,131701,1,8,0:0:0:0:
97,171,131784,2,0,P|119:174|153:186,1,45.1499986221314,8|8,0:0|0:0,0:0:0:0:
263,256,131951,2,0,P|241:259|207:271,3,45.1499986221314,8|8|4|4,0:3|0:3|0:3|0:3,0:0:0:0:
21,264,132284,5,6,3:2:0:0:
174,354,132451,1,2,0:0:0:0:
104,210,132618,1,10,0:0:0:0:
63,376,132784,1,2,3:2:0:0:
219,265,132951,2,0,P|206:204|193:158,1,90.2999972442628,0|8,3:0|0:0,0:0:0:0:
222,157,133201,1,8,0:0:0:0:
222,157,133284,2,0,P|235:96|248:50,1,90.2999972442628,8|4,0:0|0:3,0:0:0:0:
367,14,133618,6,0,P|423:9|477:93,1,146.200002788544,6|8,3:2|0:0,0:0:0:0:
372,163,134118,1,2,0:0:0:0:
372,163,134284,2,0,P|383:109|394:61,1,73.1000013942719,0|0,3:0|0:0,0:0:0:0:
246,249,134618,2,0,P|235:195|224:147,1,73.1000013942719,10|0,0:0|0:0,0:0:0:0:
438,298,134951,2,0,P|398:304|349:318,1,73.1000013942719,0|0,3:0|0:0,0:0:0:0:
217,367,135284,6,0,P|170:378|116:289,2,146.200002788544,10|2|10,0:0|3:2|0:0,0:0:0:0:
257,229,136118,1,0,0:0:0:0:
257,229,136284,2,0,P|264:264|271:300,1,73.1000013942719,2|0,3:2|0:0,0:0:0:0:
390,143,136618,2,0,P|382:178|375:214,1,73.1000013942719,10|0,0:0|0:0,0:0:0:0:
195,169,136951,2,0,P|233:145|279:152,1,73.1000013942719,2|0,3:2|0:0,0:0:0:0:
252,320,137284,6,0,P|192:305|91:282,1,146.200002788544,10|0,0:0|3:0,0:0:0:0:
21,368,137784,1,0,0:0:0:0:
21,368,137951,2,0,P|9:315|-3:266,1,73.1000013942719,10|0,0:0|0:0,0:0:0:0:
118,213,138284,1,2,3:2:0:0:
0,147,138451,1,8,0:0:0:0:
0,147,138534,1,4,0:3:0:0:
0,147,138618,2,0,P|39:138|90:127,1,73.1000013942719,8|4,0:3|0:3,0:0:0:0:
142,44,138951,6,0,P|211:38|250:95,2,146.200002788544,6|10|0,3:2|0:0|3:2,0:0:0:0:
77,135,139784,1,0,0:0:0:0:
77,135,139951,2,0,P|91:197|114:300,1,146.200002788544,10|0,0:0|3:0,0:0:0:0:
183,359,140451,1,0,0:0:0:0:
183,359,140618,2,0,P|204:328|252:318,1,73.1000013942719,10|0,0:0|0:3,0:0:0:0:
218,223,140951,2,0,P|255:225|288:262,1,73.1000013942719,0|0,3:2|0:0,0:0:0:0:
355,183,141284,2,0,P|371:216|356:263,1,73.1000013942719,10|0,0:0|0:0,0:0:0:0:
310,348,141618,6,0,P|382:359|451:383,1,146.200002788544,2|8,3:2|0:0,0:0:0:0:
506,263,142118,2,0,P|468:268|425:286,1,73.1000013942719,2|0,0:0|3:2,0:0:0:0:
372,340,142451,1,0,0:0:0:0:
372,340,142618,2,0,P|384:277|403:183,1,146.200002788544,10|2,0:0|3:2,0:0:0:0:
253,74,143118,1,0,0:0:0:0:
253,74,143284,2,0,P|263:129|271:175,1,73.1000013942719,10|0,0:0|0:0,0:0:0:0:
327,9,143618,5,2,3:2:0:0:
169,108,143784,1,8,0:3:0:0:
345,190,143951,1,10,0:0:0:0:
345,190,144118,1,6,0:3:0:0:
194,25,144284,6,0,P|145:25|81:119,1,146.200002788544,6|8,3:2|0:0,0:0:0:0:
3,164,144784,2,0,P|44:174|94:192,1,73.1000013942719,2|0,0:0|3:0,0:0:0:0:
183,204,145118,1,0,0:0:0:0:
183,204,145284,2,0,P|128:214|40:245,1,146.200002788544,10|0,0:0|3:0,0:0:0:0:
108,371,145784,5,0,0:0:0:0:
108,371,145951,2,0,P|118:331|136:286,1,73.1000013942719,10|0,0:0|0:0,0:0:0:0:
207,211,146284,2,0,P|216:246|229:281,1,73.1000013942719,2|0,3:2|0:0,0:0:0:0:
300,378,146618,2,0,P|308:342|321:308,1,73.1000013942719,10|0,0:0|0:0,0:0:0:0:
412,233,146951,6,0,P|456:224|510:311,2,146.200002788544,2|10|2,3:2|0:0|3:2,0:0:0:0:
324,314,147784,1,0,0:0:0:0:
324,314,147951,2,0,P|283:301|238:293,1,73.1000013942719,10|0,0:0|0:0,0:0:0:0:
148,223,148284,2,0,P|189:210|234:202,1,73.1000013942719,0|0,3:0|0:0,0:0:0:0:
296,121,148618,6,0,P|311:164|325:210,1,73.1000013942719,10|0,0:0|3:0,0:0:0:0:
368,14,148951,1,2,3:2:0:0:
225,83,149118,1,8,0:3:0:0:
387,151,149284,1,4,0:3:0:0:
387,151,149451,1,8,0:0:0:0:
240,243,149618,6,0,P|186:224|69:198,1,146.200002788544,6|8,3:2|0:0,0:0:0:0:
10,299,150118,1,2,0:0:0:0:
10,299,150284,2,0,P|54:293|89:252,1,73.1000013942719,0|0,3:0|0:0,0:0:0:0:
0,98,150618,2,0,P|12:142|23:190,1,73.1000013942719,8|0,0:0|0:0,0:0:0:0:
151,339,150951,6,0,P|159:303|169:268,1,73.1000013942719,6|0,3:2|0:0,0:0:0:0:
313,209,151284,1,10,0:0:0:0:
313,209,151451,2,0,P|262:219|204:142,1,146.200002788544,2|0,0:0|3:0,0:0:0:0:
345,50,151951,2,0,P|304:63|256:89,1,73.1000013942719,10|4,0:0|0:3,0:0:0:0:
438,184,152284,6,0,P|450:122|474:17,1,163.399995636749,6|8,3:2|0:0,0:0:0:0:
345,253,152784,1,2,0:0:0:0:
217,77,152951,2,0,P|226:112|237:157,1,81.6999978183747,0|0,3:0|0:0,0:0:0:0:
93,308,153284,2,0,P|115:272|172:261,1,81.6999978183747,10|0,0:0|0:0,0:0:0:0:
322,287,153618,5,4,3:2:0:0:
134,183,153784,1,0,3:0:0:0:
134,183,153868,1,8,0:0:0:0:
134,183,153951,1,10,0:0:0:0:
323,109,154118,1,8,0:0:0:0:
200,321,154284,1,2,3:2:0:0:
105,89,154451,1,8,0:3:0:0:
332,198,154618,1,10,0:0:0:0:
103,301,154784,1,8,0:3:0:0:
192,31,154951,6,0,P|206:106|219:212,1,163.399995636749,6|4,3:2|0:3,0:0:0:0:
228,273,155451,1,14,0:0:0:0:
228,273,155784,1,0,3:0:0:0:
512,200,155951,6,0,P|479:156|371:169,1,163.399995636749,14|4,0:0|0:3,0:0:0:0:
318,216,156451,1,14,0:0:0:0:
318,216,156784,1,0,3:0:0:0:
389,315,156951,6,0,P|431:325|487:348,1,81.6999978183747,10|0,0:0|0:0,0:0:0:0:
309,107,157284,2,0,P|267:97|211:74,1,81.6999978183747,10|0,0:0|0:0,0:0:0:0:
21,210,157618,6,0,P|36:168|148:176,1,146.200002788544,6|10,3:2|0:0,0:0:0:0:
217,240,158118,2,0,P|229:287|241:342,1,73.1000013942719,2|0,3:2|0:0,0:0:0:0:
332,167,158451,2,0,P|341:131|349:96,1,73.1000013942719,2|8,3:2|0:0,0:0:0:0:
401,272,158784,1,2,3:2:0:0:
184,164,158951,6,0,P|225:148|279:138,1,73.1000013942719,0|2,0:0|3:2,0:0:0:0:
436,22,159284,2,0,P|395:6|341:-4,1,73.1000013942719,8|0,0:0|0:0,0:0:0:0:
183,65,159618,1,2,3:2:0:0:
360,151,159784,1,0,3:0:0:0:
292,4,159951,2,0,P|278:53|264:102,1,73.1000013942719,10|0,0:0|0:0,0:0:0:0:
136,273,160284,6,0,P|122:217|97:107,1,146.200002788544,6|10,3:2|0:0,0:0:0:0:
0,14,160784,2,0,P|53:29|102:43,1,73.1000013942719,2|0,3:2|0:0,0:0:0:0:
242,159,161118,1,2,3:2:0:0:
181,14,161284,1,8,0:0:0:0:
12,167,161451,6,0,P|47:157|82:147,1,73.1000013942719,2|2,3:2|0:0,0:0:0:0:
221,281,161784,1,0,0:0:0:0:
175,96,161951,2,0,P|165:142|154:192,1,73.1000013942719,8|2,0:0|0:0,0:0:0:0:
67,350,162284,1,2,3:2:0:0:
207,280,162451,1,0,3:0:0:0:
41,179,162618,2,0,P|51:225|62:275,1,73.1000013942719,10|0,0:0|0:0,0:0:0:0:
173,355,162951,6,0,P|251:352|285:274,1,146.200002788544,6|8,3:2|0:0,0:0:0:0:
164,218,163451,1,0,0:0:0:0:
273,106,163618,2,0,P|286:165|295:209,1,73.1000013942719,2|0,3:2|3:0,0:0:0:0:
400,294,163951,2,0,P|407:258|415:222,1,73.1000013942719,8|0,0:0|3:0,0:0:0:0:
351,28,164284,5,14,0:0:0:0:
496,193,164451,1,0,3:0:0:0:
294,111,164618,1,8,0:0:0:0:
497,25,164784,1,0,0:0:0:0:
376,179,164951,5,10,0:0:0:0:
376,179,165034,1,0,3:0:0:0:
376,179,165118,2,0,L|367:121,1,36.5500006971359,0|0,3:0|3:0,0:0:0:0:
420,79,165284,2,0,L|429:21,3,36.5500006971359,8|8|8|4,0:0|0:0|0:3|0:3,0:0:0:0:
332,8,165618,6,0,P|293:0|244:100,1,163.399995636749,6|8,3:2|0:0,0:0:0:0:
290,183,166118,2,0,P|243:169|198:159,1,81.6999978183747,2|0,3:2|0:0,0:0:0:0:
140,210,166451,1,0,3:0:0:0:
2,182,166618,6,0,P|41:174|90:274,1,163.399995636749,10|0,0:0|0:0,0:0:0:0:
28,357,167118,2,0,P|75:343|120:333,1,81.6999978183747,2|12,3:2|0:0,0:0:0:0:
179,378,167451,1,0,0:0:0:0:
263,268,167618,6,0,P|276:321|287:378,1,81.6999978183747,10|0,0:0|3:0,0:0:0:0:
420,176,167951,2,0,P|407:229|396:286,1,81.6999978183747,10|0,0:0|3:0,0:0:0:0:
507,144,168284,6,0,P|452:163|390:65,1,163.399995636749,6|10,3:2|0:0,0:0:0:0:
425,4,168784,2,0,P|467:11|511:34,1,81.6999978183747,2|0,3:2|0:0,0:0:0:0:
308,118,169118,2,0,P|344:100|385:94,1,81.6999978183747,2|8,3:2|0:0,0:0:0:0:
217,16,169451,1,2,3:2:0:0:
217,217,169618,6,0,P|228:171|241:124,1,81.6999978183747,0|2,0:0|3:2,0:0:0:0:
104,13,169951,2,0,P|114:52|123:92,1,81.6999978183747,8|0,0:0|3:0,0:0:0:0:
46,248,170284,1,2,0:0:0:0:
186,185,170451,1,2,3:0:0:0:
19,74,170618,2,0,P|8:113|0:153,1,81.6999978183747,10|0,0:0|3:0,0:0:0:0:
3,338,170951,6,0,P|61:352|132:266,1,163.399995636749,6|8,3:2|0:0,0:0:0:0:
169,172,171451,1,2,0:0:0:0:
265,257,171618,2,0,P|277:303|290:360,1,81.6999978183747,0|0,3:0|3:0,0:0:0:0:
421,161,171951,2,0,P|409:207|396:264,1,81.6999978183747,8|0,0:0|3:0,0:0:0:0:
358,53,172284,6,0,B|274:18|284:108|190:59,1,163.399995636749,6|8,0:0|0:0,0:0:0:0:
11,158,172784,1,2,3:2:0:0:
84,17,172951,1,2,3:2:0:0:
84,17,173034,1,0,3:0:0:0:
84,17,173118,2,0,P|89:46|94:82,1,40.8499989091873,10|0,0:0|0:0,0:0:0:0:
153,195,173284,2,0,P|156:175|160:155,3,40.8499989091873,8|8|4|4,0:3|0:3|0:3|0:3,0:0:0:0:
4,272,173618,6,0,B|49:247|88:283|88:283|116:328|163:312,1,180.599994488526,14|0,0:0|3:0,0:0:0:0:
417,200,174118,2,0,P|365:202|334:244,1,90.2999972442628,12|2,0:0|3:2,0:0:0:0:
261,379,174451,1,0,3:0:0:0:
207,150,174618,2,0,P|224:206|235:258,1,90.2999972442628,12|0,0:0|3:0,0:0:0:0:
270,8,174951,5,10,0:0:0:0:
123,232,175118,1,0,3:0:0:0:
369,127,175284,1,8,0:0:0:0:
110,26,175451,1,0,3:0:0:0:
273,256,175618,1,10,0:0:0:0:
273,256,175701,1,8,0:0:0:0:
273,256,175784,2,0,P|280:217|286:188,1,45.1499986221314,8|8,0:0|0:0,0:0:0:0:
155,115,175951,2,0,P|159:137|164:160,3,45.1499986221314,8|8|4|4,0:3|0:3|0:3|0:3,0:0:0:0:
232,26,176284,6,0,B|281:-4|327:31|327:31|360:83|424:57,1,197.800003772736,6|8,3:2|0:0,0:0:0:0:
506,243,176784,1,2,0:0:0:0:
283,145,176951,1,0,3:2:0:0:
493,28,177118,1,0,3:0:0:0:
406,261,177284,2,0,P|395:204|374:126,1,98.9000018863678,14|0,0:0|0:0,0:0:0:0:
221,323,177618,6,0,P|264:354|325:337,1,98.9000018863678,2|0,0:0|3:0,0:0:0:0:
149,134,177951,2,0,P|137:182|128:230,1,98.9000018863678,10|0,0:0|0:0,0:0:0:0:
55,80,178284,1,2,3:2:0:0:
241,173,178451,1,0,3:0:0:0:
20,315,178618,2,0,P|10:266|0:218,1,98.9000018863678,10|0,0:0|0:0,0:0:0:0:
114,45,178951,6,0,P|181:33|250:135,1,197.800003772736,2|8,3:2|0:0,0:0:0:0:
110,284,179451,2,0,P|164:266|221:255,1,98.9000018863678,2|0,0:0|3:0,0:0:0:0:
397,352,179784,1,0,3:0:0:0:
336,153,179951,2,0,P|322:210|311:274,1,98.9000018863678,10|0,0:0|3:0,0:0:0:0:
131,380,180284,6,0,P|121:331|109:283,1,98.9000018863678,2|0,0:2|3:0,0:0:0:0:
0,88,180618,1,10,0:0:0:0:
201,158,180784,1,0,0:0:0:0:
18,285,180951,1,2,3:2:0:0:
107,84,181118,1,0,3:0:0:0:
226,266,181284,2,0,P|179:276|122:307,1,98.9000018863678,10|4,0:0|0:3,0:0:0:0:
249,104,181618,6,0,B|308:76|367:145|313:140|373:203|447:153,1,197.800003772736,6|8,3:2|0:0,0:0:0:0:
418,0,182118,2,0,P|402:67|396:112,1,98.9000018863678,2|0,0:0|0:0,0:0:0:0:
448,307,182451,1,0,3:0:0:0:
273,179,182618,2,0,P|285:226|293:275,1,98.9000018863678,8|0,0:0|3:0,0:0:0:0:
64,375,182951,6,0,P|89:326|151:319,1,98.9000018863678,2|0,0:0|3:0,0:0:0:0:
327,384,183284,1,8,0:0:0:0:
251,98,183451,2,0,P|239:172|218:308,1,197.800003772736,2|0,0:0|3:0,0:0:0:0:
47,74,183951,2,0,P|59:137|71:206,1,98.9000018863678,10|0,0:0|0:0,0:0:0:0:
296,27,184284,6,0,P|201:22|152:102,1,197.800003772736,2|8,3:2|0:0,0:0:0:0:
0,296,184784,2,0,P|52:278|112:263,1,98.9000018863678,2|0,0:0|3:0,0:0:0:0:
271,340,185118,1,0,0:0:0:0:
98,160,185284,2,0,P|145:172|192:189,1,98.9000018863678,10|0,0:0|3:0,0:0:0:0:
433,120,185618,5,2,0:0:0:0:
252,274,185784,1,0,3:0:0:0:
478,232,185951,1,10,0:0:0:0:
257,123,186118,1,0,0:0:0:0:
398,310,186284,1,2,3:2:0:0:
399,76,186451,1,0,0:0:0:0:
264,281,186618,2,0,P|275:222|287:161,1,98.9000018863678,12|0,0:0|3:0,0:0:0:0:
125,16,186951,6,0,P|134:64|143:113,1,98.9000018863678,6|0,3:2|0:0,0:0:0:0:
94,284,187284,1,8,0:0:0:0:
355,140,187451,2,0,P|325:111|256:114,1,98.9000018863678,2|0,0:0|3:0,0:0:0:0:
355,340,187784,2,0,P|406:328|456:322,1,98.9000018863678,2|8,3:2|0:0,0:0:0:0:
284,206,188118,1,2,3:2:0:0:
450,106,188284,6,0,P|438:156|427:207,1,98.9000018863678,2|0,0:0|0:0,0:0:0:0:
231,351,188618,2,0,P|219:302|209:254,1,98.9000018863678,10|0,0:0|0:0,0:0:0:0:
118,78,188951,1,2,3:2:0:0:
305,145,189118,1,0,0:0:0:0:
115,252,189284,2,0,P|128:200|191:173,1,98.9000018863678,10|0,0:0|0:0,0:0:0:0:
482,279,189618,6,0,B|430:247|375:311|431:301|366:370|313:336,1,197.800003772736,6|8,3:2|0:0,0:0:0:0:
304,124,190118,2,0,P|315:172|327:228,1,98.9000018863678,2|0,0:0|3:0,0:0:0:0:
399,63,190451,2,0,P|374:37|298:37,1,98.9000018863678,2|8,3:2|0:0,0:0:0:0:
174,143,190784,1,0,3:0:0:0:
318,304,190951,6,0,B|366:266|417:308|417:308|449:359|507:335,1,197.800003772736,6|10,0:0|0:0,0:0:0:0:
334,182,191451,1,0,0:0:0:0:
474,95,191618,2,0,P|460:161|450:215,1,98.9000018863678,2|0,3:2|0:0,0:0:0:0:
225,108,191951,1,14,0:0:0:0:
318,304,192118,1,0,3:0:0:0:
321,68,192284,6,0,P|276:14|136:46,1,197.800003772736,6|8,3:2|0:0,0:0:0:0:
8,213,192784,2,0,P|69:190|122:176,1,98.9000018863678,2|0,0:0|3:0,0:0:0:0:
281,320,193118,1,2,3:2:0:0:
227,82,193284,2,0,P|213:148|203:202,1,98.9000018863678,8|2,0:0|3:2,0:0:0:0:
85,384,193618,6,0,P|75:335|65:287,1,98.9000018863678,0|0,0:0|3:0,0:0:0:0:
143,70,193951,1,10,0:0:0:0:
257,278,194118,1,0,0:0:0:0:
33,178,194284,1,2,3:2:0:0:
257,78,194451,1,2,3:2:0:0:
169,276,194618,2,0,P|123:283|74:248,1,98.9000018863678,10|2,0:0|3:2,0:0:0:0:
172,11,194951,5,2,3:2:0:0:
269,239,195118,1,0,0:0:0:0:
50,134,195284,1,8,0:0:0:0:
273,35,195451,2,0,P|260:90|248:153,1,98.9000018863678,2|0,0:0|3:0,0:0:0:0:
152,306,195784,2,0,P|142:257|130:209,1,98.9000018863678,2|8,3:2|0:0,0:0:0:0:
342,82,196118,1,2,3:2:0:0:
337,303,196284,5,12,0:0:0:0:
200,99,196451,1,0,3:0:0:0:
410,199,196618,1,14,0:0:0:0:
187,290,196784,1,0,3:0:0:0:
313,114,196951,2,0,L|324:50,2,49.4500009431839,14|0|0,0:0|0:0|3:0,0:0:0:0:
391,323,197284,1,10,0:0:0:0:
196,153,197451,5,8,0:0:0:0:
196,153,197534,1,8,0:0:0:0:
196,153,197618,1,14,0:0:0:0:
376,235,197784,1,0,3:0:0:0:
190,331,197951,1,0,3:0:0:0:
497,231,198118,6,0,B|440:195|380:262|432:250|372:316|312:271,1,197.800003772736,14|0,0:0|3:0,0:0:0:0:
120,170,198618,1,8,0:0:0:0:
187,368,198784,2,0,P|202:287|218:237,1,98.9000018863678,2|0,3:2|0:0,0:0:0:0:
121,34,199118,1,0,3:0:0:0:
326,148,199284,2,0,P|294:192|218:188,1,98.9000018863678,10|0,0:0|0:0,0:0:0:0:
55,106,199618,1,2,3:2:0:0:
254,16,199784,1,0,3:0:0:0:
85,297,199951,2,0,P|70:216|54:166,1,98.9000018863678,10|0,0:0|0:0,0:0:0:0:
273,101,200284,6,0,B|318:63|371:100|371:100|399:154|461:127,1,197.800003772736,2|8,3:2|0:0,0:0:0:0:
512,17,200784,2,0,P|463:16|426:68,1,98.9000018863678,2|0,0:0|3:0,0:0:0:0:
350,235,201118,1,0,3:0:0:0:
185,15,201284,2,0,P|195:81|203:130,1,98.9000018863678,10|0,0:0|3:0,0:0:0:0:
316,314,201618,6,0,P|323:265|331:216,1,98.9000018863678,2|0,0:0|3:0,0:0:0:0:
117,165,201951,2,0,P|151:204|214:204,1,98.9000018863678,10|0,0:0|0:0,0:0:0:0:
430,87,202284,1,2,3:2:0:0:
234,13,202451,1,0,3:2:0:0:
350,231,202618,2,0,P|342:182|334:133,1,98.9000018863678,10|0,0:0|0:0,0:0:0:0:
173,289,202951,6,0,B|225:257|280:321|224:311|289:380|342:346,1,197.800003772736,6|8,3:2|0:0,0:0:0:0:
501,220,203451,2,0,P|491:270|482:323,1,98.9000018863678,2|0,0:0|3:0,0:0:0:0:
276,156,203784,1,0,3:0:0:0:
401,12,203951,2,0,P|410:62|420:115,1,98.9000018863678,8|0,0:0|3:0,0:0:0:0:
224,314,204284,5,2,0:0:0:0:
406,205,204451,1,0,3:0:0:0:
209,114,204618,1,8,0:0:0:0:
367,301,204784,2,0,P|427:316|497:206,1,197.800003772736,2|0,0:0|3:0,0:0:0:0:
339,53,205284,2,0,P|329:103|320:156,1,98.9000018863678,10|0,0:0|0:0,0:0:0:0:
8,66,205618,6,0,B|61:43|115:98|59:88|124:157|177:123,1,197.800003772736,2|8,3:2|0:0,0:0:0:0:
272,23,206118,2,0,P|216:8|157:-4,1,98.9000018863678,2|0,0:0|3:0,0:0:0:0:
22,144,206451,1,0,3:0:0:0:
241,220,206618,2,0,P|232:171|222:122,1,98.9000018863678,10|0,0:0|3:0,0:0:0:0:
128,315,206951,5,2,0:0:0:0:
350,148,207118,1,0,3:0:0:0:
120,216,207284,1,10,0:0:0:0:
354,332,207451,1,0,0:0:0:0:
248,118,207618,1,2,3:2:0:0:
202,359,207784,1,0,0:0:0:0:
395,235,207951,2,0,P|341:219|269:201,1,98.9000018863678,8|0,0:0|3:0,0:0:0:0:
32,141,208284,6,0,P|86:125|158:107,1,98.9000018863678,6|0,3:2|0:0,0:0:0:0:
281,292,208618,1,8,0:0:0:0:
251,40,208784,2,0,P|237:103|227:154,1,98.9000018863678,2|0,0:0|3:0,0:0:0:0:
110,313,209118,2,0,P|100:264|89:216,1,98.9000018863678,2|8,3:2|0:0,0:0:0:0:
349,150,209451,6,0,P|395:163|420:220,1,98.9000018863678,2|2,3:2|0:0,0:0:0:0:
329,370,209784,1,0,0:0:0:0:
192,244,209951,2,0,P|250:233|318:226,1,98.9000018863678,10|0,0:0|0:0,0:0:0:0:
74,164,210284,1,2,3:2:0:0:
171,332,210451,1,0,3:0:0:0:
275,111,210618,2,0,P|217:100|149:93,1,98.9000018863678,10|0,0:0|0:0,0:0:0:0:
0,284,210951,6,0,B|57:248|117:315|65:303|125:369|185:324,1,197.800003772736,6|8,3:2|0:0,0:0:0:0:
332,231,211451,2,0,P|317:292|302:354,1,98.9000018863678,2|0,0:0|3:0,0:0:0:0:
125,105,211784,2,0,P|140:166|155:228,1,98.9000018863678,2|8,3:2|0:0,0:0:0:0:
283,32,212118,1,0,3:0:0:0:
471,155,212284,6,0,B|418:125|376:160|376:160|342:216|279:186,1,197.800003772736,2|10,0:0|0:0,0:0:0:0:
56,71,212784,1,0,0:0:0:0:
152,303,212951,2,0,P|166:241|179:196,1,98.9000018863678,2|0,3:2|0:0,0:0:0:0:
252,34,213284,1,10,0:0:0:0:
70,162,213451,1,0,3:0:0:0:
284,143,213618,5,6,3:2:0:0:
74,38,213784,1,0,0:0:0:0:
172,255,213951,1,8,0:0:0:0:
275,29,214118,2,0,P|246:5|173:16,1,98.9000018863678,2|0,0:0|3:0,0:0:0:0:
56,211,214451,2,0,P|43:139|27:69,1,98.9000018863678,2|8,3:2|0:0,0:0:0:0:
277,307,214784,6,0,P|290:235|306:165,1,98.9000018863678,2|0,3:2|0:0,0:0:0:0:
402,32,215118,1,0,3:0:0:0:
185,115,215284,1,10,0:0:0:0:
391,212,215451,1,0,0:0:0:0:
263,25,215618,1,2,3:2:0:0:
203,237,215784,1,0,3:0:0:0:
406,119,215951,2,0,P|407:70|377:32,1,98.9000018863678,14|0,0:0|3:0,0:0:0:0:
25,112,216284,6,0,B|78:82|120:117|120:117|154:173|217:143,1,197.800003772736,6|8,3:2|0:0,0:0:0:0:
300,4,216784,2,0,P|286:62|276:119,1,98.9000018863678,2|0,0:0|3:0,0:0:0:0:
94,277,217118,2,0,P|84:228|72:180,1,98.9000018863678,2|8,3:2|0:0,0:0:0:0:
193,35,217451,1,2,0:0:0:0:
277,296,217618,5,4,3:2:0:0:
122,110,217785,1,0,3:0:0:0:
190,354,217951,1,14,0:0:0:0:
279,125,218117,1,0,3:0:0:0:
98,299,218284,5,10,0:0:0:0:
198,70,218451,1,0,3:0:0:0:
302,300,218618,2,0,P|249:285|192:274,1,98.9000018863678,14|8,0:0|0:3,0:0:0:0:
16,108,218951,5,6,3:2:0:0:
213,192,219118,1,0,0:0:0:0:
21,293,219284,1,8,0:0:0:0:
114,62,219451,2,0,P|123:124|128:172,1,98.9000018863678,2|0,0:0|3:0,0:0:0:0:
302,300,219784,2,0,P|307:250|314:201,1,98.9000018863678,2|8,3:2|0:0,0:0:0:0:
443,64,220118,1,2,3:2:0:0:
223,74,220284,5,0,0:0:0:0:
426,184,220451,1,0,3:0:0:0:
215,259,220618,1,10,0:0:0:0:
339,53,220784,1,0,0:0:0:0:
406,288,220951,1,2,3:2:0:0:
203,153,221118,1,0,3:0:0:0:
436,103,221284,2,0,P|387:106|355:141,1,98.9000018863678,10|0,0:0|3:0,0:0:0:0:
221,293,221618,5,2,3:2:0:0:
122,77,221784,1,0,0:0:0:0:
70,264,221951,1,8,0:0:0:0:
248,89,222118,2,0,P|236:148|227:207,1,98.9000018863678,2|0,0:0|3:0,0:0:0:0:
128,362,222451,2,0,P|119:313|109:264,1,98.9000018863678,2|8,3:2|0:0,0:0:0:0:
0,107,222784,1,2,3:2:0:0:
269,256,222951,5,8,0:0:0:0:
269,256,223034,1,0,3:0:0:0:
269,256,223118,1,0,3:0:0:0:
435,99,223284,2,0,P|372:82|320:74,1,98.9000018863678,10|0,0:0|3:0,0:0:0:0:
130,194,223618,1,10,0:0:0:0:
130,194,223701,1,8,0:0:0:0:
130,194,223784,2,0,L|117:118,1,49.4500009431839,0|0,3:0|3:0,0:0:0:0:
225,1,223951,2,0,P|236:59|245:114,1,98.9000018863678,10|8,0:0|0:0,0:0:0:0:
386,334,224284,5,14,0:0:0:0:
224,235,224451,1,0,0:0:0:0:
405,204,224618,1,0,3:0:0:0:
200,340,224784,5,14,0:0:0:0:
298,149,224951,1,0,3:0:0:0:
358,359,225118,1,0,3:0:0:0:
391,76,225284,5,14,0:0:0:0:
282,305,225451,1,2,3:2:0:0:
204,64,225618,1,2,3:2:0:0:
410,264,225784,5,14,0:0:0:0:
149,157,225951,1,2,3:2:0:0:
396,38,226118,1,2,3:2:0:0:
260,273,226284,5,14,0:0:0:0:
120,28,226451,1,2,3:2:0:0:
120,28,226534,1,0,3:0:0:0:
120,28,226618,1,2,3:2:0:0:
378,151,226784,1,14,0:0:0:0:
109,255,226951,1,2,3:2:0:0:
109,255,227034,1,0,3:0:0:0:
109,255,227118,1,2,3:2:0:0:
316,62,227284,5,14,0:0:0:0:
210,310,227451,1,2,3:2:0:0:
241,29,227618,1,2,3:2:0:0:
362,318,227784,5,14,0:0:0:0:
341,23,227951,1,2,3:2:0:0:
220,290,228118,1,2,3:2:0:0:
111,56,228284,5,14,0:0:0:0:
413,193,228451,1,2,3:2:0:0:
42,266,228618,5,14,0:0:0:0:
298,94,228784,1,2,3:2:0:0:
181,375,228951,5,10,0:0:0:0:
181,375,229034,1,8,0:3:0:0:
181,375,229118,1,4,0:3:0:0:
175,23,229284,1,4,0:3:0:0:
470,264,229451,1,6,3:2:0:0:
