osu file format v14

[General]
AudioFilename: audio.mp3
AudioLeadIn: 0
PreviewTime: 173534
Countdown: 0
SampleSet: Soft
StackLeniency: 0.4
Mode: 0
LetterboxInBreaks: 0
EpilepsyWarning: 1
WidescreenStoryboard: 1

[Editor]
Bookmarks: 10951,33618,54951,76284,100284,110951,133618,154951,176284,224284
DistanceSpacing: 1.15
BeatDivisor: 4
GridSize: 32
TimelineZoom: 1.4

[Metadata]
Title:Sakura no Uta
TitleUnicode:櫻ノ詩
Artist:Hana
ArtistUnicode:はな
Creator:Dored
Version:Irohas' Insane
Source:サクラノ詩 -櫻の森の上を舞う-
Tags:- Sakura no Mori no Ue o Mau - Metrowing 枕 Makura 松本文紀 szak Matsumoto Fuminori うさ Usa Eroge Visual Novel Galgame Video Game Japanese Pop Jpop J-pop Opening OP Full Version Silky Kanau Mamayu fuyuyu- Irohas SuperDalouBot Liszt Little CloudSplash16 Kowari Kujinn Reform Moeka Momoka Shioi No Dap Erisu Lanzhu
BeatmapID:2169509
BeatmapSetID:1037744

[Difficulty]
HPDrainRate:6
CircleSize:4.1
OverallDifficulty:7
ApproachRate:9
SliderMultiplier:1.6
SliderTickRate:1

[Events]
//Background and Video events
0,0,"Makoto.jpg",0,0
//Break Periods
2,100484,110351
//Storyboard Layer 0 (Background)
Sprite,Background,Centre,"Makoto.jpg",320,240
//Storyboard Layer 1 (Fail)
//Storyboard Layer 2 (Pass)
//Storyboard Layer 3 (Foreground)
//Storyboard Layer 4 (Overlay)
//Storyboard Sound Samples

[TimingPoints]
285,333.333333333333,4,2,22,50,1,0
285,-153.846153846153,4,2,22,50,0,0
9284,-100,4,2,22,60,0,0
9451,-117.647058823529,4,2,22,60,0,0
9618,-117.647058823529,4,2,22,70,0,0
10951,-111.111111111111,4,2,22,70,0,0
19201,-111.111111111111,4,2,22,5,0,0
19284,-111.111111111111,4,2,22,70,0,0
32284,-153.846153846153,4,2,22,60,0,0
32951,-153.846153846153,4,2,22,50,0,0
33618,-142.857142857143,4,2,22,60,0,0
52284,-142.857142857143,4,2,22,70,0,0
52451,-117.647058823529,4,2,22,70,0,0
53784,-105.263157894737,4,2,22,70,0,0
54951,-153.846153846153,4,2,22,70,0,0
56618,-153.846153846153,4,2,22,70,0,0
56784,-153.846153846153,4,2,22,70,0,0
57618,-117.647058823529,4,2,22,70,0,0
60284,-117.647058823529,4,2,22,70,0,0
65618,-117.647058823529,4,2,22,70,0,0
73618,-111.111111111111,4,2,22,80,0,0
75534,-111.111111111111,4,2,22,5,0,0
75618,-111.111111111111,4,2,22,80,0,0
76201,-100,4,2,22,80,0,0
76284,-105.263157894737,4,2,22,80,0,1
76451,-105.263157894737,4,2,22,80,0,0
78201,-105.263157894737,4,2,22,5,0,0
78284,-105.263157894737,4,2,22,80,0,0
80534,-105.263157894737,4,2,22,5,0,0
80618,-105.263157894737,4,2,22,80,0,0
81868,-105.263157894737,4,2,22,5,0,0
81951,-105.263157894737,4,2,22,80,0,0
88534,-105.263157894737,4,2,22,5,0,0
88618,-105.263157894737,4,2,22,80,0,0
88868,-105.263157894737,4,2,22,5,0,0
88951,-105.263157894737,4,2,22,80,0,0
89868,-105.263157894737,4,2,22,5,0,0
89951,-105.263157894737,4,2,22,80,0,0
93701,-105.263157894737,4,2,22,5,0,0
93784,-105.263157894737,4,2,22,80,0,0
94534,-105.263157894737,4,2,22,5,0,0
94618,-133.333333333334,4,2,22,80,0,0
94951,-105.263157894737,4,2,22,80,0,0
96618,-133.333333333334,4,2,22,80,0,0
97618,-133.333333333334,4,2,22,60,0,0
98118,-158.730158730159,4,2,22,60,0,0
109618,-158.730158730159,4,2,22,50,0,0
110951,-111.111111111111,4,2,22,70,0,0
112201,-111.111111111111,4,2,22,5,0,0
112284,-111.111111111111,4,2,22,70,0,0
113868,-111.111111111111,4,2,22,5,0,0
113951,-111.111111111111,4,2,22,70,0,0
115201,-111.111111111111,4,2,22,5,0,0
115284,-111.111111111111,4,2,22,70,0,0
122868,-111.111111111111,4,2,22,5,0,0
122951,-111.111111111111,4,2,22,70,0,0
124284,-100,4,2,22,70,0,0
124618,-111.111111111111,4,2,22,70,0,0
125868,-111.111111111111,4,2,22,5,0,0
125951,-111.111111111111,4,2,22,70,0,0
126868,-111.111111111111,4,2,22,5,0,0
126951,-111.111111111111,4,2,22,70,0,0
133618,-133.333333333333,4,2,22,60,0,0
152284,-117.647058823529,4,2,22,70,0,0
154951,-153.846153846153,4,2,22,70,0,0
156951,-133.333333333333,4,2,22,70,0,0
157618,-117.647058823529,4,2,22,70,0,0
160201,-117.647058823529,4,2,22,5,0,0
160284,-117.647058823529,4,2,22,70,0,0
162868,-117.647058823529,4,2,22,70,0,0
162951,-95.238095238095,4,2,22,70,0,0
163201,-95.238095238095,4,2,22,70,0,0
163284,-117.647058823529,4,2,22,70,0,0
163618,-95.238095238095,4,2,22,70,0,0
163868,-95.238095238095,4,2,22,70,0,0
163951,-117.647058823529,4,2,22,70,0,0
164284,-105.263157894737,4,2,22,70,0,0
165618,-153.846153846153,4,2,22,70,0,0
167618,-133.333333333333,4,2,22,70,0,0
168284,-111.111111111111,4,2,22,70,0,0
170534,-111.111111111111,4,2,22,5,0,0
170618,-111.111111111111,4,2,22,70,0,0
173618,-111.111111111111,4,2,22,80,0,0
175534,-111.111111111111,4,2,22,5,0,0
175618,-111.111111111111,4,2,22,80,0,0
176201,-100,4,2,22,80,0,0
176284,-105.263157894737,4,2,22,80,0,1
176451,-105.263157894737,4,2,22,80,0,0
178201,-105.263157894737,4,2,22,5,0,0
178284,-105.263157894737,4,2,22,80,0,0
179201,-105.263157894737,4,2,22,5,0,0
179284,-105.263157894737,4,2,22,80,0,0
179701,-105.263157894737,4,2,22,5,0,0
179784,-105.263157894737,4,2,22,80,0,0
181201,-105.263157894737,4,2,22,5,0,0
181284,-105.263157894737,4,2,22,80,0,0
187701,-105.263157894737,4,2,22,5,0,0
187784,-105.263157894737,4,2,22,80,0,0
189868,-105.263157894737,4,2,22,5,0,0
189951,-105.263157894737,4,2,22,80,0,0
194201,-105.263157894737,4,2,22,5,0,0
194284,-105.263157894737,4,2,22,80,0,0
198118,-90.9090909090909,4,2,22,80,0,1
198284,-100,4,2,22,80,0,0
199534,-100,4,2,22,5,0,0
199618,-100,4,2,22,80,0,0
202201,-100,4,2,22,5,0,0
202284,-100,4,2,22,80,0,0
207534,-100,4,2,22,5,0,0
207618,-100,4,2,22,80,0,0
208534,-100,4,2,22,5,0,0
208618,-100,4,2,22,80,0,0
215534,-100,4,2,22,5,0,0
215618,-100,4,2,22,80,0,0
217868,-100,4,2,22,5,0,0
217951,-100,4,2,22,80,0,0
219701,-100,4,2,22,5,0,0
219784,-100,4,2,22,80,0,0
222368,-100,4,2,22,5,0,0
222451,-100,4,2,22,80,0,0
224201,-100,4,2,22,80,0,0
224284,-100,4,2,22,80,0,0
224951,-117.647058823529,4,2,22,80,0,0
226534,-117.647058823529,4,2,22,5,0,0
226618,-117.647058823529,4,2,22,80,0,0
229451,-100,4,2,22,80,0,0

[Colours]
Combo1 : 255,179,179
Combo2 : 225,210,255
Combo3 : 249,227,189
Combo4 : 190,241,208

[HitObjects]
20,311,285,6,0,P|45:264|153:257,1,155.999992858887,2|2,0:0|0:0,0:0:0:0:
225,288,951,2,0,L|293:278,1,51.999997619629,2|2,0:0|0:0,0:0:0:0:
356,327,1284,1,2,0:0:0:0:
356,327,1951,2,0,P|363:278|375:206,2,103.999995239258,2|2|2,0:0|0:0|0:0,0:0:0:0:
273,169,2951,6,0,P|261:72|320:28,2,155.999992858887,2|2|2,0:0|0:0|0:0,0:0:0:0:
9,364,4618,5,2,0:0:0:0:
36,285,4784,1,0,0:0:0:0:
111,253,4951,1,2,0:0:0:0:
188,264,5118,1,0,0:0:0:0:
206,290,5284,2,0,L|198:354,1,51.999997619629,2|0,0:0|0:0,0:0:0:0:
57,178,5618,6,0,L|50:126,1,51.999997619629,2|2,0:0|0:0,0:0:0:0:
70,185,5951,2,0,L|63:133,1,51.999997619629,2|2,0:0|0:0,0:0:0:0:
193,30,6284,6,0,L|199:81,1,51.999997619629,2|2,0:0|0:0,0:0:0:0:
202,20,6618,1,2,0:0:0:0:
374,267,7118,5,2,0:0:0:0:
380,264,7284,1,2,0:0:0:0:
475,294,7451,1,2,0:0:0:0:
505,190,7618,1,2,0:0:0:0:
405,160,7784,1,2,0:0:0:0:
283,259,7951,6,0,L|293:316,1,51.999997619629,2|0,0:0|0:0,0:0:0:0:
208,363,8284,2,0,B|162:348|117:335|117:335|96:367|60:374,2,155.999992858887,2|2|2,0:0|0:0|0:0,0:0:0:0:
225,232,9451,1,0,3:0:0:0:
400,318,9618,1,4,0:0:0:0:
311,371,9784,2,0,P|306:337|298:301,1,68.0000012969971,2|10,3:2|0:0,0:0:0:0:
415,232,10118,2,0,P|453:240|501:250,1,68.0000012969971,2|10,3:2|0:0,0:0:0:0:
259,101,10451,2,0,P|225:109|189:116,2,68.0000012969971,10|8|4,0:0|0:3|0:3,0:0:0:0:
381,0,10951,6,0,P|374:50|360:152,1,143.999995605469,14|8,0:0|0:0,0:0:0:0:
284,222,11451,1,2,0:0:0:0:
284,222,11618,2,0,L|204:210,1,71.9999978027344,10|2,0:0|3:2,0:0:0:0:
14,359,11951,6,0,P|43:318|139:317,1,143.999995605469,10|8,0:0|0:0,0:0:0:0:
130,311,12451,1,0,3:0:0:0:
68,127,12618,2,0,P|64:167|58:214,1,71.9999978027344,10|0,0:0|0:0,0:0:0:0:
241,380,12951,2,0,P|245:340|254:289,1,71.9999978027344,10|0,0:0|3:0,0:0:0:0:
386,250,13284,2,0,P|427:257|483:267,1,71.9999978027344,10|0,0:0|3:0,0:0:0:0:
259,94,13618,6,0,L|272:175,1,71.9999978027344,10|0,0:0|0:0,0:0:0:0:
370,108,13951,1,8,0:0:0:0:
181,179,14118,2,0,P|128:168|97:170,1,71.9999978027344,2|8,0:0|0:0,0:0:0:0:
14,210,14451,1,0,3:0:0:0:
188,348,14618,6,0,B|280:320|280:320|330:362,1,143.999995605469,10|8,0:0|0:0,0:0:0:0:
452,267,15118,1,0,3:0:0:0:
452,267,15284,2,0,L|440:350,1,71.9999978027344,10|0,0:0|0:0,0:0:0:0:
328,207,15618,2,0,P|321:164|331:122,1,71.9999978027344,10|0,0:0|3:0,0:0:0:0:
409,74,15951,2,0,L|493:89,1,71.9999978027344,10|0,0:0|3:0,0:0:0:0:
242,248,16284,5,14,0:0:0:0:
175,198,16451,1,2,0:0:0:0:
162,118,16618,1,10,0:0:0:0:
207,46,16784,1,2,0:0:0:0:
69,183,16951,2,0,P|28:197|-16:193,1,71.9999978027344,10|2,0:0|3:2,0:0:0:0:
211,347,17284,6,0,P|240:306|336:305,1,143.999995605469,10|8,0:0|0:0,0:0:0:0:
466,208,17784,1,2,3:2:0:0:
466,208,17951,2,0,L|387:197,1,71.9999978027344,10|2,0:0|0:0,0:0:0:0:
490,367,18284,2,0,P|499:316|507:283,1,71.9999978027344,10|2,0:0|3:2,0:0:0:0:
281,149,18618,2,0,P|288:184|294:219,1,71.9999978027344,10|0,0:0|3:0,0:0:0:0:
177,303,18951,6,0,L|58:288,1,107.999996704102,10|0,0:0|0:0,0:0:0:0:
42,303,19284,1,8,0:0:0:0:
224,206,19451,2,0,P|270:219|301:219,1,71.9999978027344,2|8,3:2|0:0,0:0:0:0:
148,127,19784,1,0,3:0:0:0:
268,376,19951,2,0,P|278:320|284:288,1,71.9999978027344,10|0,0:0|3:0,0:0:0:0:
367,255,20284,6,0,B|413:240|457:227|457:227|480:255|514:268,1,143.999995605469,12|10,0:0|0:0,0:0:0:0:
368,131,20784,1,0,3:0:0:0:
457,61,20951,5,8,0:0:0:0:
256,154,21118,2,0,L|212:146,4,35.9999989013672,8|8|8|8|4,0:0|0:0|0:3|0:3|0:3,0:0:0:0:
169,82,21618,6,0,L|190:234,1,143.999995605469,14|8,0:0|0:0,0:0:0:0:
154,330,22118,1,2,0:0:0:0:
154,330,22285,2,0,P|113:320|74:318,1,71.9999978027344,10|0,0:0|3:2,0:0:0:0:
279,243,22618,6,0,L|440:269,1,143.999995605469,10|8,0:0|0:0,0:0:0:0:
421,265,23118,1,0,3:0:0:0:
512,195,23284,2,0,L|498:125,1,71.9999978027344,10|0,0:0|0:0,0:0:0:0:
382,16,23618,2,0,B|367:54|367:54|375:95,1,71.9999978027344,10|0,0:0|3:0,0:0:0:0:
243,180,23951,2,0,P|207:190|160:182,1,71.9999978027344,10|0,0:0|3:0,0:0:0:0:
340,298,24284,6,0,L|329:374,1,71.9999978027344,10|0,0:0|0:0,0:0:0:0:
430,354,24618,1,8,0:0:0:0:
240,305,24784,2,0,P|202:313|149:325,1,71.9999978027344,2|8,3:2|0:0,0:0:0:0:
0,155,25118,1,0,3:0:0:0:
95,102,25284,2,0,P|88:152|74:254,1,143.999995605469,10|8,0:0|0:0,0:0:0:0:
202,115,25784,5,0,3:0:0:0:
202,115,25951,2,0,L|187:42,1,71.9999978027344,10|0,0:0|0:0,0:0:0:0:
319,165,26284,2,0,L|308:236,1,71.9999978027344,10|0,0:0|3:0,0:0:0:0:
201,355,26618,2,0,P|195:312|206:270,1,71.9999978027344,10|0,0:0|3:0,0:0:0:0:
414,318,26951,5,14,0:0:0:0:
501,341,27118,1,2,0:0:0:0:
403,326,27284,5,10,0:0:0:0:
511,335,27451,1,2,0:0:0:0:
396,334,27618,5,10,0:0:0:0:
420,240,27784,1,2,3:2:0:0:
441,154,27951,1,10,0:0:0:0:
216,360,28284,5,8,0:0:0:0:
216,360,28451,2,0,P|256:343|301:341,1,71.9999978027344,2|10,3:2|0:0,0:0:0:0:
75,283,28784,2,0,P|35:292|-17:303,1,71.9999978027344,2|10,0:0|0:0,0:0:0:0:
200,151,29118,2,0,L|188:222,1,71.9999978027344,2|10,3:2|0:0,0:0:0:0:
93,159,29451,1,0,3:0:0:0:
328,261,29618,6,0,B|420:233|420:233|470:275,1,143.999995605469,10|8,0:0|0:0,0:0:0:0:
357,150,30118,1,2,0:0:0:0:
357,150,30284,2,0,L|372:54,1,71.9999978027344,8|0,0:0|3:0,0:0:0:0:
192,209,30618,6,0,P|199:259|215:365,1,143.999995605469,10|12,0:0|0:0,0:0:0:0:
292,244,31118,1,0,3:0:0:0:
123,140,31284,1,10,0:0:0:0:
181,66,31451,5,0,3:0:0:0:
192,57,31534,1,0,0:0:0:0:
202,49,31618,2,0,L|191:4,3,35.9999989013672,8|0|8|8,0:0|0:0|0:0|0:0,0:0:0:0:
310,78,31951,2,0,L|301:112,3,35.9999989013672,8|8|4|4,0:3|0:3|0:3|0:3,0:0:0:0:
382,164,32284,6,0,L|444:155,2,51.999997619629,10|2|2,0:0|0:0|0:0,0:0:0:0:
290,245,32784,6,0,L|238:237,2,51.999997619629,2|2|2,0:0|0:0|0:0,0:0:0:0:
374,318,33284,5,2,0:0:0:0:
374,318,33618,6,0,P|420:312|469:369,2,111.999996582031,6|0|0,3:2|3:0|3:0,0:0:0:0:
283,355,34451,1,0,0:0:0:0:
283,355,34618,2,0,L|219:345,1,55.9999982910157,2|0,3:2|0:0,0:0:0:0:
141,290,34951,2,0,L|77:300,1,55.9999982910157,0|0,3:0|0:0,0:0:0:0:
0,248,35284,6,0,P|55:204|111:211,1,111.999996582031,2|2,3:2|3:2,0:0:0:0:
167,150,35784,1,0,0:0:0:0:
167,150,35951,2,0,L|154:87,1,55.9999982910157,2|0,3:2|0:0,0:0:0:0:
282,208,36284,2,0,L|295:145,1,55.9999982910157,2|0,3:2|0:0,0:0:0:0:
367,90,36618,6,0,P|401:105|434:108,1,55.9999982910157,2|0,3:2|0:0,0:0:0:0:
512,189,36951,2,0,P|484:194|459:206,1,55.9999982910157,2|0,3:2|0:0,0:0:0:0:
399,273,37284,2,0,L|411:342,1,55.9999982910157,2|0,3:2|0:0,0:0:0:0:
322,363,37618,5,0,3:0:0:0:
493,299,37784,1,0,0:0:0:0:
311,376,37951,2,0,P|256:368|187:359,1,111.999996582031,2|2,3:2|3:2,0:0:0:0:
66,269,38451,1,8,0:0:0:0:
151,231,38618,1,8,0:3:0:0:
89,371,38784,1,4,0:3:0:0:
158,220,38951,6,0,P|149:173|129:91,2,111.999996582031,6|0|0,3:2|3:0|3:0,0:0:0:0:
240,266,39784,1,0,0:0:0:0:
381,171,39951,6,0,B|440:188|489:201|489:201|519:164|510:130,1,167.999994873047,2|0,3:2|0:0,0:0:0:0:
364,263,40618,2,0,P|333:301|334:370,2,111.999996582031,2|2|2,3:2|3:2|3:2,0:0:0:0:
199,176,41618,2,0,P|154:184|68:193,1,111.999996582031,2|2,3:2|3:2,0:0:0:0:
0,214,42118,2,0,P|43:207|95:307,1,167.999994873047,2|2,0:0|3:2,0:0:0:0:
204,369,42784,1,2,0:0:0:0:
204,369,42951,2,0,L|194:302,1,55.9999982910157,2|0,3:2|0:0,0:0:0:0:
336,235,43284,2,0,L|327:290,1,55.9999982910157,2|0,3:2|0:0,0:0:0:0:
400,358,43618,5,2,3:2:0:0:
484,161,43784,1,8,0:0:0:0:
512,267,43951,2,0,P|475:260|450:251,1,55.9999982910157,8|4,0:3|0:3,0:0:0:0:
313,153,44284,6,0,P|322:103|336:21,1,111.999996582031,6|0,3:2|3:0,0:0:0:0:
210,0,44784,1,2,0:0:0:0:
210,0,44951,2,0,L|220:67,1,55.9999982910157,0|0,3:0|0:0,0:0:0:0:
149,125,45284,2,0,P|122:116|94:112,1,55.9999982910157,2|0,3:2|0:0,0:0:0:0:
0,268,45618,6,0,P|32:232|102:228,1,111.999996582031,0|2,3:0|3:2,0:0:0:0:
179,291,46118,1,0,0:0:0:0:
179,291,46285,2,0,L|169:358,1,55.9999982910157,2|0,3:2|0:0,0:0:0:0:
289,249,46618,2,0,P|283:223|280:193,1,55.9999982910157,2|0,3:2|0:0,0:0:0:0:
369,133,46951,6,0,L|445:147,1,55.9999982910157,2|0,3:2|0:0,0:0:0:0:
276,26,47284,2,0,L|331:36,1,55.9999982910157,2|0,3:2|0:0,0:0:0:0:
153,140,47618,6,0,L|208:129,1,55.9999982910157,2|0,3:2|0:0,0:0:0:0:
46,44,47951,2,0,L|101:33,1,55.9999982910157,2|0,3:2|0:0,0:0:0:0:
38,188,48284,6,0,P|45:224|52:261,1,55.9999982910157,0|0,3:0|0:0,0:0:0:0:
0,318,48618,1,2,3:2:0:0:
181,226,48784,1,8,0:0:0:0:
124,305,48951,2,0,L|110:378,1,55.9999982910157,2|8,3:2|0:3,0:0:0:0:
275,193,49284,2,0,L|264:138,1,55.9999982910157,4|8,0:3|0:0,0:0:0:0:
344,72,49618,6,0,P|390:66|439:123,1,111.999996582031,2|0,3:2|3:0,0:0:0:0:
512,222,50118,2,0,B|469:213|396:199|396:199|425:221|430:251,1,167.999994873047,2|0,0:0|3:0,0:0:0:0:
426,237,50784,1,0,0:0:0:0:
324,347,50951,6,0,L|334:272,1,55.9999982910157,6|0,3:2|0:0,0:0:0:0:
424,363,51284,1,2,3:2:0:0:
227,303,51451,2,0,P|197:306|165:317,1,55.9999982910157,2|0,0:0|3:0,0:0:0:0:
25,220,51784,2,0,P|51:228|79:230,1,55.9999982910157,0|10,3:0|0:0,0:0:0:0:
144,134,52118,1,4,0:3:0:0:
56,67,52284,5,6,3:2:0:0:
256,130,52451,2,0,P|294:124|346:116,1,68.0000012969971,0|8,0:0|0:0,0:0:0:0:
453,55,52784,6,0,P|446:105|433:204,1,136.000002593994,2|0,0:0|3:0,0:0:0:0:
456,320,53284,2,0,P|406:301|380:300,1,68.0000012969971,10|0,0:0|0:0,0:0:0:0:
215,208,53618,1,4,3:2:0:0:
272,340,53784,2,0,L|285:282,2,37.9999989852906,0|0|10,3:0|0:0|0:0,0:0:0:0:
351,384,54118,1,8,0:0:0:0:
160,285,54284,5,2,3:2:0:0:
77,332,54451,1,8,0:3:0:0:
162,384,54618,1,10,0:0:0:0:
25,246,54784,5,4,0:3:0:0:
11,239,54868,1,4,0:3:0:0:
0,232,54951,2,0,P|7:195|14:162,2,51.999997619629,14|8|4,0:0|0:3|0:3,0:0:0:0:
0,232,55451,1,14,0:0:0:0:
199,148,55784,5,0,3:0:0:0:
292,189,55951,2,0,L|419:173,1,103.999995239258,14|4,0:0|0:3,0:0:0:0:
475,128,56451,2,0,P|483:119|468:127,1,51.999997619629,14|0,0:0|0:0,0:0:0:0:
395,176,56784,1,0,3:0:0:0:
512,314,56951,2,0,P|478:291|409:290,1,103.999995239258,10|10,0:0|0:0,0:0:0:0:
70,198,57618,6,0,B|134:199|138:157|220:170,1,136.000002593994,6|10,3:2|0:0,0:0:0:0:
275,109,58118,2,0,P|270:71|264:26,1,68.0000012969971,2|0,3:2|0:0,0:0:0:0:
190,250,58451,2,0,P|194:283|198:317,1,68.0000012969971,2|8,3:2|0:0,0:0:0:0:
269,374,58784,5,2,3:2:0:0:
98,311,58951,2,0,P|58:316|19:328,2,68.0000012969971,0|2|8,0:0|3:2|0:0,0:0:0:0:
190,250,59451,1,0,0:0:0:0:
122,121,59618,2,0,P|111:155|111:193,1,68.0000012969971,2|0,3:2|3:0,0:0:0:0:
286,296,59951,2,0,L|369:284,1,68.0000012969971,10|0,0:0|3:0,0:0:0:0:
464,350,60284,6,0,P|472:294|487:197,1,136.000002593994,6|10,3:2|0:0,0:0:0:0:
397,156,60784,2,0,L|322:170,1,68.0000012969971,2|0,3:2|0:0,0:0:0:0:
224,108,61118,2,0,P|216:66|222:31,1,68.0000012969971,2|8,3:2|0:0,0:0:0:0:
81,194,61451,1,2,3:2:0:0:
166,271,61618,6,0,B|230:272|234:230|316:243,1,136.000002593994,2|8,0:0|0:0,0:0:0:0:
380,295,62118,2,0,L|368:380,1,68.0000012969971,2|2,0:0|3:2,0:0:0:0:
487,248,62451,1,0,3:0:0:0:
415,187,62618,2,0,P|407:145|413:110,1,68.0000012969971,10|0,0:0|3:0,0:0:0:0:
331,60,62951,6,0,L|197:79,1,136.000002593994,6|8,3:2|0:0,0:0:0:0:
85,251,63451,1,0,0:0:0:0:
0,205,63618,2,0,P|56:166|136:178,1,136.000002593994,2|8,3:2|0:0,0:0:0:0:
273,293,64118,1,0,3:0:0:0:
195,343,64284,6,0,P|191:309|186:275,1,68.0000012969971,14|0,0:0|3:0,0:0:0:0:
300,137,64618,2,0,P|303:170|308:204,1,68.0000012969971,8|0,0:0|3:0,0:0:0:0:
393,328,64951,6,0,P|404:279|403:251,1,68.0000012969971,8|0,0:0|3:0,0:0:0:0:
207,113,65284,2,0,P|196:162|197:190,1,68.0000012969971,8|8,0:0|0:3,0:0:0:0:
363,75,65618,2,0,P|357:45|347:-9,1,68.0000012969971,14|0,3:2|0:0,0:0:0:0:
469,135,65951,1,8,0:0:0:0:
325,205,66118,2,0,B|287:198|242:191|242:191|222:216|192:223,1,136.000002593994,2|0,3:2|3:0,0:0:0:0:
58,152,66618,2,0,L|69:225,1,68.0000012969971,10|0,0:0|3:0,0:0:0:0:
162,142,66951,5,0,0:0:0:0:
0,272,67118,2,0,P|49:255|122:322,1,136.000002593994,2|0,3:2|0:0,0:0:0:0:
198,354,67618,2,0,P|238:347|284:340,1,68.0000012969971,10|0,0:0|3:0,0:0:0:0:
436,280,67951,2,0,P|456:318|456:350,1,68.0000012969971,10|0,0:0|3:0,0:0:0:0:
337,248,68284,6,0,P|345:192|360:95,1,136.000002593994,6|10,3:2|0:0,0:0:0:0:
247,20,68784,2,0,L|259:92,1,68.0000012969971,2|0,3:2|0:0,0:0:0:0:
149,190,69118,2,0,P|116:179|82:178,1,68.0000012969971,2|8,3:2|0:0,0:0:0:0:
0,217,69451,5,2,3:2:0:0:
132,93,69618,1,4,0:0:0:0:
46,18,69784,1,2,3:2:0:0:
109,265,69951,2,0,L|100:337,1,68.0000012969971,10|0,0:0|0:0,0:0:0:0:
201,384,70284,2,0,P|233:351|331:347,1,136.000002593994,2|10,3:2|0:0,0:0:0:0:
464,141,70784,1,0,3:0:0:0:
512,233,70951,6,0,B|448:234|444:192|362:205,1,136.000002593994,6|8,3:2|0:0,0:0:0:0:
300,137,71451,2,0,P|308:92|316:47,1,68.0000012969971,2|0,0:0|3:2,0:0:0:0:
191,232,71784,1,0,3:0:0:0:
266,300,71951,6,0,L|355:284,1,68.0000012969971,8|0,0:0|3:0,0:0:0:0:
91,184,72284,2,0,L|2:200,1,68.0000012969971,6|0,0:0|3:0,0:0:0:0:
251,33,72618,1,8,0:0:0:0:
156,0,72784,2,0,L|177:152,1,136.000002593994,2|8,3:2|0:0,0:0:0:0:
252,213,73284,2,0,L|305:204,2,34.0000006484985,8|8|4,0:3|0:3|0:3,0:0:0:0:
60,373,73618,6,0,P|90:334|196:332,1,143.999995605469,14|0,0:0|3:0,0:0:0:0:
299,377,74118,2,0,P|305:326|311:290,1,71.9999978027344,12|2,0:0|3:2,0:0:0:0:
191,356,74451,1,0,3:0:0:0:
405,322,74618,2,0,L|500:341,1,71.9999978027344,12|0,0:0|3:0,0:0:0:0:
296,218,74951,6,0,P|290:165|301:127,1,71.9999978027344,10|0,0:0|3:0,0:0:0:0:
463,20,75284,2,0,L|447:136,1,107.999996704102,12|0,0:0|0:0,0:0:0:0:
458,150,75618,1,10,0:0:0:0:
309,40,75784,1,8,0:0:0:0:
282,30,75867,1,8,0:0:0:0:
253,31,75950,1,8,0:3:0:0:
227,44,76033,1,8,0:3:0:0:
208,65,76117,1,4,0:3:0:0:
199,92,76200,1,4,0:3:0:0:
202,119,76284,6,0,B|156:104|112:91|112:91|94:121|53:132,1,151.999995941162,6|8,3:2|0:0,0:0:0:0:
68,126,76784,1,2,0:0:0:0:
193,224,76951,2,0,L|290:208,1,75.9999979705811,0|0,3:0|3:0,0:0:0:0:
112,338,77284,6,0,P|99:288|105:248,1,75.9999979705811,10|0,0:0|3:0,0:0:0:0:
262,59,77618,2,0,P|275:109|269:149,1,75.9999979705811,2|0,0:0|3:0,0:0:0:0:
512,321,77951,6,0,P|478:286|390:290,1,113.999996955872,10|0,0:0|0:0,0:0:0:0:
326,334,78284,2,0,L|235:320,1,75.9999979705811,2|0,3:2|3:0,0:0:0:0:
65,244,78618,2,0,P|108:246|146:233,1,75.9999979705811,10|0,0:0|3:0,0:0:0:0:
228,163,78951,6,0,L|204:2,1,151.999995941162,2|8,3:2|0:0,0:0:0:0:
362,121,79451,2,0,L|351:210,1,75.9999979705811,2|0,0:0|3:0,0:0:0:0:
445,362,79784,1,0,3:0:0:0:
244,328,79951,2,0,P|300:307|329:308,1,75.9999979705811,10|0,0:0|3:0,0:0:0:0:
152,199,80284,6,0,P|105:230|31:215,1,113.999996955872,2|0,0:0|0:0,0:0:0:0:
0,154,80618,2,0,P|41:145|96:134,1,75.9999979705811,10|0,0:0|0:0,0:0:0:0:
210,0,80951,2,0,L|193:93,1,75.9999979705811,2|0,3:2|3:0,0:0:0:0:
298,159,81284,2,0,P|353:145|391:149,1,75.9999979705811,8|0,0:0|3:0,0:0:0:0:
512,298,81618,6,0,B|462:298|449:267|400:274,1,113.999996955872,6|0,3:2|0:0,0:0:0:0:
374,286,81951,1,8,0:0:0:0:
246,349,82118,2,0,L|272:176,1,151.999995941162,2|0,0:0|3:0,0:0:0:0:
159,290,82618,1,8,0:0:0:0:
332,373,82784,1,0,3:0:0:0:
154,286,82951,2,0,L|59:307,1,75.9999979705811,2|0,0:0|3:0,0:0:0:0:
0,246,83284,1,8,0:0:0:0:
182,165,83451,6,0,B|231:179|282:193|282:193|314:148,1,151.999995941162,2|0,0:0|3:0,0:0:0:0:
473,210,83951,2,0,P|420:228|390:225,1,75.9999979705811,10|0,0:0|3:0,0:0:0:0:
369,66,84284,2,0,P|422:48|452:51,1,75.9999979705811,2|0,3:2|0:0,0:0:0:0:
282,137,84618,1,8,0:0:0:0:
209,74,84784,6,0,L|226:-17,2,75.9999979705811,2|0|0,0:0|3:0|3:0,0:0:0:0:
100,151,85284,2,0,B|61:164|61:164|8:155,1,75.9999979705811,10|0,0:0|3:0,0:0:0:0:
187,237,85618,6,0,L|172:337,1,75.9999979705811,2|0,0:0|3:0,0:0:0:0:
270,361,85951,2,0,B|316:346|360:333|360:333|378:363|419:374,1,151.999995941162,10|2,0:0|3:2,0:0:0:0:
507,187,86451,1,0,3:0:0:0:
396,243,86618,2,0,P|352:235|303:226,1,75.9999979705811,8|0,0:0|3:0,0:0:0:0:
161,123,86951,1,6,3:2:0:0:
209,308,87118,6,0,P|215:265|223:216,1,75.9999979705811,0|8,0:0|0:0,0:0:0:0:
37,148,87451,2,0,P|42:185|48:223,1,75.9999979705811,2|0,0:0|3:0,0:0:0:0:
161,123,87784,2,0,B|171:85|171:85|159:34,1,75.9999979705811,2|8,3:2|0:0,0:0:0:0:
56,25,88118,1,2,3:2:0:0:
266,144,88284,6,0,B|298:121|327:115|327:115|349:134|385:140,1,113.999996955872,2|0,0:0|0:0,0:0:0:0:
464,80,88618,2,0,P|456:136|444:220,1,113.999996955872,10|0,0:0|0:0,0:0:0:0:
365,301,88951,2,0,B|354:262|354:262|367:221,1,75.9999979705811,2|0,3:2|3:0,0:0:0:0:
458,306,89284,1,10,0:0:0:0:
276,351,89451,5,0,3:0:0:0:
270,359,89534,1,0,0:0:0:0:
264,366,89618,2,0,L|137:347,1,113.999996955872,6|0,3:2|0:0,0:0:0:0:
151,348,89951,1,8,0:0:0:0:
0,286,90118,2,0,P|52:266|83:268,1,75.9999979705811,2|0,0:0|3:0,0:0:0:0:
290,187,90451,2,0,P|237:178|197:168,1,75.9999979705811,2|8,3:2|0:0,0:0:0:0:
85,56,90784,2,0,L|101:140,1,75.9999979705811,2|2,3:2|0:0,0:0:0:0:
7,127,91118,1,0,3:0:0:0:
105,281,91284,6,0,B|151:266|195:253|195:253|213:283|254:294,1,151.999995941162,10|2,0:0|3:2,0:0:0:0:
342,220,91784,1,0,3:0:0:0:
250,89,91951,2,0,P|231:129|233:174,1,75.9999979705811,10|0,0:0|3:0,0:0:0:0:
427,293,92284,2,0,P|435:241|442:203,1,75.9999979705811,6|0,3:2|0:0,0:0:0:0:
501,358,92618,1,8,0:0:0:0:
325,313,92784,6,0,P|283:300|244:302,1,75.9999979705811,2|0,0:0|3:0,0:0:0:0:
91,210,93118,2,0,P|69:247|69:282,1,75.9999979705811,2|8,3:2|0:0,0:0:0:0:
208,158,93451,2,0,P|216:109|172:51,1,113.999996955872,2|0,3:2|0:0,0:0:0:0:
152,45,93784,1,0,3:0:0:0:
315,104,93951,2,0,L|410:88,1,75.9999979705811,10|0,0:0|0:0,0:0:0:0:
512,263,94284,6,0,P|476:232|399:232,1,113.999996955872,2|0,3:2|0:0,0:0:0:0:
331,283,94618,2,0,L|340:347,1,60.0000022888184,8|0,0:0|3:0,0:0:0:0:
256,384,94951,5,2,3:2:0:0:
256,384,95118,1,0,0:0:0:0:
427,266,95284,1,8,0:0:0:0:
248,159,95451,2,0,P|241:199|235:234,1,75.9999979705811,2|0,0:0|3:0,0:0:0:0:
108,86,95784,2,0,P|144:90|196:70,1,75.9999979705811,2|8,3:2|0:0,0:0:0:0:
260,14,96118,5,2,3:2:0:0:
389,133,96284,2,0,L|399:80,2,37.9999989852906,8|8|0,0:0|0:0|3:0,0:0:0:0:
453,215,96618,2,0,P|485:209|527:202,1,60.0000022888184,10|0,0:0|3:0,0:0:0:0:
342,356,96951,2,0,L|356:246,1,90.0000034332277,10|0,0:0|3:0,0:0:0:0:
333,237,97284,1,10,0:0:0:0:
456,331,97451,1,8,0:0:0:0:
238,377,97618,6,0,P|196:347|126:352,1,120.000004577637,4|0,3:2|3:0,0:0:0:0:
0,281,98118,6,0,B|111:270|132:184|171:107|290:141|266:241|241:267|163:335|141:228|76:174|-24:134|73:-66|172:43|74:126,1,655.199980004883,12|2,0:0|0:2,0:0:0:0:
0,263,110951,6,0,B|60:268|71:225|148:233,1,143.999995605469,14|8,0:0|0:0,0:0:0:0:
218,279,111451,1,2,0:0:0:0:
317,144,111618,2,0,P|311:184|304:230,1,71.9999978027344,10|2,0:0|3:2,0:0:0:0:
493,365,111951,2,0,P|455:331|383:331,1,107.999996704102,10|0,0:0|0:0,0:0:0:0:
305,376,112284,6,0,P|297:330|302:296,1,71.9999978027344,8|0,0:0|3:0,0:0:0:0:
440,131,112618,2,0,P|448:177|443:210,1,71.9999978027344,10|0,0:0|0:0,0:0:0:0:
302,52,112951,2,0,P|332:54|376:38,1,71.9999978027344,10|0,0:0|3:0,0:0:0:0:
211,161,113284,2,0,L|136:150,1,71.9999978027344,10|0,0:0|3:0,0:0:0:0:
0,306,113618,6,0,P|40:276|102:276,1,107.999996704102,10|0,0:0|0:0,0:0:0:0:
133,295,113951,1,8,0:0:0:0:
290,228,114118,2,0,P|282:279|276:321,1,71.9999978027344,2|8,0:0|0:0,0:0:0:0:
211,161,114451,1,0,3:0:0:0:
396,226,114618,2,0,P|436:220|482:213,1,71.9999978027344,10|0,0:0|3:0,0:0:0:0:
261,101,114951,6,0,P|207:127|152:110,1,107.999996704102,8|0,0:0|0:0,0:0:0:0:
137,99,115284,2,0,P|142:58|149:7,1,71.9999978027344,10|0,0:0|0:0,0:0:0:0:
0,176,115618,2,0,P|37:183|80:178,1,71.9999978027344,10|0,0:0|3:0,0:0:0:0:
205,309,115951,2,0,P|170:300|134:301,1,71.9999978027344,10|0,0:0|3:0,0:0:0:0:
298,207,116284,5,14,0:0:0:0:
381,200,116451,1,2,0:0:0:0:
446,256,116618,1,10,0:0:0:0:
457,342,116784,1,2,0:0:0:0:
290,201,116951,2,0,P|289:160|298:116,1,71.9999978027344,10|2,0:0|3:2,0:0:0:0:
163,198,117284,6,0,B|91:190|92:236|15:231,1,143.999995605469,10|8,0:0|0:0,0:0:0:0:
172,92,117784,1,2,3:2:0:0:
251,142,117951,2,0,P|294:153|336:149,1,71.9999978027344,10|2,0:0|0:0,0:0:0:0:
512,258,118284,5,10,0:0:0:0:
415,229,118451,1,2,3:2:0:0:
385,324,118618,1,10,0:0:0:0:
484,354,118784,1,0,3:0:0:0:
450,293,118951,6,0,P|403:299|294:314,1,143.999995605469,10|8,0:0|0:0,0:0:0:0:
183,274,119451,2,0,P|190:307|197:349,1,71.9999978027344,2|8,3:2|0:0,0:0:0:0:
264,196,119784,1,0,3:0:0:0:
164,150,119951,2,0,B|125:163|125:163|70:156,1,71.9999978027344,10|0,0:0|3:0,0:0:0:0:
265,61,120284,6,0,L|336:71,1,71.9999978027344,12|0,0:0|0:0,0:0:0:0:
445,165,120618,2,0,P|451:118|466:11,1,143.999995605469,10|8,0:0|0:0,0:0:0:0:
358,197,121118,1,8,0:0:0:0:
392,187,121201,1,8,0:0:0:0:
426,196,121284,1,8,0:3:0:0:
453,220,121367,1,8,0:3:0:0:
464,254,121451,1,4,0:3:0:0:
339,351,121618,6,0,B|275:333|275:333|245:369|192:364,1,143.999995605469,14|8,0:0|0:0,0:0:0:0:
119,325,122118,1,2,0:0:0:0:
212,179,122284,2,0,P|223:218|223:261,1,71.9999978027344,10|0,0:0|3:2,0:0:0:0:
4,153,122618,2,0,P|49:161|111:104,1,107.999996704102,10|0,0:0|0:0,0:0:0:0:
162,70,122951,6,0,P|154:28|146:-18,1,71.9999978027344,8|0,0:0|3:0,0:0:0:0:
305,133,123284,2,0,L|294:209,1,71.9999978027344,10|0,0:0|0:0,0:0:0:0:
194,331,123618,2,0,B|184:293|184:293|193:249,1,71.9999978027344,10|0,0:0|3:0,0:0:0:0:
396,190,123951,2,0,L|480:204,1,71.9999978027344,10|0,0:0|3:0,0:0:0:0:
231,84,124284,6,0,B|177:88|163:50|95:66,1,120,10|0,0:0|0:0,0:0:0:0:
80,82,124618,1,8,0:0:0:0:
0,200,124784,2,0,P|33:185|82:181,1,71.9999978027344,2|8,3:2|0:0,0:0:0:0:
224,294,125118,1,0,3:0:0:0:
137,361,125284,2,0,B|131:325|131:325|141:279,1,71.9999978027344,10|0,0:0|3:0,0:0:0:0:
304,212,125618,6,0,L|430:227,1,107.999996704102,8|0,0:0|0:0,0:0:0:0:
511,199,125951,2,0,P|504:232|497:274,1,71.9999978027344,10|0,0:0|0:0,0:0:0:0:
402,84,126284,2,0,P|409:51|416:9,1,71.9999978027344,10|0,0:0|3:0,0:0:0:0:
280,129,126618,2,0,P|224:150|171:137,1,107.999996704102,10|0,0:0|0:0,0:0:0:0:
149,117,126951,1,14,0:0:0:0:
34,233,127118,6,0,L|119:222,2,71.9999978027344,2|10|2,0:0|0:0|0:0,0:0:0:0:
53,143,127618,1,10,0:0:0:0:
83,313,127784,1,2,3:2:0:0:
216,272,127951,6,0,P|266:267|322:343,1,143.999995605469,10|8,0:0|0:0,0:0:0:0:
435,266,128451,2,0,P|428:225|421:183,2,71.9999978027344,2|10|2,3:2|0:0|0:0,0:0:0:0:
333,232,128951,1,10,0:0:0:0:
482,132,129118,1,2,3:2:0:0:
379,18,129284,2,0,P|368:57|368:100,1,71.9999978027344,10|0,0:0|3:0,0:0:0:0:
246,198,129618,6,0,P|202:163|109:170,1,143.999995605469,10|8,0:0|0:0,0:0:0:0:
4,312,130118,2,0,B|69:296|79:345|149:325,1,143.999995605469,2|0,0:0|3:0,0:0:0:0:
259,268,130618,2,0,P|253:232|245:197,1,71.9999978027344,10|0,0:0|3:0,0:0:0:0:
459,337,130951,2,0,P|464:301|472:266,1,71.9999978027344,12|0,0:0|3:0,0:0:0:0:
391,94,131284,2,0,L|371:250,1,143.999995605469,10|8,0:0|0:0,0:0:0:0:
265,154,131784,5,8,0:0:0:0:
257,147,131867,1,8,0:0:0:0:
248,143,131951,2,0,L|202:152,3,35.9999989013672,8|8|4|4,0:3|0:3|0:3|0:3,0:0:0:0:
137,100,132284,6,0,B|131:64|131:64|146:12,1,71.9999978027344,14|2,0:0|0:0,0:0:0:0:
3,188,132618,2,0,P|47:182|91:177,1,71.9999978027344,10|2,0:0|3:2,0:0:0:0:
271,264,132951,2,0,P|227:275|196:272,1,71.9999978027344,2|2,3:2|0:0,0:0:0:0:
228,180,133284,1,10,0:0:0:0:
258,366,133451,1,10,0:0:0:0:
366,317,133618,6,0,P|431:313|475:356,2,120.000004577637,6|8|0,3:2|0:0|3:0,0:0:0:0:
305,252,134451,1,0,0:0:0:0:
305,252,134618,2,0,P|310:216|317:185,1,60.0000022888184,10|0,0:0|0:0,0:0:0:0:
194,272,134951,2,0,P|200:307|203:335,1,60.0000022888184,0|0,3:0|0:0,0:0:0:0:
113,371,135284,2,0,P|80:341|-6:343,2,120.000004577637,10|2|10,0:0|3:2|0:0,0:0:0:0:
453,282,136284,6,0,P|420:312|334:310,1,120.000004577637,2|10,3:2|0:0,0:0:0:0:
279,249,136784,1,0,0:0:0:0:
279,249,136951,2,0,L|291:176,1,60.0000022888184,2|0,3:2|0:0,0:0:0:0:
168,106,137284,2,0,L|180:179,1,60.0000022888184,10|0,0:0|0:0,0:0:0:0:
316,48,137618,6,0,P|287:48|258:40,1,60.0000022888184,0|0,3:0|0:0,0:0:0:0:
397,158,137951,2,0,B|453:161|462:124|529:137,1,120.000004577637,10|2,0:0|3:2,0:0:0:0:
415,56,138451,1,8,0:0:0:0:
458,242,138618,2,0,L|448:315,1,60.0000022888184,8|4,0:3|0:3,0:0:0:0:
340,348,138951,6,0,B|287:336|287:336|260:367|214:362,1,120.000004577637,6|8,3:2|0:0,0:0:0:0:
104,233,139451,1,2,0:0:0:0:
5,301,139618,2,0,P|39:310|84:308,1,60.0000022888184,0|0,3:0|0:0,0:0:0:0:
199,213,139951,6,0,L|181:86,1,120.000004577637,10|0,0:0|3:0,0:0:0:0:
182,94,140451,1,0,0:0:0:0:
93,175,140618,2,0,L|13:165,1,60.0000022888184,10|0,0:0|0:0,0:0:0:0:
241,290,140951,2,0,L|321:280,1,60.0000022888184,2|0,3:2|0:0,0:0:0:0:
489,203,141284,2,0,P|448:192|417:194,1,60.0000022888184,10|0,0:0|0:0,0:0:0:0:
351,132,141618,2,0,B|367:84|336:64|359:7,1,120.000004577637,2|10,3:2|0:0,0:0:0:0:
251,119,142118,2,0,P|212:129|152:70,1,120.000004577637,2|2,0:0|0:0,0:0:0:0:
18,203,142618,1,10,0:0:0:0:
0,294,142784,6,0,P|19:253|150:226,1,180.000006866455,2|10,0:0|0:0,0:0:0:0:
218,279,143451,1,0,0:0:0:0:
218,279,143618,2,0,L|285:270,1,60.0000022888184,2|8,3:2|0:3,0:0:0:0:
374,240,143951,1,8,0:0:0:0:
325,366,144118,1,4,0:3:0:0:
374,240,144284,6,0,P|368:203|349:99,1,120.000004577637,6|8,3:2|0:0,0:0:0:0:
459,53,144784,1,2,0:0:0:0:
459,53,144951,2,0,L|447:126,1,60.0000022888184,0|0,3:0|0:0,0:0:0:0:
297,40,145284,6,0,L|378:27,1,60.0000022888184,10|0,0:0|0:0,0:0:0:0:
204,153,145618,2,0,L|138:143,1,60.0000022888184,0|0,3:0|0:0,0:0:0:0:
20,81,145951,6,0,L|40:210,1,120.000004577637,10|2,0:0|3:2,0:0:0:0:
160,267,146451,1,0,0:0:0:0:
83,369,146618,2,0,P|76:326|69:294,1,60.0000022888184,10|0,0:0|0:0,0:0:0:0:
231,350,146951,2,0,L|367:334,1,120.000004577637,2|10,3:2|0:0,0:0:0:0:
498,244,147451,1,0,0:0:0:0:
427,204,147618,2,0,P|389:210|367:221,1,60.0000022888184,2|0,3:2|0:0,0:0:0:0:
188,99,147951,6,0,P|232:131|316:113,1,120.000004577637,10|0,0:0|3:0,0:0:0:0:
100,287,148618,2,0,P|43:282|-3:332,2,120.000004577637,10|2|4,0:0|3:2|1:3,0:0:0:0:
100,287,149618,2,0,L|80:156,1,120.000004577637,6|8,3:2|0:0,0:0:0:0:
225,0,150118,6,0,B|282:26|297:97|297:97|273:117|264:162,1,180.000006866455,2|8,0:0|0:0,0:0:0:0:
271,149,150784,1,0,0:0:0:0:
373,208,150951,6,0,L|445:198,1,60.0000022888184,6|0,3:2|0:0,0:0:0:0:
512,255,151284,1,8,0:0:0:0:
395,365,151451,6,0,P|376:324|245:297,1,180.000006866455,2|10,0:0|0:0,0:0:0:0:
138,369,152118,1,4,0:3:0:0:
35,163,152284,1,4,3:2:0:0:
204,217,152451,2,0,P|173:232|125:236,1,68.0000012969971,0|8,0:0|0:0,0:0:0:0:
347,123,152784,6,0,P|410:138|496:148,1,136.000002593994,2|0,0:0|3:0,0:0:0:0:
362,299,153284,2,0,P|356:263|363:218,1,68.0000012969971,10|0,0:0|0:0,0:0:0:0:
246,355,153618,6,0,B|207:332|167:331|167:331|139:357|101:355,1,136.000002593994,4|10,3:2|0:0,0:0:0:0:
0,217,154118,1,8,0:0:0:0:
103,156,154284,2,0,L|91:240,1,68.0000012969971,2|8,3:2|0:3,0:0:0:0:
24,90,154618,1,10,0:0:0:0:
209,196,154784,1,4,0:3:0:0:
219,191,154868,1,4,0:3:0:0:
230,188,154951,6,0,L|296:195,2,51.999997619629,14|8|4,0:0|0:3|0:3,0:0:0:0:
228,186,155451,1,14,0:0:0:0:
432,315,155784,5,0,3:0:0:0:
498,262,155951,2,0,P|493:226|482:146,1,103.999995239258,14|4,0:0|0:3,0:0:0:0:
415,95,156451,2,0,P|407:86|422:94,1,51.999997619629,14|0,0:0|0:0,0:0:0:0:
358,158,156784,1,0,3:0:0:0:
287,93,156951,6,0,P|293:57|302:20,1,60.0000022888184,10|0,0:0|3:0,0:0:0:0:
117,159,157284,2,0,P|111:123|102:86,1,60.0000022888184,10|0,0:0|3:0,0:0:0:0:
245,198,157618,6,0,L|228:347,1,136.000002593994,6|10,3:2|0:0,0:0:0:0:
327,384,158118,2,0,P|336:341|332:304,1,68.0000012969971,2|0,3:2|0:0,0:0:0:0:
143,236,158451,2,0,L|69:249,1,68.0000012969971,2|8,3:2|0:0,0:0:0:0:
0,195,158784,1,2,3:2:0:0:
178,75,158951,6,0,L|164:167,1,68.0000012969971,0|2,0:0|3:2,0:0:0:0:
318,243,159284,2,0,L|304:174,1,68.0000012969971,8|0,0:0|0:0,0:0:0:0:
220,296,159618,1,2,3:2:0:0:
340,378,159784,1,0,3:0:0:0:
220,296,159951,2,0,P|158:276|114:283,1,102.000001945496,10|0,0:0|0:0,0:0:0:0:
40,333,160284,6,0,P|32:293|36:254,1,68.0000012969971,6|0,3:2|0:0,0:0:0:0:
213,161,160618,1,10,0:0:0:0:
113,78,160784,2,0,L|100:163,1,68.0000012969971,2|0,3:2|0:0,0:0:0:0:
285,53,161118,2,0,P|245:46|205:39,1,68.0000012969971,2|8,3:2|0:0,0:0:0:0:
395,173,161451,2,0,P|421:168|460:161,1,68.0000012969971,2|2,3:2|0:0,0:0:0:0:
512,92,161784,1,0,3:0:0:0:
333,274,161951,6,0,B|295:249|258:246|258:246|229:269|191:271,1,136.000002593994,8|2,0:0|3:2,0:0:0:0:
42,149,162451,1,0,3:0:0:0:
94,366,162618,2,0,P|100:319|112:254,1,102.000001945496,10|0,0:0|0:0,0:0:0:0:
25,231,162951,6,0,P|76:238|138:197,1,125.999996154785,6|0,3:2|0:0,0:0:0:0:
187,130,163284,2,0,P|181:90|175:52,1,68.0000012969971,8|0,0:0|0:0,0:0:0:0:
306,164,163618,6,0,B|357:167|377:133|435:142,1,125.999996154785,2|0,3:2|0:0,0:0:0:0:
492,208,163951,2,0,P|451:227|412:227,1,68.0000012969971,8|0,0:0|3:0,0:0:0:0:
251,351,164284,6,0,P|293:337|333:336,1,75.9999979705811,14|0,0:0|3:0,0:0:0:0:
100,269,164618,2,0,L|7:288,1,75.9999979705811,8|0,0:0|3:0,0:0:0:0:
256,133,164951,2,0,L|241:223,1,75.9999979705811,8|0,0:0|3:0,0:0:0:0:
106,118,165284,1,8,0:0:0:0:
98,81,165367,1,8,0:0:0:0:
116,49,165450,1,8,0:3:0:0:
152,38,165534,1,4,0:3:0:0:
182,56,165618,6,0,P|132:67|80:23,1,103.999995239258,14|8,3:2|0:0,0:0:0:0:
0,229,166118,1,2,3:2:0:0:
0,229,166618,6,0,P|40:193|101:192,1,103.999995239258,10|0,0:0|0:0,0:0:0:0:
241,303,167118,1,2,3:2:0:0:
241,303,167618,2,0,P|246:262|256:227,1,60.0000022888184,10|0,0:0|3:0,0:0:0:0:
125,140,167951,2,0,L|133:199,1,60.0000022888184,10|0,0:0|3:0,0:0:0:0:
343,277,168284,6,0,B|402:280|422:243|487:255,1,143.999995605469,6|10,3:2|0:0,0:0:0:0:
403,161,168784,2,0,P|410:119|420:79,1,71.9999978027344,2|0,3:2|0:0,0:0:0:0:
229,317,169118,2,0,P|223:281|216:244,1,71.9999978027344,2|8,3:2|0:0,0:0:0:0:
48,128,169451,1,2,3:2:0:0:
2,226,169618,6,0,P|37:182|131:169,1,143.999995605469,4|10,0:0|0:0,0:0:0:0:
328,0,170284,2,0,P|298:35|290:102,1,107.999996704102,2|0,3:2|0:0,0:0:0:0:
371,161,170618,2,0,P|413:155|458:148,1,71.9999978027344,10|0,0:0|3:0,0:0:0:0:
269,318,170951,2,0,P|275:278|284:228,1,71.9999978027344,6|0,3:2|0:0,0:0:0:0:
77,340,171284,1,8,0:0:0:0:
140,145,171451,2,0,P|151:185|153:222,1,71.9999978027344,2|0,0:0|3:2,0:0:0:0:
40,182,171784,1,0,3:0:0:0:
188,60,171951,1,8,0:0:0:0:
213,71,172284,6,0,L|290:59,1,71.9999978027344,6|0,0:0|3:0,0:0:0:0:
435,235,172618,1,8,0:0:0:0:
512,175,172784,2,0,P|465:141|368:155,1,143.999995605469,2|8,3:2|0:0,0:0:0:0:
267,249,173284,5,8,0:3:0:0:
279,272,173368,1,8,0:3:0:0:
267,294,173451,1,4,0:3:0:0:
279,312,173534,1,4,0:3:0:0:
265,334,173618,6,0,B|174:314|174:314|153:340|113:349,1,143.999995605469,14|0,0:0|3:0,0:0:0:0:
8,301,174118,2,0,P|15:340|21:386,1,71.9999978027344,12|2,0:0|3:2,0:0:0:0:
117,225,174451,1,0,3:0:0:0:
34,118,174618,2,0,P|23:157|23:194,1,71.9999978027344,12|0,0:0|3:0,0:0:0:0:
169,77,174951,2,0,L|154:-8,1,71.9999978027344,10|0,0:0|3:0,0:0:0:0:
284,133,175284,2,0,L|415:113,1,107.999996704102,12|0,0:0|0:0,0:0:0:0:
412,97,175618,1,10,0:0:0:0:
512,234,175784,5,8,0:0:0:0:
485,224,175867,1,8,0:0:0:0:
456,225,175950,1,8,0:3:0:0:
430,238,176033,1,8,0:3:0:0:
411,259,176117,1,4,0:3:0:0:
402,286,176200,1,4,0:3:0:0:
409,317,176284,6,0,B|367:290|322:287|322:287|296:313|267:316,1,151.999995941162,6|8,3:2|0:0,0:0:0:0:
119,222,176784,1,2,0:0:0:0:
241,119,176951,2,0,L|224:220,1,75.9999979705811,0|0,3:0|3:0,0:0:0:0:
51,106,177284,2,0,P|111:96|146:90,1,75.9999979705811,10|0,0:0|3:0,0:0:0:0:
365,288,177618,2,0,P|327:281|290:275,1,75.9999979705811,2|0,0:0|3:0,0:0:0:0:
426,197,177951,6,0,P|434:145|446:60,1,113.999996955872,10|0,0:0|0:0,0:0:0:0:
367,0,178284,2,0,P|352:35|349:75,1,75.9999979705811,2|0,3:2|3:0,0:0:0:0:
174,169,178618,2,0,P|215:174|253:166,1,75.9999979705811,10|0,0:0|3:0,0:0:0:0:
489,351,178951,2,0,P|453:316|374:319,1,113.999996955872,2|0,3:2|0:0,0:0:0:0:
316,355,179284,1,8,0:0:0:0:
150,277,179451,6,0,P|140:230|169:166,1,113.999996955872,2|0,0:0|0:0,0:0:0:0:
193,154,179784,1,0,3:0:0:0:
50,59,179951,2,0,P|57:101|63:148,1,75.9999979705811,10|0,0:0|3:0,0:0:0:0:
266,76,180284,1,2,0:0:0:0:
153,9,180451,1,0,3:0:0:0:
288,193,180618,2,0,L|384:180,1,75.9999979705811,10|0,0:0|0:0,0:0:0:0:
486,107,180951,6,0,P|478:152|462:241,1,113.999996955872,2|0,3:2|0:0,0:0:0:0:
482,250,181284,1,8,0:0:0:0:
310,114,181451,1,0,3:0:0:0:
156,221,181618,6,0,B|110:223|69:248|69:248|35:226|43:191,1,151.999995941162,6|8,3:2|0:0,0:0:0:0:
220,320,182118,2,0,B|291:321|292:281|377:291,1,151.999995941162,2|0,0:0|3:0,0:0:0:0:
488,127,182618,1,8,0:0:0:0:
333,195,182784,1,0,3:0:0:0:
472,347,182951,2,0,P|483:305|469:263,1,75.9999979705811,2|0,0:0|3:0,0:0:0:0:
256,103,183284,1,8,0:0:0:0:
353,37,183451,2,0,P|341:116|328:198,1,151.999995941162,2|0,0:0|3:0,0:0:0:0:
173,100,183951,6,0,P|229:92|264:86,1,75.9999979705811,10|0,0:0|3:0,0:0:0:0:
76,242,184284,2,0,P|38:235|0:230,1,75.9999979705811,2|0,3:2|0:0,0:0:0:0:
183,368,184618,1,8,0:0:0:0:
253,315,184784,1,2,0:0:0:0:
263,309,184868,1,0,0:0:0:0:
273,304,184951,2,0,P|264:261|255:217,1,75.9999979705811,0|0,3:0|3:0,0:0:0:0:
425,119,185284,1,10,0:0:0:0:
372,290,185451,1,0,3:0:0:0:
165,179,185618,6,0,P|119:149|18:166,2,151.999995941162,2|10|2,0:0|0:0|3:2,0:0:0:0:
324,66,186451,1,0,3:0:0:0:
239,0,186618,2,0,P|225:37|223:80,1,75.9999979705811,8|0,0:0|3:0,0:0:0:0:
438,0,186951,1,6,3:2:0:0:
336,239,187118,2,0,P|330:197|320:153,1,75.9999979705811,0|8,0:0|0:0,0:0:0:0:
512,360,187451,6,0,P|462:323|400:327,1,113.999996955872,2|0,0:0|0:0,0:0:0:0:
330,361,187784,2,0,P|281:354|245:350,1,75.9999979705811,2|8,3:2|0:0,0:0:0:0:
60,156,188118,1,2,3:2:0:0:
0,288,188284,6,0,B|32:248|84:244|84:244|110:269|152:268,1,151.999995941162,2|10,0:0|0:0,0:0:0:0:
222,199,188784,1,0,0:0:0:0:
222,199,188951,2,0,P|213:151|205:110,1,75.9999979705811,2|0,3:2|3:0,0:0:0:0:
382,29,189284,2,0,P|374:66|367:103,1,75.9999979705811,10|0,0:0|3:0,0:0:0:0:
498,314,189618,6,0,P|520:259|494:192,1,113.999996955872,6|0,3:2|0:0,0:0:0:0:
438,161,189951,1,8,0:0:0:0:
288,300,190118,2,0,P|339:289|381:283,1,75.9999979705811,2|0,0:0|3:0,0:0:0:0:
168,160,190451,2,0,P|152:200|154:240,1,75.9999979705811,2|8,3:2|0:0,0:0:0:0:
258,75,190784,1,2,3:2:0:0:
161,24,190951,2,0,P|108:35|1:49,1,151.999995941162,2|10,0:0|0:0,0:0:0:0:
316,259,191618,5,2,3:2:0:0:
351,178,191784,1,0,3:0:0:0:
432,145,191951,1,10,0:0:0:0:
511,171,192118,1,0,3:0:0:0:
316,259,192284,6,0,L|227:248,1,75.9999979705811,6|0,3:2|0:0,0:0:0:0:
26,106,192618,1,8,0:0:0:0:
127,58,192784,2,0,L|104:217,1,151.999995941162,2|2,0:0|3:2,0:0:0:0:
29,10,193284,1,8,0:0:0:0:
219,127,193451,6,0,P|264:136|341:65,1,151.999995941162,2|0,3:2|3:0,0:0:0:0:
512,274,193951,2,0,P|466:241|405:241,1,113.999996955872,10|0,0:0|0:0,0:0:0:0:
312,216,194284,2,0,L|326:304,1,75.9999979705811,2|0,3:2|3:0,0:0:0:0:
196,372,194618,1,8,0:0:0:0:
34,152,194951,5,2,3:2:0:0:
189,256,195118,1,0,0:0:0:0:
33,351,195284,1,8,0:0:0:0:
136,187,195451,2,0,B|185:199|223:208|223:208|257:192|249:150,1,151.999995941162,2|2,0:0|3:2,0:0:0:0:
412,55,195951,2,0,L|397:144,1,75.9999979705811,8|2,0:0|3:2,0:0:0:0:
294,343,196284,1,4,3:2:0:0:
427,253,196451,5,0,2:0:0:0:
505,292,196618,1,14,0:0:0:0:
426,340,196784,1,0,3:0:0:0:
288,232,196951,5,14,0:0:0:0:
304,145,197118,1,0,3:0:0:0:
173,247,197284,5,14,0:0:0:0:
147,274,197368,2,0,B|133:313|133:313|144:359,1,75.9999979705811,8|8,0:0|0:0,0:0:0:0:
221,377,197618,6,0,P|211:318|178:202,1,151.999995941162,14|0,0:0|3:0,0:0:0:0:
343,4,198118,2,0,B|291:28|276:99|276:99|300:119|309:164,1,176.000005371094,14|0,0:0|3:0,0:0:0:0:
404,211,198618,2,0,P|453:203|495:199,1,80,8|2,0:0|3:2,0:0:0:0:
167,64,198951,2,0,P|118:72|76:76,1,80,0|0,0:0|3:2,0:0:0:0:
241,207,199284,6,0,P|234:256|220:350,1,120,8|0,0:0|0:0,0:0:0:0:
155,379,199618,1,2,3:2:0:0:
320,270,199784,1,0,3:0:0:0:
169,119,199951,2,0,P|153:158|149:200,1,80,10|0,0:0|3:0,0:0:0:0:
324,90,200284,2,0,L|308:5,1,80,2|0,3:2|0:0,0:0:0:0:
418,35,200618,5,8,0:0:0:0:
257,195,200784,2,0,P|293:152|404:144,1,160,2|0,0:0|3:0,0:0:0:0:
263,298,201284,2,0,P|212:290|172:284,1,80,10|0,0:0|3:0,0:0:0:0:
0,198,201618,1,2,0:0:0:0:
73,364,201784,1,0,3:0:0:0:
225,201,201951,6,0,P|216:145|202:65,1,120,10|0,0:0|0:0,0:0:0:0:
281,0,202284,2,0,B|299:39|299:39|295:93,1,80,2|0,3:2|3:0,0:0:0:0:
117,187,202618,2,0,P|66:179|19:173,1,80,8|0,0:0|3:0,0:0:0:0:
208,343,202951,6,0,B|241:312|293:309|293:309|319:339|360:336,1,160,6|8,3:2|0:0,0:0:0:0:
445,253,203451,2,0,P|433:196|408:72,1,160,2|0,0:0|3:0,0:0:0:0:
482,22,203951,1,8,0:0:0:0:
203,219,204284,6,0,P|241:213|294:204,1,80,2|0,0:0|3:0,0:0:0:0:
218,318,204618,1,8,0:0:0:0:
68,229,204784,6,0,P|53:178|106:84,1,160,2|0,0:0|3:0,0:0:0:0:
241,11,205284,2,0,L|226:110,1,80,10|0,0:0|3:0,0:0:0:0:
363,189,205618,6,0,B|417:173|456:162|456:162|505:180|500:231,1,160,2|8,3:2|0:0,0:0:0:0:
387,297,206118,2,0,P|336:288|287:280,1,80,2|0,0:0|3:0,0:0:0:0:
158,219,206451,1,0,3:0:0:0:
234,85,206618,6,0,P|253:133|252:170,1,80,10|0,0:0|3:0,0:0:0:0:
57,340,206951,2,0,P|45:291|52:251,1,80,2|0,0:0|3:0,0:0:0:0:
269,340,207284,2,0,P|308:311|381:312,1,120,10|0,0:0|0:0,0:0:0:0:
468,361,207618,2,0,P|476:309|483:265,1,80,2|0,3:2|3:0,0:0:0:0:
358,171,207951,1,8,0:0:0:0:
347,133,208034,1,0,3:0:0:0:
359,95,208117,1,0,3:0:0:0:
391,72,208201,1,0,3:0:0:0:
436,79,208284,6,0,P|402:112|309:101,1,120,6|0,3:2|0:0,0:0:0:0:
259,68,208618,1,8,0:0:0:0:
116,126,208784,2,0,P|126:76|135:29,1,80,2|0,0:0|3:0,0:0:0:0:
272,207,209118,2,0,P|279:246|287:285,1,80,2|8,3:2|0:0,0:0:0:0:
187,366,209451,1,2,3:2:0:0:
395,314,209618,6,0,P|445:320|494:331,1,80,2|0,0:0|3:2,0:0:0:0:
370,67,209951,2,0,P|417:59|465:46,1,80,10|0,0:0|0:0,0:0:0:0:
272,207,210284,2,0,B|200:215|190:170|109:187,1,160,2|10,3:2|0:0,0:0:0:0:
36,236,210784,1,0,3:0:0:0:
186,92,210951,6,0,L|169:8,1,80,6|0,3:2|0:0,0:0:0:0:
115,185,211284,1,8,0:0:0:0:
317,103,211451,2,0,P|368:94|418:195,1,160,2|2,0:0|3:2,0:0:0:0:
358,239,211951,1,8,0:0:0:0:
448,350,212118,1,2,3:2:0:0:
237,311,212284,2,0,P|166:325|71:338,1,160,2|10,0:0|0:0,0:0:0:0:
285,112,212951,5,2,3:2:0:0:
324,189,213118,1,0,3:0:0:0:
405,221,213284,1,10,0:0:0:0:
487,186,213451,1,0,3:0:0:0:
285,112,213618,6,0,P|242:120|194:127,1,80,6|0,3:2|0:0,0:0:0:0:
25,2,213952,1,8,0:0:0:0:
77,96,214118,2,0,P|67:163|54:261,1,160,2|2,0:0|3:2,0:0:0:0:
195,355,214618,1,8,0:0:0:0:
298,305,214784,6,0,P|340:293|422:367,1,160,2|0,3:2|3:0,0:0:0:0:
224,233,215284,2,0,P|231:180|244:105,1,120,10|0,0:0|0:0,0:0:0:0:
183,45,215618,5,2,3:2:0:0:
91,69,215784,1,0,3:0:0:0:
0,92,215951,1,8,0:0:0:0:
258,327,216284,6,0,B|338:303|338:303|365:344|412:339,1,160,2|8,3:2|0:0,0:0:0:0:
511,234,216784,2,0,P|469:214|432:212,1,80,2|0,0:0|3:0,0:0:0:0:
270,111,217118,2,0,P|309:111|347:99,1,80,2|8,3:2|0:0,0:0:0:0:
462,56,217451,1,2,3:2:0:0:
238,226,217618,6,0,L|104:211,1,120,12|0,0:0|0:0,0:0:0:0:
22,295,217951,2,0,B|60:307|60:307|106:298,1,80,14|0,0:0|2:0,0:0:0:0:
256,39,218284,6,0,P|251:52|240:119,1,80,10|0,0:0|3:0,0:0:0:0:
399,269,218618,2,0,P|405:250|408:181,1,80,10|4,0:0|0:3,0:0:0:0:
273,373,218951,2,0,P|283:372|352:385,1,80,4|2,0:0|0:0,0:0:0:0:
319,275,219284,1,8,0:0:0:0:
148,384,219451,6,0,P|132:339|149:262,1,120,2|0,0:0|0:0,0:0:0:0:
86,196,219784,2,0,P|42:204|-2:210,1,80,2|8,3:2|0:0,0:0:0:0:
276,337,220118,2,0,P|319:328|363:322,1,80,2|0,3:2|0:0,0:0:0:0:
430,384,220451,1,0,3:0:0:0:
247,238,220618,6,0,P|255:170|273:74,1,160,10|2,0:0|3:2,0:0:0:0:
148,148,221118,1,0,3:0:0:0:
386,230,221284,2,0,P|436:217|473:216,1,80,8|0,0:0|3:0,0:0:0:0:
256,367,221618,2,0,L|270:280,1,80,2|0,3:2|0:0,0:0:0:0:
84,123,221951,1,8,0:0:0:0:
0,255,222118,6,0,P|41:215|118:211,1,120,2|0,0:0|0:0,0:0:0:0:
189,247,222451,2,0,L|279:235,1,80,2|8,3:2|0:0,0:0:0:0:
424,123,222784,1,2,3:2:0:0:
361,49,222951,2,0,P|368:16|376:-8,2,40,8|8|0,0:0|0:0|3:0,0:0:0:0:
282,107,223284,1,10,0:0:0:0:
411,250,223451,1,0,3:0:0:0:
315,355,223618,6,0,L|326:297,3,40,10|8|0|0,0:0|0:0|3:0|3:0,0:0:0:0:
209,247,223951,2,0,L|216:289,3,40,10|0|8|0,0:0|3:0|0:0|3:0,0:0:0:0:
134,362,224284,5,14,0:0:0:0:
41,115,224784,1,14,0:0:0:0:
8,217,224951,6,0,P|54:209|94:203,1,68.0000012969971,2|2,3:2|3:2,0:0:0:0:
245,96,225284,2,0,P|199:88|159:82,1,68.0000012969971,14|2,0:0|3:2,0:0:0:0:
280,205,225618,1,2,3:2:0:0:
372,162,225784,6,0,P|423:161|467:238,1,136.000002593994,14|2,0:0|3:2,0:0:0:0:
336,363,226284,2,0,P|343:308|355:242,1,102.000001945496,14|0,0:0|0:0,0:0:0:0:
280,205,226618,2,0,L|233:214,2,34.0000006484985,2|0|14,3:2|0:0|0:0,0:0:0:0:
345,143,226951,5,2,3:2:0:0:
153,290,227118,2,0,L|200:299,2,34.0000006484985,2|0|14,3:2|0:0|0:0,0:0:0:0:
47,347,227451,6,0,P|38:309|40:274,1,68.0000012969971,2|2,3:2|3:2,0:0:0:0:
195,142,227784,1,14,0:0:0:0:
104,80,227951,2,0,L|92:163,1,68.0000012969971,2|2,3:2|0:0,0:0:0:0:
244,250,228284,6,0,P|297:241|332:236,1,68.0000012969971,14|2,0:0|3:2,0:0:0:0:
457,156,228618,2,0,P|476:192|476:238,1,68.0000012969971,14|2,0:0|3:2,0:0:0:0:
339,94,228951,1,10,0:0:0:0:
334,56,229034,1,8,0:3:0:0:
362,21,229118,1,4,0:3:0:0:
459,58,229284,5,4,0:3:0:0:
244,154,229451,1,6,3:2:0:0:
