osu file format v14

[General]
AudioFilename: audio.mp3
AudioLeadIn: 0
PreviewTime: 173534
Countdown: 0
SampleSet: Soft
StackLeniency: 0.7
Mode: 0
LetterboxInBreaks: 0
EpilepsyWarning: 1
WidescreenStoryboard: 1

[Editor]
Bookmarks: 92784,224284
DistanceSpacing: 2.7
BeatDivisor: 4
GridSize: 16
TimelineZoom: 1.6

[Metadata]
Title:Sakura no Uta
TitleUnicode:櫻ノ詩
Artist:Hana
ArtistUnicode:はな
Creator:Dored
Version:Erisu & No Dap's Extra
Source:サクラノ詩 -櫻の森の上を舞う-
Tags:- Sakura no Mori no Ue o Mau - Metrowing 枕 Makura 松本文紀 szak Matsumoto Fuminori うさ Usa Eroge Visual Novel Galgame Video Game Japanese Pop Jpop J-pop Opening OP Full Version Silky Kanau Mamayu fuyuyu- Irohas SuperDalouBot Liszt Little CloudSplash16 Kowari Kujinn Reform Moeka Momoka Shioi No Dap Erisu Lanzhu
BeatmapID:3678823
BeatmapSetID:1037744

[Difficulty]
HPDrainRate:5
CircleSize:4
OverallDifficulty:9
ApproachRate:9.3
SliderMultiplier:1.82
SliderTickRate:1

[Events]
//Background and Video events
0,0,"Yumi.jpg",0,0
//Break Periods
2,111151,132897
//Storyboard Layer 0 (Background)
Sprite,Background,Centre,"Yumi.jpg",320,240
//Storyboard Layer 1 (Fail)
//Storyboard Layer 2 (Pass)
//Storyboard Layer 3 (Foreground)
//Storyboard Layer 4 (Overlay)
//Storyboard Sound Samples

[TimingPoints]
285,333.333333333333,4,2,18,50,1,0
285,-166.666666666667,4,2,18,50,0,0
9618,-100,4,2,18,65,0,0
10951,-100,4,2,18,70,0,0
32284,-100,4,2,18,65,0,0
33618,-125,4,2,18,60,0,0
52284,-100,4,2,18,75,0,0
53618,-100,4,2,18,65,0,0
54951,-74.0740740740741,4,2,18,70,0,0
56784,-86.9565217391304,4,2,18,70,0,0
57618,-100,4,2,18,70,0,0
65618,-74.0740740740741,4,2,18,70,0,0
67284,-74.0740740740741,4,2,18,40,0,0
67618,-86.9565217391304,4,2,18,70,0,0
68284,-100,4,2,18,70,0,0
73618,-100,4,2,18,75,0,0
76284,-90.9090909090909,4,2,18,80,0,1
97618,-100,4,2,18,70,0,0
98451,-100,4,2,18,60,0,0
102951,-100,4,2,18,65,0,0
104284,-100,4,2,18,70,0,0
105618,-100,4,2,18,75,0,0
106951,-100,4,2,18,60,0,0
108284,-100,4,2,18,55,0,0
108868,-100,4,2,18,40,0,0
110951,-100,4,2,18,70,0,0
132284,-100,4,2,18,65,0,0
133618,-111.111111111111,4,2,18,65,0,0
152284,-100,4,2,18,75,0,0
154951,-74.0740740740741,4,2,18,70,0,0
156784,-86.9565217391304,4,2,18,70,0,0
157618,-100,4,2,18,70,0,0
165618,-74.0740740740741,4,2,18,70,0,0
167284,-74.0740740740741,4,2,18,40,0,0
167618,-86.9565217391304,4,2,18,70,0,0
168284,-100,4,2,18,70,0,0
173618,-100,4,2,18,75,0,0
176284,-90.9090909090909,4,2,18,80,0,1
197534,-90.9090909090909,4,2,18,80,0,0
197618,-90.9090909090909,4,2,18,80,0,1
198034,-90.9090909090909,4,2,18,80,0,0
198118,-90.9090909090909,4,2,18,80,0,1
224284,-100,4,2,18,80,0,0
229451,-100,4,2,18,70,0,0

[Colours]
Combo1 : 129,243,154
Combo2 : 214,154,154
Combo3 : 255,66,160
Combo4 : 66,203,255
Combo5 : 200,156,205
Combo6 : 251,160,130
Combo7 : 255,100,255
Combo8 : 126,120,248

[HitObjects]
97,185,285,6,0,P|147:204|209:195,1,109.199996667481,2|0,0:0|0:0,0:0:0:0:
340,112,784,1,2,0:0:0:0:
293,207,951,1,2,0:0:0:0:
250,98,1118,1,2,0:0:0:0:
392,40,1284,2,0,P|379:107|367:208,1,163.799995001221,2|0,0:0|0:0,0:0:0:0:
441,283,1951,2,0,P|417:297|391:304,1,54.5999983337403,2|0,0:0|0:0,0:0:0:0:
212,269,2284,2,0,P|204:300|199:338,1,54.5999983337403,2|0,0:0|0:0,0:0:0:0:
288,198,2618,2,0,P|283:171|276:144,1,54.5999983337403,2|0,0:0|0:0,0:0:0:0:
175,26,2951,6,0,P|155:67|145:142,1,109.199996667481,2|0,0:0|0:0,0:0:0:0:
70,210,3451,2,0,P|120:229|184:260,1,109.199996667481,2|0,0:0|0:0,0:0:0:0:
278,147,3951,2,0,P|316:214|277:292,1,163.799995001221,2|0,0:0|0:0,0:0:0:0:
181,149,4618,2,0,P|186:122|194:96,1,54.5999983337403,2|0,0:0|0:0,0:0:0:0:
128,235,4951,2,0,P|154:241|180:249,1,54.5999983337403,2|0,0:0|0:0,0:0:0:0:
91,111,5284,2,0,P|65:119|38:125,1,54.5999983337403,2|0,0:0|0:0,0:0:0:0:
274,41,5618,5,2,0:0:0:0:
181,149,5784,1,2,0:0:0:0:
332,239,5951,5,2,0:0:0:0:
268,119,6118,1,2,0:0:0:0:
268,359,6284,5,2,0:0:0:0:
332,239,6450,1,2,0:0:0:0:
133,309,6618,2,0,P|78:324|22:343,1,109.199996667481,2|0,0:0|0:0,0:0:0:0:
214,266,7118,1,2,0:0:0:0:
150,193,7284,2,0,P|141:166|135:140,1,54.5999983337403,2|0,0:0|0:0,0:0:0:0:
248,106,7618,1,2,0:0:0:0:
150,193,7784,1,2,0:0:0:0:
309,361,7951,2,0,P|303:320|292:276,1,81.8999975006104,2|0,0:0|0:0,0:0:0:0:
250,254,8284,6,0,P|191:266|139:287,1,109.199996667481,2|0,0:0|0:0,0:0:0:0:
86,110,8784,2,0,P|128:142|149:192,1,109.199996667481,2|0,0:0|0:0,0:0:0:0:
46,260,9284,1,2,0:0:0:0:
222,345,9451,5,8,0:0:0:0:
230,350,9534,1,8,0:0:0:0:
238,355,9618,2,0,L|226:283,1,45.5,4|0,1:2|0:0,0:0:0:0:
149,192,9784,2,0,L|104:199,1,45.5,0|0,1:0|0:0,0:0:0:0:
314,230,9951,2,0,L|358:222,1,45.5,8|0,0:0|0:0,0:0:0:0:
238,99,10118,2,0,L|230:54,1,45.5,0|0,1:0|0:0,0:0:0:0:
77,23,10284,5,8,0:0:0:0:
54,48,10367,1,0,1:0:0:0:
39,78,10450,1,0,1:0:0:0:
34,112,10534,1,0,1:0:0:0:
40,146,10618,5,0,1:0:0:0:
83,181,10701,1,0,1:0:0:0:
101,235,10784,1,0,1:0:0:0:
88,289,10868,1,0,1:0:0:0:
48,329,10951,6,0,B|80:308|129:303|129:303|174:332|235:293,1,182,6|8,1:2|0:0,0:0:0:0:
311,179,11451,1,0,1:0:0:0:
154,128,11618,2,0,P|166:170|176:223,1,91,10|2,0:2|1:2,0:0:0:0:
373,69,11951,2,0,P|313:95|221:49,1,136.5,10|0,0:0|0:0,0:0:0:0:
154,128,12284,6,0,P|134:85|120:34,1,91,8|0,0:2|1:0,0:0:0:0:
311,179,12618,2,0,P|295:245|282:312,1,136.5,10|0,0:0|0:0,0:0:0:0:
408,346,12951,2,0,P|399:301|381:259,1,91,10|0,0:0|1:0,0:0:0:0:
193,292,13284,2,0,P|235:306|281:311,1,91,10|0,0:1|0:0,0:0:0:0:
144,135,13618,6,0,P|125:176|117:221,1,91,10|0,0:0|0:0,0:0:0:0:
65,69,13951,1,8,0:0:0:0:
232,157,14118,2,0,P|279:146|318:129,1,91,2|8,1:2|0:0,0:0:0:0:
160,45,14451,1,0,1:0:0:0:
62,266,14618,2,0,B|97:261|124:248|124:248|175:256|175:256|193:246|238:239,1,182,10|8,0:0|0:0,0:0:0:0:
144,135,15118,1,0,1:0:0:0:
293,24,15284,6,0,P|336:75|339:142,1,136.5,10|0,0:1|0:0,0:0:0:0:
424,231,15618,2,0,P|412:278|395:324,1,91,10|0,0:1|0:0,0:0:0:0:
190,199,15951,2,0,B|175:152|175:152|180:113|180:113|165:67,1,136.5,10|0,0:1|0:0,0:0:0:0:
151,31,16284,5,10,0:2:0:0:
69,206,16451,1,2,1:2:0:0:
259,97,16618,1,10,0:2:0:0:
176,297,16784,1,2,1:2:0:0:
100,116,16951,1,10,0:2:0:0:
297,188,17118,1,2,1:2:0:0:
82,26,17284,2,0,P|10:119|52:196,1,182,8|8,0:0|0:0,0:0:0:0:
178,248,17784,5,2,1:2:0:0:
100,116,17951,1,10,0:0:0:0:
82,313,18118,1,2,1:2:0:0:
318,226,18284,1,10,0:0:0:0:
120,146,18451,1,2,1:2:0:0:
176,340,18618,6,0,B|204:337|223:326|223:326|261:334|261:334|310:311,1,136.5,10|0,0:1|0:0,0:0:0:0:
178,248,18951,6,0,P|144:177|197:91,1,182,10|8,0:0|0:0,0:0:0:0:
397,28,19451,2,0,P|385:72|377:116,1,91,2|8,1:2|0:0,0:0:0:0:
444,303,19784,1,2,0:3:0:0:
266,134,19951,2,0,P|281:192|300:281,1,136.5,8|0,0:0|0:0,0:0:0:0:
191,345,20284,6,0,P|146:334|101:329,1,91,6|0,1:0|1:0,0:0:0:0:
75,108,20618,2,0,P|98:104|132:92,1,45.5,8|0,0:0|0:0,0:0:0:0:
200,220,20784,2,0,P|177:224|143:236,1,45.5,0|0,1:0|0:0,0:0:0:0:
221,42,20951,5,8,0:0:0:0:
249,38,21034,1,0,1:0:0:0:
277,41,21117,1,0,1:0:0:0:
303,52,21200,1,0,1:0:0:0:
325,70,21284,1,8,0:0:0:0:
342,93,21367,1,8,0:3:0:0:
352,119,21450,1,8,0:3:0:0:
354,147,21534,1,8,0:3:0:0:
349,175,21618,6,0,B|344:220|312:261|312:261|267:234|217:258,1,182,6|8,1:2|0:0,0:0:0:0:
71,308,22118,1,2,1:2:0:0:
183,175,22284,2,0,P|188:119|175:67,1,91,8|2,0:0|1:2,0:0:0:0:
71,308,22618,2,0,P|144:284|225:272,1,136.5,8|0,0:0|0:0,0:0:0:0:
316,348,22951,6,0,P|301:305|294:260,1,91,8|0,0:0|1:0,0:0:0:0:
420,165,23284,2,0,P|435:122|442:71,1,91,10|0,0:0|1:0,0:0:0:0:
234,143,23618,2,0,P|191:158|146:165,1,91,10|0,0:0|1:0,0:0:0:0:
277,61,23951,2,0,P|321:104|308:199,1,136.5,10|0,0:1|0:0,0:0:0:0:
237,258,24284,6,0,P|251:301|261:345,1,91,10|0,0:0|0:0,0:0:0:0:
322,175,24618,1,8,0:0:0:0:
142,292,24784,2,0,P|98:280|53:272,1,91,2|8,1:2|0:0,0:0:0:0:
237,258,25118,1,0,1:0:0:0:
144,147,25284,2,8,P|129:73|172:7,1,136.5,8|0,0:0|0:0,0:0:0:0:
20,26,25618,6,0,P|32:72|44:119,1,91,8|0,0:0|1:0,0:0:0:0:
39,323,25951,2,0,P|128:284|200:276,1,136.5,10|0,0:1|0:0,0:0:0:0:
238,193,26284,2,0,P|281:204|323:222,1,91,10|0,0:1|1:0,0:0:0:0:
100,17,26618,2,0,P|103:84|128:148,1,136.5,10|0,0:1|0:0,0:0:0:0:
143,189,26951,5,10,0:2:0:0:
315,58,27118,1,2,1:2:0:0:
176,300,27284,1,10,0:2:0:0:
245,92,27451,1,2,1:2:0:0:
356,254,27618,1,10,0:2:0:0:
156,80,27784,1,2,1:2:0:0:
20,255,27951,2,0,B|50:252|90:228|90:228|125:232|125:232|157:217|192:211,1,182,8|8,0:0|0:0,0:0:0:0:
25,164,28451,5,2,1:2:0:0:
140,15,28618,2,0,P|123:58|113:105,1,91,10|2,0:0|1:2,0:0:0:0:
269,45,28951,1,10,0:0:0:0:
113,101,29118,1,2,1:2:0:0:
190,299,29284,2,0,P|255:270|280:207,1,136.5,10|0,0:1|0:0,0:0:0:0:
410,305,29618,6,0,P|365:311|322:326,1,91,10|0,0:0|0:0,0:0:0:0:
473,230,29951,1,10,0:0:0:0:
339,113,30118,2,0,P|322:59|325:12,1,91,2|8,1:2|0:0,0:0:0:0:
430,47,30451,1,0,1:0:0:0:
237,75,30618,2,0,P|222:117|221:163,1,91,10|0,0:0|1:0,0:0:0:0:
87,20,30951,6,0,P|43:70|46:136,1,136.5,4|0,1:2|0:0,0:0:0:0:
27,244,31284,2,0,P|69:227|112:214,1,91,2|0,1:0|0:0,0:0:0:0:
365,127,31618,5,8,0:0:0:0:
381,150,31701,1,8,0:0:0:0:
391,176,31784,1,8,0:0:0:0:
393,204,31868,1,8,0:0:0:0:
388,232,31951,1,8,0:3:0:0:
375,258,32034,1,8,0:3:0:0:
356,279,32118,1,8,0:3:0:0:
333,294,32201,1,8,0:3:0:0:
306,303,32284,5,2,1:0:0:0:
485,283,32451,1,2,0:0:0:0:
287,198,32618,5,2,0:0:0:0:
413,368,32784,1,2,0:0:0:0:
440,161,32951,5,2,0:0:0:0:
306,303,33118,1,2,0:0:0:0:
253,109,33284,1,2,0:3:0:0:
264,90,33618,6,0,B|193:58|193:109|102:76,1,145.6,0|0,1:0|1:0,0:0:0:0:
219,175,34118,2,0,P|211:210|203:246,1,72.8,2|0,0:0|1:0,0:0:0:0:
385,301,34451,1,0,0:0:0:0:
288,347,34618,2,0,B|243:331|243:331|195:334|195:334|147:318,1,145.6,2|0,1:2|1:0,0:0:0:0:
31,323,35118,1,0,0:0:0:0:
87,239,35284,2,0,P|77:205|63:171,1,72.8,2|0,1:0|0:0,0:0:0:0:
25,69,35618,2,0,P|58:82|93:93,1,72.8,2|0,1:2|0:0,0:0:0:0:
227,15,35951,2,0,P|192:25|158:39,1,72.8,2|0,1:2|0:0,0:0:0:0:
199,172,36284,6,0,P|212:138|222:103,1,72.8,2|0,1:0|0:0,0:0:0:0:
309,215,36618,2,0,P|342:228|377:238,1,72.8,2|0,1:2|0:0,0:0:0:0:
269,310,36951,2,0,P|255:343|245:378,1,72.8,2|0,1:2|0:0,0:0:0:0:
152,276,37284,2,0,B|114:254|114:254|63:240|0:239,1,145.6,2|0,1:2|1:0,0:0:0:0:
126,172,37784,1,0,0:0:0:0:
26,68,37951,2,0,P|39:105|46:141,1,72.8,2|0,1:0|0:0,0:0:0:0:
236,139,38284,5,0,1:0:0:0:
72,244,38451,1,0,1:0:0:0:
154,89,38618,1,8,0:0:0:0:
181,278,38784,1,0,0:0:0:0:
76,100,38951,6,0,P|97:37|192:23,1,145.6,4|2,1:2|1:2,0:0:0:0:
261,54,39451,1,2,0:3:0:0:
203,203,39618,2,0,P|150:190|95:181,1,109.2,2|0,1:2|0:0,0:0:0:0:
7,308,39951,2,0,P|65:291|159:273,1,145.6,2|0,1:0|1:0,0:0:0:0:
262,338,40451,1,0,0:0:0:0:
324,264,40618,2,0,P|318:220|309:173,1,72.8,2|0,1:2|0:0,0:0:0:0:
224,94,40951,2,0,P|217:129|212:165,1,72.8,2|0,1:2|0:0,0:0:0:0:
283,43,41284,2,0,P|237:15|184:23,1,109.2,0|0,1:2|0:0,0:0:0:0:
156,51,41618,5,2,1:0:0:0:
312,123,41784,1,2,0:0:0:0:
112,229,41951,1,2,1:2:0:0:
283,43,42118,6,0,P|369:60|400:135,1,145.6,2|0,0:3|0:0,0:0:0:0:
310,264,42618,2,0,B|296:219|296:219|296:165|320:98,1,145.6,2|0,1:2|1:0,0:0:0:0:
399,199,43118,1,2,0:3:0:0:
223,281,43284,2,0,P|171:263|106:249,1,109.2,2|0,1:2|0:0,0:0:0:0:
72,266,43618,5,8,0:3:0:0:
256,363,43784,1,8,0:0:0:0:
302,143,43951,1,8,0:3:0:0:
223,281,44118,1,4,0:3:0:0:
25,154,44284,6,0,B|53:155|76:138|76:138|112:147|112:147|138:132|183:126,1,145.6,4|0,1:2|1:0,0:0:0:0:
292,97,44784,1,0,0:0:0:0:
258,245,44951,2,0,P|244:211|235:175,1,72.8,0|0,1:0|0:0,0:0:0:0:
369,295,45284,2,0,B|332:304|310:327|310:327|266:345|227:324,1,145.6,0|0,1:0|1:0,0:0:0:0:
148,344,45784,1,0,0:0:0:0:
121,203,45951,2,0,P|107:236|98:271,1,72.8,2|0,1:0|0:0,0:0:0:0:
106,106,46284,2,0,P|75:125|47:149,1,72.8,2|0,1:2|0:0,0:0:0:0:
267,224,46618,2,0,P|261:182|236:112,1,109.2,2|0,1:2|0:0,0:0:0:0:
205,28,46951,6,0,P|240:37|293:42,1,72.8,2|0,1:0|0:0,0:0:0:0:
112,74,47284,2,0,P|135:101|176:135,1,72.8,2|0,1:2|0:0,0:0:0:0:
10,94,47618,2,0,P|13:129|26:181,1,72.8,2|0,1:2|0:0,0:0:0:0:
106,302,47951,2,0,B|138:291|154:279|154:279|193:280|193:280|210:271|243:261,1,145.6,2|0,1:2|1:0,0:0:0:0:
366,206,48451,1,2,0:3:0:0:
315,327,48618,5,2,1:0:0:0:
151,175,48784,1,8,0:0:0:0:
205,360,48951,1,0,1:0:0:0:
257,153,49118,1,8,0:3:0:0:
108,288,49284,1,8,0:3:0:0:
297,249,49451,1,8,0:0:0:0:
137,83,49618,6,0,P|70:142|66:196,1,145.6,4|0,1:2|1:0,0:0:0:0:
327,211,50118,2,0,P|306:280|290:351,1,145.6,2|0,0:3|0:0,0:0:0:0:
426,219,50618,2,0,P|418:183|406:148,1,72.8,0|0,1:0|0:0,0:0:0:0:
139,146,50951,6,0,P|191:129|238:102,1,109.2,2|0,1:0|0:0,0:0:0:0:
267,72,51284,1,0,1:0:0:0:
20,47,51451,2,0,P|41:118|56:191,1,145.6,2|8,0:0|0:3,0:0:0:0:
22,322,51951,1,8,0:0:0:0:
237,213,52118,1,4,0:3:0:0:
345,358,52284,6,0,B|304:357|274:341|274:341|235:352|235:352|203:348|155:302,1,182,6|8,1:0|0:0,0:0:0:0:
171,58,52784,2,0,P|231:124|238:213,1,182,2|0,1:3|0:0,0:0:0:0:
376,19,53284,2,0,B|335:50|335:50|313:87|308:138,1,136.5,10|0,0:1|0:0,0:0:0:0:
237,213,53618,6,0,P|249:257|257:317,1,91,4|0,1:2|1:0,0:0:0:0:
328,344,53868,1,0,1:0:0:0:
334,350,53951,2,0,P|366:347|403:337,1,45.5,10|0,0:0|0:0,0:0:0:0:
448,237,54118,2,0,P|450:213|456:192,1,45.5,2|0,1:3|0:0,0:0:0:0:
306,149,54284,2,0,P|310:171|314:193,1,45.5,2|0,1:0|0:0,0:0:0:0:
431,72,54451,2,0,P|433:47|439:27,1,45.5,8|0,0:0|0:0,0:0:0:0:
243,53,54618,1,8,0:0:0:0:
198,51,54701,1,8,0:0:0:0:
158,73,54785,1,8,0:0:0:0:
135,112,54868,1,8,0:0:0:0:
136,157,54951,6,0,B|173:215|177:295|177:295|237:258|254:194,1,245.700000937271,6|8,1:2|0:2,0:0:0:0:
342,53,55451,1,2,1:1:0:0:
362,26,55784,5,8,0:0:0:0:
202,116,55951,2,0,B|223:162|206:210|206:210|239:231|239:231|207:291|254:368,1,245.700000937271,6|8,1:2|0:2,0:0:0:0:
441,83,56451,1,2,1:1:0:0:
467,54,56784,5,0,1:0:0:0:
368,202,56951,2,0,P|374:253|386:304,1,104.65000199604,8|0,0:0|0:0,0:0:0:0:
467,54,57284,2,0,P|416:41|364:35,1,104.65000199604,10|0,2:1|0:0,0:0:0:0:
88,53,57618,6,0,P|137:93|141:194,1,136.5,6|0,1:2|0:0,0:0:0:0:
131,197,57951,1,8,0:0:0:0:
266,281,58118,2,0,P|221:289|176:297,1,91,2|0,1:2|0:0,0:0:0:0:
363,159,58451,2,0,P|318:150|273:142,1,91,2|8,1:2|0:0,0:0:0:0:
417,317,58784,5,2,1:0:0:0:
417,317,58868,1,0,1:0:0:0:
417,317,58951,1,0,1:0:0:0:
363,159,59118,1,2,0:3:0:0:
289,289,59284,1,8,0:0:0:0:
243,38,59451,1,4,0:3:0:0:
170,240,59618,1,6,0:3:0:0:
363,159,59784,1,4,0:3:0:0:
162,25,59951,2,0,P|177:88|188:166,1,136.5,10|0,0:0|0:0,0:0:0:0:
277,231,60284,6,0,P|266:278|256:345,1,91,6|0,1:2|0:0,0:0:0:0:
363,159,60618,1,8,0:0:0:0:
169,240,60784,2,0,P|125:227|82:211,1,91,2|0,1:2|0:0,0:0:0:0:
109,33,61118,2,0,P|124:75|137:119,1,91,2|8,1:2|0:0,0:0:0:0:
44,299,61451,1,2,1:3:0:0:
169,240,61618,6,0,B|197:240|229:227|229:227|261:236|261:236|303:215|344:215,1,182,2|8,0:1|0:0,0:0:0:0:
440,292,62118,1,0,0:0:0:0:
437,112,62284,2,0,P|434:157|418:199,1,91,0|0,1:0|0:0,0:0:0:0:
192,114,62618,2,0,B|222:91|260:101|260:101|297:96|326:50,1,136.5,10|0,0:0|0:0,0:0:0:0:
98,33,62951,6,0,P|100:78|109:122,1,91,2|0,1:2|0:0,0:0:0:0:
252,278,63284,2,0,P|260:233|263:188,1,91,8|0,0:0|0:0,0:0:0:0:
62,265,63618,5,2,1:0:0:0:
185,135,63784,1,0,1:0:0:0:
137,355,63951,1,8,0:0:0:0:
87,166,64118,1,0,1:0:0:0:
252,278,64284,5,2,1:0:0:0:
62,265,64451,1,0,1:0:0:0:
221,147,64618,1,8,0:0:0:0:
223,357,64784,1,0,1:0:0:0:
62,265,64951,6,0,P|57:242|54:220,1,45.5,8|0,0:0|0:0,0:0:0:0:
299,162,65118,2,0,P|294:184|291:206,1,45.5,0|0,1:0|0:0,0:0:0:0:
98,122,65284,1,8,0:0:0:0:
106,89,65367,1,8,0:0:0:0:
125,60,65450,1,8,0:0:0:0:
152,40,65533,1,8,0:0:0:0:
185,31,65618,6,0,B|220:30|248:52|248:52|294:38|294:38|362:42|427:98,1,245.700000937271,6|8,1:2|0:0,0:0:0:0:
143,193,66118,1,2,1:1:0:0:
109,213,66451,5,0,0:0:0:0:
265,39,66618,2,0,B|247:77|263:130|263:130|236:176|236:176|259:222|236:293,1,245.700000937271,4|0,1:2|0:0,0:0:0:0:
374,170,67118,1,2,1:0:0:0:
91,318,67284,1,4,1:2:0:0:
70,345,67618,6,0,P|84:294|92:243,1,104.65000199604,2|0,0:3|1:0,0:0:0:0:
19,60,67951,2,0,P|70:74|122:82,1,104.65000199604,2|0,0:1|1:0,0:0:0:0:
332,182,68284,6,0,P|254:201|231:272,1,136.5,4|0,1:2|0:0,0:0:0:0:
230,290,68618,1,8,0:0:0:0:
463,320,68784,2,0,P|456:274|446:230,1,91,2|0,1:3|1:0,0:0:0:0:
348,92,69118,2,0,P|338:136|331:181,1,91,2|8,1:2|0:0,0:0:0:0:
441,44,69451,5,2,1:2:0:0:
441,44,69534,1,0,1:0:0:0:
441,44,69618,1,0,1:0:0:0:
228,167,69784,1,0,1:0:0:0:
306,26,69951,1,8,0:0:0:0:
352,249,70118,1,0,1:0:0:0:
221,70,70284,1,2,1:0:0:0:
422,127,70451,1,2,1:3:0:0:
276,228,70618,2,0,P|228:273|236:339,1,136.5,8|0,0:0|0:0,0:0:0:0:
337,359,70951,6,0,B|319:310|319:310|381:272|367:172,1,182,4|8,1:2|0:0,0:0:0:0:
66,42,71451,2,0,P|102:121|188:139,1,182,2|0,0:1|0:0,0:0:0:0:
276,228,71951,1,8,0:0:0:0:
161,40,72118,1,0,1:0:0:0:
15,179,72284,2,0,B|41:176|76:158|76:158|116:163|116:163|155:142|216:134,1,182,2|8,1:2|0:0,0:0:0:0:
294,317,72784,1,2,1:0:0:0:
424,185,72951,1,0,1:0:0:0:
258,33,73118,5,8,0:0:0:0:
232,60,73201,1,8,0:0:0:0:
216,94,73284,1,8,0:0:0:0:
213,131,73368,1,8,0:3:0:0:
222,168,73451,1,8,0:3:0:0:
243,200,73534,1,8,0:3:0:0:
273,223,73618,6,0,B|239:225|208:207|208:207|141:227|72:200,1,182,6|0,1:0|1:0,0:0:0:0:
190,344,74118,1,8,0:0:0:0:
351,196,74284,1,2,1:0:0:0:
181,112,74451,1,0,1:0:0:0:
294,317,74618,1,8,0:0:0:0:
444,198,74784,1,0,1:0:0:0:
128,258,74951,5,2,1:0:0:0:
352,72,75118,1,0,1:0:0:0:
378,360,75284,1,8,0:0:0:0:
128,258,75451,1,0,1:0:0:0:
301,51,75618,5,2,1:0:0:0:
352,72,75701,1,0,1:0:0:0:
386,117,75784,1,0,1:0:0:0:
392,173,75867,1,0,1:0:0:0:
369,224,75951,2,8,L|306:206,1,45.5,8|8,0:3|0:3,0:0:0:0:
68,319,76118,1,8,0:3:0:0:
68,319,76201,1,8,0:3:0:0:
68,319,76284,6,0,B|98:240|98:240|73:177|81:122,1,200.200006109619,6|8,1:2|0:0,0:0:0:0:
271,57,76784,1,2,0:3:0:0:
101,124,76951,2,0,L|3:107,1,100.10000305481,0|0,1:0|0:0,0:0:0:0:
182,39,77284,1,8,0:0:0:0:
263,248,77451,1,0,1:0:0:0:
391,153,77618,6,0,L|287:134,1,100.10000305481,2|0,1:1|0:0,0:0:0:0:
107,203,77951,2,0,P|102:135|157:80,1,150.150004582214,10|0,0:2|0:0,0:0:0:0:
261,6,78284,2,0,P|246:53|237:102,1,100.10000305481,2|0,1:2|0:0,0:0:0:0:
112,318,78618,2,0,B|147:279|147:279|188:257|247:254,1,150.150004582214,10|0,0:0|0:0,0:0:0:0:
331,218,78951,6,0,P|355:170|360:117,1,100.10000305481,2|0,1:2|0:0,0:0:0:0:
181,33,79284,1,8,0:0:0:0:
57,210,79451,2,0,B|91:205|118:180|118:180|147:190|147:190|190:166|247:160,1,200.200006109619,2|2,1:0|0:0,0:0:0:0:
362,85,79951,1,8,0:0:0:0:
263,241,80118,1,0,1:0:0:0:
151,102,80284,6,0,P|135:53|125:4,1,100.10000305481,2|0,0:3|0:3,0:0:0:0:
139,275,80618,2,0,P|203:233|282:235,1,150.150004582214,10|0,0:0|0:0,0:0:0:0:
319,365,80951,2,0,P|271:347|222:333,1,100.10000305481,2|0,1:2|0:0,0:0:0:0:
94,187,81284,1,8,0:0:0:0:
286,33,81451,1,0,1:0:0:0:
286,33,81534,1,0,1:0:0:0:
286,33,81618,6,0,P|267:122|248:257,1,200.200006109619,2|8,1:0|0:0,0:0:0:0:
310,353,82118,1,2,1:3:0:0:
460,237,82284,1,0,1:0:0:0:
254,212,82451,1,0,1:0:0:0:
380,144,82618,2,0,P|397:94|383:44,1,100.10000305481,8|0,0:0|0:0,0:0:0:0:
187,58,82951,5,2,1:2:0:0:
270,264,83118,1,0,1:0:0:0:
384,60,83284,1,10,0:0:0:0:
157,189,83451,1,0,1:0:0:0:
157,189,83534,1,0,1:0:0:0:
157,189,83618,2,0,P|105:176|58:156,1,100.10000305481,0|0,1:0|1:0,0:0:0:0:
367,234,83951,2,0,B|369:283|369:283|342:337|310:365,1,150.150004582214,10|0,0:0|0:0,0:0:0:0:
192,304,84284,6,0,B|120:274|120:274|62:279|62:279|-2:252,1,200.200006109619,2|8,1:0|0:0,0:0:0:0:
43,71,84784,2,0,P|63:124|73:174,1,100.10000305481,2|0,0:3|1:0,0:0:0:0:
108,357,85118,1,0,1:0:0:0:
254,215,85284,2,0,P|284:133|296:47,1,150.150004582214,8|0,0:0|0:0,0:0:0:0:
151,18,85618,6,0,L|168:123,1,100.10000305481,2|0,1:0|0:0,0:0:0:0:
355,240,85951,2,0,P|429:217|506:202,1,150.150004582214,10|0,0:1|0:0,0:0:0:0:
398,116,86284,2,0,P|364:62|356:18,1,100.10000305481,2|0,1:0|0:0,0:0:0:0:
499,33,86618,6,0,P|472:43|437:48,1,50.0500015274048,8|0,0:0|1:0,0:0:0:0:
260,29,86784,2,0,P|249:53|243:79,1,50.0500015274048,0|0,1:0|1:0,0:0:0:0:
288,276,86951,5,2,1:2:0:0:
330,91,87118,1,2,1:2:0:0:
215,169,87284,1,8,0:0:0:0:
381,249,87451,2,0,P|431:261|483:267,1,100.10000305481,2|0,0:3|1:0,0:0:0:0:
294,67,87784,2,0,P|297:118|310:169,1,100.10000305481,2|8,1:2|0:0,0:0:0:0:
445,50,88118,1,2,0:0:0:0:
208,142,88284,6,0,B|155:122|123:122|123:122|100:102|100:102|52:98|10:88,1,200.200006109619,2|8,1:0|0:0,0:0:0:0:
131,320,88784,1,0,1:0:0:0:
131,320,88868,1,0,1:0:0:0:
131,320,88951,2,0,P|179:316|249:286,1,100.10000305481,0|0,1:0|1:0,0:0:0:0:
438,219,89284,2,0,P|386:215|338:200,1,100.10000305481,8|0,0:0|0:0,0:0:0:0:
224,30,89618,6,0,P|164:110|202:202,1,200.200006109619,2|8,1:0|0:0,0:0:0:0:
377,342,90118,1,0,1:0:0:0:
377,342,90201,1,0,1:0:0:0:
377,342,90284,2,0,P|382:290|401:228,1,100.10000305481,0|0,1:0|1:0,0:0:0:0:
430,126,90618,1,8,0:0:0:0:
202,178,90784,5,0,1:0:0:0:
202,178,90868,1,0,1:0:0:0:
202,178,90951,2,0,P|205:235|219:291,1,100.10000305481,2|0,1:0|0:0,0:0:0:0:
338,94,91284,2,0,P|300:56|206:22,1,150.150004582214,10|0,0:0|0:0,0:0:0:0:
95,20,91618,2,0,P|111:66|125:115,1,100.10000305481,2|0,1:3|0:0,0:0:0:0:
38,335,91951,2,0,P|64:347|98:355,1,50.0500015274048,0|0,1:0|1:0,0:0:0:0:
216,267,92118,2,0,P|189:254|156:247,1,50.0500015274048,0|0,1:0|1:0,0:0:0:0:
72,187,92284,5,2,1:2:0:0:
175,367,92451,1,2,1:2:0:0:
349,196,92618,1,8,0:0:0:0:
202,87,92784,2,0,P|214:126|223:207,1,100.10000305481,2|0,0:3|1:0,0:0:0:0:
409,352,93118,2,0,P|416:299|431:247,1,100.10000305481,0|8,1:0|0:0,0:0:0:0:
400,77,93451,1,0,1:0:0:0:
400,77,93534,1,0,1:0:0:0:
400,77,93618,5,2,1:0:0:0:
511,228,93784,1,2,1:2:0:0:
309,341,93951,2,0,B|268:325|236:335|236:335|206:320|206:320|162:332|106:312,1,200.200006109619,10|0,0:0|1:0,0:0:0:0:
45,103,94451,1,0,1:0:0:0:
196,138,94618,1,8,0:0:0:0:
39,224,94784,1,0,1:0:0:0:
39,224,94868,1,0,1:0:0:0:
39,224,94951,5,2,1:2:0:0:
155,57,95118,1,2,1:2:0:0:
305,172,95284,1,8,0:0:0:0:
118,205,95451,2,0,P|168:212|277:241,1,150.150004582214,2|0,0:3|0:0,0:0:0:0:
334,275,95784,1,0,1:0:0:0:
469,92,95951,1,8,0:0:0:0:
280,23,96118,6,0,P|293:68|304:122,1,100.10000305481,2|8,1:0|0:0,0:0:0:0:
393,172,96368,1,0,1:0:0:0:
393,172,96451,2,0,P|382:198|378:233,1,50.0500015274048,0|0,1:0|0:0,0:0:0:0:
282,362,96618,2,0,P|277:337|267:314,1,50.0500015274048,8|0,0:0|0:0,0:0:0:0:
430,321,96784,2,0,L|368:308,1,50.0500015274048,0|0,1:0|0:0,0:0:0:0:
173,235,96951,1,2,1:0:0:0:
173,235,97034,1,0,1:0:0:0:
173,235,97118,1,0,1:0:0:0:
278,139,97284,1,0,1:0:0:0:
76,341,97451,1,8,0:0:0:0:
31,102,97618,6,0,P|41:150|49:208,1,91,6|0,1:0|0:0,0:0:0:0:
184,47,97951,1,0,1:0:0:0:
314,266,98118,2,0,P|244:242|125:228,1,182,8|2,0:0|0:2,0:0:0:0:
295,54,98618,5,2,0:3:0:0:
376,82,98784,1,2,0:0:0:0:
283,153,98951,1,0,1:2:0:0:
408,176,99118,1,0,1:0:0:0:
283,288,99284,1,0,1:0:0:0:
458,352,99451,2,0,P|499:287|477:154,1,182,2|0,1:1|0:0,0:0:0:0:
365,341,99951,1,2,0:0:0:0:
365,341,100118,1,2,0:0:0:0:
257,188,100284,6,0,P|306:190|352:206,1,91,2|2,1:0|0:0,0:0:0:0:
179,340,100618,2,0,P|135:353|90:354,1,91,10|2,0:0|1:0,0:0:0:0:
29,145,100951,1,2,0:0:0:0:
155,244,101118,1,2,0:0:0:0:
25,267,101284,2,0,P|34:216|43:152,1,91,2|10,0:0|0:0,0:0:0:0:
236,70,101618,5,2,1:3:0:0:
115,40,101784,1,8,0:0:0:0:
281,170,101951,1,0,1:0:0:0:
166,227,102118,1,8,0:3:0:0:
212,89,102284,1,2,0:3:0:0:
364,70,102451,2,0,P|393:99|391:157,1,91,2|2,0:0|0:0,0:0:0:0:
397,318,102784,1,2,0:1:0:0:
483,248,102951,6,0,B|376:247|414:309|300:300,1,182,6|8,1:2|0:0,0:0:0:0:
161,212,103451,2,0,P|203:216|263:228,1,91,0|0,1:2|0:0,0:0:0:0:
488,44,103784,2,0,P|446:48|386:60,1,91,2|0,0:0|1:0,0:0:0:0:
176,130,104118,1,2,0:3:0:0:
229,9,104284,6,0,B|290:34|290:34|306:80|256:168,1,182,2|8,1:0|0:0,0:0:0:0:
67,338,104784,1,2,1:2:0:0:
181,227,104951,1,2,0:0:0:0:
220,349,105118,1,2,0:0:0:0:
40,249,105284,2,0,P|40:202|79:95,1,136.5,2|0,0:3|0:0,0:0:0:0:
16,52,105618,6,0,B|121:51|75:121|205:115,1,182,2|8,1:0|0:0,0:0:0:0:
406,181,106118,1,0,1:0:0:0:
306,77,106284,2,0,P|289:116|285:174,1,91,2|0,0:0|0:0,0:0:0:0:
479,347,106618,2,0,P|474:301|457:260,1,91,2|2,0:0|0:0,0:0:0:0:
201,317,106951,6,0,B|239:332|276:323|276:323|308:339|308:339|343:333|411:350,1,182,2|8,1:0|0:0,0:0:0:0:
185,173,107451,2,0,P|134:179|59:202,1,91,2|2,1:2|0:0,0:0:0:0:
322,44,107784,1,0,0:0:0:0:
102,25,107951,1,8,0:0:0:0:
276,184,108118,1,4,0:3:0:0:
55,281,108284,6,0,P|137:289|185:381,1,182,14|0,1:2|1:0,0:0:0:0:
369,223,108784,1,2,1:0:0:0:
256,192,108868,12,4,110951,1:0:0:0:
148,90,133451,5,8,0:0:0:0:
148,90,133534,1,8,0:0:0:0:
148,90,133618,2,0,P|158:126|163:187,1,81.8999975006104,6|0,1:2|0:0,0:0:0:0:
40,269,133951,2,0,P|44:228|55:188,1,81.8999975006104,8|0,0:0|0:0,0:0:0:0:
148,289,134284,2,0,P|208:297|265:319,1,122.849996250916,0|0,1:0|0:0,0:0:0:0:
328,371,134618,2,0,L|420:355,1,81.8999975006104,8|0,0:0|0:0,0:0:0:0:
489,262,134951,5,2,1:0:0:0:
489,262,135284,2,0,P|500:218|517:175,1,81.8999975006104,10|0,0:0|0:0,0:0:0:0:
354,116,135618,2,0,P|368:154|377:194,1,81.8999975006104,2|0,1:2|0:0,0:0:0:0:
444,35,135951,2,0,P|385:12|308:26,1,122.849996250916,10|0,0:0|0:0,0:0:0:0:
267,75,136284,2,0,B|227:71|160:61|161:61,1,81.8999975006104,2|0,1:2|0:0,0:0:0:0:
36,78,136618,2,0,P|48:114|52:163,1,81.8999975006104,10|0,0:0|0:0,0:0:0:0:
181,249,136951,2,0,P|184:208|197:169,1,81.8999975006104,2|0,1:2|0:0,0:0:0:0:
65,284,137284,6,0,P|158:286|206:351,2,163.799995001221,8|0|8,0:0|1:0|0:0,0:0:0:0:
65,284,138118,1,2,0:3:0:0:
183,173,138284,2,0,P|221:164|275:157,1,81.8999975006104,2|0,1:2|1:0,0:0:0:0:
328,93,138534,1,0,1:0:0:0:
328,93,138618,2,0,P|368:98|408:108,1,81.8999975006104,8|0,0:0|0:0,0:0:0:0:
501,219,138951,6,0,P|419:236|385:258,1,122.849996250916,2|0,1:0|0:0,0:0:0:0:
322,308,139284,2,0,P|277:298|218:293,1,81.8999975006104,10|0,0:0|0:0,0:0:0:0:
70,233,139618,1,0,1:0:0:0:
201,131,139784,1,2,0:3:0:0:
150,320,139951,6,0,P|151:239|129:161,2,163.799995001221,8|0|8,0:0|1:0|0:0,0:0:0:0:
32,208,140784,1,2,0:3:0:0:
221,89,140951,2,0,P|184:75|139:71,1,81.8999975006104,2|0,1:2|0:0,0:0:0:0:
247,181,141284,2,0,P|283:195|367:161,1,122.849996250916,8|0,0:0|0:0,0:0:0:0:
447,133,141618,5,2,1:0:0:0:
317,273,141784,1,2,0:0:0:0:
493,313,141951,1,10,0:0:0:0:
447,133,142118,2,0,P|436:172|428:232,1,81.8999975006104,2|0,0:3|1:0,0:0:0:0:
379,345,142451,1,0,1:0:0:0:
319,190,142618,2,0,B|260:199|263:235|204:244,1,122.849996250916,10|0,0:0|0:0,0:0:0:0:
152,317,142951,5,2,1:0:0:0:
152,317,143284,2,0,P|193:319|258:340,1,81.8999975006104,8|0,0:0|0:0,0:0:0:0:
345,267,143618,2,0,P|386:265|451:244,1,81.8999975006104,0|0,1:0|0:0,0:0:0:0:
287,88,143951,1,8,0:0:0:0:
237,217,144118,1,4,0:3:0:0:
392,75,144284,6,0,P|348:57|198:36,1,163.799995001221,4|8,1:2|0:0,0:0:0:0:
56,155,144784,1,2,0:3:0:0:
124,58,144951,2,0,L|154:156,1,81.8999975006104,0|0,1:0|0:0,0:0:0:0:
16,250,145284,2,0,L|46:152,1,81.8999975006104,8|0,0:0|0:0,0:0:0:0:
162,291,145618,5,2,1:0:0:0:
162,291,145951,2,0,P|219:302|285:340,1,122.849996250916,10|0,0:0|0:0,0:0:0:0:
337,267,146284,2,0,P|329:226|320:171,1,81.8999975006104,0|0,1:2|0:0,0:0:0:0:
193,43,146618,2,0,P|185:84|176:139,1,81.8999975006104,10|0,0:0|0:0,0:0:0:0:
468,37,146951,6,0,P|416:5|357:14,1,122.849996250916,2|0,1:2|0:0,0:0:0:0:
291,67,147284,2,0,P|276:108|274:146,1,81.8999975006104,8|0,0:0|0:0,0:0:0:0:
476,212,147618,2,0,P|468:171|454:133,1,81.8999975006104,0|0,1:0|0:0,0:0:0:0:
328,216,147951,2,0,P|291:288|299:369,1,163.799995001221,8|2,0:0|1:0,0:0:0:0:
299,369,148451,1,2,0:2:0:0:
457,338,148618,6,0,P|417:329|367:322,1,81.8999975006104,8|0,0:0|1:0,0:0:0:0:
175,204,148951,1,2,1:2:0:0:
231,319,149118,1,0,1:0:0:0:
27,317,149284,2,0,P|92:297|145:285,1,122.849996250916,8|0,0:0|0:0,0:0:0:0:
175,206,149618,5,6,1:2:0:0:
42,76,149784,1,2,0:3:0:0:
41,208,149951,1,8,0:0:0:0:
259,47,150118,2,0,P|208:40|142:123,1,163.799995001221,2|0,0:1|0:0,0:0:0:0:
45,263,150618,2,0,P|38:221|27:182,1,81.8999975006104,8|0,0:0|0:0,0:0:0:0:
180,265,150951,6,0,B|219:243|257:259|257:259|282:301|351:295,1,163.799995001221,2|10,1:0|0:0,0:0:0:0:
472,188,151451,2,0,P|464:227|451:288,1,81.8999975006104,2|0,0:3|1:0,0:0:0:0:
338,156,151784,1,0,1:0:0:0:
478,56,151951,2,0,P|410:41|347:34,1,122.849996250916,8|0,0:0|0:0,0:0:0:0:
276,56,152284,6,0,P|226:73|163:87,1,91,2|0,1:0|0:0,0:0:0:0:
291,279,152618,1,8,0:0:0:0:
42,121,152784,2,0,P|86:132|128:147,1,91,2|0,0:1|1:0,0:0:0:0:
323,171,153118,1,0,1:0:0:0:
119,384,153284,2,0,P|117:326|96:239,1,136.5,10|0,0:1|0:0,0:0:0:0:
24,211,153618,5,0,1:0:0:0:
184,68,153784,1,2,0:3:0:0:
238,221,153951,1,8,0:0:0:0:
137,172,154118,1,0,1:0:0:0:
137,172,154201,1,0,1:0:0:0:
137,172,154284,1,2,1:2:0:0:
318,297,154451,1,0,1:0:0:0:
418,82,154618,2,0,P|377:70|286:136,1,136.5,10|0,0:0|0:0,0:0:0:0:
262,180,154951,5,8,0:0:0:0:
41,313,155118,1,8,0:0:0:0:
327,278,155284,1,8,0:2:0:0:
43,185,155451,1,2,1:1:0:0:
43,185,155784,1,0,1:0:0:0:
43,185,155868,1,0,1:0:0:0:
43,185,155951,5,8,0:0:0:0:
236,53,156118,1,8,0:0:0:0:
208,306,156284,1,8,0:2:0:0:
459,211,156451,1,2,1:1:0:0:
459,211,156784,1,0,1:0:0:0:
459,211,156951,6,0,B|378:211|400:269|303:256,1,156.975002994061,2|0,1:0|0:0,0:0:0:0:
259,194,157284,6,0,B|204:183|204:183|151:214|105:285,1,156.975002994061,2|0,1:0|0:0,0:0:0:0:
50,327,157618,6,0,P|90:329|162:358,1,91,6|0,1:2|0:0,0:0:0:0:
377,272,157951,1,10,0:0:0:0:
266,363,158118,2,0,P|277:326|285:266,1,91,2|0,0:3|1:0,0:0:0:0:
469,168,158451,2,0,P|490:122|459:32,1,136.5,2|0,1:1|0:0,0:0:0:0:
383,70,158784,6,0,B|342:82|311:80|311:80|289:97|289:97|252:87|194:108,1,182,2|0,1:2|1:0,0:0:0:0:
15,73,159284,1,8,0:0:0:0:
176,235,159451,1,2,0:3:0:0:
122,38,159618,2,0,P|113:88|106:139,1,91,2|0,1:0|0:0,0:0:0:0:
82,321,159951,1,8,0:0:0:0:
82,321,160034,1,0,1:0:0:0:
82,321,160118,1,0,1:0:0:0:
212,142,160284,6,0,P|280:155|320:211,1,136.5,2|0,1:2|0:0,0:0:0:0:
258,374,160618,1,8,0:0:0:0:
459,300,160784,2,0,P|414:290|369:284,1,91,2|0,0:3|1:0,0:0:0:0:
170,317,161118,2,0,P|157:279|168:206,1,91,2|8,1:2|0:0,0:0:0:0:
344,158,161451,1,0,1:0:0:0:
344,158,161534,1,0,1:0:0:0:
344,158,161618,6,0,B|448:143|408:225|534:201,2,182,2|8|0,1:0|0:0|1:0,0:0:0:0:
281,69,162451,1,0,1:0:0:0:
434,0,162618,2,0,P|479:30|463:121,1,136.5,10|0,0:1|0:0,0:0:0:0:
418,186,162951,6,0,P|429:229|440:336,1,136.5,6|0,1:2|0:0,0:0:0:0:
361,380,163284,1,8,0:0:0:0:
198,298,163451,1,2,0:3:0:0:
319,202,163618,2,0,P|307:242|301:300,1,91,2|0,1:2|0:0,0:0:0:0:
110,365,163951,2,0,P|104:319|92:276,1,91,8|0,0:0|0:0,0:0:0:0:
76,95,164284,5,2,1:0:0:0:
278,147,164451,1,0,1:0:0:0:
211,297,164618,1,8,0:0:0:0:
303,133,164784,1,2,0:3:0:0:
77,82,164951,1,10,0:1:0:0:
195,308,165118,1,0,1:0:0:0:
331,125,165284,1,8,0:0:0:0:
331,125,165368,1,8,0:0:0:0:
331,125,165451,2,0,P|301:116|267:114,1,45.5,8|8,0:0|0:0,0:0:0:0:
77,18,165618,6,0,P|21:77|42:211,1,184.275000702953,4|0,1:2|0:0,0:0:0:0:
67,260,165951,1,8,0:0:0:0:
321,103,166118,1,2,1:1:0:0:
321,103,166451,1,0,1:0:0:0:
122,180,166618,6,0,P|191:188|256:200,1,122.850000468636,4|0,1:2|0:0,0:0:0:0:
462,283,166951,1,0,1:0:0:0:
220,332,167118,1,8,0:1:0:0:
411,105,167284,1,4,1:2:0:0:
411,105,167618,6,0,B|462:120|470:164|470:164|441:195|437:260,1,156.975002994061,2|0,1:0|0:0,0:0:0:0:
370,295,167951,6,0,P|429:299|493:337,1,104.65000199604,2|0,1:0|0:0,0:0:0:0:
293,211,168284,6,0,B|241:190|200:209|200:209|171:254|101:245,1,182,6|10,1:2|0:0,0:0:0:0:
274,384,168784,2,0,P|281:338|301:279,1,91,2|0,0:3|1:0,0:0:0:0:
91,153,169118,2,0,P|104:196|111:241,1,91,0|8,1:0|0:0,0:0:0:0:
240,119,169451,1,0,1:0:0:0:
12,28,169618,6,0,P|107:23|175:97,1,182,2|8,1:0|0:0,0:0:0:0:
338,217,170118,1,2,0:3:0:0:
147,164,170284,1,0,1:0:0:0:
213,302,170451,1,0,1:0:0:0:
346,122,170618,1,10,0:0:0:0:
346,122,170784,1,2,0:3:0:0:
444,289,170951,6,0,P|400:281|316:271,1,91,2|0,1:0|0:0,0:0:0:0:
174,120,171284,1,8,0:0:0:0:
217,315,171451,1,2,0:3:0:0:
291,154,171618,1,0,1:0:0:0:
117,192,171784,1,0,1:0:0:0:
218,315,171951,1,8,0:0:0:0:
218,315,172284,6,0,P|223:271|241:208,1,91,2|0,1:0|0:0,0:0:0:0:
130,22,172618,1,8,0:0:0:0:
255,88,172784,1,2,0:3:0:0:
51,192,172951,1,0,1:0:0:0:
161,113,173118,1,0,1:0:0:0:
86,294,173284,2,0,P|76:320|69:356,1,45.5,8|8,0:0|0:0,0:0:0:0:
51,193,173451,1,8,0:0:0:0:
51,193,173534,1,8,0:0:0:0:
51,193,173618,6,0,B|97:187|129:211|129:211|159:209|159:209|186:236|252:254,1,182,6|0,1:0|0:0,0:0:0:0:
500,311,174118,1,8,0:0:0:0:
362,111,174284,1,2,1:0:0:0:
273,344,174451,1,0,1:0:0:0:
500,311,174618,1,8,0:0:0:0:
263,146,174784,1,0,1:0:0:0:
394,252,174951,5,2,1:0:0:0:
478,48,175118,1,0,1:0:0:0:
380,225,175284,1,8,0:0:0:0:
262,10,175451,1,0,1:0:0:0:
368,198,175618,2,0,P|342:190|304:188,1,45.5,2|0,1:0|1:0,0:0:0:0:
187,96,175784,2,0,P|195:117|200:139,1,45.5,0|0,1:0|1:0,0:0:0:0:
378,15,175951,2,0,P|369:36|364:58,1,45.5,8|8,0:3|0:3,0:0:0:0:
197,263,176118,1,8,0:3:0:0:
197,263,176201,1,8,0:3:0:0:
197,263,176284,6,0,P|120:207|1:221,1,200.200006109619,6|8,1:2|0:0,0:0:0:0:
232,125,176784,1,2,0:3:0:0:
319,343,176951,2,0,P|332:297|366:216,1,100.10000305481,0|0,1:0|0:0,0:0:0:0:
236,27,177284,1,8,0:0:0:0:
159,214,177451,1,0,1:0:0:0:
422,107,177618,6,0,P|371:113|305:128,1,100.10000305481,2|0,1:1|0:0,0:0:0:0:
55,260,177951,2,0,B|96:243|130:266|130:266|151:307|217:305,1,150.150004582214,10|0,0:2|0:0,0:0:0:0:
251,351,178284,2,0,P|194:356|148:376,1,100.10000305481,2|0,1:2|0:0,0:0:0:0:
45,177,178618,2,0,P|41:103|89:47,1,150.150004582214,10|0,0:0|0:0,0:0:0:0:
172,89,178951,6,0,P|217:107|285:109,1,100.10000305481,2|0,1:2|0:0,0:0:0:0:
387,314,179284,1,8,0:0:0:0:
440,250,179451,2,0,P|346:243|303:354,1,200.200006109619,2|2,1:1|0:3,0:0:0:0:
469,162,179951,2,0,P|476:113|495:51,1,100.10000305481,8|0,0:0|1:0,0:0:0:0:
227,202,180284,5,2,0:3:0:0:
227,202,180618,1,10,0:0:0:0:
400,63,180784,1,0,0:0:0:0:
183,9,180951,2,0,P|196:70|200:126,1,100.10000305481,2|0,1:2|0:0,0:0:0:0:
392,221,181284,1,8,0:0:0:0:
284,370,181451,1,0,1:0:0:0:
284,370,181534,1,0,1:0:0:0:
284,370,181618,6,0,P|291:275|318:168,1,200.200006109619,2|8,1:0|0:0,0:0:0:0:
184,25,182118,2,0,P|108:32|28:81,1,150.150004582214,2|0,1:3|0:0,0:0:0:0:
18,156,182451,1,0,1:0:0:0:
209,247,182618,2,0,P|222:199|190:149,1,100.10000305481,8|0,0:0|0:0,0:0:0:0:
8,357,182951,6,0,P|56:304|153:320,1,150.150004582214,2|0,1:2|0:0,0:0:0:0:
206,367,183284,1,8,0:0:0:0:
399,216,183451,2,0,P|347:222|284:238,1,100.10000305481,0|0,1:0|1:0,0:0:0:0:
182,146,183784,1,0,1:0:0:0:
309,21,183951,2,0,P|354:41|332:149,1,150.150004582214,10|0,0:0|0:0,0:0:0:0:
274,152,184284,5,2,1:0:0:0:
84,251,184451,1,0,0:0:0:0:
141,134,184618,1,8,0:0:0:0:
262,326,184784,2,0,P|218:316|134:309,1,100.10000305481,2|0,0:3|1:0,0:0:0:0:
305,209,185118,1,0,1:0:0:0:
413,368,185284,2,0,P|426:320|437:235,1,100.10000305481,8|0,0:0|0:0,0:0:0:0:
454,75,185618,6,0,B|420:63|381:72|381:72|354:119|284:119,1,150.150004582214,2|0,1:0|0:0,0:0:0:0:
243,89,185951,2,0,P|291:125|297:231,1,150.150004582214,10|0,0:1|0:0,0:0:0:0:
187,271,186284,2,0,P|196:227|209:161,1,100.10000305481,2|0,1:0|0:0,0:0:0:0:
105,44,186618,2,0,P|81:39|56:36,1,50.0500015274048,8|0,0:0|1:0,0:0:0:0:
230,11,186784,2,0,P|240:33|247:57,1,50.0500015274048,0|0,1:0|1:0,0:0:0:0:
385,183,186951,5,2,1:2:0:0:
508,212,187118,1,2,1:2:0:0:
337,335,187284,1,8,0:0:0:0:
448,372,187451,2,0,P|440:322|426:274,1,100.10000305481,2|0,0:3|1:0,0:0:0:0:
294,125,187784,2,0,P|279:172|272:222,1,100.10000305481,2|8,1:2|0:0,0:0:0:0:
447,73,188118,1,2,0:0:0:0:
447,73,188201,1,0,0:0:0:0:
447,73,188284,6,0,P|367:73|276:34,1,150.150004582214,2|0,1:0|0:0,0:0:0:0:
208,18,188618,2,0,P|141:21|97:44,1,100.10000305481,8|0,0:0|1:0,0:0:0:0:
59,274,188951,1,0,1:0:0:0:
227,138,189118,1,0,1:0:0:0:
25,111,189284,2,0,P|65:164|177:175,1,150.150004582214,8|0,0:0|0:0,0:0:0:0:
227,138,189618,6,0,P|273:142|337:160,1,100.10000305481,2|0,1:0|0:0,0:0:0:0:
141,303,189951,1,8,0:0:0:0:
322,371,190118,2,0,P|326:316|260:242,1,150.150004582214,0|0,1:0|0:0,0:0:0:0:
178,212,190451,2,0,P|128:216|79:229,1,100.10000305481,0|8,1:0|0:0,0:0:0:0:
253,59,190784,1,0,1:0:0:0:
253,59,190868,1,0,1:0:0:0:
253,59,190951,6,0,B|324:55|319:122|436:99,1,150.150004582214,2|0,1:0|0:0,0:0:0:0:
461,46,191284,2,0,P|486:85|483:154,1,100.10000305481,10|0,0:0|0:0,0:0:0:0:
351,313,191618,1,2,1:3:0:0:
400,210,191784,1,2,0:2:0:0:
481,358,191951,2,0,P|455:343|422:337,1,50.0500015274048,0|0,1:0|1:0,0:0:0:0:
288,249,192118,2,0,P|262:264|229:270,1,50.0500015274048,0|0,1:0|1:0,0:0:0:0:
132,334,192284,5,2,1:2:0:0:
32,156,192451,1,2,1:2:0:0:
215,131,192618,1,8,0:0:0:0:
18,243,192784,2,0,P|69:244|120:255,1,100.10000305481,2|0,0:3|1:0,0:0:0:0:
42,48,193118,2,0,P|57:96|75:179,1,100.10000305481,0|8,1:0|0:0,0:0:0:0:
304,32,193451,1,0,1:0:0:0:
304,32,193534,1,0,1:0:0:0:
304,32,193618,6,0,P|222:14|160:77,1,150.150004582214,2|0,1:0|0:0,0:0:0:0:
190,142,193951,2,0,P|233:146|313:166,1,100.10000305481,10|0,0:0|0:0,0:0:0:0:
426,66,194284,1,0,1:0:0:0:
279,238,194451,1,0,1:0:0:0:
483,169,194618,2,0,P|438:166|388:266,1,150.150004582214,8|0,0:0|0:0,0:0:0:0:
390,343,194951,6,0,P|346:327|292:324,1,100.10000305481,2|2,1:2|1:2,0:0:0:0:
83,236,195284,1,8,0:0:0:0:
138,142,195451,2,0,P|180:199|154:307,1,150.150004582214,2|0,0:3|0:0,0:0:0:0:
115,327,195784,1,0,1:0:0:0:
290,177,195951,1,8,0:0:0:0:
42,64,196118,1,2,1:0:0:0:
290,177,196284,6,0,P|369:191|413:209,1,100.10000305481,8|0,0:0|1:0,0:0:0:0:
267,28,196618,1,8,0:0:0:0:
269,269,196784,1,0,1:0:0:0:
483,113,196951,1,8,0:0:0:0:
252,30,197118,1,0,1:0:0:0:
452,263,197284,2,0,P|459:239|471:217,1,50.0500015274048,8|8,0:0|0:0,0:0:0:0:
409,62,197451,1,8,0:3:0:0:
409,62,197534,1,8,0:3:0:0:
409,62,197618,6,0,B|273:61|348:128|193:132,1,200.200006109619,6|0,1:2|1:0,0:0:0:0:
52,283,198118,2,0,P|101:285|151:294,1,100.10000305481,8|0,0:0|0:0,0:0:0:0:
269,99,198451,1,0,1:0:0:0:
49,13,198618,1,8,0:0:0:0:
49,13,198701,1,0,1:0:0:0:
49,13,198784,6,0,P|71:68|94:222,1,200.200006109619,2|0,1:0|0:0,0:0:0:0:
238,354,199284,2,0,B|262:269|262:269|209:216,1,150.150004582214,8|0,0:0|0:0,0:0:0:0:
217,143,199618,2,0,P|225:99|237:36,1,100.10000305481,0|0,1:0|0:0,0:0:0:0:
456,186,199951,2,0,P|383:192|331:132,1,150.150004582214,8|0,0:0|0:0,0:0:0:0:
362,37,200284,6,0,P|405:73|400:147,1,100.10000305481,2|0,1:0|0:0,0:0:0:0:
281,323,200618,1,8,0:0:0:0:
209,266,200784,2,0,B|247:308|299:306|299:306|349:270|423:301,1,200.200006109619,2|0,0:3|0:0,0:0:0:0:
231,154,201284,2,0,P|236:109|248:51,1,100.10000305481,8|0,0:0|0:0,0:0:0:0:
63,232,201618,2,0,P|73:280|78:330,1,100.10000305481,2|0,1:3|0:0,0:0:0:0:
308,183,201951,5,8,0:0:0:0:
125,78,202118,1,2,0:3:0:0:
295,200,202284,1,0,1:0:0:0:
285,47,202451,1,0,1:0:0:0:
170,231,202618,2,0,P|182:273|190:344,1,100.10000305481,8|8,0:0|0:0,0:0:0:0:
279,377,202868,1,8,0:0:0:0:
279,377,202951,6,0,B|294:346|311:321|311:321|274:245|307:165,1,200.200006109619,4|8,1:2|0:0,0:0:0:0:
486,173,203451,2,0,P|451:207|381:213,1,100.10000305481,2|0,0:1|1:0,0:0:0:0:
245,37,203784,1,0,1:0:0:0:
411,12,203951,1,8,0:0:0:0:
231,169,204118,2,0,P|204:161|146:148,1,50.0500015274048,2|0,0:3|0:0,0:0:0:0:
13,77,204284,5,2,1:0:0:0:
150,50,204451,1,0,1:0:0:0:
110,247,204618,1,8,0:0:0:0:
20,166,204784,2,0,B|125:172|86:256|211:229,1,200.200006109619,2|0,0:3|0:0,0:0:0:0:
387,218,205284,2,0,P|407:198|413:168,1,50.0500015274048,8|0,0:0|0:0,0:0:0:0:
263,132,205451,2,0,P|273:154|291:171,1,50.0500015274048,0|0,1:0|0:0,0:0:0:0:
503,31,205618,5,2,1:0:0:0:
284,54,205784,1,0,0:0:0:0:
494,161,205951,1,8,0:0:0:0:
377,0,206118,2,0,P|388:40|398:101,1,100.10000305481,2|0,0:3|1:0,0:0:0:0:
362,304,206451,1,0,1:0:0:0:
483,249,206618,2,0,P|401:239|342:300,1,150.150004582214,8|0,0:0|0:0,0:0:0:0:
283,348,206951,6,0,P|234:338|169:335,1,100.10000305481,2|0,1:0|0:0,0:0:0:0:
91,287,207284,1,10,0:1:0:0:
267,163,207451,1,0,0:0:0:0:
134,37,207618,2,0,P|93:110|124:172,1,150.150004582214,2|0,1:0|0:0,0:0:0:0:
169,223,207951,2,0,P|114:206|14:198,1,150.150004582214,8|0,0:0|0:0,0:0:0:0:
10,111,208284,5,2,1:0:0:0:
283,65,208451,1,2,0:0:0:0:
172,318,208618,1,8,0:0:0:0:
138,129,208784,2,0,P|206:134|286:155,1,150.150004582214,2|0,0:3|0:0,0:0:0:0:
346,209,209118,2,0,P|394:198|444:195,1,100.10000305481,0|8,1:0|0:0,0:0:0:0:
512,29,209451,1,2,1:0:0:0:
512,29,209534,1,0,1:0:0:0:
512,29,209618,6,0,B|424:22|440:75|350:83,1,150.150004582214,0|0,1:0|0:0,0:0:0:0:
457,140,209951,2,0,P|478:181|479:265,1,100.10000305481,8|0,0:0|0:0,0:0:0:0:
235,201,210284,2,0,P|260:162|332:119,1,100.10000305481,0|0,1:0|0:0,0:0:0:0:
420,358,210618,2,0,P|353:354|246:294,1,150.150004582214,8|0,0:0|0:0,0:0:0:0:
193,288,210951,6,0,L|89:312,1,100.10000305481,2|0,1:0|0:0,0:0:0:0:
325,153,211284,1,8,0:0:0:0:
131,90,211451,2,0,P|113:132|101:197,1,100.10000305481,2|0,0:3|0:0,0:0:0:0:
385,264,211784,2,0,P|374:215|356:168,1,100.10000305481,2|8,1:2|0:0,0:0:0:0:
208,293,212118,1,0,1:0:0:0:
208,293,212201,1,0,1:0:0:0:
208,293,212284,6,0,P|146:290|67:339,1,150.150004582214,2|0,1:0|0:0,0:0:0:0:
9,268,212618,2,0,P|15:220|26:167,1,100.10000305481,8|0,0:0|0:0,0:0:0:0:
209,13,212951,1,0,1:0:0:0:
61,63,213118,1,0,1:0:0:0:
243,118,213284,2,0,P|256:166|261:228,1,100.10000305481,8|0,0:0|1:0,0:0:0:0:
295,300,213534,1,0,1:0:0:0:
295,300,213618,5,2,1:2:0:0:
225,119,213784,1,2,1:2:0:0:
433,227,213951,1,10,0:0:0:0:
127,249,214118,2,0,P|175:233|241:222,1,100.10000305481,2|0,0:3|0:0,0:0:0:0:
477,98,214451,2,0,P|427:88|380:72,1,100.10000305481,0|8,1:0|0:0,0:0:0:0:
159,7,214784,1,0,1:0:0:0:
159,7,214868,1,0,1:0:0:0:
159,7,214951,6,0,P|104:55|108:147,1,150.150004582214,2|0,1:0|0:0,0:0:0:0:
147,200,215284,1,8,0:0:0:0:
61,339,215451,2,0,P|50:293|45:221,1,100.10000305481,2|0,0:3|0:0,0:0:0:0:
198,114,215784,1,0,1:0:0:0:
274,277,215951,1,8,0:0:0:0:
61,141,216118,1,0,1:0:0:0:
269,172,216284,6,0,B|319:142|369:178|369:178|398:227|473:207,1,200.200006109619,2|8,1:0|0:0,0:0:0:0:
369,28,216784,2,0,P|339:67|343:140,1,100.10000305481,2|0,0:3|1:0,0:0:0:0:
396,333,217118,1,2,1:2:0:0:
249,183,217284,1,8,0:0:0:0:
476,222,217451,1,2,1:2:0:0:
476,222,217534,1,0,1:0:0:0:
476,222,217618,6,0,P|370:221|323:300,1,200.200006109619,2|8,1:0|0:0,0:0:0:0:
96,298,218118,1,2,0:3:0:0:
280,145,218284,1,0,1:0:0:0:
239,304,218451,1,0,1:0:0:0:
107,106,218618,2,0,P|126:140|144:207,1,100.10000305481,8|8,0:0|0:3,0:0:0:0:
397,109,218951,5,2,1:2:0:0:
213,90,219118,1,2,1:2:0:0:
415,201,219284,1,10,0:0:0:0:
232,278,219451,1,2,0:3:0:0:
444,194,219618,1,0,1:0:0:0:
319,24,219784,2,0,P|303:64|294:121,1,100.10000305481,2|8,1:2|0:0,0:0:0:0:
403,329,220118,1,2,1:0:0:0:
403,329,220201,1,0,1:0:0:0:
403,329,220284,6,0,P|336:312|236:299,1,150.150004582214,2|0,1:2|0:0,0:0:0:0:
187,256,220618,2,0,B|124:275|68:287,1,100.10000305481,8|0,0:0|0:0,0:0:0:0:
235,59,220951,2,0,P|267:94|269:160,1,100.10000305481,0|0,1:0|1:0,0:0:0:0:
64,81,221284,1,10,0:1:0:0:
64,81,221618,5,2,1:2:0:0:
316,203,221784,1,2,1:2:0:0:
113,214,221951,1,8,0:0:0:0:
265,91,222118,1,2,0:3:0:0:
237,317,222284,1,0,1:0:0:0:
237,317,222368,1,0,1:0:0:0:
237,317,222451,2,0,L|125:294,1,100.10000305481,0|8,1:0|0:0,0:0:0:0:
349,73,222784,1,2,1:1:0:0:
425,336,222951,6,0,P|435:264|452:226,1,100.10000305481,2|0,1:2|1:0,0:0:0:0:
458,220,223201,1,0,1:0:0:0:
469,210,223284,1,8,0:0:0:0:
339,203,223451,1,2,0:3:0:0:
427,59,223618,1,0,1:0:0:0:
273,258,223784,1,0,1:0:0:0:
178,48,223951,2,0,P|193:62|205:105,1,50.0500015274048,8|0,0:0|1:0,0:0:0:0:
262,287,224118,1,0,1:0:0:0:
156,152,224284,5,2,1:0:0:0:
329,123,224451,1,0,1:0:0:0:
180,307,224618,1,0,1:0:0:0:
228,80,224784,1,10,0:1:0:0:
402,284,224951,1,0,1:0:0:0:
148,224,225118,1,0,1:0:0:0:
448,75,225284,1,10,0:1:0:0:
258,354,225451,1,0,1:0:0:0:
180,70,225618,5,2,1:3:0:0:
352,280,225784,2,0,P|307:269|262:263,1,91,10|0,0:1|1:0,0:0:0:0:
463,48,226118,1,0,1:0:0:0:
463,48,226201,1,0,1:0:0:0:
463,48,226284,1,10,0:1:0:0:
170,143,226451,1,0,1:0:0:0:
371,289,226618,1,0,1:0:0:0:
318,17,226784,1,10,0:1:0:0:
476,189,226951,5,0,1:0:0:0:
174,116,227118,1,0,1:0:0:0:
174,116,227201,1,0,1:0:0:0:
174,116,227284,2,0,P|118:122|45:134,1,91,10|0,0:1|1:0,0:0:0:0:
300,15,227618,1,0,1:1:0:0:
313,329,227785,1,10,0:1:0:0:
432,50,227952,1,0,1:1:0:0:
184,247,228118,1,0,1:0:0:0:
445,174,228284,5,10,0:1:0:0:
72,116,228451,1,0,1:0:0:0:
399,306,228618,1,0,1:0:0:0:
65,311,228784,1,10,0:1:0:0:
385,34,228951,1,0,1:0:0:0:
244,368,229118,1,0,1:0:0:0:
166,14,229284,1,10,0:1:0:0:
305,284,229451,5,12,1:0:0:0:
