osu file format v14

[General]
AudioFilename: audio.mp3
AudioLeadIn: 0
PreviewTime: 173586
Countdown: 0
SampleSet: Soft
StackLeniency: 0.4
Mode: 0
LetterboxInBreaks: 0
EpilepsyWarning: 1
WidescreenStoryboard: 1

[Editor]
Bookmarks: 52336,76336,97670,100670,152336,176336,224336
DistanceSpacing: 2.4
BeatDivisor: 4
GridSize: 8
TimelineZoom: 2.1

[Metadata]
Title:Sakura no Uta
TitleUnicode:櫻ノ詩
Artist:Hana
ArtistUnicode:はな
Creator:Azunyan-
Version:Poem of Cherry Blossoms
Source:サクラノ詩 -櫻の森の上を舞う-
Tags:Sakura no Uta -Sakura no Mori no Ue o Mau- visual novel opening japanese pop jpop j-pop video game eroge galge galgame 枕 Makura うさ Usa fedora- [[Pika]] Weedy wikipika Mayu Sakuma Xexyz full size length version
BeatmapID:1931676
BeatmapSetID:924779

[Difficulty]
HPDrainRate:5
CircleSize:3.6
OverallDifficulty:9
ApproachRate:9.3
SliderMultiplier:1.8
SliderTickRate:1

[Events]
//Background and Video events
0,0,"sakura_no_uta.jpg",0,0
//Break Periods
2,111203,132782
//Storyboard Layer 0 (Background)
//Storyboard Layer 1 (Fail)
//Storyboard Layer 2 (Pass)
//Storyboard Layer 3 (Foreground)
Sprite,Foreground,Centre,"sb\glow.png",0,0 C,0,76336,,255,60,60 M,0,76336,76377,110,374,133.252,363.2111 F,2,76336,76719,1,0 S,2,76336,76719,2,0.4 P,0,76336,76719,A M,0,76377,76419,133.252,363.2111,157.5956,355.1929 M,0,76419,76461,157.5956,355.1929,182.7023,350.053 M,0,76461,76502,182.7023,350.053,208.2333,347.8601 M,0,76502,76544,208.2333,347.8601,233.8443,348.6432 M,0,76544,76586,233.8443,348.6432,259.1899,352.3915 M,0,76586,76627,259.1899,352.3915,283.9283,359.0541 M,0,76627,76669,283.9283,359.0541,307.7261,368.5407
Sprite,Foreground,Centre,"sb\glow.png",0,0 C,0,176336,,195,195,195 M,0,176336,176377,347,339,373.5704,343.7974 F,2,176336,176719,1,0 S,2,176336,176719,2,0.4 P,0,176336,176719,A M,0,176377,176419,373.5704,343.7974,400.1407,348.5948 M,0,176419,176460,400.1407,348.5948,426.53,349.8323 M,0,176460,176502,426.53,349.8323,452.4763,342.3629 M,0,176502,176544,452.4763,342.3629,478.4225,334.8935 M,0,176544,176585,478.4225,334.8935,504.688,337.3152 M,0,176585,176627,504.688,337.3152,531.062,343.0958 M,0,176627,176669,531.062,343.0958,557.4359,348.8764
Sprite,Foreground,Centre,"sb\glow.png",548,331 C,0,111003,,255,60,60 F,2,111003,111303,1,0 S,2,111003,111303,1.5,0.3 P,0,111003,111303,A
Sprite,Foreground,Centre,"sb\glow.png",187,341 C,0,224336,,255,60,60 F,2,224336,224536,1,0 S,2,224336,224536,1.5,0.3 P,0,224336,224536,A
Sprite,Foreground,Centre,"sb\glow.png",112,230 C,0,224503,,255,60,60 F,2,224503,224703,1,0 S,2,224503,224703,1.5,0.3 P,0,224503,224703,A
Sprite,Foreground,Centre,"sb\glow.png",169,109 C,0,224670,,255,60,60 F,2,224670,224870,1,0 S,2,224670,224870,1.5,0.3 P,0,224670,224870,A
Sprite,Foreground,Centre,"sb\glow.png",207,364 C,0,224836,,168,168,255 F,2,224836,225036,1,0 S,2,224836,225036,1.5,0.3 P,0,224836,225036,A
Sprite,Foreground,Centre,"sb\glow.png",192,195 C,0,225003,,168,168,255 F,2,225003,225203,1,0 S,2,225003,225203,1.5,0.3 P,0,225003,225203,A
Sprite,Foreground,Centre,"sb\glow.png",331,100 C,0,225170,,168,168,255 F,2,225170,225370,1,0 S,2,225170,225370,1.5,0.3 P,0,225170,225370,A
Sprite,Foreground,Centre,"sb\glow.png",510,360 C,0,225336,,255,147,255 F,2,225336,225536,1,0 S,2,225336,225536,1.5,0.3 P,0,225336,225536,A
Sprite,Foreground,Centre,"sb\glow.png",359,253 C,0,225503,,255,147,255 F,2,225503,225703,1,0 S,2,225503,225703,1.5,0.3 P,0,225503,225703,A
Sprite,Foreground,Centre,"sb\glow.png",193,332 C,0,225670,,255,147,255 F,2,225670,225870,1,0 S,2,225670,225870,1.5,0.3 P,0,225670,225870,A
Sprite,Foreground,Centre,"sb\glow.png",530,375 C,0,225836,,195,195,195 F,2,225836,226036,1,0 S,2,225836,226036,1.5,0.3 P,0,225836,226036,A
Sprite,Foreground,Centre,"sb\glow.png",413,186 C,0,226003,,195,195,195 F,2,226003,226203,1,0 S,2,226003,226203,1.5,0.3 P,0,226003,226203,A
Sprite,Foreground,Centre,"sb\glow.png",192,195 C,0,226170,,195,195,195 F,2,226170,226370,1,0 S,2,226170,226370,1.5,0.3 P,0,226170,226370,A
Sprite,Foreground,Centre,"sb\glow.png",417,423 C,0,226336,,255,60,60 F,2,226336,226536,1,0 S,2,226336,226536,1.5,0.3 P,0,226336,226536,A
Sprite,Foreground,Centre,"sb\glow.png",193,332 C,0,226503,,255,60,60 F,2,226503,226703,1,0 S,2,226503,226703,1.5,0.3 P,0,226503,226703,A
Sprite,Foreground,Centre,"sb\glow.png",193,332 C,0,226586,,255,60,60 F,2,226586,226786,1,0 S,2,226586,226786,1.5,0.3 P,0,226586,226786,A
Sprite,Foreground,Centre,"sb\glow.png",193,332 C,0,226670,,255,60,60 F,2,226670,226870,1,0 S,2,226670,226870,1.5,0.3 P,0,226670,226870,A
Sprite,Foreground,Centre,"sb\glow.png",284,109 C,0,226837,,255,60,60 F,2,226837,227037,1,0 S,2,226837,227037,1.5,0.3 P,0,226837,227037,A
Sprite,Foreground,Centre,"sb\glow.png",507,200 C,0,227003,,255,60,60 F,2,227003,227203,1,0 S,2,227003,227203,1.5,0.3 P,0,227003,227203,A
Sprite,Foreground,Centre,"sb\glow.png",507,200 C,0,227087,,255,60,60 F,2,227087,227287,1,0 S,2,227087,227287,1.5,0.3 P,0,227087,227287,A
Sprite,Foreground,Centre,"sb\glow.png",507,200 C,0,227170,,255,60,60 F,2,227170,227370,1,0 S,2,227170,227370,1.5,0.3 P,0,227170,227370,A
Sprite,Foreground,Centre,"sb\glow.png",121,292 C,0,227336,,168,168,255 F,2,227336,227536,1,0 S,2,227336,227536,1.5,0.3 P,0,227336,227536,A
Sprite,Foreground,Centre,"sb\glow.png",392,235 C,0,227503,,168,168,255 F,2,227503,227703,1,0 S,2,227503,227703,1.5,0.3 P,0,227503,227703,A
Sprite,Foreground,Centre,"sb\glow.png",96,203 C,0,227670,,168,168,255 F,2,227670,227870,1,0 S,2,227670,227870,1.5,0.3 P,0,227670,227870,A
Sprite,Foreground,Centre,"sb\glow.png",495,312 C,0,227836,,255,147,255 F,2,227836,228036,1,0 S,2,227836,228036,1.5,0.3 P,0,227836,228036,A
Sprite,Foreground,Centre,"sb\glow.png",255,151 C,0,228003,,255,147,255 F,2,228003,228203,1,0 S,2,228003,228203,1.5,0.3 P,0,228003,228203,A
Sprite,Foreground,Centre,"sb\glow.png",575,106 C,0,228170,,255,147,255 F,2,228170,228370,1,0 S,2,228170,228370,1.5,0.3 P,0,228170,228370,A
Sprite,Foreground,Centre,"sb\glow.png",209,387 C,0,228336,,195,195,195 F,2,228336,228536,1,0 S,2,228336,228536,1.5,0.3 P,0,228336,228536,A
Sprite,Foreground,Centre,"sb\glow.png",371,92 C,0,228503,,195,195,195 F,2,228503,228703,1,0 S,2,228503,228703,1.5,0.3 P,0,228503,228703,A
Sprite,Foreground,Centre,"sb\glow.png",576,346 C,0,228670,,255,60,60 F,2,228670,228870,1,0 S,2,228670,228870,1.5,0.3 P,0,228670,228870,A
Sprite,Foreground,Centre,"sb\glow.png",234,271 C,0,228836,,255,60,60 F,2,228836,229036,1,0 S,2,228836,229036,1.5,0.3 P,0,228836,229036,A
Sprite,Foreground,Centre,"sb\glow.png",458,148 C,0,229003,,168,168,255 F,2,229003,229203,1,0 S,2,229003,229203,1.5,0.3 P,0,229003,229203,A
Sprite,Foreground,Centre,"sb\glow.png",318,438 C,0,229170,,168,168,255 F,2,229170,229370,1,0 S,2,229170,229370,1.5,0.3 P,0,229170,229370,A
Sprite,Foreground,Centre,"sb\glow.png",318,438 C,0,229253,,168,168,255 F,2,229253,229453,1,0 S,2,229253,229453,1.5,0.3 P,0,229253,229453,A
Sprite,Foreground,Centre,"sb\glow.png",318,438 C,0,229336,,168,168,255 F,2,229336,229536,1,0 S,2,229336,229536,1.5,0.3 P,0,229336,229536,A
Sprite,Foreground,Centre,"sb\glow.png",242,58 C,0,229503,,168,168,255 F,2,229503,229703,1,0 S,2,229503,229703,1.5,0.3 P,0,229503,229703,A
//Storyboard Layer 4 (Overlay)
//Storyboard Sound Samples

[TimingPoints]
337,333.333333333333,4,2,1,30,1,0
337,-200,4,2,1,30,0,0
4336,-200,4,2,1,30,0,0
4503,-200,4,2,1,30,0,0
6670,-175.438596491228,4,2,1,30,0,0
7170,-175.438596491228,4,2,1,30,0,0
9670,-133.333333333333,4,2,1,50,0,0
11003,-100,4,2,1,50,0,0
28003,-90.9090909090909,4,2,1,50,0,0
31336,-84.7457627118644,4,2,1,50,0,0
31836,-100,4,2,1,50,0,0
32336,-100,4,2,1,40,0,0
33670,-133.333333333333,4,2,1,50,0,0
41586,-133.333333333333,4,2,1,5,0,0
41670,-133.333333333333,4,2,1,50,0,0
43336,-100,4,2,1,50,0,0
44336,-133.333333333333,4,2,1,50,0,0
49670,-111.111111111111,4,2,1,50,0,0
51253,-133.333333333333,4,2,1,5,0,0
51336,-133.333333333333,4,2,1,60,0,0
52336,-100,4,2,1,60,0,0
73670,-100,4,2,1,70,0,0
76336,-87.719298245614,4,2,2,90,0,1
76670,-87.719298245614,4,2,1,70,0,1
76836,-83.3333333333333,4,2,1,70,0,1
80920,-83.3333333333333,4,2,1,5,0,1
81003,-83.3333333333333,4,2,1,70,0,1
81336,-111.111111111111,4,2,1,70,0,1
81586,-111.111111111111,4,2,1,5,0,1
81670,-83.3333333333333,4,2,1,70,0,1
84003,-111.111111111111,4,2,1,70,0,1
84253,-111.111111111111,4,2,1,5,0,1
84336,-83.3333333333333,4,2,1,70,0,1
89336,-111.111111111111,4,2,1,70,0,1
89586,-83.3333333333333,4,2,1,5,0,1
89670,-83.3333333333333,4,2,1,70,0,1
97670,-100,4,2,1,50,0,0
98170,-133.333333333333,4,2,1,60,0,0
103003,-105.263157894737,4,2,1,60,0,0
108336,-133.333333333333,4,2,1,50,0,0
109670,-181.818181818181,4,2,1,50,0,0
110170,-222.222222222221,4,2,1,50,0,0
110836,-222.222222222221,4,2,1,20,0,0
111003,-222.222222222221,4,2,1,50,0,0
133336,-105.263157894737,4,2,1,50,0,0
133670,-133.333333333333,4,2,1,50,0,0
141586,-133.333333333333,4,2,1,5,0,0
141670,-133.333333333333,4,2,1,50,0,0
143336,-99.009900990099,4,2,1,50,0,0
144336,-133.333333333333,4,2,1,50,0,0
149670,-111.111111111111,4,2,1,50,0,0
151253,-133.333333333333,4,2,1,5,0,0
151336,-133.333333333333,4,2,1,50,0,0
152336,-100,4,2,1,50,0,0
160253,-100,4,2,1,5,0,0
160336,-100,4,2,1,50,0,0
163003,-76.9230769230769,4,2,1,50,0,0
163670,-100,4,2,1,50,0,0
170920,-100,4,2,1,5,0,0
171003,-100,4,2,1,50,0,0
173670,-100,4,2,1,70,0,0
176336,-83.3333333333333,4,2,2,90,0,1
176670,-83.3333333333333,4,2,1,70,0,1
177920,-83.3333333333333,4,2,1,5,0,1
178003,-83.3333333333333,4,2,1,70,0,1
181336,-111.111111111111,4,2,1,70,0,1
181586,-83.3333333333333,4,2,1,5,0,1
181670,-83.3333333333333,4,2,1,70,0,1
184003,-111.111111111111,4,2,1,70,0,1
184253,-83.3333333333333,4,2,1,5,0,1
184336,-83.3333333333333,4,2,1,70,0,1
192586,-83.3333333333333,4,2,1,5,0,1
192670,-83.3333333333333,4,2,1,70,0,1
197670,-71.4285714285714,4,2,1,70,0,1
199003,-83.3333333333333,4,2,1,70,0,1
202670,-111.111111111111,4,2,1,70,0,1
202920,-111.111111111111,4,2,1,5,0,1
203003,-83.3333333333333,4,2,1,70,0,1
205336,-111.111111111111,4,2,1,70,0,1
205586,-111.111111111111,4,2,1,5,0,1
205670,-83.3333333333333,4,2,1,70,0,1
212586,-83.3333333333333,4,2,1,5,0,1
212670,-83.3333333333333,4,2,1,70,0,1
220586,-83.3333333333333,4,2,1,5,0,1
220670,-83.3333333333333,4,2,1,70,0,1
227336,-83.3333333333333,4,2,1,80,0,0
228336,-83.3333333333333,4,2,1,90,0,0
229503,-83.3333333333333,4,2,1,100,0,0
234670,-83.3333333333333,4,2,99,5,0,0

[Colours]
Combo1 : 168,168,255
Combo2 : 255,147,255
Combo3 : 195,195,195
Combo4 : 255,60,60

[HitObjects]
407,301,337,6,0,L|415:205,1,90,2|0,0:0|0:0,0:0:0:0:
354,144,836,1,2,0:0:0:0:
325,230,1003,1,2,0:0:0:0:
264,163,1169,1,2,0:0:0:0:
415,211,1336,1,2,0:0:0:0:
142,31,2003,6,0,P|128:63|133:92,1,45,2|0,0:0|0:0,0:0:0:0:
121,146,2337,2,0,P|155:142|178:123,1,45,2|0,0:0|0:0,0:0:0:0:
232,107,2670,2,0,P|211:78|183:68,1,45,2|0,0:0|0:0,0:0:0:0:
53,71,3003,6,0,P|28:117|25:164,1,90,2|0,0:0|0:0,0:0:0:0:
144,230,3503,2,0,P|123:190|120:146,1,90,2|0,0:0|0:0,0:0:0:0:
219,168,4003,2,0,P|256:210|345:237,1,135,2|0,0:0|0:0,0:0:0:0:
420,247,4670,5,2,0:0:0:0:
456,162,4836,1,0,0:0:0:0:
388,100,5003,1,2,0:0:0:0:
310,145,5170,1,0,0:0:0:0:
243,85,5336,1,2,0:0:0:0:
165,130,5503,1,2,0:0:0:0:
274,228,5670,5,2,0:0:0:0:
183,218,5836,1,2,0:0:0:0:
256,384,6003,1,2,0:0:0:0:
310,311,6169,1,2,0:0:0:0:
129,292,6337,1,2,0:0:0:0:
166,375,6503,1,2,0:0:0:0:
274,228,6670,6,0,P|280:157|235:77,1,153.899998121338,2|0,0:0|0:0,0:0:0:0:
166,49,7336,1,2,0:0:0:0:
97,99,7503,1,2,0:0:0:0:
183,218,7669,1,2,0:0:0:0:
175,134,7836,1,2,0:0:0:0:
107,183,8003,1,2,0:0:0:0:
107,183,8336,6,0,P|102:239|132:289,1,102.599998747559,2|0,0:0|0:0,0:0:0:0:
274,254,8836,2,0,P|227:221|168:222,1,102.599998747559,2|0,0:0|0:0,0:0:0:0:
130,363,9336,1,2,0:0:0:0:
205,301,9503,1,2,0:0:0:0:
327,353,9670,6,0,L|399:359,1,67.5000025749208,4|0,0:0|3:0,0:0:0:0:
313,199,10003,2,0,L|271:258,1,67.5000025749208,4|0,0:0|3:0,0:0:0:0:
455,262,10336,1,4,0:0:0:0:
466,230,10419,1,0,3:0:0:0:
469,196,10502,1,0,3:0:0:0:
463,163,10586,1,0,3:0:0:0:
449,133,10670,1,0,3:0:0:0:
439,119,10753,1,0,3:0:0:0:
433,104,10836,1,0,3:0:0:0:
430,87,10920,1,0,3:0:0:0:
431,70,11003,6,0,L|251:52,1,180,4|8,0:2|0:2,0:0:0:0:
125,37,11503,1,2,0:0:0:0:
247,140,11670,2,0,P|249:194|230:242,1,90,10|0,0:2|3:2,0:0:0:0:
13,216,12003,6,0,P|54:173|178:184,1,180,8|8,0:2|0:2,0:0:0:0:
242,319,12503,1,2,3:2:0:0:
242,319,12670,2,0,P|198:348|160:353,1,90,8|0,0:2|0:0,0:0:0:0:
168,177,13003,2,0,P|215:198|239:229,1,90,8|0,0:2|3:2,0:0:0:0:
84,309,13336,2,0,P|79:256|94:220,1,90,8|0,0:2|3:2,0:0:0:0:
322,221,13670,6,0,B|386:221|386:221|410:237|410:237|434:253|434:253|514:253,1,180,8|8,0:2|0:2,0:0:0:0:
512,119,14170,2,0,B|453:119|453:119|429:103|429:103|405:87|405:87|341:87,1,180,2|0,3:2|3:2,0:0:0:0:
215,85,14670,2,0,P|201:134|215:192,1,90,8|0,0:2|3:2,0:0:0:0:
342,87,15003,6,0,P|356:38|342:-20,1,90,8|0,0:2|3:2,0:0:0:0:
215,85,15336,2,0,L|119:93,1,90,8|0,0:2|3:2,0:0:0:0:
135,299,15670,1,8,0:2:0:0:
71,199,15836,1,0,3:2:0:0:
253,293,16003,2,0,L|374:283,1,90,8|0,0:2|3:2,0:0:0:0:
495,184,16337,5,10,0:2:0:0:
331,102,16503,1,2,0:0:0:0:
446,278,16670,1,10,0:2:0:0:
436,96,16836,1,2,0:0:0:0:
342,285,17003,1,10,0:2:0:0:
495,184,17170,1,2,3:2:0:0:
281,196,17336,6,0,L|88:211,1,180,8|8,0:2|0:2,0:0:0:0:
34,131,17836,1,0,3:2:0:0:
137,113,18003,1,10,0:2:0:0:
70,33,18170,1,2,0:0:0:0:
101,210,18336,1,10,0:2:0:0:
238,94,18503,1,2,3:2:0:0:
101,210,18670,2,0,P|100:274|130:318,1,90,8|0,0:2|3:2,0:0:0:0:
241,341,19003,6,0,B|365:330|365:330|440:374,1,180,8|8,0:2|0:2,0:0:0:0:
474,256,19503,2,0,P|489:209|486:158,1,90,2|8,0:0|0:2,0:0:0:0:
439,72,19836,1,2,3:2:0:0:
325,183,20003,2,0,L|197:171,1,90,8|0,0:2|3:2,0:0:0:0:
131,80,20336,6,0,P|101:130|104:181,1,90,8|0,0:2|3:2,0:0:0:0:
289,242,20670,2,0,P|260:191|215:168,1,90,8|0,0:2|3:2,0:0:0:0:
69,297,21003,1,8,0:2:0:0:
162,370,21170,1,8,0:2:0:0:
188,356,21253,1,8,0:2:0:0:
217,348,21336,1,0,3:0:0:0:
247,345,21419,1,8,3:0:0:0:
277,347,21503,1,8,3:0:0:0:
306,354,21586,1,8,3:0:0:0:
333,367,21670,6,0,L|524:350,1,180,4|8,0:2|0:2,0:0:0:0:
472,249,22170,1,2,0:0:0:0:
432,147,22336,2,0,L|328:156,1,90,10|0,0:2|3:2,0:0:0:0:
218,82,22670,6,0,P|296:43|393:87,1,180,10|8,0:2|0:2,0:0:0:0:
306,237,23170,1,2,3:2:0:0:
306,237,23336,2,0,P|296:287|315:333,1,90,8|0,0:2|0:0,0:0:0:0:
131,322,23670,2,0,P|92:288|43:281,1,90,8|0,0:2|3:2,0:0:0:0:
145,127,24003,2,0,P|193:110|223:71,1,90,8|0,0:2|3:2,0:0:0:0:
476,216,24336,6,0,P|388:202|305:236,1,180,8|8,0:2|0:2,0:0:0:0:
373,384,24836,2,0,P|398:341|399:292,1,90,2|8,3:2|0:2,0:0:0:0:
403,125,25170,1,2,3:2:0:0:
403,125,25336,2,0,L|283:135,1,90,8|0,0:2|3:2,0:0:0:0:
196,237,25670,6,0,P|176:291|191:355,1,90,8|0,0:2|3:2,0:0:0:0:
96,196,26003,2,0,P|94:138|56:84,1,90,8|0,0:2|3:2,0:0:0:0:
231,103,26336,2,0,P|281:130|347:124,1,90,8|0,0:2|3:2,0:0:0:0:
244,266,26670,2,0,P|194:296|167:355,1,90,8|0,0:2|3:2,0:0:0:0:
428,308,27003,5,10,0:2:0:0:
313,132,27170,1,2,0:0:0:0:
478,214,27336,1,10,0:2:0:0:
263,226,27503,1,2,0:0:0:0:
418,127,27670,1,10,0:2:0:0:
324,315,27836,1,2,3:2:0:0:
478,214,28003,6,0,P|508:130|441:14,1,198.000006042481,8|8,0:2|0:2,0:0:0:0:
361,38,28503,1,0,3:2:0:0:
369,220,28670,1,10,0:2:0:0:
418,127,28836,1,2,0:2:0:0:
208,137,29003,1,10,0:2:0:0:
369,220,29170,1,2,3:2:0:0:
255,44,29336,1,10,0:2:0:0:
263,226,29503,1,2,3:2:0:0:
255,44,29670,6,0,P|167:60|100:176,1,198.000006042481,8|8,0:2|0:2,0:0:0:0:
218,317,30170,2,0,P|248:232|181:116,1,198.000006042481,2|0,0:0|3:2,0:0:0:0:
0,148,30670,2,0,P|57:216|191:216,1,198.000006042481,8|8,0:2|0:2,0:0:0:0:
313,132,31170,5,2,3:2:0:0:
430,308,31336,2,0,L|324:315,1,106.199996272888,8|0,0:2|3:2,0:0:0:0:
263,226,31670,1,8,0:2:0:0:
263,226,31753,1,8,0:0:0:0:
263,226,31836,2,0,L|258:283,1,45,8|8,0:2|0:2,0:0:0:0:
208,137,32003,2,0,L|150:132,1,45,0|8,3:0|3:0,0:0:0:0:
369,220,32170,2,0,L|426:224,1,45,8|8,3:0|3:0,0:0:0:0:
361,38,32336,5,2,0:0:0:0:
369,220,32503,1,2,0:0:0:0:
208,137,32670,1,2,0:0:0:0:
418,127,32836,1,2,0:0:0:0:
255,43,33003,1,2,0:0:0:0:
263,226,33170,1,2,0:0:0:0:
418,127,33336,1,2,0:0:0:0:
255,43,33503,1,2,0:0:0:0:
255,43,33670,6,0,P|187:26|112:30,2,135.000005149842,4|0|0,3:2|3:2|3:2,0:0:0:0:
359,122,34503,1,2,0:0:0:0:
359,122,34670,2,0,P|424:108|484:77,1,135.000005149842,0|0,3:2|3:2,0:0:0:0:
484,77,35170,1,2,0:0:0:0:
467,245,35336,2,0,L|480:177,1,67.5000025749208,2|0,3:2|0:0,0:0:0:0:
355,317,35670,2,0,L|363:383,1,67.5000025749208,2|0,3:2|0:0,0:0:0:0:
238,241,36003,2,0,L|251:173,1,67.5000025749208,2|0,3:2|0:0,0:0:0:0:
18,103,36336,6,0,P|68:147|141:166,1,135.000005149842,2|0,3:2|3:2,0:0:0:0:
216,68,36836,1,2,0:0:0:0:
216,68,37003,2,0,L|227:-13,1,67.5000025749208,2|0,3:2|0:0,0:0:0:0:
331,194,37336,2,0,L|342:328,1,135.000005149842,2|0,3:2|3:0,0:0:0:0:
469,303,37836,1,0,0:0:0:0:
469,303,38003,2,0,L|476:215,1,67.5000025749208,0|0,3:0|0:0,0:0:0:0:
418,64,38336,1,0,3:0:0:0:
339,170,38503,1,0,3:0:0:0:
208,0,38670,1,0,3:0:0:0:
314,30,38836,1,0,3:0:0:0:
114,112,39003,6,0,L|275:85,2,135.000005149842,6|2|2,3:2|3:2|3:2,0:0:0:0:
114,112,39836,1,0,0:0:0:0:
30,284,40003,6,0,P|28:216|17:149,1,135.000005149842,2|0,3:2|3:2,0:0:0:0:
89,37,40503,1,0,0:0:0:0:
193,171,40670,2,0,L|105:146,1,67.5000025749208,2|0,3:2|0:0,0:0:0:0:
277,28,41003,2,0,L|292:115,1,67.5000025749208,2|0,3:2|0:0,0:0:0:0:
428,144,41336,2,0,L|446:33,1,101.250003862381,2|0,3:2|0:0,0:0:0:0:
402,176,41670,6,0,P|405:230|425:336,1,135.000005149842,2|0,3:2|3:2,0:0:0:0:
272,76,42170,6,0,P|269:130|249:236,1,135.000005149842,2|0,0:0|0:0,0:0:0:0:
78,292,42670,2,0,P|156:273|203:319,1,135.000005149842,2|0,3:2|3:0,0:0:0:0:
280,384,43170,1,0,0:0:0:0:
429,207,43336,2,0,L|411:296,1,90.8999981968689,2|0,3:2|0:0,0:0:0:0:
279,81,43670,1,0,3:0:0:0:
166,141,43836,1,0,3:0:0:0:
326,306,44003,1,0,3:0:0:0:
273,190,44170,1,0,3:0:0:0:
502,115,44336,6,0,B|461:95|461:95|365:122,2,135.000005149842,4|0|0,3:2|3:2|3:2,0:0:0:0:
362,14,45170,1,0,0:0:0:0:
362,14,45336,2,0,L|281:41,1,67.5000025749208,0|0,3:2|0:0,0:0:0:0:
273,190,45670,2,0,L|354:217,1,67.5000025749208,0|0,3:2|0:0,0:0:0:0:
158,31,46003,2,0,P|145:67|132:126,1,67.5000025749208,2|0,3:2|0:0,0:0:0:0:
273,190,46336,2,0,P|248:160|203:119,1,67.5000025749208,2|0,3:2|0:0,0:0:0:0:
77,210,46670,2,0,P|114:203|172:185,1,67.5000025749208,2|0,3:2|0:3,0:0:0:0:
279,323,47003,6,0,P|194:323|132:340,2,135.000005149842,2|0|2,3:2|3:2|0:2,0:0:0:0:
279,323,47836,1,0,0:0:0:0:
435,227,48003,6,0,L|400:382,1,135.000005149842,2|0,3:2|3:0,0:0:0:0:
405,358,48503,1,0,0:0:0:0:
512,144,48670,2,0,P|458:113|432:105,1,67.5000025749208,2|8,3:2|0:0,0:0:0:0:
268,252,49003,2,0,P|328:237|353:225,1,67.5000025749208,2|0,3:2|0:3,0:0:0:0:
335,61,49336,1,2,3:2:0:0:
280,172,49503,1,8,0:0:0:0:
107,10,49670,6,0,L|137:201,1,161.999995056153,4|0,0:0|3:0,0:0:0:0:
3,308,50170,2,0,P|63:280|152:351,1,161.999995056153,2|0,0:0|0:0,0:0:0:0:
262,350,50670,1,0,3:0:0:0:
383,384,50836,1,0,0:0:0:0:
280,172,51003,6,0,L|141:190,1,121.499996292114,4|0,0:0|0:0,0:0:0:0:
159,187,51336,1,0,3:0:0:0:
409,262,51503,2,0,P|426:208|427:178,1,67.5000025749208,0|0,3:0|0:0,0:0:0:0:
366,55,51836,1,0,3:0:0:0:
268,194,52003,1,8,0:0:0:0:
454,273,52170,1,8,3:0:0:0:
343,28,52336,6,0,B|299:5|299:5|136:20,1,180,4|8,0:0|0:0,0:0:0:0:
454,273,52836,2,0,B|324:284|324:284|280:261,1,180,0|0,3:0|0:0,0:0:0:0:
96,73,53336,2,0,P|107:111|116:173,1,90,8|0,0:0|0:0,0:0:0:0:
213,246,53670,5,0,3:0:0:0:
213,246,53753,1,0,3:0:0:0:
213,246,53836,2,0,L|276:251,1,45,0|0,3:0|3:0,0:1:0:0:
49,327,54003,2,0,L|-15:321,1,45,0|0,3:0|3:0,0:1:0:0:
230,325,54170,2,0,L|224:388,1,45,0|0,3:0|3:0,0:1:0:0:
114,160,54336,2,0,L|119:96,1,45,0|0,3:0|3:0,0:1:0:0:
238,340,54503,2,0,L|232:403,1,45,0|0,3:0|3:0,0:1:0:0:
296,142,54670,1,8,0:2:0:0:
296,119,54753,1,8,0:2:0:0:
296,97,54836,1,8,0:2:0:0:
296,74,54920,1,8,0:2:0:0:
318,51,55003,6,0,B|368:32|368:32|503:50,1,180,12|8,0:2|3:0,0:0:0:0:
344,312,55503,1,4,0:0:0:0:
344,312,55836,1,0,3:0:0:0:
194,51,56003,6,0,B|144:32|144:32|9:50,1,180,12|8,3:2|3:0,0:0:0:0:
168,312,56503,1,4,0:0:0:0:
168,312,56836,1,0,3:0:0:0:
328,192,57003,2,0,L|440:192,1,90,10|0,0:0|3:0,0:0:0:0:
184,192,57336,2,0,L|72:192,1,90,10|0,0:0|3:0,0:0:0:0:
418,192,57670,6,0,P|448:268|400:365,1,180,4|8,0:0|0:0,0:0:0:0:
257,319,58170,2,0,L|153:309,1,90,2|0,3:2|0:0,0:0:0:0:
328,192,58503,2,0,L|368:273,1,90,2|8,3:2|0:0,0:0:0:0:
184,192,58836,2,0,L|235:118,1,90,2|0,0:2|3:0,0:0:0:0:
346,75,59170,5,0,3:0:0:0:
328,192,59337,1,8,0:0:0:0:
235,118,59503,1,0,0:0:0:0:
441,183,59670,2,0,L|321:171,1,90,0|0,3:0|3:0,0:0:0:0:
236,338,60003,2,0,L|326:347,1,90,8|0,0:0|3:0,0:0:0:0:
87,114,60336,6,0,P|58:172|85:295,1,180,4|8,0:0|0:0,0:0:0:0:
227,207,60836,2,0,L|234:117,1,90,2|0,3:2|3:0,0:0:0:0:
356,15,61170,2,0,L|363:107,1,90,2|8,3:2|0:0,0:0:0:0:
362,104,61503,1,2,3:2:0:0:
474,234,61670,6,0,L|483:145,1,90,0|0,3:0|3:0,0:0:0:0:
417,336,62003,2,0,B|368:359|328:335|328:335|288:311|244:326,1,180,8|0,0:0|3:0,0:0:0:0:
141,365,62503,1,0,3:0:0:0:
62,205,62670,2,0,L|55:295,1,90,8|0,0:0|3:0,0:0:0:0:
226,69,63003,5,4,0:0:0:0:
212,217,63170,1,0,0:0:0:0:
75,55,63336,1,8,0:0:0:0:
62,205,63503,1,0,3:0:0:0:
257,52,63670,2,0,L|457:69,1,180,2|8,3:2|0:0,0:0:0:0:
442,199,64170,1,0,0:1:0:0:
442,199,64336,6,0,L|322:188,1,90,12|0,0:0|3:0,0:0:0:0:
284,330,64670,2,0,L|374:338,1,90,8|0,0:0|0:1,0:0:0:0:
220,233,65003,1,8,0:0:0:0:
257,52,65170,1,0,3:0:0:0:
257,52,65253,1,0,3:0:0:0:
257,52,65336,2,0,L|262:-12,1,45,8|0,3:2|3:0,0:0:0:0:
445,151,65503,2,0,L|439:214,1,45,0|0,3:0|3:0,0:0:0:0:
190,336,65670,6,0,B|127:343|71:311|71:311|47:334|12:342,1,180,12|8,0:2|3:0,0:0:0:0:
160,88,66170,1,4,0:0:0:0:
160,88,66503,1,0,3:0:0:0:
321,336,66670,6,0,B|385:343|441:311|441:311|465:334|500:342,1,180,12|8,3:2|3:0,0:0:0:0:
352,88,67170,1,4,0:0:0:0:
352,88,67503,1,0,0:0:0:0:
184,229,67670,2,0,L|72:229,1,90,10|0,0:0|3:0,0:0:0:0:
328,229,68003,2,0,L|440:229,1,90,8|0,0:0|3:0,0:0:0:0:
94,229,68336,6,0,P|66:170|105:50,1,180,4|8,0:0|0:0,0:0:0:0:
243,0,68836,2,0,L|223:113,1,90,2|0,0:0|3:0,0:0:0:0:
357,146,69170,2,0,L|372:57,1,90,2|8,3:2|0:0,0:0:0:0:
455,281,69503,1,2,0:0:0:0:
258,190,69670,6,0,P|339:174|367:286,1,180,4|8,0:0|0:0,0:0:0:0:
284,372,70170,1,0,0:0:0:0:
61,259,70336,2,0,P|107:264|151:272,1,90,0|0,3:0|3:0,0:0:0:0:
258,190,70669,1,8,0:0:0:0:
142,293,70836,1,0,0:0:0:0:
173,76,71003,6,0,B|231:36|231:36|302:40|345:114,1,180,4|8,0:0|0:0,0:0:0:0:
487,267,71503,2,0,P|391:254|280:248,1,180,2|0,0:0|3:0,0:0:0:0:
260,167,72003,1,8,0:0:0:0:
414,142,72170,1,0,0:1:0:0:
236,318,72336,6,0,L|28:299,1,180,4|8,0:0|0:0,0:0:0:0:
7,140,72836,2,0,L|120:166,1,90,2|0,0:0|3:0,0:0:0:0:
244,54,73170,1,0,3:0:0:0:
244,54,73253,1,0,3:0:0:0:
244,54,73336,1,8,0:0:0:0:
244,54,73420,1,0,3:0:0:0:
244,54,73503,2,0,L|196:50,1,45,8|8,3:0|3:0,0:0:0:0:
422,231,73670,6,0,P|337:204|254:234,1,180,4|0,0:0|3:0,0:0:0:0:
144,343,74170,1,4,0:0:0:0:
339,321,74336,1,0,3:0:0:0:
123,367,74503,1,0,3:0:0:0:
191,156,74670,1,4,0:0:0:0:
225,346,74836,1,0,3:0:0:0:
412,116,75003,5,4,0:0:0:0:
130,221,75170,1,0,3:0:0:0:
501,222,75336,1,4,0:0:0:0:
209,139,75503,1,0,3:0:0:0:
386,20,75670,1,0,3:0:0:0:
386,20,75753,1,0,3:0:0:0:
386,20,75836,2,0,L|449:25,1,45,0|0,3:0|3:0,0:0:0:0:
307,161,76003,2,0,L|301:224,1,45,8|8,3:0|3:0,0:0:0:0:
439,323,76170,2,0,L|444:386,1,45,8|8,3:0|3:0,0:0:0:0:
46,318,76336,6,0,P|107:296|267:325,1,205.199997495117,4|8,1:2|0:0,0:0:0:0:
361,277,76836,1,2,0:0:0:0:
361,277,77003,2,0,L|350:396,1,107.999996704102,0|0,3:0|3:0,0:0:0:0:
496,223,77336,2,0,L|505:115,1,107.999996704102,8|0,0:0|3:0,0:0:0:0:
378,16,77670,6,0,P|337:4|236:4,1,107.999996704102,0|0,3:0|0:0,0:0:0:0:
63,133,78003,1,10,0:0:0:0:
163,39,78170,1,0,0:0:0:0:
332,236,78336,1,2,3:2:0:0:
205,117,78503,1,0,3:0:0:0:
76,342,78670,1,10,0:0:0:0:
207,228,78836,1,0,3:0:0:0:
438,328,79003,6,0,L|457:112,1,215.999993408203,4|8,0:2|0:0,0:0:0:0:
247,357,79503,2,0,L|228:141,1,215.999993408203,2|0,0:0|3:0,0:0:0:0:
121,29,80003,2,0,P|61:17|-3:30,1,107.999996704102,8|0,0:0|3:0,0:0:0:0:
0,210,80336,6,0,P|60:222|124:209,1,107.999996704102,0|0,3:0|0:1,0:0:0:0:
325,10,80670,2,0,L|303:204,1,161.999995056153,10|0,0:0|0:0,0:0:0:0:
293,284,81003,1,0,3:0:0:0:
418,149,81170,1,0,3:0:0:0:
492,339,81336,2,0,P|495:270|516:187,1,121.499996292114,10|0,0:0|0:0,0:0:0:0:
375,381,81670,6,0,P|291:331|146:334,1,215.999993408203,4|8,0:2|0:0,0:0:0:0:
27,137,82170,2,0,P|133:135|227:83,1,215.999993408203,2|0,0:0|3:0,0:0:0:0:
385,0,82670,1,8,0:0:0:0:
293,194,82836,1,0,3:0:0:0:
293,194,82920,1,0,3:0:0:0:
293,194,83003,5,2,3:2:0:0:
416,371,83170,1,2,0:2:0:0:
421,155,83336,1,10,0:2:0:0:
181,316,83503,2,0,L|292:325,1,107.999996704102,2|0,0:0|3:0,0:0:0:0:
497,265,83836,1,0,3:0:0:0:
334,98,84003,2,0,P|319:159|321:237,1,121.499996292114,8|0,0:0|0:0,0:0:0:0:
241,40,84336,6,0,P|128:43|12:19,1,215.999993408203,4|8,0:2|0:0,0:0:0:0:
119,275,84836,2,0,P|223:246|330:241,1,215.999993408203,2|0,0:0|3:0,0:0:0:0:
419,115,85336,2,0,L|435:8,1,107.999996704102,8|0,0:0|3:0,0:0:0:0:
163,115,85670,5,4,0:0:0:0:
347,46,85836,1,0,0:1:0:0:
136,122,86003,1,8,0:0:0:0:
439,138,86170,1,0,0:0:0:0:
219,15,86336,1,0,3:0:0:0:
219,15,86420,1,0,3:0:0:0:
219,15,86503,1,0,3:0:0:0:
223,268,86670,2,0,L|234:140,1,107.999996704102,8|0,0:0|3:0,0:0:0:0:
476,230,87003,5,6,0:2:0:0:
202,278,87170,1,2,0:2:0:0:
512,359,87336,1,10,0:2:0:0:
345,84,87503,2,0,L|354:195,1,107.999996704102,2|0,0:0|3:0,0:0:0:0:
116,348,87836,2,0,L|106:240,1,107.999996704102,2|8,3:2|0:0,0:0:0:0:
215,38,88170,1,0,3:0:0:0:
215,38,88253,1,0,3:0:0:0:
215,38,88336,6,0,P|109:24|69:27,1,107.999996704102,0|0,3:0|0:0,0:0:0:0:
249,217,88670,2,0,P|302:208|353:191,1,107.999996704102,8|0,0:0|0:0,0:0:0:0:
512,19,89003,1,0,3:0:0:0:
477,259,89170,1,0,3:0:0:0:
286,108,89336,2,0,P|344:93|407:96,1,121.499996292114,8|0,0:0|0:0,0:0:0:0:
249,217,89670,6,0,B|189:189|189:189|12:203,1,215.999993408203,4|10,0:2|0:0,0:0:0:0:
53,364,90170,2,0,L|160:354,1,107.999996704102,2|0,0:0|3:0,0:0:0:0:
357,208,90503,2,0,L|249:217,1,107.999996704102,2|8,3:2|0:0,0:0:0:0:
152,273,90836,1,2,3:2:0:0:
445,361,91003,6,0,P|459:289|447:237,1,107.999996704102,2|0,3:2|0:1,0:0:0:0:
359,69,91336,2,0,B|333:52|333:52|236:60,1,107.999996704102,8|0,0:0|0:0,0:0:0:0:
65,148,91670,1,0,3:0:0:0:
296,138,91836,1,0,3:0:0:0:
143,0,92003,2,0,L|132:119,1,107.999996704102,8|0,0:0|3:0,0:0:0:0:
175,361,92336,5,6,0:2:0:0:
211,123,92503,1,2,0:2:0:0:
42,293,92670,1,10,0:2:0:0:
387,267,92836,2,0,L|267:256,1,107.999996704102,2|0,0:0|3:0,0:0:0:0:
237,42,93170,2,0,L|356:31,1,107.999996704102,2|8,3:2|0:0,0:0:0:0:
500,227,93503,6,0,P|516:157|502:91,1,107.999996704102,2|0,3:2|3:0,0:0:0:0:
458,12,93836,1,2,0:2:0:0:
184,157,94003,2,0,B|258:153|258:153|317:118|317:118|390:112,1,215.999993408203,8|0,0:0|3:0,0:0:0:0:
479,238,94503,1,0,3:0:0:0:
379,338,94670,2,0,P|316:327|251:327,1,107.999996704102,8|0,0:0|3:0,0:0:0:0:
14,233,95003,5,6,0:2:0:0:
280,157,95170,1,2,0:2:0:0:
109,374,95336,1,10,0:2:0:0:
119,97,95503,2,0,L|107:224,1,107.999996704102,2|0,0:2|3:2,0:0:0:0:
287,347,95836,2,0,L|277:239,1,107.999996704102,2|8,3:2|0:0,0:0:0:0:
282,55,96170,1,0,3:0:0:0:
282,55,96253,1,0,3:0:0:0:
282,55,96336,6,0,L|335:51,1,53.9999983520508,0|0,3:0|3:0,0:0:0:0:
109,205,96503,2,0,L|55:200,1,53.9999983520508,0|0,3:0|3:0,0:0:0:0:
132,80,96670,1,8,0:0:0:0:
178,279,96836,1,0,0:3:0:0:
370,122,97003,6,0,L|423:117,1,53.9999983520508,0|0,3:0|3:0,0:0:0:0:
338,287,97170,2,0,L|284:291,1,53.9999983520508,0|0,3:0|3:0,0:0:0:0:
109,205,97336,1,0,3:0:0:0:
355,206,97503,1,0,3:0:0:0:
200,36,97670,5,4,0:0:0:0:
178,279,97836,1,0,3:0:0:0:
231,72,98003,1,0,3:0:0:0:
338,287,98170,2,0,P|399:278|437:197,1,135.000005149842,4|0,0:0|0:0,0:0:0:0:
436,132,98670,2,0,L|429:52,1,67.5000025749208,2|0,0:0|0:0,0:0:0:0:
231,72,99003,5,0,3:0:0:0:
332,126,99170,1,0,3:0:0:0:
329,11,99336,1,0,3:0:0:0:
234,187,99503,2,0,L|238:328,1,135.000005149842,4|0,0:0|0:0,0:0:0:0:
107,367,100003,2,0,L|103:283,1,67.5000025749208,0|0,2:2|0:0,0:0:0:0:
93,115,100336,5,6,3:2:0:0:
152,205,100503,1,2,0:2:0:0:
44,211,100670,1,10,0:2:0:0:
201,109,100836,1,14,3:2:0:0:
104,300,101003,1,2,0:2:0:0:
260,199,101170,1,2,0:2:0:0:
93,115,101336,2,0,L|89:31,1,67.5000025749208,0|8,0:0|0:0,0:0:0:0:
152,205,101670,5,6,3:2:0:0:
260,199,101836,1,10,0:2:0:0:
211,295,102003,1,10,3:2:0:0:
201,109,102170,1,2,3:2:0:0:
260,199,102336,1,2,0:2:0:0:
308,103,102503,1,10,3:2:0:0:
318,289,102670,1,2,0:2:0:0:
152,205,102836,1,2,0:2:0:0:
250,14,103003,6,0,P|344:11|412:82,1,170.999995433807,4|8,3:2|0:0,0:0:0:0:
414,217,103503,2,0,B|408:321|408:321|375:379,1,170.999995433807,0|0,3:0|0:0,0:0:0:0:
318,289,104003,1,2,0:2:0:0:
269,384,104170,1,2,0:2:0:0:
152,205,104336,5,6,3:2:0:0:
318,289,104503,1,2,0:2:0:0:
308,103,104670,1,2,0:2:0:0:
104,300,104836,5,2,0:2:0:0:
368,193,105003,1,2,0:2:0:0:
93,115,105170,1,2,0:2:0:0:
211,295,105336,2,0,L|220:406,1,85.4999977169037,2|0,0:0|0:0,0:0:0:0:
201,109,105670,5,6,3:2:0:0:
318,289,105836,1,2,0:2:0:0:
416,97,106003,1,10,0:2:0:0:
260,199,106170,1,2,3:2:0:0:
308,103,106336,1,2,0:2:0:0:
368,193,106503,1,2,0:2:0:0:
260,199,106670,2,0,L|162:206,1,85.4999977169037,2|0,0:0|0:0,0:0:0:0:
44,211,107003,5,10,3:2:0:0:
211,295,107170,1,2,0:2:0:0:
201,109,107336,2,0,L|194:23,1,85.4999977169037,10|0,0:0|3:0,0:0:0:0:
308,103,107670,1,2,0:2:0:0:
93,115,107836,1,2,3:2:0:0:
260,199,108003,1,2,0:2:0:0:
44,211,108170,1,10,3:2:0:0:
211,295,108336,6,0,P|286:297|352:252,1,135.000005149842,4|8,0:0|3:0,0:0:0:0:
249,65,108836,2,0,L|261:217,1,135.000005149842,8|0,0:0|0:0,0:0:0:0:
370,271,109420,2,0,L|337:269,2,33.7500012874604,2|2|2,0:0|0:0|0:0,0:0:0:0:
366,172,109670,6,0,L|355:50,1,99.0000030212403,4|0,0:0|0:0,0:0:0:0:
459,10,110170,2,0,L|474:177,1,161.999995056153,2|0,3:2|0:0,0:0:0:0:
484,275,111003,5,4,0:0:0:0:
244,115,133336,6,0,P|241:157|253:184,1,42.7499988584519,10|0,0:2|3:0,0:0:0:0:
191,236,133503,2,0,P|212:272|237:287,1,42.7499988584519,10|0,0:0|3:0,0:0:0:0:
327,240,133670,6,0,L|470:227,2,135.000005149842,4|8|0,3:2|0:0|3:2,0:0:0:0:
235,356,134503,1,0,0:1:0:0:
235,356,134670,2,0,L|80:369,1,135.000005149842,8|4,0:0|3:2,0:0:0:0:
7,271,135170,1,0,0:1:0:0:
43,142,135336,2,0,L|48:74,1,67.5000025749208,10|0,0:0|0:0,0:0:0:0:
159,191,135670,2,0,L|154:124,1,67.5000025749208,2|0,3:2|0:0,0:0:0:0:
264,240,136003,2,0,L|269:172,1,67.5000025749208,10|0,0:0|0:0,0:0:0:0:
407,46,136336,6,0,L|418:180,1,135.000005149842,4|8,3:2|0:0,0:0:0:0:
479,309,136836,1,2,0:0:0:0:
479,309,137003,2,0,L|468:390,1,67.5000025749208,0|0,3:2|0:0,0:0:0:0:
446,200,137336,2,0,L|434:64,1,135.000005149842,8|0,0:0|3:2,0:0:0:0:
315,0,137836,1,0,0:1:0:0:
315,0,138003,2,0,L|308:88,1,67.5000025749208,8|0,0:0|0:0,0:0:0:0:
258,162,138336,1,0,3:0:0:0:
192,70,138503,1,0,3:0:0:0:
30,198,138670,1,0,3:0:0:0:
111,134,138836,1,0,3:0:0:0:
203,295,139003,6,0,L|42:268,2,135.000005149842,6|10|2,3:2|0:0|3:2,0:0:0:0:
224,326,139753,1,0,0:0:0:0:
224,326,139836,1,0,0:0:0:0:
354,190,140003,6,0,P|335:268|327:349,1,135.000005149842,8|0,0:0|3:2,0:0:0:0:
328,322,140503,1,0,0:0:0:0:
427,127,140670,2,0,P|383:100|356:92,1,67.5000025749208,10|0,0:0|0:0,0:0:0:0:
257,0,141003,2,0,L|236:88,1,67.5000025749208,2|0,3:2|0:0,0:0:0:0:
128,136,141336,2,0,P|125:79|100:8,1,101.250003862381,10|0,0:0|0:0,0:0:0:0:
107,169,141670,6,0,L|84:329,1,135.000005149842,4|8,3:2|0:0,0:0:0:0:
241,65,142170,2,0,L|264:225,1,135.000005149842
448,274,142670,2,0,B|409:236|351:243|351:243|354:266|385:289,1,135.000005149842,8|0,0:0|3:2,0:0:0:0:
419,365,143170,1,0,0:1:0:0:
469,187,143336,2,0,L|490:88,1,90.8999981968689,10|0,0:0|0:1,0:0:0:0:
349,7,143670,1,0,3:0:0:0:
400,112,143836,1,0,3:0:0:0:
189,208,144003,1,0,3:0:0:0:
264,120,144170,1,0,3:0:0:0:
29,33,144336,6,0,P|142:59|187:55,2,135.000005149842,4|8|0,3:2|0:0|3:2,0:0:0:0:
29,33,145170,1,0,0:0:0:0:
135,162,145336,2,0,P|83:155|40:142,1,67.5000025749208,8|0,0:0|0:0,0:0:0:0:
130,274,145670,6,0,P|182:267|225:254,1,67.5000025749208,4|0,3:2|0:0,0:0:0:0:
296,100,146003,2,0,P|283:136|270:195,1,67.5000025749208,10|0,0:0|0:0,0:0:0:0:
411,259,146336,2,0,P|386:229|341:188,1,67.5000025749208,2|0,3:2|0:0,0:0:0:0:
215,279,146670,2,0,P|252:272|310:254,1,67.5000025749208,10|0,0:0|0:0,0:0:0:0:
471,133,147003,6,0,L|392:121,1,67.5000025749208,4|0,3:2|0:0,0:0:0:0:
411,259,147336,2,0,L|490:247,1,67.5000025749208,8|0,0:0|0:0,0:0:0:0:
438,384,147670,2,0,L|359:372,1,67.5000025749208,2|0,0:0|0:0,0:0:0:0:
225,175,148003,6,0,P|231:288|224:340,2,135.000005149842,10|0|8,0:0|3:2|0:0,0:0:0:0:
132,211,148836,1,0,3:3:0:0:
269,18,149003,1,0,3:0:0:0:
211,151,149170,1,0,3:0:0:0:
407,185,149336,1,10,3:2:0:0:
316,124,149503,1,0,3:0:0:0:
477,267,149670,6,0,B|503:229|503:229|479:87,1,161.999995056153,4|8,3:2|0:0,0:0:0:0:
310,0,150170,2,0,B|284:38|284:38|308:180,1,161.999995056153,2|0,0:0|0:0,0:0:0:0:
324,257,150670,1,8,0:0:0:0:
324,257,150836,1,0,0:0:0:0:
118,40,151003,6,0,L|106:170,1,121.499996292114,0|0,3:2|0:0,0:0:0:0:
106,160,151336,1,10,0:0:0:0:
224,281,151503,2,0,P|159:262|96:282,1,135.000005149842,2|0,0:0|3:0,0:0:0:0:
303,382,152003,1,0,3:0:0:0:
438,359,152170,1,0,3:0:0:0:
366,87,152336,6,0,B|348:142|348:142|360:264,1,180,4|8,0:0|0:0,0:0:0:0:
205,6,152836,2,0,B|186:60|186:60|198:182,1,180,2|0,3:2|0:0,0:0:0:0:
46,116,153336,2,0,L|36:12,1,90,8|0,0:0|0:0,0:0:0:0:
86,323,153670,5,0,3:0:0:0:
86,323,153753,1,0,3:0:0:0:
86,323,153837,2,0,L|30:327,1,45,0|0,3:0|3:0,0:1:0:0:
254,234,154003,2,0,L|309:229,1,45,0|0,3:0|3:0,0:1:0:0:
82,197,154169,2,0,L|77:141,1,45,0|0,3:0|3:0,0:1:0:0:
236,340,154336,2,0,L|240:395,1,45,0|0,3:0|3:0,0:1:0:0:
65,176,154503,2,0,L|60:120,1,45,0|0,3:0|3:0,0:1:0:0:
343,97,154670,1,8,0:2:0:0:
365,95,154753,1,8,0:2:0:0:
387,93,154836,1,8,0:2:0:0:
410,91,154920,1,8,0:2:0:0:
443,111,155003,6,0,B|461:165|461:165|449:287,1,180,12|8,0:2|3:0,0:0:0:0:
256,328,155503,1,4,0:0:0:0:
256,328,155836,5,0,3:0:0:0:
69,111,156003,2,0,B|51:165|51:165|63:287,1,180,12|8,3:2|3:0,0:0:0:0:
256,328,156503,1,4,0:0:0:0:
256,328,156836,5,0,3:0:0:0:
322,110,157003,2,0,L|434:110,1,90,10|0,0:0|3:0,0:0:0:0:
190,110,157336,2,0,L|78:110,1,90,10|0,0:0|3:0,0:0:0:0:
423,311,157670,6,0,P|460:227|431:124,1,180,4|8,0:0|0:0,0:0:0:0:
317,4,158170,2,0,L|304:102,1,90,2|0,3:2|0:0,0:0:0:0:
168,193,158503,2,0,L|156:103,1,90,2|8,3:2|0:0,0:0:0:0:
143,6,158836,1,2,0:0:0:0:
308,234,159003,5,0,3:2:0:0:
186,79,159170,1,0,3:0:0:0:
36,238,159336,1,8,0:0:0:0:
265,163,159503,1,0,0:0:0:0:
195,322,159669,1,0,3:0:0:0:
92,181,159836,1,0,3:0:0:0:
283,178,160003,2,0,L|439:144,1,135,8|0,0:0|0:0,0:0:0:0:
472,0,160336,6,0,P|438:71|436:193,1,180,4|8,0:0|0:0,0:0:0:0:
335,358,160836,2,0,P|344:296|341:237,1,90,2|0,3:2|0:0,0:0:0:0:
192,129,161170,2,0,P|204:172|211:216,1,90,2|8,3:2|0:0,0:0:0:0:
136,353,161503,1,0,3:0:0:0:
92,106,161670,6,0,P|161:49|250:41,2,180,0|8|0,3:0|0:0|3:0,0:0:0:0:
29,208,162503,1,0,3:0:0:0:
207,306,162670,2,0,P|99:281|75:307,1,135,8|0,0:0|0:0,0:0:0:0:
288,384,163003,6,0,B|256:353|247:323|247:323|254:227|319:150,1,233.999989288331,4|8,0:0|0:0,0:0:0:0:
431,42,163503,1,0,3:0:0:0:
499,253,163670,2,0,L|381:218,1,90,2|0,3:2|0:0,0:0:0:0:
182,82,164003,2,0,L|300:47,1,90,8|0,0:0|0:1,0:0:0:0:
468,159,164336,5,12,0:0:0:0:
327,0,164503,1,0,3:0:0:0:
194,285,164670,1,8,0:0:0:0:
335,146,164836,1,0,0:1:0:0:
117,46,165003,5,8,0:0:0:0:
117,46,165086,1,0,0:0:0:0:
117,46,165170,2,0,L|105:-13,1,45,0|0,3:0|3:0,0:0:0:0:
194,285,165336,2,0,B|198:261|183:340,1,45,8|0,3:2|3:0,0:0:0:0:
277,100,165503,2,0,L|266:45,1,45,0|0,3:0|3:0,0:0:0:0:
436,352,165670,6,0,B|461:299|461:299|451:177,1,180,12|8,0:2|3:0,0:0:0:0:
256,240,166170,1,4,0:0:0:0:
256,240,166503,5,0,3:0:0:0:
76,352,166670,2,0,B|51:299|51:299|61:177,1,180,12|8,3:2|3:0,0:0:0:0:
256,240,167170,1,4,0:0:0:0:
256,240,167503,5,0,0:0:0:0:
142,96,167670,2,0,P|77:71|27:56,1,90,2|0,0:0|3:0,0:0:0:0:
236,261,168003,2,0,P|299:232|345:207,1,90,8|0,0:0|3:0,0:0:0:0:
472,14,168336,6,0,L|443:228,1,180,4|8,0:0|0:0,0:0:0:0:
329,312,168836,2,0,L|315:200,1,90,2|0,0:0|3:0,0:0:0:0:
224,21,169170,2,0,L|212:110,1,90,2|8,3:2|0:0,0:0:0:0:
135,278,169503,1,2,0:0:0:0:
23,110,169670,6,0,P|132:75|226:96,2,180,4|8|0,0:0|0:0|3:0,0:0:0:0:
424,273,170670,2,0,P|428:203|459:143,1,135,8|0,0:0|0:0,0:0:0:0:
464,360,171003,6,0,B|443:329|420:315|420:315|346:321|276:366,1,180,4|8,0:0|0:0,0:0:0:0:
71,246,171503,2,0,B|92:277|115:291|115:291|189:285|259:240,1,180,0|0,0:0|3:0,0:0:0:0:
276,100,172003,1,8,0:0:0:0:
365,256,172170,1,0,0:1:0:0:
263,75,172336,6,0,L|73:38,1,180,4|8,0:0|0:0,0:0:0:0:
299,229,172836,2,0,L|423:213,1,90,0|0,0:1|3:0,0:0:0:0:
167,197,173170,1,0,3:0:0:0:
372,49,173336,1,8,0:0:0:0:
372,49,173420,1,0,3:0:0:0:
372,49,173503,2,0,L|356:-12,1,45,8|8,3:0|3:0,0:0:0:0:
466,306,173670,6,0,B|433:307|411:297|411:297|375:319|375:319|336:303|277:315,1,180,4|0,0:0|3:0,0:0:0:0:
65,134,174170,1,4,0:0:0:0:
77,325,174336,1,0,3:0:0:0:
82,113,174503,1,0,3:0:0:0:
269,230,174670,1,4,0:0:0:0:
37,248,174836,1,0,3:0:0:0:
175,73,175003,5,4,0:0:0:0:
203,292,175170,1,0,3:0:0:0:
399,65,175336,1,4,0:0:0:0:
347,384,175503,1,0,3:0:0:0:
82,113,175670,1,0,3:0:0:0:
82,113,175753,1,0,3:0:0:0:
82,113,175836,2,0,L|27:108,1,45,0|0,3:0|3:0,0:0:0:0:
347,384,176003,5,8,3:0:0:0:
382,337,176086,1,8,3:0:0:0:
380,278,176169,1,8,3:0:0:0:
342,232,176253,1,8,3:0:0:0:
283,283,176336,6,0,B|355:296|355:296|421:277|421:277|494:293,1,215.999993408203,4|8,1:2|0:0,0:0:0:0:
154,308,176836,1,0,0:0:0:0:
154,308,177003,2,0,P|69:315|29:327,1,107.999996704102,0|0,3:0|3:0,0:0:0:0:
22,155,177336,2,0,P|107:148|147:136,1,107.999996704102,8|0,0:0|3:0,0:0:0:0:
412,9,177670,6,0,P|334:-7|253:-1,1,161.999995056153,0|0,3:0|0:0,0:0:0:0:
128,142,178003,5,10,0:0:0:0:
272,15,178170,1,0,0:0:0:0:
413,192,178336,1,2,3:2:0:0:
275,101,178503,1,0,3:0:0:0:
108,346,178670,1,10,0:0:0:0:
284,197,178836,1,0,3:0:0:0:
487,381,179003,6,0,B|471:308|471:308|490:242|490:242|477:170,1,215.999993408203,4|8,0:2|0:0,0:0:0:0:
285,311,179503,2,0,B|272:239|272:239|291:173|291:173|275:100,1,215.999993408203,2|0,0:0|3:0,0:0:0:0:
131,0,180003,2,0,L|110:130,1,107.999996704102,8|0,0:0|3:0,0:0:0:0:
30,286,180336,6,0,P|15:231|1:178,1,107.999996704102,0|0,3:0|0:0,0:0:0:0:
157,362,180670,2,0,P|171:309|185:257,1,107.999996704102,8|0,0:0|3:0,0:0:0:0:
362,119,181003,1,0,3:0:0:0:
430,313,181169,1,0,3:0:0:0:
225,133,181336,2,0,P|160:132|78:148,1,121.499996292114,8|0,0:0|0:0,0:0:0:0:
389,238,181670,6,0,P|395:130|426:27,1,215.999993408203,4|8,0:2|0:0,0:0:0:0:
104,140,182170,2,0,P|134:243|141:350,1,215.999993408203,2|0,0:0|3:0,0:0:0:0:
243,296,182670,1,8,0:0:0:0:
397,368,182836,1,0,3:0:0:0:
397,368,182920,1,0,3:0:0:0:
397,368,183003,5,0,3:0:0:0:
430,95,183170,1,0,3:1:0:0:
243,296,183336,1,8,0:0:0:0:
512,243,183503,2,0,P|453:227|368:207,1,107.999996704102,2|0,0:0|3:0,0:0:0:0:
263,126,183836,1,0,3:0:0:0:
169,354,184003,2,0,P|217:373|309:366,1,121.499996292114,8|0,0:0|0:0,0:0:0:0:
32,277,184336,6,0,B|55:224|55:224|38:28,1,215.999993408203,4|8,0:2|0:0,0:0:0:0:
238,37,184836,2,0,B|251:194|251:194|228:247,1,215.999993408203,2|0,0:0|3:0,0:0:0:0:
342,361,185336,2,0,P|405:374|470:370,1,107.999996704102,8|0,0:0|3:0,0:0:0:0:
493,64,185670,5,4,0:0:0:0:
405,289,185836,1,0,0:1:0:0:
262,0,186003,1,8,0:0:0:0:
314,240,186170,1,0,0:0:0:0:
377,32,186336,1,0,3:0:0:0:
377,32,186420,1,0,3:0:0:0:
377,32,186503,1,0,3:0:0:0:
168,73,186670,2,0,L|295:84,1,107.999996704102,8|0,0:0|3:0,0:0:0:0:
430,177,187003,5,6,0:2:0:0:
160,288,187170,1,2,0:2:0:0:
388,356,187336,1,10,0:2:0:0:
187,155,187503,2,0,P|115:140|38:134,1,107.999996704102,2|0,0:0|3:0,0:0:0:0:
283,380,187836,2,0,P|336:370|388:355,1,107.999996704102,2|8,3:2|0:0,0:0:0:0:
362,55,188170,1,0,3:0:0:0:
362,55,188253,1,0,3:0:0:0:
362,55,188336,6,0,L|340:302,1,215.999993408203,4|8,3:2|0:0,0:0:0:0:
283,380,188836,1,0,0:0:0:0:
93,278,189003,1,2,3:2:0:0:
343,271,189170,1,0,3:0:0:0:
152,167,189336,1,10,0:0:0:0:
158,384,189503,1,0,3:0:0:0:
244,77,189670,6,0,P|139:78|10:131,1,215.999993408203,4|8,0:2|0:0,0:0:0:0:
360,169,190170,2,0,P|387:103|390:37,1,107.999996704102,2|0,0:0|3:0,0:0:0:0:
222,223,190503,2,0,P|265:279|321:314,1,107.999996704102,2|8,3:2|0:0,0:0:0:0:
405,373,190836,1,0,3:0:0:0:
183,359,191003,6,0,L|75:368,1,107.999996704102,0|0,3:0|0:1,0:0:0:0:
53,188,191336,2,0,L|160:178,1,107.999996704102,8|0,0:0|0:0,0:0:0:0:
358,94,191670,1,0,3:0:0:0:
139,41,191836,1,0,3:0:0:0:
390,83,192003,2,0,L|497:73,1,107.999996704102,8|0,0:0|3:0,0:0:0:0:
512,328,192336,6,0,P|451:302|320:282,1,161.999995056153,4|0,0:2|0:0,0:0:0:0:
260,334,192670,1,8,0:0:0:0:
325,108,192836,2,0,L|314:227,1,107.999996704102,2|0,0:0|3:0,0:0:0:0:
482,53,193170,2,0,L|491:160,1,107.999996704102,2|8,3:2|0:0,0:0:0:0:
212,15,193503,6,0,P|134:16|-8:75,1,215.999993408203,2|0,3:2|0:1,0:0:0:0:
110,238,194003,2,0,P|119:185|117:127,1,107.999996704102,8|0,0:0|0:0,0:0:0:0:
212,15,194336,1,0,3:0:0:0:
265,154,194503,1,0,3:0:0:0:
474,35,194670,2,0,P|403:29|334:42,1,107.999996704102,8|0,0:0|3:0,0:0:0:0:
200,216,195003,5,6,0:2:0:0:
447,339,195170,1,2,0:2:0:0:
320,92,195336,1,10,0:2:0:0:
172,372,195503,2,0,P|225:380|278:368,1,107.999996704102,2|0,0:0|3:0,0:0:0:0:
475,172,195836,2,0,P|421:164|369:176,1,107.999996704102,2|8,3:2|0:0,0:0:0:0:
140,260,196170,1,2,3:2:0:0:
385,288,196336,5,4,0:0:0:0:
202,13,196503,1,0,3:0:0:0:
230,295,196670,1,4,0:0:0:0:
366,0,196836,1,0,3:0:0:0:
298,228,197003,1,8,0:0:0:0:
298,228,197086,1,8,0:0:0:0:
298,228,197170,2,0,L|290:140,1,53.9999983520508,8|0,0:0|3:0,0:0:0:0:
152,80,197336,2,0,L|99:76,1,53.9999983520508,0|0,3:0|3:0,0:0:0:0:
391,141,197503,2,0,L|444:137,1,53.9999983520508,0|0,3:0|3:0,0:0:0:0:
2,346,197670,6,0,B|24:309|58:297|58:297|153:298|242:401,1,251.999992309571,4|0,0:0|3:0,0:0:0:0:
491,49,198170,6,0,B|469:12|435:0|435:0|340:1|251:104,1,251.999992309571,4|0,0:0|3:0,0:0:0:0:
166,263,198670,1,8,0:0:0:0:
365,164,198836,1,2,0:0:0:0:
158,71,199003,6,0,L|13:55,1,107.999996704102,2|0,3:2|0:0,0:0:0:0:
390,182,199336,2,0,L|535:166,1,107.999996704102,10|0,0:0|0:0,0:0:0:0:
354,377,199670,1,2,3:2:0:0:
277,179,199836,1,0,3:0:0:0:
145,345,200003,2,0,P|83:352|5:337,1,107.999996704102,10|0,0:2|3:0,0:0:0:0:
294,47,200336,6,0,B|307:119|307:119|288:185|288:185|304:258,1,215.999993408203,4|8,0:0|0:0,0:0:0:0:
44,245,200836,2,0,B|28:172|28:172|47:106|47:106|34:34,1,215.999993408203,2|0,0:2|3:0,0:0:0:0:
136,160,201336,2,0,L|153:282,1,107.999996704102,8|0,0:0|3:0,0:0:0:0:
354,295,201670,6,0,L|368:188,1,107.999996704102,4|0,0:2|0:1,0:0:0:0:
258,36,202003,2,0,P|200:26|135:26,1,107.999996704102,10|0,0:2|0:0,0:0:0:0:
237,167,202336,1,2,3:2:0:0:
389,57,202503,1,0,3:0:0:0:
512,260,202670,2,0,B|499:200|499:200|512:113,1,121.499996292114,10|0,0:2|0:0,0:0:0:0:
434,384,203003,6,0,B|373:318|373:318|280:325|228:391,1,215.999993408203,4|8,0:0|0:0,0:0:0:0:
14,226,203503,2,0,B|75:292|75:292|168:285|220:219,1,215.999993408203,2|0,0:0|3:0,0:0:0:0:
345,102,204003,1,8,0:0:0:0:
171,7,204170,1,0,3:0:0:0:
171,7,204253,1,0,3:0:0:0:
171,7,204336,5,4,0:2:0:0:
14,226,204503,1,0,0:1:0:0:
271,142,204670,1,8,0:0:0:0:
14,59,204836,2,0,P|70:107|135:126,1,107.999996704102,2|0,0:0|3:0,0:0:0:0:
258,60,205170,1,0,3:0:0:0:
352,230,205336,2,0,P|283:249|217:249,1,121.499996292114,8|0,0:0|0:0,0:0:0:0:
331,43,205670,6,0,B|373:99|373:99|537:151,1,215.999993408203,4|8,0:0|0:0,0:0:0:0:
430,374,206170,2,0,B|290:330|290:330|224:352,1,215.999993408203,2|0,0:0|3:0,0:0:0:0:
81,226,206670,2,0,P|28:263|-12:312,1,107.999996704102,10|0,0:0|3:0,0:0:0:0:
194,121,207003,5,4,0:2:0:0:
86,318,207170,1,0,0:0:0:0:
52,20,207336,1,10,0:0:0:0:
81,226,207503,1,0,0:0:0:0:
213,44,207670,1,2,3:2:0:0:
213,44,207753,1,0,3:0:0:0:
213,44,207836,1,0,3:0:0:0:
326,289,208003,2,0,L|198:277,1,107.999996704102,8|0,0:0|3:0,0:0:0:0:
384,41,208336,5,6,0:2:0:0:
132,152,208503,1,2,0:2:0:0:
430,324,208670,1,10,0:2:0:0:
190,60,208836,2,0,P|134:54|57:52,1,107.999996704102,2|0,0:0|3:0,0:0:0:0:
401,157,209170,2,0,P|457:163|534:165,1,107.999996704102,2|8,3:2|0:0,0:0:0:0:
274,87,209503,2,0,L|254:156,1,53.9999983520508,0|0,3:0|3:0,0:0:0:0:
252,376,209670,6,0,L|229:120,1,215.999993408203,4|8,0:2|0:0,0:0:0:0:
172,28,210170,1,0,0:0:0:0:
49,172,210336,2,0,P|108:198|174:199,1,107.999996704102,2|0,3:2|3:0,0:0:0:0:
425,245,210670,2,0,P|360:247|300:275,1,107.999996704102,10|0,0:0|3:0,0:0:0:0:
0,346,211003,6,0,B|46:321|97:330|97:330|134:381|218:387,1,215.999993408203,4|8,0:0|0:0,0:0:0:0:
348,178,211503,2,0,L|337:297,1,107.999996704102,2|0,0:0|3:0,0:0:0:0:
123,64,211836,2,0,L|133:183,1,107.999996704102,2|8,3:2|0:0,0:0:0:0:
186,293,212170,1,0,3:0:0:0:
281,38,212336,6,0,P|367:31|454:59,1,161.999995056153,4|0,0:2|0:0,0:0:0:0:
510,131,212670,2,0,L|498:258,1,107.999996704102,8|0,0:0|0:0,0:0:0:0:
253,371,213003,1,0,3:0:0:0:
451,324,213170,1,0,3:0:0:0:
316,120,213336,2,0,L|329:263,1,107.999996704102,8|0,0:0|3:0,0:0:0:0:
61,373,213670,5,6,0:2:0:0:
177,110,213836,1,2,0:2:0:0:
416,196,214003,1,10,0:2:0:0:
100,269,214170,2,0,P|45:243|6:214,1,107.999996704102,2|0,0:0|3:0,0:0:0:0:
267,29,214503,2,0,P|327:26|375:33,1,107.999996704102,2|8,3:2|0:0,0:0:0:0:
502,146,214836,1,2,3:2:0:0:
502,146,214920,1,0,3:0:0:0:
502,146,215003,5,4,0:2:0:0:
466,337,215170,1,0,0:0:0:0:
307,246,215336,2,0,P|253:238|199:237,1,107.999996704102,8|0,0:0|0:0,0:0:0:0:
55,58,215670,2,0,P|101:12|129:2,1,53.9999983520508,2|0,3:2|0:0,0:0:0:0:
169,103,215836,2,0,P|234:91|262:99,1,53.9999983520508,2|0,3:2|0:0,0:0:0:0:
67,205,216003,2,0,P|30:259|26:288,1,53.9999983520508,10|0,0:0|0:0,0:0:0:0:
133,308,216169,2,0,P|134:373|148:399,1,53.9999983520508,2|0,3:2|0:0,0:0:0:0:
383,72,216336,6,0,L|162:104,1,215.999993408203,4|8,0:0|0:0,0:0:0:0:
436,223,216836,2,0,L|323:206,1,107.999996704102,2|0,0:2|3:0,0:0:0:0:
488,370,217170,2,0,L|381:385,1,107.999996704102,2|8,3:2|0:0,0:0:0:0:
254,249,217503,1,0,3:0:0:0:
52,342,217670,5,6,3:2:0:0:
76,354,217753,1,0,3:0:0:0:
102,360,217836,1,0,3:0:0:0:
129,361,217920,1,0,3:0:0:0:
155,357,218003,2,0,P|160:280|152:222,1,107.999996704102,0|0,3:2|3:0,0:0:0:0:
103,62,218336,2,0,L|109:-9,1,53.9999983520508,0|0,3:0|3:0,0:0:0:0:
254,249,218503,2,0,L|247:320,1,53.9999983520508,0|0,3:0|3:0,0:0:0:0:
337,27,218670,2,0,L|408:33,1,53.9999983520508,0|0,3:0|3:0,0:0:0:0:
496,259,218837,2,0,L|424:252,1,53.9999983520508,0|0,3:0|3:0,0:0:0:0:
121,162,219003,5,6,0:2:0:0:
357,122,219170,1,2,0:2:0:0:
483,369,219336,1,10,0:2:0:0:
230,143,219503,2,0,P|214:70|217:19,1,107.999996704102,2|0,0:0|3:0,0:0:0:0:
56,279,219836,2,0,P|54:332|40:384,1,107.999996704102,2|8,3:2|0:0,0:0:0:0:
405,246,220170,1,0,3:0:0:0:
405,246,220253,1,0,3:0:0:0:
405,246,220336,6,0,B|371:227|339:231|339:231|303:272|239:277,1,161.999995056153,4|0,3:2|0:0,0:0:0:0:
151,201,220670,2,0,L|39:191,1,107.999996704102,8|0,0:0|0:0,0:0:0:0:
138,379,221003,1,0,3:0:0:0:
230,143,221170,1,0,3:0:0:0:
388,340,221336,2,0,P|455:338|514:302,1,107.999996704102,8|0,0:0|3:0,0:0:0:0:
472,76,221670,5,6,0:2:0:0:
218,1,221836,1,2,0:2:0:0:
45,192,222003,1,10,0:2:0:0:
318,28,222170,2,0,P|384:8|451:-6,1,107.999996704102,2|0,0:2|3:2,0:0:0:0:
132,238,222503,2,0,P|66:218|-1:204,1,107.999996704102,2|8,3:2|0:0,0:0:0:0:
305,369,222836,1,0,3:0:0:0:
323,108,223003,5,4,3:2:0:0:
298,100,223086,1,0,3:0:0:0:
271,98,223169,1,0,3:0:0:0:
244,102,223253,1,0,3:0:0:0:
218,110,223336,2,0,L|208:217,1,107.999996704102,8|0,0:0|3:0,0:0:0:0:
394,339,223670,1,0,3:0:0:0:
419,347,223753,1,0,3:0:0:0:
446,349,223836,1,8,0:0:0:0:
473,345,223920,1,8,0:0:0:0:
499,337,224003,2,0,L|503:281,1,53.9999983520508,8|8,0:0|0:0,0:0:0:0:
398,63,224170,2,0,L|394:119,1,53.9999983520508,8|8,0:0|0:0,0:0:0:0:
123,285,224336,5,12,0:0:0:0:
48,174,224503,1,0,3:0:0:0:
105,53,224670,1,0,3:0:0:0:
143,308,224836,5,8,0:0:0:0:
128,139,225003,1,0,3:0:0:0:
267,44,225170,1,0,3:0:0:0:
446,304,225336,5,8,0:0:0:0:
295,197,225503,1,0,3:0:0:0:
129,276,225670,1,0,3:0:0:0:
466,319,225836,5,8,0:0:0:0:
349,130,226003,1,0,3:0:0:0:
128,139,226170,1,0,3:0:0:0:
353,367,226336,5,8,0:0:0:0:
129,276,226503,1,0,3:0:0:0:
129,276,226586,1,0,3:0:0:0:
129,276,226670,1,0,3:0:0:0:
220,53,226837,1,8,0:0:0:0:
443,144,227003,1,0,3:0:0:0:
443,144,227087,1,0,3:0:0:0:
443,144,227170,1,0,3:0:0:0:
57,236,227336,5,8,0:0:0:0:
328,179,227503,1,0,3:0:0:0:
32,147,227670,1,0,3:0:0:0:
431,256,227836,5,8,0:0:0:0:
191,95,228003,1,0,3:0:0:0:
511,50,228170,1,0,3:0:0:0:
145,331,228336,5,12,0:0:0:0:
307,36,228503,1,0,3:0:0:0:
512,290,228670,5,12,0:0:0:0:
170,215,228836,1,0,3:0:0:0:
394,92,229003,5,8,0:0:0:0:
254,382,229170,1,0,3:0:0:0:
254,382,229253,1,0,3:0:0:0:
254,382,229336,1,0,3:0:0:0:
178,2,229503,1,14,0:0:0:0:
256,192,229586,12,0,234670,0:0:0:0:
