osu file format v14

[General]
AudioFilename: audio.mp3
AudioLeadIn: 0
PreviewTime: 173586
Countdown: 0
SampleSet: Soft
StackLeniency: 0.4
Mode: 0
LetterboxInBreaks: 0
EpilepsyWarning: 1
WidescreenStoryboard: 1

[Editor]
Bookmarks: 33670,55003,76336,97670,111003,111253,111420,111586,111836,112170,112253,112420,112586,112753,112920,113086,113170,113336,113503,113670,113836,114086,114170,114420,114586,114670,114920,115086,115253,115420,115586,115753,115836,116003,116170,116336,116503,116670,116836,117003,117170,117336,117503,117670,117836,118003,118170,118336,118586,118753,118920,119086,119253,119420,119586,119753,119920,120003,120170,120336,120503,120670,120836,121003,121170,121336,121420,121503,121586,121670,121753,121836,121920,122086,122170,122336,122503,122670,122836,123003,123170,123336,123503,123670,123836,124003,124170,124336,124503,124670,124836,125003,125170,125336,125503,125670,125836,126086,126253,126420,126586,126753,126920,127086,127253,127420,127586,127753,127920,128170,128336,128503,128753,128836,129003,129086,129170,129336,129420,129503,129586,129753,129836,129920,130086,130253,130420,130670,130836,131003,131086,131170,131253,131336,131503,131586,131753,131920,132086,132253,132420,132503,132670,132920,133003,133170,133253,133670,155003,176336
DistanceSpacing: 2.3
BeatDivisor: 4
GridSize: 16
TimelineZoom: 2.1

[Metadata]
Title:Sakura no Uta
TitleUnicode:櫻ノ詩
Artist:Hana
ArtistUnicode:はな
Creator:Azunyan-
Version:Azudora's Insane
Source:サクラノ詩 -櫻の森の上を舞う-
Tags:Sakura no Uta -Sakura no Mori no Ue o Mau- visual novel opening japanese pop jpop j-pop video game eroge galge galgame 枕 Makura うさ Usa fedora- [[Pika]] Weedy wikipika Mayu Sakuma Xexyz full size length version
BeatmapID:2684601
BeatmapSetID:924779

[Difficulty]
HPDrainRate:5
CircleSize:3.6
OverallDifficulty:8
ApproachRate:9
SliderMultiplier:1.7
SliderTickRate:1

[Events]
//Background and Video events
0,0,"sakura_no_uta.jpg",0,0
//Break Periods
2,111203,132736
//Storyboard Layer 0 (Background)
//Storyboard Layer 1 (Fail)
//Storyboard Layer 2 (Pass)
//Storyboard Layer 3 (Foreground)
Sprite,Foreground,Centre,"sb\glow.png",0,0 C,0,76336,,168,168,255 M,0,76336,76377,555,415,531.0601,406.2237 F,2,76336,76719,1,0 S,2,76336,76719,2,0.4 P,0,76336,76719,A M,0,76377,76419,531.0601,406.2237,506.7845,398.4244 M,0,76419,76461,506.7845,398.4244,482.2134,391.615 M,0,76461,76502,482.2134,391.615,457.3869,385.8065 M,0,76502,76544,457.3869,385.8065,432.3457,381.0085 M,0,76544,76586,432.3457,381.0085,407.1309,377.2289 M,0,76586,76627,407.1309,377.2289,381.7838,374.4736 M,0,76627,76669,381.7838,374.4736,356.3461,372.7475
Sprite,Foreground,Centre,"sb\glow.png",0,0 C,0,176336,,255,60,60 M,0,176336,176377,89,122,102.3003,100.3018 F,2,176336,176719,1,0 S,2,176336,176719,2,0.4 P,0,176336,176719,A M,0,176377,176419,102.3003,100.3018,120.7412,82.83716 M,0,176419,176460,120.7412,82.83716,145.5735,77.71567 M,0,176460,176502,145.5735,77.71567,171.0408,77.52149 M,0,176502,176544,171.0408,77.52149,196.2022,81.50336 M,0,176544,176585,196.2022,81.50336,220.554,89.00824 M,0,176585,176627,220.554,89.00824,243.8615,99.32306 M,0,176627,176669,243.8615,99.32306,266.0768,111.8261
Sprite,Foreground,Centre,"sb\glow.png",0,0 C,0,224336,,168,168,255 M,0,224336,224377,116,406,126.095,382.6032 F,2,224336,224869,1,0 S,2,224336,224869,1.5,0.3 P,0,224336,224869,A M,0,224377,224419,126.095,382.6032,133.3433,358.1783 M,0,224419,224460,133.3433,358.1783,137.6436,333.0695 M,0,224460,224502,137.6436,333.0695,139.0214,307.6285 M,0,224502,224544,139.0214,307.6285,137.6436,333.0695 M,0,224544,224585,137.6436,333.0695,133.3433,358.1783 M,0,224585,224627,133.3433,358.1783,126.095,382.6032 M,0,224627,224669,126.095,382.6032,116,406
Sprite,Foreground,Centre,"sb\glow.png",0,0 C,0,224836,,168,168,255 M,0,224836,224877,333,210,333.9276,235.465 F,2,224836,225369,1,0 S,2,224836,225369,1.5,0.3 P,0,224836,225369,A M,0,224877,224919,333.9276,235.465,338.1435,260.5955 M,0,224919,224960,338.1435,260.5955,345.5769,284.9684 M,0,224960,225002,345.5769,284.9684,356,308 M,0,225002,225044,356,308,345.5769,284.9684 M,0,225044,225085,345.5769,284.9684,338.1435,260.5954 M,0,225085,225127,338.1435,260.5954,333.9276,235.465 M,0,225127,225169,333.9276,235.465,333,210
Sprite,Foreground,Centre,"sb\glow.png",426,89 C,0,225336,,255,147,255 F,2,225336,225536,1,0 S,2,225336,225536,1.5,0.3 P,0,225336,225536,A
Sprite,Foreground,Centre,"sb\glow.png",528,129 C,0,225503,,255,147,255 F,2,225503,225703,1,0 S,2,225503,225703,1.5,0.3 P,0,225503,225703,A
Sprite,Foreground,Centre,"sb\glow.png",562,232 C,0,225670,,255,147,255 F,2,225670,225870,1,0 S,2,225670,225870,1.5,0.3 P,0,225670,225870,A
Sprite,Foreground,Centre,"sb\glow.png",417,103 C,0,225836,,195,195,195 F,2,225836,226036,1,0 S,2,225836,226036,1.5,0.3 P,0,225836,226036,A
Sprite,Foreground,Centre,"sb\glow.png",497,176 C,0,226003,,195,195,195 F,2,226003,226203,1,0 S,2,226003,226203,1.5,0.3 P,0,226003,226203,A
Sprite,Foreground,Centre,"sb\glow.png",492,285 C,0,226170,,195,195,195 F,2,226170,226370,1,0 S,2,226170,226370,1.5,0.3 P,0,226170,226370,A
Sprite,Foreground,Centre,"sb\glow.png",0,0 C,0,226336,,255,60,60 M,0,226336,226377,330,223,304.7352,219.545 F,2,226336,226702,1,0 S,2,226336,226702,1.5,0.3 P,0,226336,226702,A M,0,226377,226419,304.7352,219.545,279.4703,216.09 M,0,226419,226460,279.4703,216.09,254.2054,212.6349 M,0,226460,226502,254.2054,212.6349,228.9406,209.1799
Sprite,Foreground,Centre,"sb\glow.png",199,229 C,0,226586,,255,60,60 F,2,226586,226786,1,0 S,2,226586,226786,1.5,0.3 P,0,226586,226786,A
Sprite,Foreground,Centre,"sb\glow.png",199,229 C,0,226670,,255,60,60 F,2,226670,226870,1,0 S,2,226670,226870,1.5,0.3 P,0,226670,226870,A
Sprite,Foreground,Centre,"sb\glow.png",0,0 C,0,226836,,255,60,60 M,0,226836,226877,346,403,371.2649,399.545 F,2,226836,227202,1,0 S,2,226836,227202,1.5,0.3 P,0,226836,227202,A M,0,226877,226919,371.2649,399.545,396.5297,396.09 M,0,226919,226960,396.5297,396.09,421.7946,392.6349 M,0,226960,227002,421.7946,392.6349,447.0594,389.1799
Sprite,Foreground,Centre,"sb\glow.png",477,409 C,0,227086,,255,60,60 F,2,227086,227286,1,0 S,2,227086,227286,1.5,0.3 P,0,227086,227286,A
Sprite,Foreground,Centre,"sb\glow.png",477,409 C,0,227170,,255,60,60 F,2,227170,227370,1,0 S,2,227170,227370,1.5,0.3 P,0,227170,227370,A
Sprite,Foreground,Centre,"sb\glow.png",228,321 C,0,227336,,168,168,255 F,2,227336,227536,1,0 S,2,227336,227536,1.5,0.3 P,0,227336,227536,A
Sprite,Foreground,Centre,"sb\glow.png",330,168 C,0,227503,,168,168,255 F,2,227503,227703,1,0 S,2,227503,227703,1.5,0.3 P,0,227503,227703,A
Sprite,Foreground,Centre,"sb\glow.png",411,332 C,0,227670,,168,168,255 F,2,227670,227870,1,0 S,2,227670,227870,1.5,0.3 P,0,227670,227870,A
Sprite,Foreground,Centre,"sb\glow.png",341,81 C,0,227836,,255,147,255 F,2,227836,228036,1,0 S,2,227836,228036,1.5,0.3 P,0,227836,228036,A
Sprite,Foreground,Centre,"sb\glow.png",320,263 C,0,228003,,255,147,255 F,2,228003,228203,1,0 S,2,228003,228203,1.5,0.3 P,0,228003,228203,A
Sprite,Foreground,Centre,"sb\glow.png",488,190 C,0,228170,,255,147,255 F,2,228170,228370,1,0 S,2,228170,228370,1.5,0.3 P,0,228170,228370,A
Sprite,Foreground,Centre,"sb\glow.png",209,66 C,0,228336,,195,195,195 F,2,228336,228536,1,0 S,2,228336,228536,1.5,0.3 P,0,228336,228536,A
Sprite,Foreground,Centre,"sb\glow.png",209,66 C,0,228503,,195,195,195 F,2,228503,228703,1,0 S,2,228503,228703,1.5,0.3 P,0,228503,228703,A
Sprite,Foreground,Centre,"sb\glow.png",145,304 C,0,228670,,255,60,60 F,2,228670,228870,1,0 S,2,228670,228870,1.5,0.3 P,0,228670,228870,A
Sprite,Foreground,Centre,"sb\glow.png",145,304 C,0,228836,,255,60,60 F,2,228836,229036,1,0 S,2,228836,229036,1.5,0.3 P,0,228836,229036,A
Sprite,Foreground,Centre,"sb\glow.png",437,295 C,0,229003,,168,168,255 F,2,229003,229203,1,0 S,2,229003,229203,1.5,0.3 P,0,229003,229203,A
Sprite,Foreground,Centre,"sb\glow.png",216,194 C,0,229170,,168,168,255 F,2,229170,229370,1,0 S,2,229170,229370,1.5,0.3 P,0,229170,229370,A
Sprite,Foreground,Centre,"sb\glow.png",216,194 C,0,229253,,168,168,255 F,2,229253,229453,1,0 S,2,229253,229453,1.5,0.3 P,0,229253,229453,A
Sprite,Foreground,Centre,"sb\glow.png",216,194 C,0,229336,,168,168,255 F,2,229336,229536,1,0 S,2,229336,229536,1.5,0.3 P,0,229336,229536,A
Sprite,Foreground,Centre,"sb\glow.png",85,433 C,0,229503,,168,168,255 F,2,229503,229703,1,0 S,2,229503,229703,1.5,0.3 P,0,229503,229703,A
//Storyboard Layer 4 (Overlay)
//Storyboard Sound Samples

[TimingPoints]
337,333.333333333333,4,2,1,30,1,0
2003,-166.666666666667,4,2,1,30,0,0
8253,-166.666666666667,4,2,1,5,0,0
8336,-166.666666666667,4,2,1,30,0,0
9670,-125,4,2,1,50,0,0
11003,-100,4,2,1,50,0,0
18920,-100,4,2,1,5,0,0
19003,-100,4,2,1,50,0,0
21920,-100,4,2,1,5,0,0
22003,-100,4,2,1,50,0,0
32336,-100,4,2,1,40,0,0
33586,-100,4,2,1,5,0,0
33670,-125,4,2,1,50,0,0
52336,-100,4,2,1,60,0,0
55253,-100,4,2,1,5,0,0
55336,-100,4,2,1,60,0,0
56253,-100,4,2,1,5,0,0
56336,-100,4,2,1,60,0,0
60253,-100,4,2,1,5,0,0
60336,-100,4,2,1,60,0,0
62920,-100,4,2,1,5,0,0
63003,-100,4,2,1,60,0,0
65920,-100,4,2,1,5,0,0
66003,-100,4,2,1,60,0,0
66920,-100,4,2,1,5,0,0
67003,-100,4,2,1,60,0,0
70920,-100,4,2,1,5,0,0
71003,-100,4,2,1,60,0,0
73670,-100,4,2,1,70,0,0
76336,-83.3333333333333,4,2,2,90,0,1
76670,-83.3333333333333,4,2,1,70,0,1
88586,-83.3333333333333,4,2,1,5,0,1
88670,-83.3333333333333,4,2,1,70,0,1
97670,-100,4,2,1,50,0,0
98170,-100,4,2,1,60,0,0
108336,-100,4,2,1,50,0,0
109670,-142.857142857143,4,2,1,50,0,0
110836,-142.857142857143,4,2,1,20,0,0
111003,-142.857142857143,4,2,1,50,0,0
133670,-125,4,2,1,50,0,0
141586,-125,4,2,1,5,0,0
141670,-125,4,2,1,50,0,0
149586,-125,4,2,1,5,0,0
149670,-125,4,2,1,50,0,0
152336,-100,4,2,1,50,0,0
155253,-100,4,2,1,5,0,0
155336,-100,4,2,1,50,0,0
156253,-100,4,2,1,5,0,0
156336,-100,4,2,1,50,0,0
160253,-100,4,2,1,5,0,0
160336,-100,4,2,1,50,0,0
162920,-100,4,2,1,5,0,0
163003,-100,4,2,1,50,0,0
165920,-100,4,2,1,5,0,0
166003,-100,4,2,1,50,0,0
166920,-100,4,2,1,5,0,0
167003,-100,4,2,1,50,0,0
170920,-100,4,2,1,5,0,0
171003,-100,4,2,1,50,0,0
173670,-100,4,2,1,70,0,0
176336,-83.3333333333333,4,2,2,90,0,1
176670,-83.3333333333333,4,2,1,70,0,1
177920,-83.3333333333333,4,2,1,5,0,1
178003,-83.3333333333333,4,2,1,70,0,1
181586,-83.3333333333333,4,2,1,5,0,1
181670,-83.3333333333333,4,2,1,70,0,1
184253,-83.3333333333333,4,2,1,5,0,1
184336,-83.3333333333333,4,2,1,70,0,1
185586,-83.3333333333333,4,2,1,5,0,1
185670,-83.3333333333333,4,2,1,70,0,1
191253,-83.3333333333333,4,2,1,5,0,1
191336,-83.3333333333333,4,2,1,70,0,1
192586,-83.3333333333333,4,2,1,5,0,1
192670,-83.3333333333333,4,2,1,70,0,1
200253,-83.3333333333333,4,2,1,5,0,1
200336,-83.3333333333333,4,2,1,70,0,1
200586,-83.3333333333333,4,2,1,5,0,1
200670,-83.3333333333333,4,2,1,70,0,1
202920,-83.3333333333333,4,2,1,5,0,1
203003,-83.3333333333333,4,2,1,70,0,1
205586,-83.3333333333333,4,2,1,5,0,1
205670,-83.3333333333333,4,2,1,70,0,1
212586,-83.3333333333333,4,2,1,5,0,1
212670,-83.3333333333333,4,2,1,70,0,1
224336,-83.3333333333333,4,2,1,70,0,0
227336,-83.3333333333333,4,2,1,80,0,0
228336,-83.3333333333333,4,2,1,90,0,0
229503,-83.3333333333333,4,2,1,100,0,0
234670,-83.3333333333333,4,2,99,5,0,0

[Colours]
Combo1 : 168,168,255
Combo2 : 255,147,255
Combo3 : 195,195,195
Combo4 : 255,60,60

[HitObjects]
75,297,337,5,2,0:0:0:0:
91,308,836,1,2,0:0:0:0:
135,240,1003,1,2,0:0:0:0:
217,216,1170,1,2,0:0:0:0:
299,236,1336,1,2,0:0:0:0:
93,104,2003,2,0,L|75:41,1,50.9999984436036,2|0,0:0|0:0,0:0:0:0:
68,72,2336,2,0,L|82:121,1,50.9999984436036,2|0,0:0|0:0,0:0:0:0:
71,140,2670,2,0,L|53:77,1,50.9999984436036,2|0,0:0|0:0,0:0:0:0:
230,57,3003,6,0,P|146:26|118:18,1,101.999996887207,2|0,0:0|0:0,0:0:0:0:
260,47,3503,2,0,P|176:16|148:8,1,101.999996887207,2|0,0:0|0:0,0:0:0:0:
290,37,4003,1,2,0:0:0:0:
480,192,4670,6,0,L|504:123,1,50.9999984436036,2|0,0:0|0:0,0:0:0:0:
399,51,5003,1,2,0:0:0:0:
413,85,5170,1,0,0:0:0:0:
317,153,5336,1,2,0:0:0:0:
331,119,5503,1,2,0:0:0:0:
271,25,5670,5,2,0:0:0:0:
226,88,5836,1,2,0:0:0:0:
208,164,6003,1,2,0:0:0:0:
217,240,6169,1,2,0:0:0:0:
309,270,6336,5,2,0:0:0:0:
204,251,6503,1,2,0:0:0:0:
114,320,6670,1,2,0:0:0:0:
114,320,7170,1,0,0:0:0:0:
95,297,7336,2,0,L|30:285,1,50.9999984436036,2|2,0:0|0:0,0:0:0:0:
27,118,7670,1,2,0:0:0:0:
69,191,7836,1,2,0:0:0:0:
179,103,8003,2,0,L|91:69,1,76.4999976654053,2|0,0:0|0:0,0:0:0:0:
206,79,8336,6,0,P|246:58|313:35,1,101.999996887207,2|0,0:0|0:0,0:0:0:0:
413,180,8836,2,0,P|367:156|319:139,1,101.999996887207,2|0,0:0|0:0,0:0:0:0:
258,216,9336,1,2,0:0:0:0:
258,216,9503,1,2,0:0:0:0:
436,199,9670,6,0,L|455:102,1,68,4|0,0:0|3:0,0:0:0:0:
349,286,10003,2,0,L|363:353,1,68,4|0,0:0|3:0,0:0:0:0:
240,117,10336,1,4,0:0:0:0:
199,104,10419,1,0,3:0:0:0:
157,107,10502,1,0,3:0:0:0:
119,125,10586,1,0,3:0:0:0:
90,156,10669,1,0,3:0:0:0:
78,185,10753,1,0,3:0:0:0:
77,208,10836,1,0,3:0:0:0:
77,224,10920,1,0,3:0:0:0:
80,238,11003,6,0,P|94:293|126:356,1,127.5,4|0,0:2|0:0,0:0:0:0:
224,384,11336,2,0,L|318:361,1,85,8|2,0:2|0:0,0:0:0:0:
378,226,11670,1,10,0:2:0:0:
451,315,11836,1,0,3:2:0:0:
512,177,12003,6,0,P|420:131|322:146,1,170,8|8,0:2|0:2,0:0:0:0:
355,134,12503,1,2,3:2:0:0:
207,1,12670,2,0,P|229:37|248:75,1,85,8|0,0:2|0:0,0:0:0:0:
93,162,13003,2,0,P|113:124|136:89,1,85,8|0,0:2|3:2,0:0:0:0:
290,180,13336,2,0,P|247:181|205:178,1,85,8|0,0:2|3:2,0:0:0:0:
464,322,13670,6,0,B|409:304|409:304|284:339,1,170,8|8,0:2|0:2,0:0:0:0:
186,157,14170,2,0,P|198:237|201:343,1,170,2|0,3:2|3:2,0:0:0:0:
25,384,14670,2,0,P|28:299|40:215,1,170,8|8,0:2|0:2,0:0:0:0:
79,83,15170,5,0,3:2:0:0:
252,191,15336,2,0,L|136:158,1,85,8|0,0:2|3:2,0:0:0:0:
302,44,15670,2,0,L|418:11,1,85,8|0,0:2|3:2,0:0:0:0:
241,176,16003,2,0,L|125:143,1,85,8|0,0:2|3:2,0:0:0:0:
483,145,16336,5,10,0:2:0:0:
402,175,16503,1,2,0:0:0:0:
270,159,16670,1,10,0:2:0:0:
323,229,16837,1,2,0:0:0:0:
484,348,17003,5,10,0:2:0:0:
377,328,17170,1,2,3:2:0:0:
273,310,17336,2,0,L|91:280,1,170,8|8,0:2|0:2,0:0:0:0:
105,282,17836,1,0,3:2:0:0:
0,161,18003,1,10,0:2:0:0:
65,213,18169,1,2,0:0:0:0:
160,58,18336,1,10,0:2:0:0:
84,133,18503,1,2,3:2:0:0:
186,69,18670,2,0,P|245:45|328:26,1,127.5,8|0,0:2|0:0,0:0:0:0:
420,77,19003,6,0,B|442:124|442:124|416:248,1,170,8|8,0:2|0:2,0:0:0:0:
449,55,19503,2,0,B|471:102|471:102|445:226,1,170,2|2,0:0|3:2,0:0:0:0:
334,313,20003,2,0,L|307:201,1,85,8|0,0:2|3:2,0:0:0:0:
261,120,20336,5,8,0:2:0:0:
182,188,20503,1,0,3:2:0:0:
81,86,20670,1,8,0:2:0:0:
81,86,20753,1,0,0:0:0:0:
81,86,20836,1,0,3:2:0:0:
32,187,21003,1,8,0:2:0:0:
32,187,21086,1,0,0:0:0:0:
32,187,21170,2,0,L|14:246,1,42.5,8|8,0:2|0:2,0:0:0:0:
167,257,21336,2,0,L|154:216,1,42.5,0|8,3:0|3:0,0:0:0:0:
18,194,21503,2,0,L|0:253,1,42.5,8|8,3:0|3:0,0:0:0:0:
65,369,21670,6,0,P|149:335|221:355,1,127.5,4|0,0:2|0:0,0:0:0:0:
265,367,22003,2,0,L|370:376,1,85,8|2,0:2|0:0,0:0:0:0:
444,269,22336,1,10,0:2:0:0:
462,374,22503,1,0,3:2:0:0:
456,241,22670,6,0,P|466:148|481:61,1,170,10|8,0:2|0:2,0:0:0:0:
478,72,23170,1,2,3:2:0:0:
326,0,23336,2,0,L|341:101,1,85,8|0,0:2|0:0,0:0:0:0:
217,173,23670,2,0,L|229:88,1,85,8|0,0:2|3:2,0:0:0:0:
103,0,24003,2,0,L|118:101,1,85,8|0,0:2|3:2,0:0:0:0:
248,192,24336,6,0,P|163:183|68:205,1,170,8|8,0:2|0:2,0:0:0:0:
272,213,24836,2,0,P|346:171|442:154,1,170,2|2,3:2|3:2,0:0:0:0:
512,327,25336,2,0,L|311:272,1,170,8|8,0:2|0:2,0:0:0:0:
75,284,26003,2,0,P|58:245|44:205,1,85,8|0,0:2|3:2,0:0:0:0:
210,139,26336,2,0,P|184:173|157:205,1,85,8|0,0:2|3:2,0:0:0:0:
16,95,26669,2,0,P|58:99|99:108,1,85,8|0,0:2|3:2,0:0:0:0:
210,139,27003,5,10,0:2:0:0:
164,27,27170,1,2,0:0:0:0:
308,5,27336,1,10,0:2:0:0:
286,89,27503,1,2,0:0:0:0:
383,131,27670,1,10,0:2:0:0:
430,69,27836,1,2,3:2:0:0:
497,156,28003,6,0,P|479:230|459:358,1,170,8|8,0:2|0:2,0:0:0:0:
337,373,28503,2,0,L|321:265,2,85,0|10|2,3:2|0:2|0:2,0:0:0:0:
208,194,29003,1,10,0:2:0:0:
232,300,29170,1,2,3:2:0:0:
236,168,29336,6,0,P|295:149|351:145,1,85,10|2,0:2|3:2,0:0:0:0:
461,35,29670,6,0,B|382:14|373:77|265:31,1,170,8|8,0:2|0:2,0:0:0:0:
167,0,30170,2,0,P|92:41|115:139,1,170,2|0,0:0|3:2,0:0:0:0:
99,258,30670,2,0,P|117:180|49:140,1,170,8|8,0:2|0:2,0:0:0:0:
49,140,31170,1,2,3:2:0:0:
185,272,31336,2,0,L|280:256,1,85,8|0,0:2|3:2,0:0:0:0:
363,196,31670,1,8,0:2:0:0:
363,196,31753,1,8,0:0:0:0:
363,196,31836,2,0,L|308:177,1,42.5,8|8,0:2|0:2,0:0:0:0:
372,305,32003,1,0,3:0:0:0:
372,305,32086,1,8,3:0:0:0:
372,305,32169,2,0,L|427:286,1,42.5,8|8,3:0|3:0,0:0:0:0:
449,122,32336,5,2,0:0:0:0:
363,196,32503,1,2,0:0:0:0:
471,234,32670,1,2,0:0:0:0:
449,122,32836,1,2,0:0:0:0:
363,196,33003,1,2,0:0:0:0:
363,196,33170,1,2,0:0:0:0:
275,112,33336,2,0,P|225:98|126:75,1,127.5,2|0,0:0|0:0,0:0:0:0:
133,166,33670,6,0,L|126:99,1,68,4|0,3:2|0:0,0:0:0:0:
23,223,34003,1,0,3:2:0:0:
23,223,34170,2,0,L|30:155,1,68,0|0,0:0|3:2,0:0:0:0:
153,247,34503,1,2,0:0:0:0:
153,247,34670,2,0,L|145:179,1,68,0|0,3:2|0:0,0:0:0:0:
5,298,35003,2,0,L|12:230,1,68,0|2,3:2|0:0,0:0:0:0:
224,307,35336,6,0,P|186:333|151:340,1,68,2|0,3:2|0:0,0:0:0:0:
313,317,35670,2,0,P|293:358|266:382,1,68,2|0,3:2|0:0,0:0:0:0:
393,280,36003,2,0,P|396:325|385:359,1,68,2|0,3:2|0:0,0:0:0:0:
316,170,36336,6,0,P|312:215|323:249,1,68,2|0,3:2|0:0,0:0:0:0:
449,157,36670,2,0,P|411:130|376:124,1,68,0|2,3:2|0:0,0:0:0:0:
393,280,37003,2,0,P|434:260|458:233,1,68,2|0,3:2|0:0,0:0:0:0:
384,71,37336,6,0,P|363:135|381:200,1,136,2|0,3:2|3:0,0:0:0:0:
393,280,37836,1,0,0:0:0:0:
393,280,38003,2,0,P|347:277|322:263,1,68,0|0,3:0|0:0,0:0:0:0:
168,208,38336,5,0,3:0:0:0:
186,304,38503,1,0,3:0:0:0:
61,246,38670,1,0,3:0:0:0:
46,323,38836,1,0,3:0:0:0:
77,169,39003,6,0,P|28:147|-2:145,1,68,6|0,3:2|0:0,0:0:0:0:
165,140,39336,2,0,P|133:96|108:79,1,68,2|0,3:2|0:0,0:0:0:0:
253,158,39670,2,0,P|247:104|234:77,1,68,2|0,3:2|0:0,0:0:0:0:
243,252,40003,6,0,B|299:240|299:240|314:226|314:226|381:214,1,136,2|0,3:2|3:2,0:0:0:0:
436,314,40503,1,0,0:0:0:0:
436,314,40670,2,0,L|368:304,1,68,2|0,3:2|0:0,0:0:0:0:
462,194,41003,2,0,L|394:202,1,68,2|0,3:2|0:0,0:0:0:0:
477,71,41336,2,0,L|414:96,1,68,2|0,3:2|0:0,0:0:0:0:
98,46,41670,5,2,3:2:0:0:
188,106,41836,1,0,0:0:0:0:
286,102,42003,1,0,3:2:0:0:
258,205,42170,1,2,0:0:0:0:
285,118,42336,1,0,0:0:0:0:
241,34,42503,1,0,0:0:0:0:
258,205,42670,6,0,P|313:199|383:120,1,136,2|0,3:2|3:0,0:0:0:0:
168,240,43170,1,0,0:0:0:0:
168,240,43336,2,0,P|167:285|190:326,1,68,2|0,3:2|0:0,0:0:0:0:
383,338,43670,5,0,3:0:0:0:
266,267,43836,1,0,3:0:0:0:
442,212,44003,1,0,3:0:0:0:
356,220,44170,1,0,3:0:0:0:
498,70,44336,6,0,L|489:2,1,68,4|0,3:2|0:0,0:0:0:0:
351,92,44670,1,0,3:2:0:0:
351,92,44836,2,0,L|359:24,1,68,0|0,0:0|3:2,0:0:0:0:
494,143,45170,1,0,0:0:0:0:
494,143,45336,2,0,L|485:75,1,68,0|0,3:2|0:0,0:0:0:0:
332,161,45670,2,0,L|340:93,1,68,0|0,3:2|0:0,0:0:0:0:
392,319,46003,6,0,P|426:303|450:277,1,68,2|0,3:2|0:0,0:0:0:0:
306,243,46336,2,0,P|343:246|377:235,1,68,2|0,3:2|0:0,0:0:0:0:
272,132,46670,2,0,P|302:153|337:161,1,68,2|0,3:2|0:3,0:0:0:0:
197,17,47003,6,0,P|164:26|137:45,1,68,2|0,3:2|0:0,0:0:0:0:
272,132,47336,2,0,P|280:99|276:65,1,68,0|0,3:2|0:0,0:0:0:0:
134,139,47670,2,0,P|158:162|189:176,1,68,2|0,0:2|0:0,0:0:0:0:
35,297,48003,6,0,P|81:271|164:261,1,136,2|0,3:2|3:0,0:0:0:0:
281,347,48503,1,0,0:0:0:0:
281,347,48670,1,2,3:2:0:0:
168,277,48836,1,8,0:0:0:0:
347,227,49003,1,2,3:2:0:0:
266,258,49170,1,0,0:3:0:0:
397,367,49336,1,2,3:2:0:0:
423,285,49503,1,8,0:0:0:0:
449,67,49670,6,0,P|421:128|440:192,1,136,4|0,0:0|3:0,0:0:0:0:
445,50,50170,2,0,P|380:31|320:59,1,136,2|0,0:0|0:0,0:0:0:0:
261,155,50670,2,0,P|202:149|181:135,1,68,0|0,3:0|0:0,0:0:0:0:
71,254,51003,6,0,L|87:179,1,68,4|0,0:0|0:0,0:0:0:0:
107,79,51336,1,0,3:0:0:0:
169,243,51503,2,0,L|184:310,2,68,0|0|0,3:0|0:0|3:0,0:0:0:0:
364,174,52003,1,8,0:0:0:0:
251,151,52170,1,8,3:0:0:0:
320,337,52336,6,0,P|324:253|376:188,1,170,4|8,0:0|0:0,0:0:0:0:
512,384,52836,2,0,P|508:300|456:234,1,170,0|0,3:0|0:0,0:0:0:0:
314,347,53336,2,0,P|273:367|225:365,1,85,8|0,0:0|0:0,0:0:0:0:
53,238,53670,6,0,L|6:230,3,42.5,0|0|0|0,3:0|3:0|3:0|3:0,0:0:0:0:
140,139,54003,2,0,P|160:161|169:184,1,42.5,0|0,3:0|3:0,0:1:0:0:
167,300,54170,2,0,L|214:292,3,42.5,0|0|0|0,3:0|3:0|3:0|3:0,0:1:0:0:
306,228,54503,5,0,3:0:0:0:
290,182,54586,1,0,3:0:0:0:
287,147,54670,1,8,0:2:0:0:
292,115,54753,1,8,0:2:0:0:
305,87,54836,1,8,0:2:0:0:
319,75,54920,1,8,0:2:0:0:
338,70,55003,6,0,L|317:222,1,127.5,12|0,0:2|0:0,0:0:0:0:
320,196,55336,1,8,3:0:0:0:
443,302,55503,1,4,0:0:0:0:
256,272,55836,5,0,3:0:0:0:
174,70,56003,2,0,L|195:222,1,127.5,12|0,3:2|0:0,0:0:0:0:
192,196,56336,1,8,3:0:0:0:
69,302,56503,1,4,0:0:0:0:
417,123,56836,1,0,3:0:0:0:
417,123,57003,2,0,P|464:91|501:79,1,85,10|0,0:0|3:0,0:0:0:0:
315,131,57336,2,0,P|320:74|335:38,1,85,10|0,0:0|3:0,0:0:0:0:
147,0,57670,6,0,L|190:188,1,170,4|8,0:0|0:0,0:0:0:0:
48,290,58170,2,0,L|60:184,1,85,2|0,3:2|0:0,0:0:0:0:
213,235,58503,2,0,L|225:129,1,85,2|8,3:2|0:0,0:0:0:0:
129,357,58836,6,0,P|217:328|276:375,1,170,2|0,0:2|3:0,0:0:0:0:
362,297,59336,2,0,P|305:247|265:222,1,85,8|0,0:0|0:0,0:0:0:0:
419,382,59670,1,0,3:0:0:0:
419,382,59836,1,0,3:0:0:0:
477,187,60003,2,0,P|491:248|448:298,1,127.5,8|0,0:0|0:0,0:0:0:0:
455,204,60336,6,0,L|476:102,1,85,4|0,0:0|0:0,0:0:0:0:
491,20,60670,1,8,0:0:0:0:
366,138,60836,2,0,L|345:36,1,85,2|0,3:2|3:0,0:0:0:0:
256,226,61170,2,0,L|235:124,1,85,2|8,3:2|0:0,0:0:0:0:
157,56,61503,1,2,3:2:0:0:
5,160,61670,6,0,B|57:130|57:130|176:169,2,170,0|8|0,3:0|0:0|3:0,0:0:0:0:
5,160,62503,1,0,3:0:0:0:
94,316,62670,2,0,P|70:243|13:256,1,127.5,8|0,0:0|0:0,0:0:0:0:
71,352,63003,6,0,P|152:326|241:350,1,170,4|8,0:0|0:0,0:0:0:0:
335,384,63503,1,0,3:0:0:0:
429,217,63670,2,0,L|409:335,1,85,2|0,3:2|0:0,0:0:0:0:
290,234,64003,2,0,L|276:150,1,85,8|0,0:0|0:1,0:0:0:0:
351,19,64336,5,12,0:0:0:0:
389,153,64503,1,0,3:0:0:0:
485,59,64670,1,8,0:0:0:0:
469,68,64836,1,0,0:1:0:0:
351,19,65003,1,8,0:0:0:0:
351,19,65086,1,0,3:0:0:0:
351,19,65170,2,0,L|303:5,1,42.5,0|0,3:0|3:0,0:0:0:0:
233,108,65336,1,8,3:2:0:0:
233,108,65419,1,0,3:0:0:0:
233,108,65503,2,0,L|281:94,1,42.5,0|0,3:0|3:0,0:0:0:0:
96,25,65670,6,0,P|113:123|115:185,1,127.5,12|0,0:2|0:0,0:0:0:0:
114,150,66003,1,8,3:0:0:0:
32,247,66170,1,4,0:0:0:0:
416,359,66503,5,0,3:0:0:0:
416,359,66670,2,0,P|399:261|397:199,1,127.5,12|0,3:2|0:0,0:0:0:0:
398,234,67003,1,8,3:0:0:0:
480,137,67170,1,4,0:0:0:0:
190,309,67503,1,2,0:0:0:0:
190,309,67670,2,0,L|100:297,1,85,10|0,0:0|3:0,0:0:0:0:
7,189,68003,2,0,L|97:177,1,85,8|0,0:0|3:0,0:0:0:0:
218,70,68336,6,0,B|196:44|172:36|172:36|102:41|57:89,1,170,4|8,0:0|0:0,0:0:0:0:
239,89,68836,2,0,P|269:31|273:0,1,85,2|0,0:0|3:0,0:0:0:0:
372,119,69170,2,0,P|373:161|387:201,1,85,2|8,3:2|0:0,0:0:0:0:
487,298,69503,1,2,0:0:0:0:
361,218,69670,6,0,P|262:232|196:287,1,170,4|8,0:0|0:0,0:0:0:0:
207,272,70170,1,0,0:0:0:0:
115,384,70336,2,0,L|124:299,1,85,0|0,3:0|3:0,0:0:0:0:
37,190,70670,2,0,P|-2:221|28:288,1,127.5,8|0,0:0|0:0,0:0:0:0:
60,204,71003,6,0,L|31:6,1,170,4|8,0:0|0:0,0:0:0:0:
82,223,71503,2,0,L|53:25,1,170,2|0,0:0|3:0,0:0:0:0:
149,0,72003,1,8,0:0:0:0:
206,87,72170,1,0,0:1:0:0:
340,25,72336,6,0,B|363:65|363:65|337:206,1,170,4|8,0:0|0:0,0:0:0:0:
356,0,72836,2,0,B|379:40|379:40|353:181,1,170,2|0,0:0|3:0,0:0:0:0:
266,231,73336,1,8,0:0:0:0:
266,231,73420,1,0,3:0:0:0:
266,231,73503,2,0,L|240:175,1,42.5,8|8,3:0|3:0,0:0:0:0:
127,44,73670,6,0,L|107:158,1,85,4|0,0:0|0:0,0:0:0:0:
90,223,74003,1,0,3:0:0:0:
319,227,74170,2,0,P|250:214|198:219,1,85,4|0,0:0|3:0,0:0:0:0:
68,327,74503,1,0,3:0:0:0:
203,384,74670,2,0,L|224:280,1,85,4|0,0:0|3:0,0:0:0:0:
301,131,75003,5,4,0:0:0:0:
322,313,75170,1,0,3:0:0:0:
390,98,75336,1,4,0:0:0:0:
411,280,75503,1,0,3:0:0:0:
479,65,75670,5,0,3:0:0:0:
479,65,75753,1,0,3:0:0:0:
479,65,75836,1,0,3:0:0:0:
479,65,75920,1,0,3:0:0:0:
479,65,76003,2,0,L|502:142,1,42.5,8|8,3:0|3:0,0:0:0:0:
388,173,76170,2,0,L|375:213,1,42.5,8|8,3:0|3:0,0:0:0:0:
491,359,76336,6,0,P|431:339|258:316,1,203.999993774414,4|8,1:2|0:0,0:0:0:0:
71,297,76836,1,2,0:0:0:0:
188,176,77004,2,0,P|163:131|119:107,1,101.999996887207,0|0,3:0|3:0,0:0:0:0:
163,270,77336,2,0,P|189:226|188:176,1,101.999996887207,8|0,0:0|3:0,0:0:0:0:
71,297,77670,2,0,P|130:294|175:254,1,101.999996887207,0|0,3:0|0:0,0:0:0:0:
236,0,78003,5,10,0:2:0:0:
305,68,78169,1,0,0:2:0:0:
118,112,78336,1,2,3:2:0:0:
143,19,78502,1,0,3:0:0:0:
280,148,78670,1,10,0:2:0:0:
188,176,78836,1,0,0:0:0:0:
315,51,79003,6,0,B|378:21|434:62|434:62|442:106|482:117,1,203.999993774414,4|8,0:2|0:0,0:0:0:0:
391,275,79503,2,0,B|396:210|366:138|366:138|390:175|424:196,1,203.999993774414,2|0,0:0|3:0,0:0:0:0:
469,338,80003,2,0,P|420:368|362:364,1,101.999996887207,8|0,0:0|3:0,0:0:0:0:
293,223,80336,2,0,P|244:193|186:197,1,101.999996887207,0|0,3:0|0:1,0:0:0:0:
190,44,80670,5,10,0:0:0:0:
291,27,80836,1,0,0:0:0:0:
358,138,81003,1,2,3:2:0:0:
257,121,81169,1,0,3:0:0:0:
192,240,81336,1,10,0:0:0:0:
293,223,81502,1,0,0:0:0:0:
90,265,81670,6,0,B|101:200|125:140|125:140|103:107|58:112,1,203.999993774414,4|8,0:2|0:0,0:0:0:0:
107,366,82170,2,0,B|163:362|189:302|189:302|237:282|280:300,1,203.999993774414,2|0,0:0|3:0,0:0:0:0:
482,358,82670,2,0,P|429:334|399:280,1,101.999996887207,8|0,0:0|3:0,0:0:0:0:
474,137,83003,5,2,3:2:0:0:
338,170,83170,1,2,0:2:0:0:
367,27,83336,1,10,0:2:0:0:
474,137,83503,2,0,P|503:183|492:235,1,101.999996887207,2|0,0:0|3:0,0:0:0:0:
459,46,83836,1,0,3:0:0:0:
496,227,84003,2,0,P|462:269|410:276,1,101.999996887207,8|0,0:0|0:0,0:0:0:0:
156,184,84336,6,0,B|197:140|197:140|338:170,1,203.999993774414,4|8,0:2|0:0,0:0:0:0:
151,286,84836,1,2,0:0:0:0:
253,139,85003,2,0,L|364:163,1,101.999996887207,0|0,3:0|3:0,0:0:0:0:
464,29,85336,2,0,L|353:53,1,101.999996887207,8|0,0:0|3:0,0:0:0:0:
348,270,85670,5,4,0:0:0:0:
368,164,85836,1,0,0:1:0:0:
245,335,86003,1,8,0:0:0:0:
225,229,86169,1,0,0:0:0:0:
416,363,86336,2,0,P|479:370|524:346,1,101.999996887207,0|0,3:0|3:0,0:0:0:0:
389,181,86670,2,0,P|351:232|349:283,1,101.999996887207,8|0,0:0|3:0,0:0:0:0:
397,36,87003,5,6,0:2:0:0:
511,129,87170,1,2,0:2:0:0:
390,30,87336,1,10,0:2:0:0:
275,107,87503,2,0,P|212:103|166:70,1,101.999996887207,2|0,0:0|3:0,0:0:0:0:
5,225,87836,2,0,P|57:190|80:138,1,101.999996887207,2|8,3:2|0:0,0:0:0:0:
211,354,88170,1,0,3:0:0:0:
211,354,88253,1,0,3:0:0:0:
211,354,88336,6,0,P|186:270|182:197,1,152.999995330811,0|0,3:0|0:0,0:0:0:0:
174,216,88670,2,0,P|228:215|266:175,1,101.999996887207,8|0,0:0|0:0,0:0:0:0:
200,2,89003,1,0,3:0:0:0:
182,93,89169,1,0,3:0:0:0:
368,124,89336,2,0,P|340:77|286:64,1,101.999996887207,8|0,0:0|0:0,0:0:0:0:
308,281,89670,6,0,B|371:290|409:241|409:241|457:233|500:256,1,203.999993774414,4|10,0:2|0:0,0:0:0:0:
301,384,90170,2,0,P|234:353|214:220,1,203.999993774414,2|2,0:0|3:2,0:0:0:0:
299,137,90670,1,8,0:0:0:0:
110,215,90836,1,2,3:2:0:0:
110,215,90920,1,0,3:0:0:0:
110,215,91003,6,0,P|157:235|207:234,1,101.999996887207,2|0,3:2|0:1,0:0:0:0:
118,23,91336,2,0,P|77:53|53:97,1,101.999996887207,8|0,0:0|0:0,0:0:0:0:
299,137,91670,1,0,3:0:0:0:
266,43,91836,1,0,3:0:0:0:
403,160,92003,2,0,P|465:171|504:157,1,101.999996887207,8|0,0:0|3:0,0:0:0:0:
246,314,92336,5,6,0:2:0:0:
329,237,92503,1,2,0:2:0:0:
223,220,92670,1,10,0:2:0:0:
348,336,92836,2,0,P|402:349|462:331,1,101.999996887207,2|0,0:0|3:0,0:0:0:0:
381,153,93170,2,0,P|342:193|328:254,1,101.999996887207,2|8,3:2|0:0,0:0:0:0:
507,67,93503,1,2,3:2:0:0:
507,67,93586,1,0,3:0:0:0:
507,67,93670,6,0,P|431:79|380:56,1,101.999996887207,0|2,3:0|0:2,0:0:0:0:
136,95,94003,2,0,B|159:81|159:81|222:92|222:92|232:156|295:169,1,203.999993774414,8|0,0:0|3:0,0:0:0:0:
162,188,94503,1,0,3:0:0:0:
313,84,94670,2,0,P|362:114|383:168,1,101.999996887207,8|0,0:0|3:0,0:0:0:0:
327,354,95003,5,6,0:2:0:0:
356,236,95170,1,2,0:2:0:0:
443,320,95336,1,10,0:2:0:0:
327,354,95503,2,0,P|267:356|232:333,1,101.999996887207,2|0,0:2|3:2,0:0:0:0:
219,121,95836,2,0,P|250:171|248:213,1,101.999996887207,2|8,3:2|0:0,0:0:0:0:
93,343,96170,1,0,3:0:0:0:
93,343,96253,1,0,3:0:0:0:
93,343,96336,6,0,L|39:357,1,50.9999984436036,0|0,3:0|3:0,0:0:0:0:
176,357,96503,2,0,L|225:383,1,50.9999984436036,0|0,3:0|3:0,0:0:0:0:
77,262,96670,2,0,L|23:276,1,50.9999984436036,8|0,0:0|3:0,0:0:0:0:
213,285,96836,2,0,L|262:311,1,50.9999984436036,0|0,3:3|3:0,0:0:0:0:
60,187,97003,2,0,L|6:201,1,50.9999984436036,0|0,3:0|3:0,0:0:0:0:
246,213,97170,1,0,3:0:0:0:
246,213,97253,1,0,3:0:0:0:
246,213,97336,2,0,L|295:239,1,50.9999984436036,0|0,3:0|3:0,0:0:0:0:
93,335,97503,1,0,3:0:0:0:
344,341,97670,6,0,B|375:331|389:316|389:316|413:262|362:172,1,170,4|0,0:0|3:0,0:0:0:0:
197,58,98170,2,0,P|271:116|355:71,1,170,4|0,0:0|0:0,0:0:0:0:
342,76,98670,1,2,0:0:0:0:
335,60,98836,1,0,0:0:0:0:
178,83,99003,6,0,L|198:-25,2,85,0|0|0,3:0|3:0|3:0,0:0:0:0:
68,199,99503,2,0,L|107:403,1,170,4|0,0:0|0:0,0:0:0:0:
188,380,100003,1,0,2:2:0:0:
234,294,100170,1,0,0:0:0:0:
359,355,100336,5,6,3:2:0:0:
257,312,100503,1,2,0:2:0:0:
375,327,100670,1,10,0:2:0:0:
185,228,100836,5,14,3:2:0:0:
287,185,101003,1,2,0:2:0:0:
169,200,101170,1,2,0:2:0:0:
307,211,101336,2,0,L|322:127,1,85,0|8,0:0|0:0,0:0:0:0:
470,44,101670,6,0,L|485:127,2,85,6|10|10,3:2|0:2|3:2,0:0:0:0:
448,28,102170,1,2,3:2:0:0:
368,71,102336,1,2,0:2:0:0:
336,149,102503,1,10,3:2:0:0:
166,72,102670,1,2,0:2:0:0:
286,78,102836,1,2,0:2:0:0:
115,0,103003,6,0,L|139:189,1,170,4|8,3:2|0:0,0:0:0:0:
277,288,103503,2,0,P|297:236|213:234,1,170,0|0,3:0|0:0,0:0:0:0:
98,370,104003,1,2,0:2:0:0:
161,312,104170,1,2,0:2:0:0:
30,147,104336,5,6,3:2:0:0:
25,282,104503,1,2,0:2:0:0:
100,253,104670,1,2,0:2:0:0:
206,62,104836,5,2,0:2:0:0:
211,197,105003,1,2,0:2:0:0:
136,168,105170,1,2,0:2:0:0:
343,136,105336,2,0,L|238:122,1,85,2|0,0:0|0:0,0:0:0:0:
461,66,105670,5,6,3:2:0:0:
489,141,105836,1,2,0:2:0:0:
363,156,106003,1,10,0:2:0:0:
335,231,106169,1,2,3:2:0:0:
508,266,106336,2,0,P|487:246|401:223,1,85,2|2,0:2|0:2,0:0:0:0:
342,384,106670,2,0,P|369:375|432:312,1,85,2|0,0:0|0:0,0:0:0:0:
363,156,107003,5,10,3:2:0:0:
321,253,107170,1,2,0:2:0:0:
200,109,107336,1,10,0:0:0:0:
242,206,107503,1,0,3:0:0:0:
90,219,107670,5,2,0:2:0:0:
131,225,107836,1,2,3:2:0:0:
125,266,108003,1,2,0:2:0:0:
84,260,108170,1,10,3:2:0:0:
320,324,108336,6,0,B|274:281|204:310|204:310|165:369|67:358,1,255,4|8,0:0|0:0,0:0:0:0:
419,287,109420,2,0,P|443:301|486:308,2,42.5,2|2|2,0:0|0:0|0:0,0:0:0:0:
370,213,109670,6,0,B|394:131|313:53|313:53|201:183|337:345,1,475.999985473633,4|4,0:0|0:0,0:0:0:0:
433,38,133336,6,0,L|389:27,1,29.7499990921021,10|0,0:2|3:0,0:0:0:0:
342,88,133503,2,0,L|298:77,1,29.7499990921021,10|0,0:0|3:0,0:0:0:0:
222,0,133670,6,0,P|190:64|204:147,1,136,4|8,3:2|0:0,0:0:0:0:
280,217,134170,1,0,0:0:0:0:
280,217,134336,2,0,L|372:179,1,68,0|0,3:2|0:1,0:0:0:0:
443,330,134670,2,0,L|351:292,1,68,8|0,0:0|0:0,0:0:0:0:
269,347,135003,5,4,3:2:0:0:
269,347,135170,1,0,0:1:0:0:
129,312,135336,2,0,P|114:359|119:400,1,68,10|0,0:0|0:0,0:0:0:0:
215,273,135670,2,0,P|181:236|143:220,1,68,2|0,3:2|0:0,0:0:0:0:
205,366,136003,2,0,P|253:355|286:330,1,68,10|0,0:0|0:0,0:0:0:0:
71,154,136336,6,0,L|47:303,2,136,4|8|0,3:2|0:0|3:2,0:0:0:0:
71,154,137170,1,0,0:0:0:0:
126,55,137336,2,0,P|181:42|205:42,1,68,8|0,0:0|0:0,0:0:0:0:
266,169,137670,6,0,P|211:154|190:143,1,68,0|0,3:2|0:1,0:0:0:0:
293,0,138003,2,0,L|272:84,1,68,8|0,0:0|0:0,0:0:0:0:
324,226,138336,1,0,3:0:0:0:
291,157,138503,1,0,3:0:0:0:
426,69,138670,1,0,3:0:0:0:
393,156,138836,1,0,3:0:0:0:
506,211,139003,6,0,P|401:188|354:191,2,136,6|10|2,3:2|0:0|3:2,0:0:0:0:
506,208,139836,1,0,0:0:0:0:
491,315,140003,6,0,P|425:295|358:292,1,136,8|0,0:0|3:2,0:0:0:0:
358,292,140503,1,0,0:0:0:0:
286,216,140670,2,0,L|279:131,1,68,10|0,0:0|0:0,0:0:0:0:
343,318,141003,2,0,L|419:354,1,68,2|0,3:2|0:0,0:0:0:0:
224,316,141336,2,0,L|154:363,1,68,10|0,0:0|0:0,0:0:0:0:
58,302,141670,5,4,3:2:0:0:
128,241,141836,1,0,0:0:0:0:
143,156,142003,1,8,0:0:0:0:
22,95,142170,2,0,L|56:227,1,136,2|0,0:0|0:0,0:0:0:0:
202,30,142670,6,0,L|168:162,1,136,8|0,0:0|3:2,0:0:0:0:
168,161,143170,1,0,0:1:0:0:
276,247,143336,2,0,P|269:188|271:148,1,68,10|0,0:0|0:1,0:0:0:0:
300,39,143670,1,0,3:0:0:0:
316,92,143836,1,0,3:0:0:0:
410,132,144003,1,0,3:0:0:0:
434,81,144170,1,0,3:0:0:0:
512,183,144336,6,0,B|482:164|482:164|421:173|375:219,2,136,4|8|0,3:2|0:0|3:2,0:0:0:0:
476,268,145170,1,0,0:0:0:0:
480,272,145336,2,0,L|494:365,1,68,8|0,0:0|0:0,0:0:0:0:
368,285,145670,6,0,L|357:217,1,68,4|0,3:2|0:0,0:0:0:0:
270,80,146003,2,0,P|246:139|244:163,1,68,10|0,0:0|0:0,0:0:0:0:
371,199,146336,2,0,P|331:148|312:134,1,68,2|0,3:2|0:0,0:0:0:0:
217,226,146670,2,0,P|280:217|301:207,1,68,10|0,0:0|0:0,0:0:0:0:
137,128,147003,6,0,P|105:172|99:259,1,136,4|8,3:2|0:0,0:0:0:0:
97,251,147503,1,0,0:0:0:0:
160,379,147670,2,0,L|234:354,1,68,2|0,0:0|0:0,0:0:0:0:
340,296,148003,2,0,L|266:271,1,68,10|0,0:0|0:0,0:0:0:0:
188,248,148336,5,0,3:2:0:0:
458,356,148670,1,8,0:0:0:0:
481,287,148836,1,0,3:3:0:0:
420,224,149003,1,0,3:0:0:0:
392,151,149170,1,0,3:0:0:0:
467,85,149336,2,0,P|498:90|503:27,1,102,10|0,3:2|0:0,0:0:0:0:
441,0,149670,6,0,L|287:23,1,136,4|8,3:2|0:0,0:0:0:0:
239,102,150170,2,0,L|104:81,1,136,2|0,0:0|0:0,0:0:0:0:
13,66,150670,1,8,0:0:0:0:
13,66,150836,1,0,0:0:0:0:
58,157,151003,6,0,P|48:187|40:241,1,68,0|0,3:2|0:0,0:0:0:0:
85,321,151336,1,10,0:0:0:0:
198,254,151503,2,0,P|169:239|117:223,2,68,2|0|0,0:0|0:0|3:0,0:0:0:0:
266,175,152003,1,0,3:0:0:0:
358,185,152170,1,0,3:0:0:0:
195,90,152336,6,0,B|174:136|174:136|204:286,1,170,4|8,0:0|0:0,0:0:0:0:
60,316,152836,2,0,B|81:270|81:270|51:120,1,170,2|0,3:2|0:0,0:0:0:0:
187,28,153336,2,0,L|167:137,1,85,8|0,0:0|0:0,0:0:0:0:
198,257,153670,6,0,L|212:303,3,42.5,0|0|0|0,3:0|3:0|3:0|3:0,0:0:0:0:
284,181,154003,2,0,L|294:126,3,42.5,0|0|0|0,3:0|3:0|3:0|3:0,0:1:0:0:
382,245,154336,2,0,L|396:291,3,42.5,0|0|0|0,3:0|3:0|3:0|3:0,0:1:0:0:
432,149,154669,1,8,0:2:0:0:
436,128,154753,1,8,0:2:0:0:
441,107,154836,1,8,0:2:0:0:
446,86,154919,1,8,0:2:0:0:
450,65,155003,6,0,B|414:45|414:45|297:76,1,127.5,12|0,0:2|0:0,0:0:0:0:
324,69,155336,1,8,3:0:0:0:
158,42,155503,1,4,0:0:0:0:
373,192,155836,5,0,3:0:0:0:
450,319,156003,2,0,B|414:339|414:339|297:308,1,127.5,12|0,3:2|0:0,0:0:0:0:
324,315,156336,1,8,3:0:0:0:
158,342,156503,1,4,0:0:0:0:
102,114,156836,1,0,3:0:0:0:
102,114,157003,2,0,P|97:61|49:23,1,85,10|0,0:0|3:0,0:0:0:0:
132,193,157336,2,0,P|175:162|184:101,1,85,10|0,0:0|3:0,0:0:0:0:
417,70,157670,6,0,B|377:100|377:100|248:66,1,170,4|8,0:0|0:0,0:0:0:0:
350,186,158170,2,0,L|451:171,1,85,2|0,3:2|0:0,0:0:0:0:
311,286,158503,2,0,L|395:298,1,85,2|8,3:2|0:0,0:0:0:0:
219,367,158836,6,0,P|203:309|99:290,1,170,2|0,0:0|3:0,0:0:0:0:
31,159,159336,2,0,P|22:219|36:257,1,85,8|0,0:0|0:0,0:0:0:0:
88,375,159670,1,0,3:0:0:0:
88,375,159836,1,0,3:0:0:0:
108,194,160003,2,0,B|122:142|86:100|86:100|75:126,1,127.5,8|0,0:0|0:0,0:0:0:0:
116,206,160336,6,0,L|217:194,1,85,4|0,0:0|0:0,0:0:0:0:
259,118,160670,1,8,0:0:0:0:
168,291,160836,2,0,L|269:279,1,85,2|0,3:2|0:0,0:0:0:0:
410,359,161170,2,0,L|309:347,1,85,2|8,3:2|0:0,0:0:0:0:
252,280,161503,1,0,3:0:0:0:
394,263,161670,6,0,B|344:220|344:220|371:102,2,170,0|8|0,3:0|0:0|3:0,0:0:0:0:
394,263,162503,1,0,3:0:0:0:
362,105,162670,2,0,P|411:45|489:60,1,127.5,8|0,0:0|0:0,0:0:0:0:
367,118,163003,6,0,B|293:101|293:101|273:108|273:108|202:91,1,170,4|8,0:0|0:0,0:0:0:0:
120,13,163503,1,0,3:0:0:0:
55,182,163670,2,0,L|145:161,1,85,2|0,3:2|0:0,0:0:0:0:
238,276,164003,2,0,L|148:255,1,85,8|0,0:0|0:1,0:0:0:0:
390,349,164336,5,12,0:0:0:0:
370,193,164503,1,0,3:0:0:0:
238,276,164670,1,8,0:0:0:0:
252,272,164836,1,0,0:1:0:0:
370,193,165003,1,8,0:0:0:0:
370,193,165086,1,8,0:0:0:0:
370,193,165170,2,0,L|433:175,1,42.5,0|0,3:0|3:0,0:0:0:0:
291,83,165336,1,8,3:2:0:0:
291,83,165419,1,0,3:0:0:0:
291,83,165503,2,0,L|228:65,1,42.5,0|0,3:0|3:0,0:0:0:0:
97,151,165670,6,0,P|159:162|222:177,1,127.5,12|0,0:2|0:0,0:0:0:0:
222,177,166003,1,8,3:0:0:0:
115,261,166170,1,4,0:0:0:0:
362,372,166503,5,0,3:0:0:0:
362,372,166670,2,0,P|372:293|386:225,1,127.5,12|0,3:2|0:0,0:0:0:0:
381,246,167003,1,8,3:0:0:0:
265,318,167170,1,4,0:0:0:0:
369,51,167503,1,0,0:0:0:0:
369,51,167670,2,0,L|456:35,1,85,2|0,0:0|3:0,0:0:0:0:
423,160,168003,2,0,L|506:175,1,85,8|0,0:0|3:0,0:0:0:0:
212,146,168336,6,0,P|230:81|132:37,1,170,4|8,0:0|0:0,0:0:0:0:
222,159,168836,2,0,L|316:148,1,85,2|0,0:0|3:0,0:0:0:0:
184,244,169170,2,0,L|90:233,1,85,2|8,3:2|0:0,0:0:0:0:
111,110,169503,1,2,0:0:0:0:
193,257,169670,6,0,P|261:280|369:237,1,170,4|8,0:0|0:0,0:0:0:0:
352,252,170170,1,0,0:0:0:0:
508,301,170336,2,0,P|472:254|468:201,1,85,0|0,3:0|0:0,0:0:0:0:
309,81,170670,2,0,P|338:148|401:125,1,127.5,8|0,0:0|0:0,0:0:0:0:
318,63,171003,6,0,B|307:42|289:30|289:30|157:55,1,170,4|8,0:0|0:0,0:0:0:0:
327,46,171503,2,0,B|316:25|298:13|298:13|166:38,1,170,0|0,0:0|3:0,0:0:0:0:
118,177,172003,1,8,0:0:0:0:
26,130,172170,1,0,0:1:0:0:
107,282,172336,6,0,B|168:271|168:271|202:239|202:239|279:227,1,170,4|8,0:0|0:0,0:0:0:0:
113,295,172836,2,0,B|174:284|174:284|208:252|208:252|285:240,1,170,0|0,0:1|3:0,0:0:0:0:
297,353,173336,1,8,0:0:0:0:
297,353,173420,1,0,3:0:0:0:
297,353,173503,2,0,L|243:346,1,42.5,8|8,3:0|3:0,0:0:0:0:
415,341,173670,6,0,L|435:227,1,85,4|0,0:0|0:0,0:0:0:0:
452,162,174003,1,0,3:0:0:0:
261,151,174170,2,0,P|312:175|372:157,1,85,4|0,0:0|3:0,0:0:0:0:
474,58,174503,1,0,3:0:0:0:
339,1,174670,2,0,P|325:48|318:105,1,85,4|0,0:0|3:0,0:0:0:0:
241,254,175003,5,4,0:0:0:0:
131,105,175170,1,0,3:0:0:0:
152,287,175336,1,4,0:0:0:0:
220,72,175503,1,0,3:0:0:0:
63,320,175670,5,0,3:0:0:0:
63,320,175753,1,0,3:0:0:0:
63,320,175836,1,0,3:0:0:0:
63,320,175920,1,0,3:0:0:0:
63,320,176003,2,0,L|40:243,1,42.5,8|8,3:0|3:0,0:0:0:0:
154,212,176170,2,0,L|167:172,1,42.5,8|8,3:0|3:0,0:0:0:0:
25,66,176336,6,0,B|38:39|58:26|58:26|132:6|219:67,1,203.999993774414,4|8,1:2|0:0,0:0:0:0:
261,203,176836,1,0,0:0:0:0:
378,82,177004,2,0,P|353:37|309:13,1,101.999996887207,0|0,3:0|3:0,0:0:0:0:
353,176,177336,2,0,P|379:132|378:82,1,101.999996887207,8|0,0:0|3:0,0:0:0:0:
261,203,177670,2,0,P|320:200|365:160,1,101.999996887207,0|0,3:0|0:0,0:0:0:0:
510,229,178003,5,10,0:0:0:0:
447,157,178169,1,0,0:0:0:0:
385,338,178336,1,2,3:2:0:0:
479,319,178503,1,0,3:0:0:0:
354,176,178669,1,10,0:0:0:0:
323,266,178836,1,0,3:0:0:0:
233,104,179003,6,0,L|211:325,1,203.999993774414,4|8,0:2|0:0,0:0:0:0:
51,384,179503,2,0,B|-12:349|6:265|6:265|60:289|61:346,1,203.999993774414,2|0,0:0|3:0,0:0:0:0:
229,279,180003,2,0,P|178:314|124:289,1,101.999996887207,8|0,0:0|3:0,0:0:0:0:
233,104,180336,2,0,P|288:130|294:189,1,101.999996887207,0|0,3:0|0:0,0:0:0:0:
161,226,180670,5,10,0:0:0:0:
80,189,180836,1,0,3:0:0:0:
233,104,181003,1,2,3:0:0:0:
152,141,181169,1,0,3:0:0:0:
79,9,181336,1,10,0:0:0:0:
160,46,181502,1,0,0:0:0:0:
312,0,181670,6,0,B|281:54|281:54|324:207,1,203.999993774414,4|8,0:2|0:0,0:0:0:0:
454,300,182170,2,0,B|398:296|372:236|372:236|324:216|281:234,1,203.999993774414,2|0,0:0|3:0,0:0:0:0:
164,283,182670,1,8,0:0:0:0:
164,283,182836,1,0,3:0:0:0:
289,365,183003,6,0,L|315:218,1,101.999996887207,0|0,3:0|3:1,0:0:0:0:
327,139,183336,1,8,0:0:0:0:
512,181,183503,2,0,B|484:160|474:127|474:127|396:105|301:134,1,203.999993774414,2|0,0:0|3:0,0:0:0:0:
198,40,184003,2,0,P|287:55|321:7,1,152.999995330811,8|0,0:0|0:0,0:0:0:0:
170,29,184336,6,0,L|-13:150,1,203.999993774414,4|8,0:2|0:0,0:0:0:0:
198,40,184836,2,0,L|27:152,1,203.999993774414,2|0,0:0|3:0,0:0:0:0:
134,283,185336,2,0,P|179:237|126:171,1,152.999995330811,8|0,0:0|0:0,0:0:0:0:
101,273,185670,6,0,P|87:331|78:382,1,101.999996887207,4|0,0:0|0:1,0:0:0:0:
233,154,186003,2,0,P|247:212|256:263,1,101.999996887207,8|0,0:0|0:0,0:0:0:0:
381,384,186336,1,0,3:0:0:0:
338,292,186503,1,0,3:0:0:0:
502,277,186670,2,0,B|468:246|468:246|394:263,1,101.999996887207,8|0,0:0|3:0,0:0:0:0:
309,149,187003,5,6,0:2:0:0:
443,94,187170,1,2,0:2:0:0:
423,237,187336,1,10,0:2:0:0:
344,71,187503,2,0,L|324:180,1,101.999996887207,2|0,0:0|3:0,0:0:0:0:
196,101,187836,2,0,L|177:0,1,101.999996887207,2|8,3:2|0:0,0:0:0:0:
44,126,188170,1,0,3:0:0:0:
44,126,188253,1,0,3:0:0:0:
44,126,188336,6,0,P|149:124|222:192,2,203.999993774414,4|8|0,3:2|0:0|3:0,0:0:0:0:
0,208,189170,1,0,3:0:0:0:
72,317,189336,2,0,P|97:276|103:214,1,101.999996887207,8|0,0:0|3:0,0:0:0:0:
140,1,189670,6,0,L|155:102,1,101.999996887207,4|0,0:2|0:0,0:0:0:0:
294,153,190003,1,8,0:0:0:0:
294,153,190170,2,0,L|308:52,1,101.999996887207,2|0,0:0|3:0,0:0:0:0:
465,0,190503,2,0,P|436:84|441:238,1,203.999993774414,2|0,3:2|3:0,0:0:0:0:
512,338,191003,6,0,P|407:303|336:341,1,152.999995330811,0|0,3:0|0:0,0:0:0:0:
296,367,191336,2,0,P|238:366|183:358,1,101.999996887207,8|0,0:0|0:0,0:0:0:0:
115,155,191670,1,0,3:0:0:0:
0,279,191836,1,0,3:0:0:0:
194,360,192003,1,8,0:0:0:0:
111,301,192170,1,0,3:0:0:0:
305,236,192336,6,0,B|348:215|306:157|259:180|246:256|149:233,1,203.999993774414,4|8,0:2|0:0,0:0:0:0:
307,104,192836,2,0,P|365:128|416:175,1,101.999996887207,2|0,0:0|3:0,0:0:0:0:
275,0,193170,2,0,P|217:24|166:71,1,101.999996887207,2|8,3:2|0:0,0:0:0:0:
49,128,193503,6,0,P|40:52|22:-4,1,101.999996887207,2|0,3:2|0:0,0:0:0:0:
33,27,193836,1,2,0:0:0:0:
189,247,194003,2,0,P|198:171|216:115,1,101.999996887207,8|0,0:0|0:0,0:0:0:0:
81,314,194336,1,0,3:0:0:0:
57,331,194503,1,0,3:0:0:0:
241,358,194670,2,0,L|382:326,1,101.999996887207,8|0,0:0|3:0,0:0:0:0:
465,202,195003,5,6,0:2:0:0:
315,305,195170,1,2,0:2:0:0:
480,384,195336,1,10,0:2:0:0:
360,210,195503,2,0,P|281:195|230:191,1,101.999996887207,2|0,0:0|3:0,0:0:0:0:
401,54,195836,2,0,P|480:39|531:35,1,101.999996887207,2|8,3:2|0:0,0:0:0:0:
501,36,196170,1,2,3:2:0:0:
347,121,196336,5,4,0:0:0:0:
385,21,196503,1,0,3:0:0:0:
264,172,196670,1,4,0:0:0:0:
230,40,196836,1,0,3:0:0:0:
89,87,197003,1,8,0:0:0:0:
89,87,197086,1,8,0:0:0:0:
89,87,197170,2,0,L|27:71,1,50.9999984436036,8|0,0:0|3:0,0:0:0:0:
183,200,197336,2,0,L|195:249,1,50.9999984436036,0|0,3:0|3:0,0:0:0:0:
52,298,197503,2,0,L|39:347,1,50.9999984436036,0|0,3:0|3:0,0:0:0:0:
246,384,197670,6,0,P|163:342|40:371,1,203.999993774414,4|0,0:0|3:0,0:0:0:0:
439,321,198170,6,0,P|399:236|284:183,1,203.999993774414,4|0,0:0|3:0,0:0:0:0:
183,200,198670,1,8,0:0:0:0:
183,200,198836,1,2,0:0:0:0:
113,4,199003,6,0,L|80:139,1,101.999996887207,2|0,3:2|0:0,0:0:0:0:
238,277,199336,2,0,L|213:177,1,101.999996887207,10|0,0:0|0:0,0:0:0:0:
325,7,199670,1,2,3:2:0:0:
286,108,199836,1,0,3:0:0:0:
421,135,200003,2,0,P|466:91|405:53,1,152.999995330811,10|0,0:2|0:0,0:0:0:0:
399,164,200336,6,0,P|418:238|430:344,1,152.999995330811,4|0,0:0|0:0,0:0:0:0:
418,347,200670,1,8,0:0:0:0:
232,344,200836,2,0,B|253:275|339:275|339:275|326:333|271:345,1,203.999993774414,2|0,0:2|3:0,0:0:0:0:
206,360,201336,1,8,0:0:0:0:
138,304,201503,1,0,3:0:0:0:
200,216,201670,6,0,L|215:101,1,101.999996887207,4|0,0:2|0:1,0:0:0:0:
316,4,202003,1,10,0:2:0:0:
289,76,202170,1,0,0:0:0:0:
412,164,202336,1,2,3:2:0:0:
386,65,202503,1,0,3:0:0:0:
512,100,202670,1,10,0:2:0:0:
512,100,202836,1,0,0:0:0:0:
313,99,203003,6,0,L|82:31,1,203.999993774414,4|8,0:0|0:0,0:0:0:0:
7,161,203503,2,0,L|209:106,1,203.999993774414,2|0,0:0|3:0,0:0:0:0:
313,210,204003,2,0,P|234:204|177:228,1,101.999996887207,8|0,0:0|3:0,0:0:0:0:
76,285,204336,5,4,0:2:0:0:
219,240,204503,1,2,0:0:0:0:
50,276,204670,1,8,0:0:0:0:
223,335,204836,2,0,P|372:316|454:332,1,203.999993774414,2|0,0:0|3:0,0:0:0:0:
476,180,205336,2,0,P|400:196|465:249,1,152.999995330811,8|0,0:0|0:0,0:0:0:0:
505,201,205670,6,0,L|464:-32,1,203.999993774414,4|8,0:0|0:0,0:0:0:0:
349,0,206170,2,0,B|322:51|324:98|324:98|289:55|221:31,1,203.999993774414,2|0,0:0|3:0,0:0:0:0:
143,15,206670,1,10,0:0:0:0:
143,15,206836,1,0,3:0:0:0:
6,164,207003,5,6,0:2:0:0:
100,100,207170,1,0,0:0:0:0:
234,229,207336,1,10,0:0:0:0:
135,182,207503,1,0,0:0:0:0:
42,292,207670,1,0,3:0:0:0:
42,292,207753,1,0,3:0:0:0:
42,292,207836,1,0,3:0:0:0:
123,367,208003,2,0,L|260:343,1,101.999996887207,8|0,0:0|3:0,0:0:0:0:
384,372,208337,5,6,0:2:0:0:
322,198,208503,1,2,0:2:0:0:
203,339,208670,1,10,0:2:0:0:
403,267,208836,2,0,P|422:217|430:135,1,101.999996887207,2|0,0:0|3:0,0:0:0:0:
196,251,209170,2,0,P|204:301|222:348,1,101.999996887207,2|8,3:2|0:0,0:0:0:0:
309,325,209503,2,0,B|319:296|313:246,1,50.9999984436036,0|0,3:0|3:0,0:0:0:0:
282,125,209670,6,0,P|183:92|88:151,2,203.999993774414,4|8|2,0:2|0:0|3:2,0:0:0:0:
403,184,210503,1,0,3:0:0:0:
403,184,210670,2,0,L|423:283,1,101.999996887207,10|0,0:0|3:0,0:0:0:0:
266,143,211003,6,0,L|286:43,1,101.999996887207,4|0,0:0|0:0,0:0:0:0:
286,43,211336,1,8,0:0:0:0:
79,17,211503,2,0,P|164:0|194:0,1,101.999996887207,2|0,0:0|3:0,0:0:0:0:
266,143,211836,2,0,P|181:126|151:126,1,101.999996887207,2|8,3:2|0:0,0:0:0:0:
165,125,212170,1,0,3:0:0:0:
20,328,212336,6,0,P|106:302|257:303,1,203.999993774414,4|8,0:2|0:0,0:0:0:0:
78,185,213003,1,0,3:0:0:0:
0,226,213170,1,0,3:0:0:0:
153,107,213336,2,0,L|273:69,1,101.999996887207,8|0,0:0|3:0,0:0:0:0:
391,19,213670,5,6,0:2:0:0:
379,203,213836,1,2,0:2:0:0:
226,100,214003,1,10,0:2:0:0:
422,130,214170,2,0,L|534:97,1,101.999996887207,2|0,0:0|3:0,0:0:0:0:
309,233,214503,2,0,L|197:200,1,101.999996887207,2|8,3:2|0:0,0:0:0:0:
512,314,214836,6,0,B|414:283|412:385|270:332,1,203.999993774414,2|0,3:2|0:0,0:0:0:0:
239,209,215336,2,0,P|187:246|142:284,1,101.999996887207,8|0,0:0|0:0,0:0:0:0:
84,376,215670,1,0,3:2:0:0:
84,376,215753,1,0,3:0:0:0:
84,376,215836,1,0,3:2:0:0:
27,264,216003,2,0,L|4:148,1,101.999996887207,10|2,0:0|3:2,0:0:0:0:
154,0,216336,6,0,B|124:13|104:42|104:42|104:113|137:197,1,203.999993774414,4|8,0:0|0:0,0:0:0:0:
324,119,216836,2,0,P|255:86|212:80,1,101.999996887207,2|0,0:2|3:0,0:0:0:0:
263,314,217170,2,0,P|326:270|352:236,1,101.999996887207,2|8,3:2|0:0,0:0:0:0:
342,251,217503,1,0,3:0:0:0:
496,130,217670,6,0,L|475:254,1,101.999996887207,6|0,3:2|3:0,0:0:0:0:
359,352,218003,2,0,L|341:251,1,101.999996887207,0|0,3:2|3:0,0:0:0:0:
253,80,218336,1,0,3:0:0:0:
224,270,218503,1,0,3:0:0:0:
360,132,218670,1,0,3:0:0:0:
169,164,218836,1,0,3:0:0:0:
342,251,219003,5,6,0:2:0:0:
224,270,219170,1,2,0:2:0:0:
106,289,219336,1,10,0:2:0:0:
51,153,219503,2,0,L|162:141,1,101.999996887207,2|0,0:0|3:0,0:0:0:0:
282,20,219836,2,0,L|171:8,1,101.999996887207,2|8,3:2|0:0,0:0:0:0:
398,154,220170,6,0,B|456:111|428:30|428:30|377:61|384:117,1,203.999993774414,0|0,3:0|0:0,0:0:0:0:
353,227,220670,2,0,P|406:270|455:283,1,101.999996887207,8|0,0:0|0:0,0:0:0:0:
506,191,221003,1,0,3:0:0:0:
506,191,221170,1,0,3:0:0:0:
465,375,221336,2,0,L|336:336,1,101.999996887207,8|0,0:0|3:0,0:0:0:0:
251,172,221670,5,6,0:2:0:0:
183,358,221836,1,2,0:2:0:0:
378,323,222003,1,10,0:2:0:0:
163,245,222170,2,0,L|48:214,1,101.999996887207,2|0,0:2|3:2,0:0:0:0:
308,108,222503,2,0,L|423:77,1,101.999996887207,2|8,3:2|0:0,0:0:0:0:
168,53,222836,1,0,3:0:0:0:
246,282,223003,5,4,3:2:0:0:
246,282,223086,1,0,3:0:0:0:
246,282,223170,1,0,3:0:0:0:
246,282,223253,1,0,3:0:0:0:
246,282,223336,2,0,P|281:221|286:151,1,101.999996887207,8|0,0:0|3:0,0:0:0:0:
190,72,223670,1,0,3:0:0:0:
190,72,223753,1,0,3:0:0:0:
190,73,223837,2,0,L|116:52,1,50.9999984436036,8|8,0:0|0:0,0:0:0:0:
27,164,224003,2,0,L|76:150,1,50.9999984436036,8|8,0:0|0:0,0:0:0:0:
241,189,224170,2,0,L|167:168,1,50.9999984436036,8|8,0:0|0:0,0:0:0:0:
52,350,224336,6,0,P|73:283|75:248,2,101.999996887207,12|0|0,0:0|3:0|3:0,0:0:0:0:
269,154,224836,2,0,P|274:204|292:252,2,101.999996887207,8|0|0,0:0|3:0|3:0,0:0:0:0:
362,33,225336,5,8,0:0:0:0:
464,73,225503,1,0,3:0:0:0:
498,176,225670,1,0,3:0:0:0:
353,47,225836,5,8,0:0:0:0:
433,120,226003,1,0,3:0:0:0:
428,229,226170,1,0,3:0:0:0:
266,167,226336,6,0,L|149:151,1,101.999996887207,8|0,0:0|3:0,0:0:0:0:
135,173,226586,1,0,3:0:0:0:
135,173,226670,1,0,3:0:0:0:
282,347,226836,2,0,L|399:331,1,101.999996887207,8|0,0:0|3:0,0:0:0:0:
413,353,227086,1,0,3:0:0:0:
413,353,227170,1,0,3:0:0:0:
164,265,227336,5,8,0:0:0:0:
266,112,227503,1,0,3:0:0:0:
347,276,227670,1,0,3:0:0:0:
277,25,227836,5,8,0:0:0:0:
256,207,228003,1,0,3:0:0:0:
424,134,228170,1,0,3:0:0:0:
145,10,228336,5,12,0:0:0:0:
145,10,228503,1,0,3:0:0:0:
81,248,228670,5,12,0:0:0:0:
81,248,228836,1,0,3:0:0:0:
373,239,229003,5,8,0:0:0:0:
152,138,229170,1,0,3:0:0:0:
152,138,229253,1,0,3:0:0:0:
152,138,229336,1,0,3:0:0:0:
30,350,229503,1,14,0:0:0:0:
256,192,229586,12,0,234670,0:0:0:0:
