osu file format v14

[General]
AudioFilename: audio.mp3
AudioLeadIn: 0
PreviewTime: 62933
Countdown: 0
SampleSet: Soft
StackLeniency: 0.7
Mode: 2
LetterboxInBreaks: 0
WidescreenStoryboard: 1

[Editor]
DistanceSpacing: 1.2
BeatDivisor: 16
GridSize: 16
TimelineZoom: 3.599998

[Metadata]
Title:Sakura no Uta
TitleUnicode:櫻ノ詩
Artist:Hana
ArtistUnicode:はな
Creator:-Joakh
Version:Ymiir's Overdose
Source:サクラノ詩 -櫻の森の上を舞う-
Tags:sakura no mori no ue o mau - metrowing makura 枕 visual video game novel eroge galgame japanese female vocalist Greaper Kukkai [_-Kukkai-_] -Luminate Jemzuu AJamez Rew0825 Ymiir -wwwww Fii
BeatmapID:2834416
BeatmapSetID:1093379

[Difficulty]
HPDrainRate:6
CircleSize:4.1
OverallDifficulty:9.2
ApproachRate:9.2
SliderMultiplier:1.8
SliderTickRate:2

[Events]
//Background and Video events
0,0,"BG8.jpg",0,0
//Break Periods
//Storyboard Layer 0 (Background)
//Storyboard Layer 1 (Fail)
//Storyboard Layer 2 (Pass)
//Storyboard Layer 3 (Foreground)
//Storyboard Layer 4 (Overlay)
//Storyboard Sound Samples

[TimingPoints]
330,333.333333333333,4,2,1,60,1,0
330,-111.111111111111,4,2,1,60,0,0
10329,-100,4,2,1,60,0,0
10996,-95.2380952380952,4,2,1,60,0,0
18996,-100,4,2,1,60,0,0
22996,-100,4,2,1,65,0,0
31829,-100,4,2,1,60,0,0
33329,-100,4,2,1,60,0,0
38663,-100,4,2,1,60,0,0
41663,-100,4,2,1,60,0,0
44329,-100,4,2,1,65,0,0
49579,-100,4,2,1,5,0,0
49663,-100,4,2,1,60,0,0
49913,-100,4,2,1,5,0,0
49996,-100,4,2,1,60,0,0
52246,-100,4,2,1,5,0,0
52329,-100,4,2,1,60,0,0
54996,-100,4,2,1,65,0,0
60329,-90.9090909090909,4,2,1,65,0,0
65663,-83.3333333333333,4,2,1,75,0,1
65996,-90.9090909090909,4,2,1,75,0,1
72329,-76.9230769230769,4,2,1,75,0,1
72663,-90.9090909090909,4,2,1,75,0,1
77663,-83.3333333333333,4,2,1,75,0,1
77913,-90.9090909090909,4,2,1,25,0,1
77996,-90.9090909090909,4,2,1,75,0,1
78329,-83.3333333333333,4,2,1,75,0,1
78579,-90.9090909090909,4,2,1,25,0,1
78663,-90.9090909090909,4,2,1,75,0,1
78996,-83.3333333333333,4,2,1,75,0,1
79329,-90.9090909090909,4,2,1,75,0,1
81579,-90.9090909090909,4,2,1,5,0,1
81663,-90.9090909090909,4,2,1,75,0,1
84329,-90.9090909090909,4,2,1,75,0,1
84663,-90.9090909090909,4,2,1,75,0,1
85579,-90.9090909090909,4,2,1,5,0,1
85663,-90.9090909090909,4,2,1,75,0,1
92329,-93.4579439252336,4,2,1,80,0,0
101663,-100,4,2,1,60,0,0

[Colours]
Combo1 : 192,107,86
Combo2 : 255,108,255
Combo3 : 106,146,238
Combo4 : 165,111,255

[HitObjects]
311,231,330,6,0,P|248:110|318:56,1,242.999992584229,2|2,0:0|0:0,0:0:0:0:
440,51,996,1,2,0:0:0:0:
329,145,1163,1,2,0:0:0:0:
466,197,1329,1,2,0:0:0:0:
208,224,1829,1,0,0:0:0:0:
335,292,1996,6,0,P|283:316|239:317,1,80.9999975280763,2|0,0:0|0:0,0:0:0:0:
379,226,2329,2,0,L|367:141,1,80.9999975280763,2|0,0:0|0:0,0:0:0:0:
244,353,2663,2,0,P|296:329|343:329,1,80.9999975280763,2|0,0:0|0:0,0:0:0:0:
183,246,2996,5,2,0:0:0:0:
81,256,3163,1,0,0:0:0:0:
51,164,3329,1,2,0:0:0:0:
190,265,3496,5,2,0:0:0:0:
88,275,3663,1,0,0:0:0:0:
92,154,3829,1,0,0:0:0:0:
227,122,3996,1,2,0:0:0:0:
389,341,4496,1,0,0:0:0:0:
502,243,4663,6,0,P|449:258|405:250,1,80.9999975280763,2|0,0:0|0:0,0:0:0:0:
313,231,4996,2,0,P|347:186|384:166,1,80.9999975280763,2|2,0:0|0:0,0:0:0:0:
503,200,5329,2,0,P|459:232|415:240,1,80.9999975280763,2|0,0:0|0:0,0:0:0:0:
182,151,5663,5,2,0:0:0:0:
327,115,5829,1,0,0:0:0:0:
244,60,5996,1,2,0:0:0:0:
349,101,6163,1,0,0:0:0:0:
252,242,6329,1,2,0:0:0:0:
236,80,6496,1,2,0:0:0:0:
350,207,6663,1,2,0:0:0:0:
88,352,7163,5,0,0:0:0:0:
193,340,7329,1,2,0:0:0:0:
216,228,7496,1,0,0:0:0:0:
88,352,7663,1,2,0:0:0:0:
42,256,7829,1,0,0:0:0:0:
121,165,7996,1,2,0:0:0:0:
309,144,8329,6,0,L|322:228,1,80.9999975280763,2|0,0:0|0:0,0:0:0:0:
229,175,8662,1,0,0:0:0:0:
349,72,8829,2,0,L|335:156,1,80.9999975280763,2|0,0:0|0:0,0:0:0:0:
177,160,9162,1,0,0:0:0:0:
319,41,9329,1,2,1:0:0:0:
397,239,9496,2,0,L|342:225,1,40.4999987640381,0|0,1:0|0:0,0:0:0:0:
174,309,9663,2,0,L|86:318,1,80.9999975280763,6|0,0:0|1:0,0:0:0:0:
343,347,9996,2,0,L|425:339,1,80.9999975280763,8|0,0:0|1:0,0:0:0:0:
186,109,10329,6,0,L|120:103,1,45,8|0,0:0|0:0,0:0:0:0:
301,112,10496,2,0,L|364:102,1,45,8|8,0:0|0:0,0:0:0:0:
148,221,10663,2,0,P|118:216|85:211,1,45,0|0,1:0|1:0,0:0:0:0:
327,223,10829,2,0,P|357:218|390:213,1,45,0|0,1:0|1:0,0:0:0:0:
94,345,10996,6,0,P|26:262|73:193,1,188.999994232178,6|8,1:0|0:0,0:0:0:0:
143,188,11496,1,0,1:0:0:0:
272,163,11662,2,0,L|288:53,1,94.499997116089,10|2,0:0|1:0,0:0:0:0:
48,19,11996,5,10,0:0:0:0:
172,139,12162,1,0,1:0:0:0:
29,239,12329,1,12,0:3:0:0:
161,358,12495,1,0,1:0:0:0:
386,343,12662,6,0,P|452:336|494:319,1,94.499997116089,10|0,0:0|1:0,0:0:0:0:
334,258,12996,2,0,L|323:160,1,94.499997116089,10|0,0:0|1:0,0:0:0:0:
470,89,13329,2,0,P|404:82|365:63,1,94.499997116089,10|0,0:0|0:0,0:0:0:0:
82,329,13662,6,0,L|67:218,1,94.499997116089,14|0,0:0|0:0,0:0:0:0:
204,211,13995,1,10,0:0:0:0:
62,207,14162,2,0,L|86:97,1,94.499997116089,2|8,1:0|0:0,0:0:0:0:
230,16,14495,1,0,1:0:0:0:
62,207,14662,5,10,0:0:0:0:
21,124,14829,1,0,1:0:0:0:
50,36,14996,1,12,0:3:0:0:
147,1,15162,1,0,1:0:0:0:
381,343,15329,6,0,L|394:241,1,94.499997116089,10|2,0:0|1:0,0:0:0:0:
247,193,15662,2,0,P|313:186|355:164,1,94.499997116089,10|2,0:0|1:0,0:0:0:0:
186,126,15996,2,0,L|175:22,1,94.499997116089,10|0,0:3|1:0,0:0:0:0:
428,294,16329,5,14,0:0:0:0:
303,249,16495,1,2,1:0:0:0:
282,114,16663,1,10,0:0:0:0:
404,353,16829,1,2,1:0:0:0:
272,241,16995,1,10,0:0:0:0:
414,123,17163,1,2,1:0:0:0:
154,194,17329,5,10,0:0:0:0:
200,289,17496,1,0,1:0:0:0:
302,310,17662,1,8,0:0:0:0:
315,124,17829,1,2,1:0:0:0:
146,204,17996,1,10,0:0:0:0:
175,292,18163,1,2,1:0:0:0:
272,327,18329,5,10,0:0:0:0:
139,255,18496,1,2,1:0:0:0:
273,158,18663,1,10,0:0:0:0:
116,89,18829,1,0,1:0:0:0:
345,246,18996,6,0,L|434:220,1,90,14|0,0:3|1:0,0:0:0:0:
296,118,19329,1,8,0:0:0:0:
440,236,19496,2,0,L|458:141,1,90,2|8,1:0|0:0,0:0:0:0:
305,127,19829,1,0,1:0:0:0:
469,158,19996,2,0,L|431:75,1,90,10|0,0:0|1:0,0:0:0:0:
193,93,20329,6,0,L|99:98,1,90,12|0,0:3|1:0,0:0:0:0:
330,276,20663,2,0,L|424:281,1,90,10|4,0:0|1:3,0:0:0:0:
140,337,20996,1,8,0:0:0:0:
88,311,21079,1,8,0:0:0:0:
71,255,21162,1,8,0:0:0:0:
99,204,21245,1,8,0:0:0:0:
267,199,21329,1,0,1:0:0:0:
319,173,21412,1,0,1:0:0:0:
336,117,21495,1,0,1:0:0:0:
308,66,21578,1,0,1:0:0:0:
107,43,21663,6,0,L|-3:52,2,90,2|2|2,0:0|0:0|0:0,0:0:0:0:
259,181,22163,2,0,L|369:190,2,90,2|2|2,0:0|0:0|0:0,0:0:0:0:
115,317,22663,2,0,L|209:309,1,90,2|2,0:0|0:0,0:0:0:0:
450,34,22996,6,0,P|499:99|440:171,1,180,4|0,1:0|1:0,0:0:0:0:
313,359,23496,2,0,P|263:276|327:232,1,180
450,357,23996,1,0,1:0:0:0:
471,264,24162,1,0,0:0:0:0:
313,359,24329,1,0,1:0:0:0:
450,357,24495,1,0,0:0:0:0:
128,304,24662,6,0,L|105:202,1,90,2|0,1:0|0:0,0:0:0:0:
232,160,24996,2,0,P|172:154|119:125,1,90,2|0,1:0|0:0,0:0:0:0:
7,95,25329,2,0,P|67:89|120:60,1,90,2|0,1:0|0:0,0:0:0:0:
320,36,25662,6,0,P|371:88|298:171,1,180,2|2,1:0|1:0,0:0:0:0:
173,321,26162,1,0,0:0:0:0:
140,234,26329,1,2,1:0:0:0:
171,146,26495,1,0,0:0:0:0:
304,83,26662,1,2,1:0:0:0:
319,208,26829,1,0,0:0:0:0:
156,57,26996,5,0,1:0:0:0:
128,185,27162,1,0,0:0:0:0:
304,83,27329,1,0,1:0:0:0:
319,208,27496,1,0,0:0:0:0:
156,57,27662,5,2,1:0:0:0:
304,83,27829,1,0,1:0:0:0:
123,223,27996,2,0,L|240:204,1,90,10|0,0:0|0:0,0:0:0:0:
449,321,28329,6,0,P|498:241|476:194,1,135,6|0,1:0|0:0,0:0:0:0:
422,213,28662,2,0,P|376:222|294:215,1,90,2|0,1:0|0:0,0:0:0:0:
296,107,28996,1,2,1:0:0:0:
393,98,29162,1,0,0:0:0:0:
142,306,29329,2,0,P|94:226|180:155,1,180,2|0,1:0|1:0,0:0:0:0:
266,233,29829,1,0,0:0:0:0:
140,212,29996,5,2,1:0:0:0:
118,136,30162,1,0,0:0:0:0:
282,305,30329,2,0,P|330:225|244:154,1,180,2|2,1:0|1:0,0:0:0:0:
148,234,30829,1,0,0:0:0:0:
419,145,30996,6,0,L|430:37,1,90,2|0,1:0|0:0,0:0:0:0:
294,114,31329,1,0,1:0:0:0:
441,256,31496,2,0,L|452:148,1,90,2|0,0:0|1:0,0:0:0:0:
316,209,31829,1,0,0:0:0:0:
180,348,31996,5,2,1:0:0:0:
119,281,32162,1,0,0:0:0:0:
102,200,32329,1,0,1:0:0:0:
153,129,32495,1,0,0:0:0:0:
236,97,32662,5,2,1:0:0:0:
103,60,32829,1,0,0:0:0:0:
248,53,32996,1,2,1:0:0:0:
18,34,33162,1,10,0:0:0:0:
271,211,33329,1,2,1:0:0:0:
153,129,33496,1,0,1:0:0:0:
450,20,33662,6,0,P|500:105|453:157,1,180,4|0,1:0|1:0,0:0:0:0:
313,359,34162,1,0,0:0:0:0:
280,271,34328,1,0,1:0:0:0:
314,184,34495,1,0,0:0:0:0:
450,357,34663,5,0,1:0:0:0:
471,264,34829,1,0,0:0:0:0:
313,359,34996,1,0,1:0:0:0:
450,357,35163,1,0,0:0:0:0:
190,63,35329,6,0,P|166:113|140:145,1,90,2|0,1:0|0:0,0:0:0:0:
283,182,35662,2,0,P|292:240|309:289,1,90,2|0,1:0|0:0,0:0:0:0:
151,266,35996,2,0,P|94:291|40:304,1,90,2|0,1:0|0:0,0:0:0:0:
315,373,36329,6,0,P|370:364|454:270,1,180,2|2,1:0|1:0,0:0:0:0:
321,247,36829,1,0,0:0:0:0:
461,232,36996,1,2,1:0:0:0:
461,232,37162,1,0,0:0:0:0:
297,107,37329,5,2,1:0:0:0:
218,85,37496,1,0,0:0:0:0:
297,107,37662,1,0,1:0:0:0:
437,81,37829,1,0,0:0:0:0:
185,307,37996,5,2,1:0:0:0:
325,333,38163,1,8,0:0:0:0:
407,258,38329,2,0,P|430:209|443:149,1,90,2|0,1:0|0:0,0:0:0:0:
185,307,38662,1,2,1:0:0:0:
303,330,38829,1,8,0:0:0:0:
38,370,38996,6,0,P|15:321|2:261,1,90,4|0,1:0|0:0,0:0:0:0:
134,192,39329,1,0,1:0:0:0:
33,168,39496,1,2,0:0:0:0:
196,100,39662,2,0,P|219:51|232:-9,1,90,0|0,1:0|0:0,0:0:0:0:
56,160,39996,2,0,P|33:111|20:51,1,90,0|0,1:0|0:0,0:0:0:0:
365,331,40329,6,0,L|470:305,1,90,2|0,1:0|0:0,0:0:0:0:
488,198,40662,1,2,1:0:0:0:
339,161,40829,1,2,0:0:0:0:
454,189,40996,2,0,P|401:207|337:203,1,90,0|0,1:0|0:0,0:0:0:0:
115,112,41329,1,2,1:0:0:0:
255,87,41496,1,0,1:0:0:0:
13,356,41662,6,0,P|67:342|121:297,1,90,4|0,1:0|0:0,0:0:0:0:
180,170,41996,1,8,0:0:0:0:
52,56,42162,1,0,0:0:0:0:
318,316,42329,2,0,P|264:302|211:265,1,90,4|0,0:3|0:0,0:0:0:0:
140,134,42663,5,8,0:0:0:0:
279,16,42829,1,0,1:0:0:0:
26,347,42996,2,0,L|16:245,1,90,12|0,0:0|1:0,0:0:0:0:
314,146,43329,2,0,L|343:48,1,90,2|8,1:0|0:0,0:0:0:0:
264,40,43579,1,0,0:0:0:0:
51,218,43662,5,2,1:0:0:0:
29,143,43745,1,0,1:0:0:0:
56,70,43828,1,0,1:0:0:0:
132,39,43912,1,0,1:0:0:0:
299,251,43996,2,0,L|363:240,1,45,10|8,0:0|0:0,0:0:0:0:
151,142,44162,2,0,L|87:131,1,45,8|8,0:0|0:0,0:0:0:0:
339,226,44329,6,0,L|351:332,1,90,6|0,1:0|1:0,0:0:0:0:
213,289,44662,1,8,0:0:0:0:
455,258,44829,1,14,0:0:0:0:
261,139,45162,5,8,0:0:0:0:
140,89,45329,6,0,L|128:195,1,90,14|0,0:0|1:0,0:0:0:0:
279,141,45662,1,8,0:0:0:0:
54,120,45829,1,14,0:0:0:0:
318,71,46162,5,0,1:0:0:0:
161,301,46329,2,0,L|260:294,1,90,10|0,0:0|1:0,0:0:0:0:
369,175,46663,2,0,L|270:168,1,90,10|0,0:0|1:0,0:0:0:0:
16,192,46996,6,0,L|4:86,1,90,6|0,0:0|0:0,0:0:0:0:
123,121,47329,1,8,0:0:0:0:
240,105,47496,2,0,L|252:-1,1,90,2|0,0:0|1:0,0:0:0:0:
121,151,47829,1,2,1:0:0:0:
268,222,47996,1,8,0:0:0:0:
137,288,48162,2,0,P|172:304|197:307,1,45,2|0,0:0|0:0,0:0:0:0:
382,343,48329,6,0,L|481:323,1,90,0|0,1:0|0:0,0:0:0:0:
317,179,48662,2,0,P|305:229|323:281,1,90,8|0,0:0|0:0,0:0:0:0:
477,99,48996,1,0,1:0:0:0:
329,184,49162,1,0,1:0:0:0:
477,274,49329,1,10,0:0:0:0:
330,354,49496,1,0,0:0:0:0:
83,111,49662,6,0,L|186:96,1,90,6|0,0:0|0:0,0:0:0:0:
297,249,49996,1,10,0:0:0:0:
155,328,50162,1,2,0:0:0:0:
93,242,50329,1,0,1:0:0:0:
106,147,50495,1,2,1:0:0:0:
227,363,50662,2,0,L|124:348,1,90,8|2,0:0|0:0,0:0:0:0:
417,339,50996,6,0,P|442:277|445:220,1,90,0|0,1:0|0:0,0:0:0:0:
302,176,51329,2,0,L|199:161,1,90,8|0,0:0|0:0,0:0:0:0:
188,58,51662,1,0,1:0:0:0:
338,159,51829,1,0,1:0:0:0:
200,297,51996,1,10,0:0:0:0:
350,347,52162,1,0,0:0:0:0:
65,359,52329,6,0,P|40:297|37:240,1,90,6|0,0:0|0:0,0:0:0:0:
185,264,52662,1,8,0:0:0:0:
36,269,52829,1,0,0:0:0:0:
17,166,52996,5,2,1:0:0:0:
166,161,53162,2,0,P|191:99|194:42,1,90,0|8,1:0|0:0,0:0:0:0:
77,59,53496,1,0,0:0:0:0:
332,320,53662,6,0,P|380:316|425:300,1,90,6|0,0:0|0:0,0:0:0:0:
180,320,53996,2,0,P|132:316|87:300,1,90,8|0,0:0|0:0,0:0:0:0:
347,275,54329,5,10,1:0:0:0:
212,290,54496,2,0,P|164:287|149:282,1,45,0|0,1:0|1:0,0:0:0:0:
353,200,54663,2,0,P|401:203|416:208,1,45,8|8,0:0|0:0,0:0:0:0:
186,139,54829,2,0,P|138:136|123:131,1,45,8|8,0:0|0:0,0:0:0:0:
366,22,54996,6,0,L|384:146,1,90,6|0,0:0|1:0,0:0:0:0:
248,96,55329,1,8,0:0:0:0:
378,111,55496,1,14,0:0:0:0:
210,124,55663,1,0,0:0:0:0:
387,254,55997,5,14,0:0:0:0:
243,193,56163,1,0,1:0:0:0:
390,144,56330,1,8,0:0:0:0:
248,90,56497,1,2,1:0:0:0:
477,74,56663,1,4,0:0:0:0:
220,358,56996,6,0,L|118:356,1,90,10|0,0:0|1:0,0:0:0:0:
276,284,57329,2,0,L|378:286,1,90,10|0,0:0|1:0,0:0:0:0:
120,223,57662,6,0,P|58:208|25:187,1,90,6|0,0:0|0:0,0:0:0:0:
27,83,57996,1,10,0:0:0:0:
175,365,58162,1,2,0:0:0:0:
225,269,58329,1,0,1:0:0:0:
205,171,58496,1,2,1:0:0:0:
124,98,58662,1,8,0:0:0:0:
256,35,58829,1,2,0:0:0:0:
105,319,58996,6,0,P|166:331|206:353,1,90,4|0,1:3|0:0,0:0:0:0:
429,355,59329,2,0,L|409:241,1,90,8|0,0:0|0:0,0:0:0:0:
144,202,59662,5,0,1:0:0:0:
20,167,59828,1,0,1:0:0:0:
5,86,59996,1,10,0:0:0:0:
122,54,60162,1,0,0:0:0:0:
376,145,60329,6,0,L|268:141,1,99.0000030212403,4|0,0:0|0:0,0:0:0:0:
420,80,60663,1,8,0:0:0:0:
121,348,60829,2,0,P|85:241|156:200,1,198.000006042481,2|0,0:0|1:0,0:0:0:0:
241,244,61329,2,0,L|355:249,1,99.0000030212403,8|0,0:0|0:0,0:0:0:0:
65,77,61662,6,0,L|183:70,1,99.0000030212403,6|0,0:0|0:0,0:0:0:0:
27,168,61996,1,8,0:0:0:0:
286,349,62163,2,0,L|403:339,1,99.0000030212403,2|0,0:0|1:0,0:0:0:0:
248,259,62496,2,0,L|186:256,1,49.5000015106202,8|8,0:0|0:0,0:0:0:0:
375,263,62663,1,8,0:0:0:0:
392,203,62745,1,8,1:0:0:0:
367,147,62829,1,8,1:0:0:0:
311,120,62913,1,8,1:0:0:0:
70,184,62996,6,0,P|26:152|97:41,1,198.000006042481,6|0,0:0|1:0,0:0:0:0:
386,43,63496,1,12,0:0:0:0:
248,139,63663,2,0,L|358:135,1,99.0000030212403,2|8,1:0|0:0,0:0:0:0:
64,291,63995,1,14,0:0:0:0:
55,194,64162,1,0,1:0:0:0:
341,17,64329,5,6,1:0:0:0:
350,114,64496,1,0,1:0:0:0:
104,88,64663,2,0,L|-5:84,1,99.0000030212403,14|0,0:0|1:0,0:0:0:0:
81,117,64913,1,0,0:0:0:0:
264,113,64996,6,0,L|323:106,1,49.5000015106202,10|8,0:0|0:0,0:0:0:0:
142,202,65163,2,0,L|83:210,1,49.5000015106202,8|8,0:0|0:0,0:0:0:0:
299,237,65329,2,0,L|358:231,1,49.5000015106202,0|0,1:0|1:0,0:0:0:0:
93,324,65496,2,0,L|37:332,1,49.5000015106202,0|0,1:0|1:0,0:0:0:0:
297,228,65663,6,0,P|341:205|281:81,1,215.999993408203,6|8,1:0|0:0,0:0:0:0:
151,222,66163,1,0,0:0:0:0:
290,326,66329,2,0,L|403:314,1,99.0000030212403,0|0,1:0|1:0,0:0:0:0:
218,90,66663,2,0,L|82:101,1,99.0000030212403,8|0,0:0|0:0,0:0:0:0:
362,324,66996,1,4,1:3:0:0:
225,315,67163,1,0,0:0:0:0:
369,306,67329,6,0,L|388:189,1,99.0000030212403,10|0,0:0|0:0,0:0:0:0:
229,245,67663,2,0,L|229:136,1,99.0000030212403,2|0,1:0|1:0,0:0:0:0:
76,299,67996,2,0,L|57:182,1,99.0000030212403,10|0,0:0|0:0,0:0:0:0:
309,122,68329,6,0,L|411:139,1,99.0000030212403,6|0,0:0|0:0,0:0:0:0:
272,252,68663,1,8,0:0:0:0:
410,224,68829,2,0,P|453:237|500:269,2,99.0000030212403,2|0|0,0:0|1:0|1:0,0:0:0:0:
130,179,69329,2,0,P|71:191|17:187,1,99.0000030212403,8|0,0:0|0:0,0:0:0:0:
271,125,69663,2,0,P|317:117|384:117,1,99.0000030212403,4|0,1:3|0:0,0:0:0:0:
218,326,69996,6,0,P|165:320|112:319,1,99.0000030212403,10|0,0:0|1:0,0:0:0:0:
271,125,70329,2,0,P|271:174|282:234,1,99.0000030212403,10|0,0:0|1:0,0:0:0:0:
111,57,70663,2,0,P|159:59|217:50,1,99.0000030212403,10|0,0:0|0:0,0:0:0:0:
458,350,70996,5,6,1:0:0:0:
503,265,71162,1,0,0:0:0:0:
469,176,71329,1,8,0:0:0:0:
378,144,71496,1,2,0:0:0:0:
132,242,71663,2,0,L|163:138,1,99.0000030212403,0|0,1:0|1:0,0:0:0:0:
390,249,71996,2,0,L|365:137,1,99.0000030212403,8|0,0:0|0:0,0:0:0:0:
127,53,72329,6,0,P|175:61|251:57,1,116.999994644165,6|2,1:3|0:0,0:0:0:0:
358,174,72663,1,10,0:0:0:0:
199,214,72829,1,2,0:0:0:0:
197,307,72996,1,0,1:0:0:0:
340,177,73163,1,0,1:0:0:0:
203,83,73329,2,0,P|153:82|105:91,1,99.0000030212403,10|0,0:0|0:0,0:0:0:0:
357,301,73663,6,0,P|343:242|219:170,1,198.000006042481,6|8,0:0|0:0,0:0:0:0:
109,162,74163,1,2,0:0:0:0:
354,59,74329,1,0,1:0:0:0:
484,64,74495,1,0,1:0:0:0:
359,179,74663,2,0,L|467:183,1,99.0000030212403,10|0,0:0|0:0,0:0:0:0:
185,187,74996,6,0,P|199:128|323:56,1,198.000006042481,12|10,0:0|0:0,0:0:0:0:
433,53,75496,1,0,0:0:0:0:
153,306,75663,2,0,L|45:302,1,99.0000030212403,2|0,1:0|1:0,0:0:0:0:
193,306,75997,1,8,0:0:0:0:
54,309,76163,1,0,0:0:0:0:
328,343,76329,6,0,L|436:339,2,99.0000030212403,6|2|10,0:0|0:0|0:0,0:0:0:0:
192,222,76829,2,0,P|291:222|389:232,1,198.000006042481,2|2,0:0|1:0,0:0:0:0:
507,117,77329,2,0,L|388:119,1,99.0000030212403,8|2,0:0|0:0,0:0:0:0:
160,339,77663,6,0,P|107:305|98:210,1,161.999995056153,4|0,1:3|0:0,0:0:0:0:
183,170,77996,1,10,0:0:0:0:
58,70,78163,1,0,0:0:0:0:
332,35,78329,2,0,P|385:69|394:164,1,161.999995056153,2|0,1:0|0:0,0:0:0:0:
308,206,78663,1,10,0:0:0:0:
451,317,78829,1,0,0:0:0:0:
174,353,78996,6,0,P|108:315|184:231,1,215.999993408203,6|10,1:0|0:0,0:0:0:0:
301,244,79496,2,0,L|411:256,2,99.0000030212403,2|0|2,0:0|1:0|1:0,0:0:0:0:
172,256,79996,2,0,L|62:246,1,99.0000030212403,8|2,0:0|0:0,0:0:0:0:
371,159,80329,6,0,L|380:48,1,99.0000030212403,4|0,1:3|0:0,0:0:0:0:
241,108,80663,1,10,0:0:0:0:
371,159,80829,1,0,0:0:0:0:
112,265,80996,1,4,1:3:0:0:
103,166,81162,1,0,1:0:0:0:
241,207,81329,1,8,0:0:0:0:
112,265,81496,1,0,0:0:0:0:
411,326,81663,6,0,L|533:332,2,99.0000030212403,6|2|10,1:0|0:0|0:0,0:0:0:0:
258,244,82163,2,0,L|464:234,1,198.000006042481,2|2,0:0|1:0,0:0:0:0:
482,120,82663,2,0,L|370:113,1,99.0000030212403,8|2,0:0|0:0,0:0:0:0:
103,361,82996,6,0,L|94:250,1,99.0000030212403,4|2,1:3|0:0,0:0:0:0:
233,310,83330,1,10,0:0:0:0:
103,361,83496,1,0,0:0:0:0:
331,94,83663,2,0,L|457:100,1,99.0000030212403,0|0,1:0|1:0,0:0:0:0:
181,131,83996,1,8,0:0:0:0:
82,135,84162,1,0,0:0:0:0:
362,56,84329,6,0,L|379:159,1,99.0000030212403,6|0,1:3|0:0,0:0:0:0:
239,41,84662,1,8,0:0:0:0:
361,138,84829,1,2,0:0:0:0:
216,197,84996,2,0,L|196:315,1,99.0000030212403,0|2,1:0|1:0,0:0:0:0:
486,5,85329,2,0,L|503:118,1,99.0000030212403,8|2,0:0|0:0,0:0:0:0:
250,46,85663,6,0,P|195:111|225:171,1,148.50000453186,6|0,1:0|0:0,0:0:0:0:
408,205,85996,1,14,0:3:0:0:
508,221,86163,1,0,1:0:0:0:
262,371,86329,2,0,L|237:265,1,99.0000030212403,10|0,0:0|1:0,0:0:0:0:
403,222,86663,2,0,P|436:194|463:144,1,99.0000030212403,10|0,0:0|0:0,0:0:0:0:
190,295,86996,6,0,P|134:241|126:201,1,99.0000030212403,6|2,1:0|0:0,0:0:0:0:
252,176,87329,1,10,0:0:0:0:
88,266,87496,1,2,0:0:0:0:
68,153,87662,1,0,1:0:0:0:
166,89,87829,1,2,1:0:0:0:
11,162,87996,2,0,L|31:48,1,99.0000030212403,8|2,0:0|0:0,0:0:0:0:
321,301,88329,6,0,L|207:293,1,99.0000030212403,4|0,1:3|0:0,0:0:0:0:
123,108,88663,2,0,L|227:103,1,99.0000030212403,10|0,0:0|0:0,0:0:0:0:
499,262,88996,1,0,1:0:0:0:
355,176,89163,1,0,1:0:0:0:
483,64,89329,1,8,0:0:0:0:
498,226,89495,1,0,0:0:0:0:
213,55,89663,6,0,L|113:59,1,99.0000030212403,6|2,1:0|0:0,0:0:0:0:
391,230,89996,2,0,L|400:118,1,99.0000030212403,10|2,0:0|0:0,0:0:0:0:
258,327,90329,1,0,1:0:0:0:
308,324,90412,1,0,0:0:0:0:
357,322,90495,1,2,1:0:0:0:
97,176,90663,2,0,L|88:288,1,99.0000030212403,8|2,0:0|0:0,0:0:0:0:
319,339,90996,5,4,1:3:0:0:
180,228,91162,1,0,1:0:0:0:
328,118,91329,1,10,0:0:0:0:
170,25,91495,1,8,0:0:0:0:
328,118,91663,6,0,L|344:60,1,49.5000015106202,10|8,0:0|0:0,0:0:0:0:
143,264,91829,2,0,L|100:222,1,49.5000015106202,8|8,0:0|0:0,0:0:0:0:
331,366,91996,2,0,L|443:360,1,99.0000030212403,10|8,1:0|1:0,0:0:0:0:
69,381,92329,6,0,P|29:356|1:304,1,96.2999970611573,14|0,1:0|1:0,0:0:0:0:
130,270,92663,1,0,1:0:0:0:
276,327,92829,2,0,P|318:303|350:253,1,96.2999970611573,14|0,1:3|1:0,0:0:0:0:
215,216,93163,1,0,1:0:0:0:
485,277,93329,6,0,L|493:163,1,96.2999970611573,14|0,1:3|1:0,0:0:0:0:
376,145,93663,1,0,1:0:0:0:
101,211,93829,2,0,L|92:99,1,96.2999970611573,14|2,1:3|1:0,0:0:0:0:
210,79,94163,1,2,1:0:0:0:
481,154,94329,5,14,1:0:0:0:
236,211,94496,1,2,1:0:0:0:
351,245,94663,1,10,1:0:0:0:
90,138,94829,1,14,1:0:0:0:
327,109,94996,2,0,L|340:49,2,48.1499985305787,10|0|10,1:0|0:0|1:0,0:0:0:0:
90,138,95329,5,14,1:0:0:0:
231,122,95496,1,10,1:0:0:0:
93,364,95663,1,10,1:0:0:0:
439,201,95829,1,14,1:3:0:0:
297,185,95996,1,10,1:0:0:0:
436,320,96163,1,10,1:0:0:0:
160,324,96329,5,14,1:0:0:0:
423,323,96495,1,2,1:0:0:0:
162,139,96663,1,12,0:0:0:0:
411,107,96829,2,0,L|393:45,1,48.1499985305787,10|0,0:0|0:0,0:0:0:0:
139,170,96996,2,0,L|152:219,1,48.1499985305787,14|0,1:0|1:0,0:0:0:0:
325,212,97163,1,10,1:0:0:0:
88,106,97329,1,14,1:3:0:0:
473,63,97496,5,14,1:0:0:0:
256,192,97663,12,0,101663,0:0:0:0:
