osu file format v14

[General]
AudioFilename: audio.mp3
AudioLeadIn: 0
PreviewTime: 62933
Countdown: 0
SampleSet: Soft
StackLeniency: 0.7
Mode: 2
LetterboxInBreaks: 0
WidescreenStoryboard: 1

[Editor]
DistanceSpacing: 1
BeatDivisor: 4
GridSize: 4
TimelineZoom: 1.7

[Metadata]
Title:Sakura no Uta
TitleUnicode:櫻ノ詩
Artist:Hana
ArtistUnicode:はな
Creator:-Joakh
Version:Rew's Platter
Source:サクラノ詩 -櫻の森の上を舞う-
Tags:sakura no mori no ue o mau - metrowing makura 枕 visual video game novel eroge galgame japanese female vocalist Greaper Kukkai [_-Kukkai-_] -Luminate Jemzuu AJamez Rew0825 Ymiir -wwwww Fii
BeatmapID:2287064
BeatmapSetID:1093379

[Difficulty]
HPDrainRate:4
CircleSize:3.5
OverallDifficulty:8
ApproachRate:8
SliderMultiplier:1.52
SliderTickRate:2

[Events]
//Background and Video events
0,0,"BG6.jpg",0,0
//Break Periods
//Storyboard Layer 0 (Background)
//Storyboard Layer 1 (Fail)
//Storyboard Layer 2 (Pass)
//Storyboard Layer 3 (Foreground)
//Storyboard Layer 4 (Overlay)
//Storyboard Sound Samples

[TimingPoints]
330,333.333333333333,4,2,1,60,1,0
22996,-100,4,2,1,65,0,0
31829,-100,4,2,1,60,0,0
33329,-100,4,2,1,60,0,0
38663,-100,4,2,1,60,0,0
41663,-100,4,2,1,60,0,0
44329,-100,4,2,1,65,0,0
49579,-100,4,2,1,5,0,0
49663,-100,4,2,1,60,0,0
49913,-100,4,2,1,5,0,0
49996,-100,4,2,1,60,0,0
52246,-100,4,2,1,5,0,0
52329,-100,4,2,1,60,0,0
54996,-100,4,2,1,65,0,0
65663,-100,4,2,1,75,0,1
81579,-100,4,2,1,5,0,1
81663,-100,4,2,1,75,0,1
85579,-100,4,2,1,5,0,1
85663,-100,4,2,1,75,0,1
92329,-100,4,2,1,80,0,0
101663,-100,4,2,1,60,0,0

[Colours]
Combo1 : 247,166,210
Combo2 : 245,213,167
Combo3 : 77,154,196
Combo4 : 248,92,104

[HitObjects]
172,280,330,6,0,P|96:240|172:164,1,228,2|2,0:0|0:0,0:0:0:0:
260,164,996,2,0,L|256:88,1,76,2|2,0:0|0:0,0:0:0:0:
84,88,1329,1,2,0:0:0:0:
312,88,1996,6,0,L|468:88,1,152,2|2,0:0|0:0,0:0:0:0:
456,240,2663,1,2,0:0:0:0:
188,240,2996,6,0,P|80:240|44:140,2,228,2|2|2,0:0|0:0|0:0,0:0:0:0:
464,240,4663,6,0,L|304:240,2,152,2|2|2,0:0|0:0|0:0,0:0:0:0:
292,240,5663,5,2,0:0:0:0:
216,240,5829,1,0,0:0:0:0:
228,156,5996,1,2,0:0:0:0:
308,156,6163,1,0,0:0:0:0:
388,156,6329,1,2,0:0:0:0:
376,72,6496,1,2,0:0:0:0:
292,72,6663,1,2,0:0:0:0:
132,72,7329,6,0,L|128:152,1,76,2|0,0:0|0:0,0:0:0:0:
40,148,7663,1,2,0:0:0:0:
116,148,7829,1,0,0:0:0:0:
192,148,7996,1,2,0:0:0:0:
460,148,8329,6,0,L|232:148,2,228,2|2|2,0:0|0:0|1:0,0:0:0:0:
380,148,9496,1,0,1:0:0:0:
208,148,9663,6,0,L|204:224,1,76,6|0,0:0|1:0,0:0:0:0:
300,224,9996,2,0,L|304:304,1,76,8|0,0:0|1:0,0:0:0:0:
132,300,10329,2,0,L|48:300,1,76,8|8,0:0|0:0,0:0:0:0:
152,300,10663,1,0,1:0:0:0:
104,300,10746,1,0,1:0:0:0:
56,300,10829,1,0,1:0:0:0:
284,300,10996,5,6,1:0:0:0:
456,300,11329,1,8,0:0:0:0:
284,300,11663,2,0,L|208:300,1,76,10|2,0:0|1:0,0:0:0:0:
380,300,11996,6,0,P|432:272|380:224,1,152,10|12,0:0|0:3,0:0:0:0:
296,224,12496,1,0,1:0:0:0:
380,223,12663,1,10,0:0:0:0:
208,224,12996,2,0,P|128:224|112:164,1,152,10|10,0:0|0:0,0:0:0:0:
376,164,13663,5,14,0:0:0:0:
204,164,13996,2,0,L|128:164,1,76,10|2,0:0|1:0,0:0:0:0:
224,164,14329,2,0,P|304:164|320:104,1,152,8|10,0:0|0:0,0:0:0:0:
148,104,14996,6,0,P|96:132|148:180,1,152,12|10,0:3|0:0,0:0:0:0:
320,180,15663,2,0,P|400:180|416:240,1,152,10|10,0:0|0:3,0:0:0:0:
152,240,16329,5,14,0:0:0:0:
76,240,16496,1,2,1:0:0:0:
152,240,16663,1,10,0:0:0:0:
237,240,16829,1,2,1:0:0:0:
313,240,16996,1,10,0:0:0:0:
237,240,17163,1,2,1:0:0:0:
152,240,17329,1,10,0:0:0:0:
324,240,17663,6,0,P|376:212|324:164,1,152,8|10,0:0|0:0,0:0:0:0:
240,164,18163,1,2,1:0:0:0:
68,164,18329,2,0,L|64:88,1,76,10|2,0:0|1:0,0:0:0:0:
148,88,18663,1,10,0:0:0:0:
416,88,18996,6,0,P|468:116|416:164,1,152,14|8,0:3|0:0,0:0:0:0:
332,164,19496,1,2,1:0:0:0:
248,164,19663,1,8,0:0:0:0:
416,164,19996,1,10,0:0:0:0:
148,164,20329,6,0,P|132:216|208:228,1,152,12|10,0:3|0:0,0:0:0:0:
380,228,20996,1,8,0:0:0:0:
424,228,21079,1,8,0:0:0:0:
380,228,21163,1,8,0:0:0:0:
296,228,21329,1,0,1:0:0:0:
252,228,21412,1,0,1:0:0:0:
296,228,21496,1,0,1:0:0:0:
468,228,21663,5,2,0:0:0:0:
472,152,21829,1,2,0:0:0:0:
416,92,21996,1,2,0:0:0:0:
332,92,22163,1,2,0:0:0:0:
416,92,22329,1,2,0:0:0:0:
244,92,22663,2,0,L|168:92,1,76,2|2,0:0|0:0,0:0:0:0:
396,92,22996,5,4,1:0:0:0:
400,248,23329,1,0,1:0:0:0:
228,248,23663,1,0,1:0:0:0:
224,96,23996,1,0,1:0:0:0:
52,96,24329,6,0,L|48:172,1,76,0|0,1:0|0:0,0:0:0:0:
132,172,24663,2,0,L|284:172,2,152,2|2|2,1:0|1:0|1:0,0:0:0:0:
400,172,25663,6,0,P|384:232|304:232,1,152,2|2,1:0|1:0,0:0:0:0:
136,232,26329,1,2,1:0:0:0:
305,232,26663,6,0,P|384:232|400:172,1,152,2|0,1:0|1:0,0:0:0:0:
228,172,27329,1,0,1:0:0:0:
56,172,27663,2,0,L|16:108,1,76,2|0,1:0|1:0,0:0:0:0:
100,80,27996,1,10,0:0:0:0:
496,80,28329,5,6,1:0:0:0:
324,80,28663,2,0,L|476:80,1,152,2|2,1:0|1:0,0:0:0:0:
208,80,29329,6,0,P|156:108|208:156,1,152,2|0,1:0|1:0,0:0:0:0:
380,156,29996,2,0,P|460:156|504:216,2,152,2|2|2,1:0|1:0|1:0,0:0:0:0:
112,156,30996,6,0,L|36:156,2,76,2|0|0,1:0|0:0|1:0,0:0:0:0:
284,156,31496,2,0,P|336:128|284:80,1,152,2|0,0:0|0:0,0:0:0:0:
200,80,31996,2,0,L|120:80,2,76,2|0|0,1:0|0:0|1:0,0:0:0:0:
284,80,32496,5,0,0:0:0:0:
368,80,32663,2,0,P|448:80|464:140,1,152,2|2,1:0|1:0,0:0:0:0:
376,136,33163,1,10,0:0:0:0:
464,140,33329,2,0,L|460:216,1,76,2|0,1:0|1:0,0:0:0:0:
228,216,33663,5,4,1:0:0:0:
224,64,33996,1,0,1:0:0:0:
396,64,34329,1,0,1:0:0:0:
400,216,34662,1,0,1:0:0:0:
228,216,34996,5,0,1:0:0:0:
56,216,35329,2,0,L|216:216,2,152,2|2|2,1:0|1:0|1:0,0:0:0:0:
320,216,36329,6,0,P|396:216|448:164,2,152,2|2|2,1:0|1:0|1:0,0:0:0:0:
52,216,37329,6,0,P|68:156|148:156,1,152,2|0,1:0|1:0,0:0:0:0:
316,156,37996,1,2,1:0:0:0:
400,156,38163,1,8,0:0:0:0:
316,156,38329,1,2,1:0:0:0:
144,156,38663,2,0,L|68:156,1,76,2|8,1:0|0:0,0:0:0:0:
296,156,38996,6,0,P|348:108|296:80,1,152,4|0,1:0|1:0,0:0:0:0:
124,80,39496,2,0,P|72:108|124:156,1,152,2|0,0:0|0:0,0:0:0:0:
208,156,39996,1,0,1:0:0:0:
124,156,40163,1,0,0:0:0:0:
352,156,40329,6,0,P|432:156|448:216,1,152,2|2,1:0|1:0,0:0:0:0:
352,216,40829,2,0,L|200:216,1,152,2|0,0:0|0:0,0:0:0:0:
372,216,41329,2,0,L|376:136,1,76,2|0,1:0|1:0,0:0:0:0:
144,140,41663,6,0,P|92:112|144:64,1,152,4|8,1:0|0:0,0:0:0:0:
228,64,42163,1,0,0:0:0:0:
312,64,42329,2,0,P|364:92|312:140,1,152,4|8,0:3|0:0,0:0:0:0:
140,140,42996,5,12,0:0:0:0:
408,140,43329,2,0,L|252:140,2,152,2|2|10,1:0|1:0|0:0,0:0:0:0:
140,140,44329,6,0,L|60:140,2,76,6|0|8,1:0|1:0|0:0,0:0:0:0:
300,140,44829,2,0,P|352:112|300:64,1,152,14|8,0:0|0:0,0:0:0:0:
140,140,45329,6,0,P|88:112|140:64,1,152,14|8,0:0|0:0,0:0:0:0:
224,64,45829,1,14,0:0:0:0:
396,64,46163,1,0,1:0:0:0:
224,64,46329,2,0,L|72:64,1,152,10|10,0:0|0:0,0:0:0:0:
480,64,46996,5,6,0:0:0:0:
336,64,47329,2,0,L|332:144,1,76,8|2,0:0|0:0,0:0:0:0:
476,140,47829,2,0,L|480:216,1,76,2|8,1:0|0:0,0:0:0:0:
308,216,48163,6,0,L|152:216,1,152,2|0,0:0|0:0,0:0:0:0:
240,216,48663,2,0,L|392:216,1,152,8|0,0:0|1:0,0:0:0:0:
432,108,49329,1,10,0:0:0:0:
32,108,49663,5,6,0:0:0:0:
176,108,49996,2,0,L|172:184,1,76,10|2,0:0|0:0,0:0:0:0:
28,184,50496,1,2,1:0:0:0:
200,184,50829,1,2,0:0:0:0:
372,184,50996,6,0,P|424:156|372:108,1,152,0|8,1:0|0:0,0:0:0:0:
288,108,51496,1,0,0:0:0:0:
204,108,51663,2,0,L|48:108,1,152,0|10,1:0|0:0,0:0:0:0:
448,108,52329,6,0,L|456:260,1,152,6|8,0:0|0:0,0:0:0:0:
284,260,52996,2,0,L|436:260,1,152,2|8,1:0|0:0,0:0:0:0:
168,260,53663,6,0,P|116:232|168:184,1,152,6|8,0:0|0:0,0:0:0:0:
340,184,54329,2,0,L|416:184,1,76,10|0,1:0|1:0,0:0:0:0:
332,184,54663,1,8,0:0:0:0:
376,184,54746,1,8,0:0:0:0:
416,184,54829,1,8,0:0:0:0:
188,184,54996,6,0,L|112:184,2,76,6|0|8,0:0|1:0|0:0,0:0:0:0:
360,184,55496,2,0,P|412:136|360:108,1,152,14|8,0:0|0:0,0:0:0:0:
188,108,55996,6,0,P|104:108|92:52,1,152,14|8,0:0|0:0,0:0:0:0:
176,64,56496,1,2,1:0:0:0:
348,64,56663,2,0,P|428:64|444:124,1,152,4|10,0:0|0:0,0:0:0:0:
444,124,57329,1,10,0:0:0:0:
44,124,57663,5,6,0:0:0:0:
188,124,57996,2,0,L|192:200,1,76,10|2,0:0|0:0,0:0:0:0:
48,200,58496,1,2,1:0:0:0:
220,200,58829,1,2,0:0:0:0:
392,200,58996,6,0,P|472:200|488:140,1,152,4|8,1:3|0:0,0:0:0:0:
316,141,59663,1,0,1:0:0:0:
488,141,59996,1,10,0:0:0:0:
88,140,60329,6,0,P|36:112|88:64,1,152,4|8,0:0|0:0,0:0:0:0:
172,64,60829,1,2,0:0:0:0:
344,64,60996,2,0,L|264:64,1,76,0|0,1:0|1:0,0:0:0:0:
184,64,61329,2,0,L|260:64,1,76,8|0,0:0|0:0,0:0:0:0:
492,64,61663,6,0,P|476:124|396:124,1,152,6|8,0:0|0:0,0:0:0:0:
220,124,62163,2,0,P|168:152|220:200,1,152,2|8,0:0|0:0,0:0:0:0:
304,200,62663,1,8,0:0:0:0:
340,200,62746,1,8,1:0:0:0:
304,200,62829,1,8,1:0:0:0:
68,200,62996,6,0,P|16:172|68:124,1,152,6|0,0:0|1:0,0:0:0:0:
240,124,63496,1,12,0:0:0:0:
324,124,63663,2,0,L|328:48,1,76,2|8,1:0|0:0,0:0:0:0:
100,48,63996,2,0,L|96:124,1,76,14|0,0:0|1:0,0:0:0:0:
268,124,64329,6,0,L|352:124,1,76,6|0,1:0|1:0,0:0:0:0:
112,124,64663,2,0,L|108:200,1,76,14|0,0:0|1:0,0:0:0:0:
196,200,64996,1,10,0:0:0:0:
232,200,65079,1,8,0:0:0:0:
252,200,65163,1,8,0:0:0:0:
232,200,65246,1,8,0:0:0:0:
196,200,65329,1,0,1:0:0:0:
108,200,65496,1,0,1:0:0:0:
336,200,65663,6,0,L|340:124,1,76,6|0,1:0|0:0,0:0:0:0:
244,124,65996,2,0,L|240:48,1,76,8|0,0:0|0:0,0:0:0:0:
412,48,66329,1,0,1:0:0:0:
324,48,66496,1,0,1:0:0:0:
412,48,66663,2,0,L|416:128,1,76,8|0,0:0|0:0,0:0:0:0:
244,124,66996,6,0,L|164:124,1,76,4|0,1:3|0:0,0:0:0:0:
340,124,67329,2,0,L|344:200,1,76,10|0,0:0|0:0,0:0:0:0:
440,200,67663,2,0,L|436:288,1,76,2|0,1:0|1:0,0:0:0:0:
264,276,67996,2,0,L|180:276,1,76,10|0,0:0|0:0,0:0:0:0:
416,276,68329,6,0,P|468:248|416:200,1,152,6|8,0:0|0:0,0:0:0:0:
244,200,68829,2,0,P|192:172|244:124,1,152,2|0,0:0|1:0,0:0:0:0:
336,124,69329,2,0,L|340:48,1,76,8|0,0:0|0:0,0:0:0:0:
168,48,69663,6,0,L|84:48,1,76,4|0,1:3|0:0,0:0:0:0:
264,48,69996,2,0,L|268:124,1,76,10|0,0:0|1:0,0:0:0:0:
172,124,70329,2,0,L|168:200,1,76,10|0,0:0|1:0,0:0:0:0:
340,200,70663,2,0,L|432:200,1,76,10|0,0:0|0:0,0:0:0:0:
188,200,70996,6,0,P|108:200|92:140,1,152,6|8,1:0|0:0,0:0:0:0:
264,140,71496,2,0,P|344:140|360:80,1,152,2|0,0:0|1:0,0:0:0:0:
264,80,71996,2,0,L|188:80,1,76,8|0,0:0|0:0,0:0:0:0:
416,80,72329,6,0,L|496:80,2,76,6|2|10,1:3|0:0|0:0,0:0:0:0:
244,80,72829,2,0,P|196:96|244:156,1,152,2|0,0:0|1:0,0:0:0:0:
412,156,73329,2,0,L|416:236,1,76,10|0,0:0|0:0,0:0:0:0:
184,232,73663,6,0,P|104:232|88:172,1,152,6|8,0:0|0:0,0:0:0:0:
264,172,74163,2,0,P|316:144|264:96,1,152,2|0,0:0|1:0,0:0:0:0:
96,96,74663,2,0,L|88:20,1,76,10|0,0:0|0:0,0:0:0:0:
316,20,74996,6,0,L|400:20,1,76,12|0,0:0|0:0,0:0:0:0:
488,20,75329,2,0,L|408:20,1,76,10|0,0:0|0:0,0:0:0:0:
240,20,75663,2,0,L|236:96,1,76,2|0,1:0|1:0,0:0:0:0:
332,96,75996,2,0,L|336:172,1,76,8|0,0:0|0:0,0:0:0:0:
108,172,76329,6,0,L|28:172,2,76,6|2|10,0:0|0:0|0:0,0:0:0:0:
280,172,76829,2,0,L|284:248,1,76,2|0,0:0|1:0,0:0:0:0:
188,248,77163,2,0,L|184:328,1,76,2|8,1:0|0:0,0:0:0:0:
88,324,77496,1,2,0:0:0:0:
316,324,77663,6,0,L|400:324,1,76,4|0,1:3|0:0,0:0:0:0:
220,324,77996,2,0,L|216:248,1,76,10|0,0:0|0:0,0:0:0:0:
312,248,78329,2,0,L|316:164,1,76,2|0,1:0|1:0,0:0:0:0:
144,172,78663,2,0,L|56:172,1,76,10|0,0:0|0:0,0:0:0:0:
296,172,78996,6,0,L|456:172,1,152,6|10,1:0|0:0,0:0:0:0:
276,172,79496,2,0,L|192:172,1,76,2|0,0:0|1:0,0:0:0:0:
296,172,79829,2,0,L|376:172,1,76,2|8,1:0|0:0,0:0:0:0:
272,172,80163,1,2,0:0:0:0:
44,172,80329,6,0,L|40:92,1,76,4|0,1:3|0:0,0:0:0:0:
136,96,80663,2,0,L|220:96,1,76,10|0,0:0|0:0,0:0:0:0:
384,96,80996,2,0,L|388:172,1,76,4|0,1:3|1:0,0:0:0:0:
292,172,81329,2,0,L|376:172,1,76,8|0,0:0|0:0,0:0:0:0:
136,172,81663,6,0,L|52:172,2,76,6|2|10,1:0|0:0|0:0,0:0:0:0:
308,172,82163,2,0,L|312:248,1,76,2|0,0:0|1:0,0:0:0:0:
408,248,82496,2,0,L|404:328,1,76,2|8,1:0|0:0,0:0:0:0:
308,324,82829,1,2,0:0:0:0:
80,324,82996,6,0,L|76:248,1,76,4|2,1:3|0:0,0:0:0:0:
172,248,83329,2,0,L|248:248,1,76,10|0,0:0|0:0,0:0:0:0:
420,248,83663,2,0,L|424:168,1,76,0|0,1:0|1:0,0:0:0:0:
328,172,83996,2,0,L|236:172,1,76,8|0,0:0|0:0,0:0:0:0:
24,168,84329,6,0,P|40:108|120:108,1,152,6|8,1:3|0:0,0:0:0:0:
292,108,84829,2,0,L|296:184,1,76,2|0,0:0|1:0,0:0:0:0:
392,184,85163,2,0,L|388:264,1,76,2|8,1:0|0:0,0:0:0:0:
480,260,85496,1,2,0:0:0:0:
252,260,85663,6,0,L|168:260,1,76,6|0,1:0|0:0,0:0:0:0:
348,260,85996,2,0,L|352:184,1,76,14|0,0:3|1:0,0:0:0:0:
448,184,86329,2,0,L|372:184,1,76,10|0,0:0|1:0,0:0:0:0:
200,184,86663,2,0,L|112:184,1,76,10|0,0:0|0:0,0:0:0:0:
352,184,86996,6,0,L|440:184,2,76,6|2|10,1:0|0:0|0:0,0:0:0:0:
180,184,87496,1,2,0:0:0:0:
92,184,87663,1,0,1:0:0:0:
180,184,87829,1,2,1:0:0:0:
276,184,87996,2,0,L|352:184,1,76,8|2,0:0|0:0,0:0:0:0:
180,184,88329,6,0,L|176:104,1,76,4|0,1:3|0:0,0:0:0:0:
80,108,88663,2,0,L|156:108,1,76,10|0,0:0|0:0,0:0:0:0:
328,108,88996,2,0,L|332:32,1,76,0|0,1:0|1:0,0:0:0:0:
236,32,89329,2,0,L|152:32,1,76,8|0,0:0|0:0,0:0:0:0:
392,31,89663,6,0,L|468:31,2,76,6|2|10,1:0|0:0|0:0,0:0:0:0:
216,32,90163,2,0,L|212:112,1,76,2|0,0:0|1:0,0:0:0:0:
308,108,90496,2,0,L|312:184,1,76,2|8,1:0|0:0,0:0:0:0:
216,184,90829,1,2,0:0:0:0:
444,184,90996,6,0,L|448:264,1,76,4|0,1:3|1:0,0:0:0:0:
352,260,91329,2,0,L|272:260,1,76,10|8,0:0|0:0,0:0:0:0:
104,260,91663,2,0,L|232:260,2,114,10|8|8,0:0|0:0|1:0,0:0:0:0:
332,260,92329,6,0,P|384:232|332:184,1,152,14|0,1:0|1:0,0:0:0:0:
160,184,92829,2,0,P|108:156|160:108,1,152,14|0,1:3|1:0,0:0:0:0:
332,108,93329,6,0,L|408:108,2,76,14|0|0,1:3|1:0|1:0,0:0:0:0:
104,108,93829,2,0,L|24:108,2,76,14|2|2,1:3|1:0|1:0,0:0:0:0:
332,108,94329,2,0,L|424:108,1,76,14|2,1:0|1:0,0:0:0:0:
404,184,94663,1,10,1:0:0:0:
176,184,94829,6,0,L|96:184,2,76,14|10|10,1:0|1:0|1:0,0:0:0:0:
348,184,95329,1,14,1:0:0:0:
352,264,95496,1,10,1:0:0:0:
256,264,95663,1,10,1:0:0:0:
84,264,95829,1,14,1:3:0:0:
80,184,95996,1,10,1:0:0:0:
176,184,96163,1,10,1:0:0:0:
404,184,96329,6,0,L|408:104,1,76,14|2,1:0|1:0,0:0:0:0:
236,108,96663,2,0,L|148:108,1,76,12|10,0:0|0:0,0:0:0:0:
332,108,96996,2,0,L|416:108,2,76,14|10|14,1:0|1:0|1:3,0:0:0:0:
104,108,97496,5,14,1:0:0:0:
256,192,97663,12,0,101663,0:0:0:0:
