osu file format v14

[General]
AudioFilename: audio.mp3
AudioLeadIn: 0
PreviewTime: 62933
Countdown: 0
SampleSet: Soft
StackLeniency: 0.7
Mode: 2
LetterboxInBreaks: 0
WidescreenStoryboard: 1

[Editor]
Bookmarks: 22849,43183,65683,84349,97516
DistanceSpacing: 1.2
BeatDivisor: 4
GridSize: 8
TimelineZoom: 2.999999

[Metadata]
Title:Sakura no Uta
TitleUnicode:櫻ノ詩
Artist:Hana
ArtistUnicode:はな
Creator:-Joakh
Version:Lumi's Rain
Source:サクラノ詩 -櫻の森の上を舞う-
Tags:sakura no mori no ue o mau - metrowing makura 枕 visual video game novel eroge galgame japanese female vocalist Greaper Kukkai [_-Kukkai-_] -Luminate Jemzuu AJamez Rew0825 Ymiir -wwwww Fii
BeatmapID:2295228
BeatmapSetID:1093379

[Difficulty]
HPDrainRate:6
CircleSize:4
OverallDifficulty:9
ApproachRate:9
SliderMultiplier:1.7
SliderTickRate:2

[Events]
//Background and Video events
0,0,"BG3.jpg",0,0
//Break Periods
//Storyboard Layer 0 (Background)
//Storyboard Layer 1 (Fail)
//Storyboard Layer 2 (Pass)
//Storyboard Layer 3 (Foreground)
//Storyboard Layer 4 (Overlay)
//Storyboard Sound Samples

[TimingPoints]
330,333.333333333333,4,2,1,60,1,0
10996,-83.3333333333333,4,2,1,60,0,0
22996,-90.9090909090909,4,2,1,45,0,0
31829,-90.9090909090909,4,2,1,45,0,0
33329,-90.9090909090909,4,2,1,45,0,0
38663,-90.9090909090909,4,2,1,50,0,0
41663,-90.9090909090909,4,2,1,60,0,0
44329,-90.9090909090909,4,2,1,65,0,0
49579,-90.9090909090909,4,2,1,5,0,0
49663,-90.9090909090909,4,2,1,60,0,0
49913,-90.9090909090909,4,2,1,5,0,0
49996,-90.9090909090909,4,2,1,60,0,0
52246,-90.9090909090909,4,2,1,5,0,0
52329,-90.9090909090909,4,2,1,60,0,0
54996,-90.9090909090909,4,2,1,65,0,0
62996,-83.3333333333333,4,2,1,65,0,0
65663,-83.3333333333333,4,2,1,75,0,1
81579,-83.3333333333333,4,2,1,5,0,1
81663,-83.3333333333333,4,2,1,75,0,1
85579,-83.3333333333333,4,2,1,5,0,1
85663,-83.3333333333333,4,2,1,75,0,1
92329,-83.3333333333333,4,2,1,80,0,0
101663,-83.3333333333333,4,2,1,60,0,0

[Colours]
Combo1 : 248,182,213
Combo2 : 250,213,163
Combo3 : 198,203,208
Combo4 : 131,173,252

[HitObjects]
128,328,330,6,0,P|88:232|160:200,1,170,2|0,0:0|0:0,0:0:0:0:
232,208,829,1,2,0:0:0:0:
296,120,996,1,2,0:0:0:0:
224,40,1163,1,2,0:0:0:0:
40,48,1329,1,2,0:0:0:0:
320,288,1996,5,2,0:0:0:0:
184,264,2330,2,0,L|176:144,1,85,2|0,0:0|0:0,0:0:0:0:
320,160,2663,2,0,L|328:64,1,85,2|0,0:0|0:0,0:0:0:0:
160,120,2996,6,0,P|216:56|328:48,1,170,2|2,0:0|0:0,0:0:0:0:
200,16,3496,1,2,0:0:0:0:
480,352,3996,6,0,L|208:304,1,255,2|0,0:0|0:0,0:0:0:0:
392,256,4663,1,2,0:0:0:0:
400,152,4829,1,0,0:0:0:0:
248,104,4996,1,2,0:0:0:0:
336,72,5163,1,2,0:0:0:0:
176,40,5329,1,2,0:0:0:0:
88,72,5496,1,0,0:0:0:0:
248,336,5663,5,2,0:0:0:0:
336,296,5829,1,0,0:0:0:0:
384,208,5996,1,2,0:0:0:0:
376,96,6163,1,0,0:0:0:0:
312,32,6329,1,2,0:0:0:0:
216,32,6496,1,2,0:0:0:0:
392,16,6663,1,2,0:0:0:0:
208,256,7163,5,0,0:0:0:0:
312,224,7329,2,0,L|320:112,1,85,2|0,0:0|0:0,0:0:0:0:
152,144,7663,2,0,L|160:48,1,85,2|0,0:0|0:0,0:0:0:0:
256,56,7996,1,2,0:0:0:0:
32,288,8329,6,0,L|312:288,2,255,2|2|2,0:0|0:0|1:0,0:0:0:0:
128,280,9496,1,0,1:0:0:0:
368,288,9663,6,0,L|480:288,1,85,6|0,0:0|1:0,0:0:0:0:
304,168,9996,2,0,L|208:168,1,85,8|0,0:0|1:0,0:0:0:0:
368,56,10329,1,8,0:0:0:0:
232,296,10496,2,0,L|224:224,1,42.5,8|8,0:0|0:0,0:0:0:0:
408,240,10663,1,0,1:0:0:0:
464,208,10746,1,0,1:0:0:0:
464,136,10829,1,0,1:0:0:0:
408,104,10913,1,0,1:0:0:0:
224,104,10996,6,0,L|104:104,1,101.999996887207,6|0,1:0|0:0,0:0:0:0:
256,208,11329,2,0,L|136:208,1,101.999996887207,8|0,0:0|1:0,0:0:0:0:
32,208,11663,1,10,0:0:0:0:
200,272,11829,1,2,1:0:0:0:
32,328,11996,2,0,L|32:208,1,101.999996887207,10|0,0:0|1:0,0:0:0:0:
288,192,12329,6,0,L|424:192,1,101.999996887207,12|0,0:3|1:0,0:0:0:0:
240,56,12663,2,0,L|352:56,1,101.999996887207,10|0,0:0|1:0,0:0:0:0:
488,96,12996,1,10,0:0:0:0:
344,152,13163,1,0,1:0:0:0:
488,224,13329,2,0,L|360:224,1,101.999996887207,10|0,0:0|0:0,0:0:0:0:
136,328,13663,6,0,L|128:184,1,101.999996887207,14|0,0:0|0:0,0:0:0:0:
256,216,13996,1,10,0:0:0:0:
96,144,14163,2,0,L|232:144,1,101.999996887207,2|8,1:0|0:0,0:0:0:0:
336,96,14496,1,0,1:0:0:0:
208,40,14663,2,0,L|328:40,1,101.999996887207,10|0,0:0|1:0,0:0:0:0:
80,288,14996,6,0,L|72:168,1,101.999996887207,12|0,0:3|1:0,0:0:0:0:
192,208,15329,2,0,L|192:88,1,101.999996887207,10|2,0:0|1:0,0:0:0:0:
376,160,15663,2,0,L|376:48,1,101.999996887207,10|2,0:0|1:0,0:0:0:0:
216,32,15996,2,0,L|112:32,1,101.999996887207,10|0,0:3|1:0,0:0:0:0:
424,192,16329,5,14,0:0:0:0:
304,232,16496,1,2,1:0:0:0:
424,288,16663,1,10,0:0:0:0:
288,328,16829,1,2,1:0:0:0:
176,272,16996,1,10,0:0:0:0:
304,224,17163,1,2,1:0:0:0:
48,168,17329,6,0,L|40:32,1,101.999996887207,10|0,0:0|1:0,0:0:0:0:
184,128,17663,2,0,L|192:8,1,101.999996887207,8|2,0:0|1:0,0:0:0:0:
48,272,17996,1,10,0:0:0:0:
144,216,18163,1,2,1:0:0:0:
48,176,18329,1,10,0:0:0:0:
184,128,18496,1,2,1:0:0:0:
336,224,18663,2,0,L|200:224,1,101.999996887207,10|0,0:0|1:0,0:0:0:0:
480,80,18996,6,0,L|488:208,1,101.999996887207,14|0,0:3|1:0,0:0:0:0:
360,184,19329,1,8,0:0:0:0:
496,240,19496,2,0,L|384:240,1,101.999996887207,2|8,1:0|0:0,0:0:0:0:
256,240,19829,1,0,1:0:0:0:
368,120,19996,2,0,L|224:120,1,101.999996887207,10|0,0:0|1:0,0:0:0:0:
504,312,20329,6,0,L|392:312,1,101.999996887207,12|0,0:3|1:0,0:0:0:0:
264,256,20663,2,0,L|376:256,1,101.999996887207,10|4,0:0|1:3,0:0:0:0:
136,216,20996,2,0,L|128:144,1,50.9999984436036,8|8,0:0|0:0,0:0:0:0:
272,136,21163,2,0,L|368:112,1,50.9999984436036,8|8,0:0|0:0,0:0:0:0:
264,304,21329,1,0,1:0:0:0:
216,272,21412,1,0,1:0:0:0:
216,216,21495,1,0,1:0:0:0:
264,192,21578,1,0,1:0:0:0:
472,144,21663,5,2,0:0:0:0:
360,112,21829,1,2,0:0:0:0:
248,88,21996,1,2,0:0:0:0:
368,48,22163,1,2,0:0:0:0:
248,296,22329,2,0,L|240:184,1,101.999996887207,2|2,0:0|0:0,0:0:0:0:
360,152,22663,1,2,0:0:0:0:
240,128,22829,1,2,0:0:0:0:
472,328,22996,6,0,L|280:328,2,187.000005706787,4|0|0,1:0|1:0|1:0,0:0:0:0:
232,248,23996,2,0,P|296:160|400:160,1,187.000005706787,0|0,1:0|1:0,0:0:0:0:
208,152,24663,1,2,1:0:0:0:
456,288,24996,2,0,P|512:232|432:152,1,187.000005706787,2|2,1:0|1:0,0:0:0:0:
160,144,25663,6,0,L|360:144,2,187.000005706787,2|2|2,1:0|1:0|1:0,0:0:0:0:
336,288,26663,2,0,P|296:208|176:184,1,187.000005706787,2|0,1:0|1:0,0:0:0:0:
32,176,27329,1,0,1:0:0:0:
184,344,27663,1,2,1:0:0:0:
288,296,27829,1,0,1:0:0:0:
288,200,27996,1,10,0:0:0:0:
184,184,28163,1,0,0:0:0:0:
336,80,28329,6,0,L|136:80,2,187.000005706787,6|2|2,1:0|1:0|1:0,0:0:0:0:
40,240,29329,2,0,P|64:160|184:128,1,187.000005706787,2|0,1:0|1:0,0:0:0:0:
440,264,29996,2,0,L|448:152,1,93.5000028533936,2|0,1:0|0:0,0:0:0:0:
336,176,30329,2,0,L|328:64,1,93.5000028533936,2|0,1:0|0:0,0:0:0:0:
152,160,30663,2,0,L|160:24,1,93.5000028533936,2|0,1:0|0:0,0:0:0:0:
344,344,30996,5,2,1:0:0:0:
448,304,31163,1,0,0:0:0:0:
472,200,31329,1,0,1:0:0:0:
304,176,31496,1,2,0:0:0:0:
352,80,31663,1,0,1:0:0:0:
448,40,31829,1,0,0:0:0:0:
320,232,31996,1,2,1:0:0:0:
416,288,32163,1,0,0:0:0:0:
248,336,32329,6,0,L|240:200,1,93.5000028533936,0|0,1:0|0:0,0:0:0:0:
368,200,32663,2,0,L|264:200,1,93.5000028533936,2|0,1:0|0:0,0:0:0:0:
144,200,32996,1,2,1:0:0:0:
48,160,33163,1,10,0:0:0:0:
48,64,33329,1,2,1:0:0:0:
144,32,33496,1,0,1:0:0:0:
328,264,33663,6,0,L|104:256,2,187.000005706787,4|0|0,1:0|1:0|1:0,0:0:0:0:
144,216,34663,2,0,P|96:136|176:80,1,187.000005706787,0|0,1:0|1:0,0:0:0:0:
304,80,35329,1,2,1:0:0:0:
48,280,35663,2,0,P|72:208|192:176,1,187.000005706787,2|2,1:0|1:0,0:0:0:0:
488,176,36329,6,0,L|272:176,2,187.000005706787,2|2|2,1:0|1:0|1:0,0:0:0:0:
304,344,37329,2,0,P|256:264|328:216,1,187.000005706787,2|0,1:0|1:0,0:0:0:0:
48,232,37996,6,0,L|40:112,1,93.5000028533936,2|8,1:0|0:0,0:0:0:0:
216,152,38329,2,0,L|224:32,1,93.5000028533936,2|0,1:0|0:0,0:0:0:0:
120,40,38663,1,2,1:0:0:0:
224,32,38829,1,8,0:0:0:0:
392,224,38996,6,0,L|160:224,1,187.000005706787,4|0,1:0|1:0,0:0:0:0:
392,352,39496,2,0,P|472:264|376:168,1,280.500008560181,2|0,0:0|1:0,0:0:0:0:
48,144,40329,6,0,L|256:136,1,187.000005706787,2|2,1:0|1:0,0:0:0:0:
96,272,40829,2,0,L|88:168,1,93.5000028533936,2|0,0:0|1:0,0:0:0:0:
200,168,41163,1,0,0:0:0:0:
376,160,41329,2,0,L|488:152,1,93.5000028533936,2|0,1:0|1:0,0:0:0:0:
192,304,41663,6,0,P|112:296|32:208,1,187.000005706787,4|8,1:0|0:0,0:0:0:0:
208,200,42163,2,0,P|256:120|184:72,1,187.000005706787
48,56,42663,2,0,L|168:56,1,93.5000028533936,8|0,0:0|1:0,0:0:0:0:
392,272,42996,6,0,L|400:136,1,93.5000028533936,12|0,0:0|1:0,0:0:0:0:
256,168,43329,2,0,L|136:168,1,93.5000028533936,2|8,1:0|0:0,0:0:0:0:
328,56,43663,2,0,L|464:56,1,93.5000028533936,2|0,1:0|1:0,0:0:0:0:
264,328,43996,2,0,L|256:256,1,46.7500014266968,10|8,0:0|0:0,0:0:0:0:
336,280,44163,2,0,L|344:216,1,46.7500014266968,8|8,0:0|0:0,0:0:0:0:
152,200,44329,5,6,1:0:0:0:
40,144,44496,1,0,1:0:0:0:
152,96,44663,1,8,0:0:0:0:
408,88,44829,1,14,0:0:0:0:
224,272,45163,1,8,0:0:0:0:
392,272,45329,6,0,P|448:216|368:152,1,187.000005706787,14|8,0:0|0:0,0:0:0:0:
128,120,45829,1,14,0:0:0:0:
424,304,46329,2,0,L|296:304,1,93.5000028533936,10|0,0:0|1:0,0:0:0:0:
448,160,46663,2,0,L|344:160,1,93.5000028533936,10|0,0:0|1:0,0:0:0:0:
104,256,46996,6,0,L|96:152,1,93.5000028533936,6|0,0:0|0:0,0:0:0:0:
224,128,47329,1,8,0:0:0:0:
96,128,47496,2,0,L|104:32,1,93.5000028533936,2|0,0:0|1:0,0:0:0:0:
264,208,47829,2,0,L|400:208,1,93.5000028533936,2|8,1:0|0:0,0:0:0:0:
184,336,48163,5,2,0:0:0:0:
64,304,48329,2,0,L|184:304,1,93.5000028533936,0|0,1:0|0:0,0:0:0:0:
280,264,48663,1,8,0:0:0:0:
160,224,48829,1,0,0:0:0:0:
328,176,48996,2,0,L|328:72,1,93.5000028533936,0|0,1:0|1:0,0:0:0:0:
160,128,49329,2,0,L|168:16,1,93.5000028533936,10|0,0:0|0:0,0:0:0:0:
432,232,49663,6,0,L|328:232,1,93.5000028533936,6|0,0:0|0:0,0:0:0:0:
208,192,49996,1,10,0:0:0:0:
336,160,50163,2,0,L|344:56,1,93.5000028533936,2|0,0:0|1:0,0:0:0:0:
208,112,50496,2,0,L|200:8,1,93.5000028533936,2|8,1:0|0:0,0:0:0:0:
384,232,50829,1,2,0:0:0:0:
480,160,50996,6,0,L|256:160,1,187.000005706787,0|8,1:0|0:0,0:0:0:0:
392,80,51496,2,0,L|272:80,1,93.5000028533936,0|0,0:0|1:0,0:0:0:0:
184,80,51829,1,0,1:0:0:0:
352,296,51996,2,0,L|360:168,1,93.5000028533936,10|0,0:0|0:0,0:0:0:0:
104,248,52329,6,0,L|96:128,1,93.5000028533936,6|0,0:0|0:0,0:0:0:0:
232,176,52663,2,0,L|352:168,1,93.5000028533936,8|0,0:0|0:0,0:0:0:0:
152,344,52996,2,0,L|256:336,1,93.5000028533936,2|0,1:0|1:0,0:0:0:0:
368,296,53329,2,0,L|272:296,1,93.5000028533936,8|0,0:0|0:0,0:0:0:0:
504,144,53663,6,0,L|392:144,1,93.5000028533936,6|0,0:0|0:0,0:0:0:0:
264,136,53996,2,0,L|136:136,1,93.5000028533936,8|0,0:0|0:0,0:0:0:0:
328,240,54329,1,10,1:0:0:0:
160,280,54496,1,0,1:0:0:0:
104,256,54579,1,0,1:0:0:0:
72,216,54663,1,8,0:0:0:0:
72,152,54746,1,8,0:0:0:0:
104,104,54829,1,8,0:0:0:0:
168,88,54913,1,8,0:0:0:0:
368,208,54996,5,6,0:0:0:0:
504,152,55163,1,0,1:0:0:0:
368,112,55329,1,8,0:0:0:0:
104,112,55496,1,14,0:0:0:0:
264,272,55829,1,8,0:0:0:0:
96,224,55996,6,0,L|312:224,1,187.000005706787,14|8,0:0|0:0,0:0:0:0:
168,144,56496,1,2,1:0:0:0:
416,96,56663,1,4,0:0:0:0:
192,336,56996,2,0,L|88:336,1,93.5000028533936,10|0,0:0|1:0,0:0:0:0:
272,216,57329,2,0,L|384:216,1,93.5000028533936,10|0,0:0|1:0,0:0:0:0:
80,184,57663,6,0,L|72:72,1,93.5000028533936,6|0,0:0|0:0,0:0:0:0:
208,88,57996,1,10,0:0:0:0:
80,48,58163,2,0,L|192:48,1,93.5000028533936,2|0,0:0|1:0,0:0:0:0:
320,240,58496,2,0,L|200:240,1,93.5000028533936,2|8,1:0|0:0,0:0:0:0:
400,320,58829,1,2,0:0:0:0:
272,288,58996,6,0,L|264:152,1,93.5000028533936,4|0,1:3|0:0,0:0:0:0:
400,192,59329,2,0,L|416:72,1,93.5000028533936,8|0,0:0|0:0,0:0:0:0:
264,120,59663,2,0,L|256:16,1,93.5000028533936,0|0,1:0|1:0,0:0:0:0:
440,256,59996,2,0,L|328:256,1,93.5000028533936,10|0,0:0|0:0,0:0:0:0:
88,208,60329,6,0,L|288:208,1,187.000005706787,4|8,0:0|0:0,0:0:0:0:
160,160,60829,2,0,P|152:104|272:48,1,187.000005706787,2|0,0:0|1:0,0:0:0:0:
104,264,61329,2,0,L|232:264,1,93.5000028533936,8|0,0:0|0:0,0:0:0:0:
464,208,61663,6,0,L|264:208,1,187.000005706787,6|8,0:0|0:0,0:0:0:0:
400,168,62163,2,0,L|384:48,1,93.5000028533936,2|0,0:0|1:0,0:0:0:0:
160,280,62496,2,0,L|248:280,1,46.7500014266968,8|8,0:0|0:0,0:0:0:0:
384,272,62663,1,8,0:0:0:0:
440,240,62746,1,8,1:0:0:0:
440,176,62829,1,8,1:0:0:0:
384,160,62913,1,8,1:0:0:0:
192,144,62996,6,0,L|64:144,1,101.999996887207,6|0,0:0|0:0,0:0:0:0:
192,256,63329,1,0,1:0:0:0:
48,304,63496,1,12,0:0:0:0:
272,344,63663,2,0,L|408:304,1,101.999996887207,2|8,1:0|0:0,0:0:0:0:
120,192,63996,2,0,L|240:192,1,101.999996887207,14|0,0:0|1:0,0:0:0:0:
480,112,64329,6,0,L|336:112,1,101.999996887207,6|0,1:0|1:0,0:0:0:0:
120,160,64663,2,0,L|112:48,1,101.999996887207,14|0,0:0|1:0,0:0:0:0:
384,256,64996,1,10,0:0:0:0:
367,208,65079,1,8,0:0:0:0:
329,175,65162,1,8,0:0:0:0:
280,160,65246,1,8,0:0:0:0:
224,160,65329,1,0,1:0:0:0:
376,72,65496,2,0,L|384:144,1,50.9999984436036,0|0,1:0|1:0,0:0:0:0:
224,336,65663,6,0,L|96:336,1,101.999996887207,6|0,1:0|0:0,0:0:0:0:
248,248,65996,2,0,L|352:192,2,101.999996887207,8|0|0,0:0|0:0|1:0,0:0:0:0:
128,248,66496,1,0,1:0:0:0:
304,168,66663,2,0,L|312:32,1,101.999996887207,8|0,0:0|0:0,0:0:0:0:
56,160,66996,6,0,L|48:32,1,101.999996887207,4|0,1:3|0:0,0:0:0:0:
224,336,67329,2,0,L|232:208,1,101.999996887207,10|0,0:0|0:0,0:0:0:0:
112,184,67663,2,0,L|240:184,1,101.999996887207,2|0,1:0|1:0,0:0:0:0:
336,120,67996,2,0,L|224:120,1,101.999996887207,10|0,0:0|0:0,0:0:0:0:
496,320,68329,6,0,P|432:240|328:200,1,203.999993774414,6|8,0:0|0:0,0:0:0:0:
184,200,68829,2,0,L|64:200,2,101.999996887207,2|0|0,0:0|1:0|1:0,0:0:0:0:
312,160,69329,2,0,L|320:56,1,101.999996887207,8|0,0:0|0:0,0:0:0:0:
74,301,69663,6,0,L|82:189,1,101.999996887207,4|0,1:3|0:0,0:0:0:0:
216,200,69996,2,0,L|328:200,1,101.999996887207,10|0,0:0|1:0,0:0:0:0:
152,72,70329,2,0,L|272:72,1,101.999996887207,10|0,0:0|1:0,0:0:0:0:
424,192,70663,2,0,P|448:152|408:96,1,101.999996887207,10|0,0:0|0:0,0:0:0:0:
144,296,70996,6,0,P|88:232|200:176,1,203.999993774414,6|8,1:0|0:0,0:0:0:0:
328,160,71496,2,0,P|312:136|128:80,1,203.999993774414,2|0,0:0|1:0,0:0:0:0:
304,288,71996,2,0,L|312:176,1,101.999996887207,8|0,0:0|0:0,0:0:0:0:
56,160,72329,5,6,1:3:0:0:
168,104,72496,1,2,0:0:0:0:
56,72,72663,1,10,0:0:0:0:
296,312,72829,1,2,0:0:0:0:
416,264,72996,2,0,B|448:224|448:224|392:160,1,101.999996887207,0|0,1:0|1:0,0:0:0:0:
160,192,73329,2,0,L|152:80,1,101.999996887207,10|0,0:0|0:0,0:0:0:0:
416,72,73663,6,0,L|192:40,1,203.999993774414,6|8,0:0|0:0,0:0:0:0:
360,336,74163,2,0,L|472:288,2,101.999996887207,2|0|0,0:0|1:0|1:0,0:0:0:0:
208,328,74663,2,0,L|200:200,1,101.999996887207,10|0,0:0|0:0,0:0:0:0:
456,120,74996,6,0,L|352:112,1,101.999996887207,12|0,0:0|0:0,0:0:0:0:
224,96,75329,2,0,L|352:96,1,101.999996887207,10|0,0:0|0:0,0:0:0:0:
152,320,75663,2,0,P|80:312|16:184,1,203.999993774414,2|8,1:0|0:0,0:0:0:0:
120,192,76163,1,0,0:0:0:0:
408,192,76329,5,6,0:0:0:0:
280,128,76496,1,2,0:0:0:0:
408,80,76663,1,10,0:0:0:0:
168,320,76829,2,0,L|160:208,1,101.999996887207,2|0,0:0|1:0,0:0:0:0:
312,224,77163,2,0,L|320:112,1,101.999996887207,2|8,1:0|0:0,0:0:0:0:
80,168,77496,1,2,0:0:0:0:
224,168,77663,6,0,P|288:104|208:40,1,203.999993774414,4|10,1:3|0:0,0:0:0:0:
104,40,78163,1,0,0:0:0:0:
264,320,78329,2,0,L|272:200,1,101.999996887207,2|0,1:0|1:0,0:0:0:0:
416,176,78663,2,0,L|288:176,1,101.999996887207,10|0,0:0|0:0,0:0:0:0:
48,144,78996,5,6,1:0:0:0:
176,112,79163,1,0,0:0:0:0:
112,72,79246,1,0,0:0:0:0:
48,56,79329,1,10,0:0:0:0:
216,304,79496,2,0,L|224:168,1,101.999996887207,2|0,0:0|1:0,0:0:0:0:
88,192,79829,2,0,L|96:64,1,101.999996887207,2|8,1:0|0:0,0:0:0:0:
224,80,80163,1,2,0:0:0:0:
456,304,80329,6,0,L|336:304,1,101.999996887207,4|0,1:3|0:0,0:0:0:0:
192,304,80663,2,0,L|88:264,1,101.999996887207,10|0,0:0|0:0,0:0:0:0:
240,200,80996,2,0,L|248:80,1,101.999996887207,4|0,1:3|1:0,0:0:0:0:
112,64,81329,2,0,L|240:64,1,101.999996887207,8|0,0:0|0:0,0:0:0:0:
440,200,81663,5,6,1:0:0:0:
320,152,81829,1,2,0:0:0:0:
200,120,81996,1,10,0:0:0:0:
352,312,82163,2,0,L|368:168,1,101.999996887207,2|0,0:0|1:0,0:0:0:0:
208,208,82496,2,0,L|192:72,1,101.999996887207,2|8,1:0|0:0,0:0:0:0:
480,72,82829,6,0,L|352:72,1,101.999996887207,2|4,0:0|1:3,0:0:0:0:
224,80,83163,1,2,0:0:0:0:
376,296,83329,2,0,P|440:232|352:168,1,203.999993774414,10|0,0:0|1:0,0:0:0:0:
224,160,83829,1,0,1:0:0:0:
376,120,83996,2,0,L|384:16,1,101.999996887207,8|0,0:0|0:0,0:0:0:0:
152,328,84329,6,0,P|96:280|168:184,1,203.999993774414,6|8,1:3|0:0,0:0:0:0:
288,184,84829,2,0,L|296:40,1,101.999996887207,2|0,0:0|1:0,0:0:0:0:
152,56,85163,2,0,L|280:56,1,101.999996887207,2|8,1:0|0:0,0:0:0:0:
416,48,85496,1,2,0:0:0:0:
168,288,85663,6,0,L|48:288,1,101.999996887207,6|0,1:0|0:0,0:0:0:0:
208,208,85996,2,0,L|336:208,1,101.999996887207,14|0,0:3|1:0,0:0:0:0:
72,352,86329,2,0,L|80:232,1,101.999996887207,10|0,0:0|1:0,0:0:0:0:
168,240,86579,1,0,0:0:0:0:
256,200,86663,2,0,L|248:88,1,101.999996887207,10|0,0:0|0:0,0:0:0:0:
16,88,86996,5,6,1:0:0:0:
144,56,87163,1,2,0:0:0:0:
272,24,87329,1,10,0:0:0:0:
136,208,87496,2,0,L|248:208,1,101.999996887207,2|0,0:0|1:0,0:0:0:0:
368,288,87829,2,0,L|240:288,1,101.999996887207,2|8,1:0|0:0,0:0:0:0:
496,136,88163,6,0,L|280:80,1,203.999993774414,2|0,0:0|0:0,0:0:0:0:
432,296,88663,2,0,L|440:176,1,101.999996887207,10|0,0:0|0:0,0:0:0:0:
296,208,88996,2,0,L|288:72,1,101.999996887207,0|0,1:0|1:0,0:0:0:0:
128,128,89329,2,0,L|136:24,1,101.999996887207,8|0,0:0|0:0,0:0:0:0:
448,296,89663,5,6,1:0:0:0:
304,240,89829,1,2,0:0:0:0:
448,200,89996,1,10,0:0:0:0:
304,320,90163,2,0,L|296:200,1,101.999996887207,2|0,0:0|1:0,0:0:0:0:
464,144,90496,2,0,L|472:32,1,101.999996887207,2|8,1:0|0:0,0:0:0:0:
296,48,90829,1,2,0:0:0:0:
24,208,90996,5,4,1:3:0:0:
48,144,91079,1,0,1:0:0:0:
112,120,91163,1,0,1:0:0:0:
240,80,91329,1,10,0:0:0:0:
88,32,91496,1,8,0:0:0:0:
248,328,91663,2,0,L|256:248,1,50.9999984436036,10|8,0:0|0:0,0:0:0:0:
184,272,91829,2,0,L|176:192,1,50.9999984436036,8|8,0:0|0:0,0:0:0:0:
344,176,91996,2,0,L|456:176,1,101.999996887207,10|8,1:0|1:0,0:0:0:0:
184,96,92329,5,14,1:0:0:0:
64,56,92496,1,0,1:0:0:0:
184,24,92663,1,0,1:0:0:0:
352,312,92829,1,14,1:3:0:0:
232,272,92996,1,0,1:0:0:0:
104,240,93163,1,0,1:0:0:0:
424,160,93329,1,14,1:3:0:0:
312,88,93496,1,0,1:0:0:0:
448,40,93663,1,0,1:0:0:0:
176,336,93829,5,14,1:3:0:0:
328,272,93996,1,2,1:0:0:0:
208,208,94163,1,2,1:0:0:0:
448,176,94329,1,14,1:0:0:0:
328,104,94496,1,2,1:0:0:0:
456,64,94663,1,10,1:0:0:0:
192,296,94829,1,14,1:0:0:0:
128,280,94913,1,0,0:0:0:0:
72,224,94996,1,10,1:0:0:0:
224,192,95163,6,0,L|288:184,1,50.9999984436036,10|0,1:0|1:0,0:0:0:0:
464,128,95329,1,14,1:0:0:0:
344,88,95496,1,10,1:0:0:0:
240,40,95663,1,10,1:0:0:0:
424,32,95829,1,14,1:3:0:0:
280,152,95996,1,10,1:0:0:0:
416,320,96163,2,0,L|344:304,1,50.9999984436036,10|0,1:0|1:0,0:0:0:0:
152,288,96329,6,0,L|168:144,1,101.999996887207,14|2,1:0|1:0,0:0:0:0:
432,216,96663,2,0,L|416:80,1,101.999996887207,12|10,0:0|0:0,0:0:0:0:
352,112,96913,1,0,0:0:0:0:
192,120,96996,1,14,1:0:0:0:
88,64,97163,1,10,1:0:0:0:
192,24,97329,1,14,1:3:0:0:
416,24,97496,5,14,1:0:0:0:
256,192,97663,12,0,101663,0:0:0:0:
