osu file format v14

[General]
AudioFilename: audio.mp3
AudioLeadIn: 0
PreviewTime: 62933
Countdown: 0
SampleSet: Soft
StackLeniency: 0.7
Mode: 2
LetterboxInBreaks: 0
WidescreenStoryboard: 1

[Editor]
Bookmarks: 22849,43183,65683,84349,94349,97516
DistanceSpacing: 1.2
BeatDivisor: 4
GridSize: 4
TimelineZoom: 2.4

[Metadata]
Title:Sakura no Uta
TitleUnicode:櫻ノ詩
Artist:Hana
ArtistUnicode:はな
Creator:-Joakh
Version:Kukkai's Rain
Source:サクラノ詩 -櫻の森の上を舞う-
Tags:sakura no mori no ue o mau - metrowing makura 枕 visual video game novel eroge galgame japanese female vocalist Greaper Kukkai [_-Kukkai-_] -Luminate Jemzuu AJamez Rew0825 Ymiir -wwwww Fii
BeatmapID:2299166
BeatmapSetID:1093379

[Difficulty]
HPDrainRate:6
CircleSize:4
OverallDifficulty:9
ApproachRate:9
SliderMultiplier:1.8
SliderTickRate:2

[Events]
//Background and Video events
0,0,"BG4.jpg",0,0
//Break Periods
//Storyboard Layer 0 (Background)
//Storyboard Layer 1 (Fail)
//Storyboard Layer 2 (Pass)
//Storyboard Layer 3 (Foreground)
//Storyboard Layer 4 (Overlay)
//Storyboard Sound Samples

[TimingPoints]
330,333.333333333333,4,2,1,60,1,0
22996,-105.263157894737,4,2,1,65,0,0
41663,-105.263157894737,4,2,1,60,0,0
44329,-105.263157894737,4,2,1,65,0,0
49579,-100,4,2,1,5,0,0
49663,-105.263157894737,4,2,1,60,0,0
49913,-105.263157894737,4,2,1,5,0,0
49996,-105.263157894737,4,2,1,60,0,0
52246,-105.263157894737,4,2,1,5,0,0
52329,-105.263157894737,4,2,1,60,0,0
54996,-105.263157894737,4,2,1,65,0,0
62996,-100,4,2,1,65,0,0
65663,-100,4,2,1,75,0,1
81579,-100,4,2,1,5,0,1
81663,-100,4,2,1,75,0,1
85579,-100,4,2,1,5,0,1
85663,-100,4,2,1,75,0,1
92329,-100,4,2,1,80,0,0
101663,-100,4,2,1,60,0,0

[Colours]
Combo1 : 245,165,239
Combo2 : 245,210,184
Combo3 : 143,153,158

[HitObjects]
340,360,330,6,0,P|392:316|320:236,1,180,2|0,0:0|0:0,0:0:0:0:
252,236,829,2,0,L|156:204,1,90,2|2,0:0|0:0,0:0:0:0:
328,152,1163,1,2,0:0:0:0:
104,160,1329,1,2,0:0:0:0:
404,340,1996,5,2,0:0:0:0:
220,336,2329,2,0,L|220:216,1,90,2|0,0:0|0:0,0:0:0:0:
312,228,2663,2,0,L|384:156,1,90,2|0,0:0|0:0,0:0:0:0:
128,140,2996,6,0,L|4:140,2,90,2|0|2,0:0|0:0|0:0,0:0:0:0:
284,140,3496,2,0,L|388:140,2,90,2|0|0,0:0|0:0|0:0,0:0:0:0:
56,144,3996,1,2,0:0:0:0:
348,364,4663,6,0,L|232:364,1,90,2|0,0:0|0:0,0:0:0:0:
428,304,4996,2,0,L|428:184,1,90,2|2,0:0|0:0,0:0:0:0:
338,212,5329,2,0,L|442:214,1,90,2|0,0:0|0:0,0:0:0:0:
184,336,5663,5,2,0:0:0:0:
98,316,5829,1,0,0:0:0:0:
45,245,5996,1,2,0:0:0:0:
50,157,6162,1,0,0:0:0:0:
112,94,6329,1,2,0:0:0:0:
199,85,6496,1,2,0:0:0:0:
428,92,6663,5,2,0:0:0:0:
208,344,7163,1,0,0:0:0:0:
116,344,7329,2,0,L|116:236,1,90,2|0,0:0|0:0,0:0:0:0:
280,228,7663,1,2,0:0:0:0:
368,200,7829,1,0,0:0:0:0:
368,112,7996,1,2,0:0:0:0:
280,104,8162,1,0,0:0:0:0:
28,192,8329,6,0,L|28:88,1,90,2|0,0:0|0:0,0:0:0:0:
120,100,8663,1,0,0:0:0:0:
276,40,8829,1,2,0:0:0:0:
186,40,8995,1,0,0:0:0:0:
96,40,9162,1,0,0:0:0:0:
324,328,9329,2,0,L|208:328,1,90,2|0,1:0|1:0,0:0:0:0:
464,336,9663,6,0,L|484:216,1,90,6|0,0:0|1:0,0:0:0:0:
332,204,9996,2,0,L|444:204,1,90,8|0,0:0|1:0,0:0:0:0:
196,208,10329,2,0,L|100:208,1,90,8|8,0:0|0:0,0:0:0:0:
344,92,10663,2,0,L|408:92,1,45,0|0,1:0|1:0,0:0:0:0:
344,92,10829,2,0,L|260:92,1,45,0|0,1:0|1:0,0:0:0:0:
124,360,10996,6,0,L|16:360,1,90,6|0,1:0|0:0,0:0:0:0:
176,284,11329,2,0,L|308:284,1,90,8|0,0:0|1:0,0:0:0:0:
128,208,11663,1,10,0:0:0:0:
268,284,11829,1,2,1:0:0:0:
44,288,11996,6,0,L|44:176,1,90,10|0,0:0|1:0,0:0:0:0:
188,188,12329,2,0,L|320:188,1,90,12|0,0:3|1:0,0:0:0:0:
48,352,12663,2,0,L|48:220,1,90,10|0,0:0|1:0,0:0:0:0:
200,248,12996,2,0,L|200:120,1,90,10|0,0:0|1:0,0:0:0:0:
352,148,13329,2,0,L|352:40,1,90,10|0,0:0|0:0,0:0:0:0:
124,64,13663,6,0,L|12:64,2,90,14|0|10,0:0|0:0|0:0,0:0:0:0:
280,64,14163,2,0,L|392:64,2,90,2|8|0,1:0|0:0|1:0,0:0:0:0:
48,360,14663,6,0,L|156:360,1,90,10|0,0:0|1:0,0:0:0:0:
288,364,14996,2,0,L|288:240,1,90,12|0,0:3|1:0,0:0:0:0:
60,264,15329,2,0,L|168:264,1,90,10|2,0:0|1:0,0:0:0:0:
376,264,15663,2,0,L|376:144,1,90,10|2,0:0|1:0,0:0:0:0:
148,176,15996,2,0,L|148:60,1,90,10|0,0:3|1:0,0:0:0:0:
376,344,16329,5,14,0:0:0:0:
252,344,16496,1,2,1:0:0:0:
376,344,16663,1,10,0:0:0:0:
419,269,16829,1,2,1:0:0:0:
379,193,16996,1,10,0:0:0:0:
293,187,17163,1,2,1:0:0:0:
64,312,17329,6,0,L|64:204,1,90,10|0,0:0|1:0,0:0:0:0:
200,136,17663,2,0,L|104:136,1,90,8|2,0:0|1:0,0:0:0:0:
296,76,17996,2,0,L|392:52,1,90,10|2,0:0|1:0,0:0:0:0:
244,40,18329,1,10,0:0:0:0:
384,52,18496,1,2,1:0:0:0:
152,356,18663,2,0,L|152:232,1,90,10|0,0:0|1:0,0:0:0:0:
380,264,18996,6,0,L|484:264,2,90,14|0|8,0:3|1:0|0:0,0:0:0:0:
216,260,19496,1,2,1:0:0:0:
306,260,19662,1,8,0:0:0:0:
396,260,19829,1,0,1:0:0:0:
172,216,19996,2,0,L|56:216,1,90,10|0,0:0|1:0,0:0:0:0:
312,216,20329,2,0,L|312:88,1,90,12|0,0:3|1:0,0:0:0:0:
56,364,20663,6,0,L|264:364,1,180,10|8,0:0|0:0,0:0:0:0:
120,312,21163,1,8,0:0:0:0:
81,293,21246,1,8,0:0:0:0:
64,253,21329,1,0,1:0:0:0:
81,212,21412,1,0,1:0:0:0:
121,195,21496,1,0,1:0:0:0:
348,360,21663,5,2,0:0:0:0:
425,287,21829,1,2,0:0:0:0:
432,181,21996,1,2,0:0:0:0:
365,99,22163,1,2,0:0:0:0:
261,84,22329,1,2,0:0:0:0:
174,143,22496,1,2,0:0:0:0:
336,44,22663,1,2,0:0:0:0:
174,142,22829,1,2,0:0:0:0:
456,376,22996,6,0,L|456:264,1,85.4999977169037,4|0,1:0|0:0,0:0:0:0:
364,296,23329,2,0,L|364:192,1,85.4999977169037,0|0,1:0|0:0,0:0:0:0:
268,216,23663,2,0,L|268:104,1,85.4999977169037,0|0,1:0|0:0,0:0:0:0:
172,132,23996,2,0,L|172:228,1,85.4999977169037,0|0,1:0|0:0,0:0:0:0:
76,224,24329,2,0,L|76:108,1,85.4999977169037,0|0,1:0|0:0,0:0:0:0:
240,348,24663,6,0,L|40:348,2,170.999995433807,2|2|2,1:0|1:0|1:0,0:0:0:0:
328,344,25496,1,0,0:0:0:0:
96,272,25663,6,0,L|96:164,1,85.4999977169037,2|0,1:0|0:0,0:0:0:0:
236,176,25996,2,0,L|340:176,1,85.4999977169037,2|0,1:0|0:0,0:0:0:0:
168,104,26329,2,0,L|80:104,1,85.4999977169037,2|0,1:0|0:0,0:0:0:0:
320,356,26663,5,2,1:0:0:0:
400,330,26829,1,0,0:0:0:0:
449,262,26996,1,0,1:0:0:0:
449,178,27163,1,0,0:0:0:0:
399,111,27329,1,0,1:0:0:0:
318,86,27496,1,0,0:0:0:0:
156,264,27663,6,0,L|276:264,1,85.4999977169037,2|0,1:0|1:0,0:0:0:0:
388,264,27996,2,0,L|292:264,1,85.4999977169037,10|0,0:0|0:0,0:0:0:0:
72,184,28329,6,0,L|264:184,2,170.999995433807,6|2|2,1:0|1:0|1:0,0:0:0:0:
156,184,29163,1,0,0:0:0:0:
392,360,29329,6,0,L|392:260,1,85.4999977169037,2|0,1:0|0:0,0:0:0:0:
304,264,29663,2,0,L|200:264,1,85.4999977169037,0|0,1:0|0:0,0:0:0:0:
452,96,29996,2,0,L|356:96,1,85.4999977169037,2|0,1:0|0:0,0:0:0:0:
212,92,30329,2,0,L|212:200,1,85.4999977169037,2|0,1:0|0:0,0:0:0:0:
372,196,30663,2,0,L|372:92,1,85.4999977169037,2|0,1:0|0:0,0:0:0:0:
144,200,30996,6,0,L|44:200,2,85.4999977169037,2|0|0,1:0|0:0|1:0,0:0:0:0:
288,196,31496,2,0,L|400:196,2,85.4999977169037,2|0|0,0:0|1:0|0:0,0:0:0:0:
60,208,31996,6,0,L|60:104,1,85.4999977169037,2|0,1:0|0:0,0:0:0:0:
152,120,32329,2,0,L|252:120,1,85.4999977169037,0|0,1:0|0:0,0:0:0:0:
396,352,32663,2,0,L|396:236,1,85.4999977169037,2|0,1:0|0:0,0:0:0:0:
260,204,32996,1,2,1:0:0:0:
392,200,33163,1,10,0:0:0:0:
260,204,33329,1,2,1:0:0:0:
128,204,33496,1,0,1:0:0:0:
396,368,33663,6,0,L|396:282,1,85.4999977169037,4|0,1:0|0:0,0:0:0:0:
304,292,33996,2,0,L|304:188,1,85.4999977169037,0|0,1:0|0:0,0:0:0:0:
208,208,34329,2,0,L|208:92,1,85.4999977169037,0|0,1:0|0:0,0:0:0:0:
304,120,34663,2,0,L|304:8,1,85.4999977169037,0|0,1:0|0:0,0:0:0:0:
400,28,34996,2,0,L|400:136,1,85.4999977169037,0|0,1:0|0:0,0:0:0:0:
244,360,35329,6,0,L|448:360,2,170.999995433807,2|2|2,1:0|1:0|1:0,0:0:0:0:
160,356,36163,1,0,0:0:0:0:
392,296,36329,6,0,L|392:176,1,85.4999977169037,2|0,1:0|0:0,0:0:0:0:
248,212,36663,2,0,L|152:212,1,85.4999977169037,2|0,1:0|0:0,0:0:0:0:
304,128,36996,2,0,L|408:128,1,85.4999977169037,2|0,1:0|0:0,0:0:0:0:
160,356,37329,2,0,L|60:356,1,85.4999977169037,2|0,1:0|0:0,0:0:0:0:
74,356,37663,2,0,L|172:356,1,85.4999977169037,0|0,1:0|0:0,0:0:0:0:
312,360,37996,6,0,L|312:248,1,85.4999977169037,2|8,1:0|0:0,0:0:0:0:
184,276,38329,1,2,1:0:0:0:
56,276,38496,1,0,0:0:0:0:
184,276,38663,1,2,1:0:0:0:
312,276,38829,1,8,0:0:0:0:
80,188,38996,6,0,L|80:80,1,85.4999977169037,4|0,1:0|0:0,0:0:0:0:
168,104,39329,1,0,1:0:0:0:
328,104,39496,1,2,0:0:0:0:
456,100,39663,2,0,L|456:200,1,85.4999977169037,0|0,1:0|0:0,0:0:0:0:
348,184,39996,2,0,L|436:184,1,85.4999977169037,0|0,1:0|0:0,0:0:0:0:
200,320,40329,6,0,L|200:216,1,85.4999977169037,2|0,1:0|0:0,0:0:0:0:
332,228,40663,1,2,1:0:0:0:
172,168,40829,2,0,L|64:168,2,85.4999977169037,2|0|0,0:0|1:0|0:0,0:0:0:0:
424,164,41329,2,0,L|424:68,1,85.4999977169037,2|0,1:0|1:0,0:0:0:0:
192,356,41663,6,0,L|400:356,1,170.999995433807,4|8,1:0|0:0,0:0:0:0:
120,272,42163,2,0,L|12:272,2,85.4999977169037,0|4|0,0:0|0:3|0:0,0:0:0:0:
272,268,42663,2,0,L|272:168,1,85.4999977169037,8|0,0:0|1:0,0:0:0:0:
120,176,42996,6,0,L|120:80,1,85.4999977169037,12|0,0:0|1:0,0:0:0:0:
360,88,43329,2,0,L|460:88,1,85.4999977169037,2|8,1:0|0:0,0:0:0:0:
200,88,43663,2,0,L|92:88,1,85.4999977169037,2|0,1:0|1:0,0:0:0:0:
348,336,43996,2,0,L|402:336,1,42.7499988584519,10|8,0:0|0:0,0:0:0:0:
390,336,44163,2,0,L|332:336,1,42.7499988584519,8|8,0:0|0:0,0:0:0:0:
164,224,44329,5,6,1:0:0:0:
249,224,44495,1,0,1:0:0:0:
335,224,44662,1,8,0:0:0:0:
104,148,44829,1,14,0:0:0:0:
332,64,45329,6,0,L|224:64,2,85.4999977169037,14|0|8,0:0|1:0|0:0,0:0:0:0:
96,64,45829,1,14,0:0:0:0:
332,364,46329,2,0,L|332:248,1,85.4999977169037,10|0,0:0|1:0,0:0:0:0:
172,276,46663,2,0,L|172:160,1,85.4999977169037,10|0,0:0|1:0,0:0:0:0:
408,176,46996,6,0,L|312:176,1,85.4999977169037,6|0,0:0|0:0,0:0:0:0:
468,112,47329,1,8,0:0:0:0:
320,360,47496,2,0,L|320:240,1,85.4999977169037,2|0,0:0|1:0,0:0:0:0:
472,264,47829,2,0,L|472:156,1,85.4999977169037,2|8,1:0|0:0,0:0:0:0:
236,272,48163,1,2,0:0:0:0:
144,272,48329,6,0,L|144:160,1,85.4999977169037,0|0,1:0|0:0,0:0:0:0:
288,176,48663,1,8,0:0:0:0:
376,140,48829,1,0,0:0:0:0:
376,60,48996,1,0,1:0:0:0:
288,29,49162,1,0,1:0:0:0:
116,48,49329,2,0,L|116:160,1,85.4999977169037,10|0,0:0|0:0,0:0:0:0:
352,356,49663,6,0,L|160:356,1,170.999995433807,6|10,0:0|0:0,0:0:0:0:
328,288,50163,2,0,L|328:176,1,85.4999977169037,2|0,0:0|1:0,0:0:0:0:
180,196,50496,2,0,L|84:196,1,85.4999977169037,2|8,1:0|0:0,0:0:0:0:
328,192,50829,1,2,0:0:0:0:
416,188,50996,6,0,L|416:96,1,85.4999977169037,0|0,1:0|0:0,0:0:0:0:
324,104,51329,2,0,L|224:104,1,85.4999977169037,8|0,0:0|0:0,0:0:0:0:
324,104,51663,2,0,L|424:104,1,85.4999977169037,0|0,1:0|1:0,0:0:0:0:
248,352,51996,2,0,L|248:228,1,85.4999977169037,10|0,0:0|0:0,0:0:0:0:
480,200,52329,6,0,L|368:200,1,85.4999977169037,6|0,0:0|0:0,0:0:0:0:
309,200,52663,2,0,L|425:200,1,85.4999977169037,8|0,0:0|0:0,0:0:0:0:
248,192,52996,2,0,L|152:192,1,85.4999977169037,2|0,1:0|1:0,0:0:0:0:
248,192,53329,2,0,L|344:192,1,85.4999977169037,8|0,0:0|0:0,0:0:0:0:
100,188,53663,6,0,L|12:188,1,85.4999977169037,6|0,0:0|0:0,0:0:0:0:
14,188,53996,2,0,L|120:188,1,85.4999977169037,8|0,0:0|0:0,0:0:0:0:
336,356,54329,2,0,L|336:248,1,85.4999977169037,10|0,1:0|1:0,0:0:0:0:
248,268,54663,2,0,L|136:268,1,85.4999977169037,8|8,0:0|0:0,0:0:0:0:
396,160,54996,5,6,0:0:0:0:
310,160,55162,1,0,1:0:0:0:
225,160,55329,1,8,0:0:0:0:
456,76,55496,1,14,0:0:0:0:
192,80,55996,6,0,L|288:80,2,85.4999977169037,14|0|8,0:0|1:0|0:0,0:0:0:0:
424,88,56496,1,2,1:0:0:0:
212,348,56996,6,0,L|212:236,1,85.4999977169037,10|0,0:0|1:0,0:0:0:0:
360,248,57329,2,0,L|468:248,1,85.4999977169037,10|0,0:0|1:0,0:0:0:0:
212,240,57663,6,0,L|212:128,1,85.4999977169037,6|0,0:0|0:0,0:0:0:0:
360,152,57996,1,10,0:0:0:0:
212,144,58163,2,0,L|108:144,1,85.4999977169037,2|0,0:0|1:0,0:0:0:0:
272,64,58496,2,0,L|380:64,1,85.4999977169037,2|8,1:0|0:0,0:0:0:0:
116,352,58829,1,2,0:0:0:0:
216,352,58996,6,0,L|216:232,1,85.4999977169037,4|0,1:3|0:0,0:0:0:0:
68,264,59329,2,0,L|68:164,1,85.4999977169037,8|0,0:0|0:0,0:0:0:0:
160,172,59663,2,0,L|264:172,1,85.4999977169037,0|0,1:0|1:0,0:0:0:0:
92,104,59996,2,0,L|92:196,1,85.4999977169037,10|0,0:0|0:0,0:0:0:0:
324,184,60329,6,0,L|448:184,2,85.4999977169037,4|0|8,0:0|0:0|0:0,0:0:0:0:
168,344,60829,2,0,L|168:248,1,85.4999977169037,2|0,0:0|1:0,0:0:0:0:
300,252,61163,1,0,1:0:0:0:
432,252,61329,2,0,L|340:252,1,85.4999977169037,8|0,0:0|0:0,0:0:0:0:
108,168,61663,6,0,L|0:168,2,85.4999977169037,6|0|8,0:0|0:0|0:0,0:0:0:0:
252,168,62163,2,0,L|364:168,1,85.4999977169037,2|0,0:0|1:0,0:0:0:0:
192,172,62496,1,8,0:0:0:0:
151,165,62579,1,8,0:0:0:0:
132,129,62662,1,8,0:0:0:0:
149,92,62746,1,8,1:0:0:0:
190,84,62829,1,8,1:0:0:0:
468,184,62996,6,0,L|284:184,1,180,6|0,0:0|1:0,0:0:0:0:
396,180,63496,1,12,0:0:0:0:
104,56,63663,2,0,L|296:56,1,180,2|14,1:0|0:0,0:0:0:0:
176,56,64163,1,0,1:0:0:0:
408,360,64329,6,0,L|408:264,1,90,6|0,1:0|1:0,0:0:0:0:
180,260,64663,2,0,L|84:260,1,90,14|0,0:0|1:0,0:0:0:0:
364,296,64996,1,10,0:0:0:0:
406,284,65079,1,8,0:0:0:0:
438,253,65162,1,8,0:0:0:0:
450,210,65246,1,8,0:0:0:0:
439,167,65329,1,0,1:0:0:0:
408,135,65412,1,0,1:0:0:0:
365,123,65496,1,0,1:0:0:0:
116,124,65663,6,0,L|16:124,2,90,6|0|8,1:0|0:0|0:0,0:0:0:0:
296,124,66163,2,0,L|420:124,2,90,0|0|0,0:0|1:0|1:0,0:0:0:0:
112,344,66663,2,0,L|112:216,1,90,8|0,0:0|0:0,0:0:0:0:
288,248,66996,6,0,L|288:136,1,90,4|0,1:3|0:0,0:0:0:0:
60,152,67329,2,0,L|172:152,1,90,10|0,0:0|0:0,0:0:0:0:
384,152,67663,2,0,L|264:152,1,90,2|0,1:0|1:0,0:0:0:0:
68,156,67996,2,0,L|68:48,1,90,10|0,0:0|0:0,0:0:0:0:
312,56,68329,6,0,L|424:56,2,90,6|0|8,0:0|0:0|0:0,0:0:0:0:
136,348,68829,2,0,L|20:348,2,90,2|0|0,0:0|1:0|1:0,0:0:0:0:
316,260,69329,2,0,L|196:260,1,90,8|0,0:0|0:0,0:0:0:0:
48,260,69663,6,0,L|48:144,1,90,4|0,1:3|0:0,0:0:0:0:
288,164,69996,2,0,L|408:164,1,90,10|0,0:0|1:0,0:0:0:0:
152,164,70329,2,0,L|152:60,1,90,10|0,0:0|1:0,0:0:0:0:
388,60,70663,2,0,L|272:60,1,90,10|0,0:0|0:0,0:0:0:0:
60,356,70996,5,6,1:0:0:0:
149,354,71162,1,0,0:0:0:0:
239,352,71329,1,8,0:0:0:0:
56,272,71496,2,0,L|56:160,1,90,2|0,0:0|1:0,0:0:0:0:
152,180,71829,1,0,1:0:0:0:
332,192,71996,2,0,L|440:192,1,90,8|0,0:0|0:0,0:0:0:0:
184,100,72329,5,6,1:3:0:0:
328,100,72496,1,2,0:0:0:0:
184,100,72663,1,10,0:0:0:0:
408,352,72829,2,0,L|408:244,1,90,2|0,0:0|1:0,0:0:0:0:
312,264,73163,1,0,1:0:0:0:
88,264,73329,2,0,L|88:152,1,90,10|0,0:0|0:0,0:0:0:0:
336,128,73663,5,6,0:0:0:0:
246,128,73829,1,0,0:0:0:0:
156,128,73996,1,8,0:0:0:0:
336,52,74163,2,0,L|440:52,2,90,2|0|0,0:0|1:0|1:0,0:0:0:0:
156,336,74663,2,0,L|156:224,1,90,10|0,0:0|0:0,0:0:0:0:
400,236,74996,6,0,L|400:132,1,90,12|0,0:0|0:0,0:0:0:0:
148,152,75329,2,0,L|248:152,1,90,10|0,0:0|0:0,0:0:0:0:
464,152,75663,2,0,L|352:152,1,90,2|0,1:0|1:0,0:0:0:0:
192,152,75996,2,0,L|192:56,1,90,8|0,0:0|0:0,0:0:0:0:
424,64,76329,5,6,0:0:0:0:
288,68,76496,1,2,0:0:0:0:
424,64,76663,1,10,0:0:0:0:
200,356,76829,2,0,L|196:240,1,90,2|0,0:0|1:0,0:0:0:0:
372,252,77163,2,0,L|376:152,1,90,2|8,1:0|0:0,0:0:0:0:
144,164,77496,1,2,0:0:0:0:
234,164,77662,5,4,1:3:0:0:
324,164,77829,1,0,0:0:0:0:
88,356,77996,2,0,L|88:256,1,90,10|0,0:0|0:0,0:0:0:0:
268,268,78329,2,0,L|268:176,1,90,2|0,1:0|1:0,0:0:0:0:
452,164,78663,2,0,L|456:52,1,90,10|0,0:0|0:0,0:0:0:0:
224,360,78996,6,0,L|124:360,1,90,6|0,1:0|0:0,0:0:0:0:
288,308,79329,1,10,0:0:0:0:
60,308,79496,2,0,L|60:208,1,90,2|0,0:0|1:0,0:0:0:0:
240,136,79829,2,0,L|148:136,1,90,2|8,1:0|0:0,0:0:0:0:
392,64,80163,6,0,L|500:64,2,90,2|4|0,0:0|1:3|0:0,0:0:0:0:
160,360,80663,2,0,L|160:264,1,90,10|0,0:0|0:0,0:0:0:0:
340,264,80996,2,0,L|224:264,1,90,4|0,1:3|1:0,0:0:0:0:
72,196,81329,2,0,L|188:196,1,90,8|0,0:0|0:0,0:0:0:0:
400,96,81663,5,6,1:0:0:0:
260,100,81829,1,2,0:0:0:0:
400,96,81996,1,10,0:0:0:0:
168,348,82163,2,0,L|168:232,1,90,2|0,0:0|1:0,0:0:0:0:
356,256,82496,2,0,L|460:256,1,90,2|8,1:0|0:0,0:0:0:0:
212,160,82829,6,0,L|328:160,1,90,2|4,0:0|1:3,0:0:0:0:
144,100,83163,1,2,0:0:0:0:
384,352,83329,2,0,L|384:244,1,90,10|0,0:0|0:0,0:0:0:0:
204,264,83663,2,0,L|204:160,1,90,0|0,1:0|1:0,0:0:0:0:
24,164,83996,2,0,L|24:44,1,90,8|0,0:0|0:0,0:0:0:0:
252,64,84329,6,0,L|360:64,1,90,6|0,1:3|0:0,0:0:0:0:
342,64,84663,1,8,0:0:0:0:
160,64,84829,2,0,L|48:64,1,90,2|0,0:0|1:0,0:0:0:0:
304,352,85163,2,0,L|304:224,1,90,2|8,1:0|0:0,0:0:0:0:
160,264,85496,1,2,0:0:0:0:
392,264,85663,6,0,P|440:232|364:144,1,180,6|14,1:0|0:3,0:0:0:0:
312,140,86163,1,0,1:0:0:0:
76,136,86329,2,0,L|172:136,1,90,10|0,0:0|1:0,0:0:0:0:
408,56,86663,2,0,L|316:56,1,90,10|0,0:0|0:0,0:0:0:0:
88,56,86996,5,6,1:0:0:0:
224,60,87163,1,2,0:0:0:0:
88,56,87329,1,10,0:0:0:0:
320,344,87496,2,0,L|320:232,1,90,2|0,0:0|1:0,0:0:0:0:
136,248,87829,2,0,L|136:128,1,90,2|8,1:0|0:0,0:0:0:0:
368,148,88163,6,0,L|272:148,1,90,2|4,0:0|1:3,0:0:0:0:
436,80,88496,1,0,0:0:0:0:
208,352,88663,2,0,L|112:352,1,90,10|0,0:0|0:0,0:0:0:0:
300,248,88996,2,0,L|180:248,1,90,0|0,1:0|1:0,0:0:0:0:
392,168,89329,2,0,L|488:168,1,90,8|0,0:0|0:0,0:0:0:0:
236,96,89663,5,6,1:0:0:0:
356,96,89829,1,2,0:0:0:0:
472,96,89996,1,10,0:0:0:0:
232,340,90163,2,0,L|128:340,1,90,2|0,0:0|1:0,0:0:0:0:
324,268,90496,2,0,L|420:268,1,90,2|8,1:0|0:0,0:0:0:0:
228,192,90829,1,2,0:0:0:0:
460,348,90996,6,0,L|460:220,1,90,4|0,1:3|1:0,0:0:0:0:
316,208,91329,2,0,L|416:208,1,90,10|8,0:0|0:0,0:0:0:0:
160,208,91663,2,0,L|56:208,1,90,10|8,0:0|0:0,0:0:0:0:
256,128,91996,2,0,L|352:128,1,90,10|8,1:0|1:0,0:0:0:0:
108,344,92329,6,0,L|224:344,2,90,14|0|0,1:0|1:0|1:0,0:0:0:0:
336,248,92829,1,14,1:3:0:0:
246,248,92995,1,0,1:0:0:0:
156,248,93162,1,0,1:0:0:0:
384,148,93329,6,0,L|272:148,2,90,14|0|0,1:3|1:0|1:0,0:0:0:0:
120,72,93829,1,14,1:3:0:0:
210,72,93995,1,2,1:0:0:0:
300,72,94162,1,2,1:0:0:0:
72,352,94329,5,14,1:0:0:0:
184,352,94496,1,2,1:0:0:0:
72,352,94663,1,10,1:0:0:0:
304,232,94829,1,14,1:0:0:0:
420,236,94996,1,10,1:0:0:0:
304,232,95163,1,10,1:0:0:0:
76,160,95329,5,14,1:0:0:0:
184,164,95496,1,10,1:0:0:0:
288,164,95663,1,10,1:0:0:0:
60,88,95829,1,14,1:3:0:0:
176,88,95996,1,10,1:0:0:0:
60,88,96163,1,10,1:0:0:0:
296,84,96329,6,0,L|404:84,1,90,14|2,1:0|1:0,0:0:0:0:
144,360,96663,2,0,L|44:360,1,90,12|10,0:0|0:0,0:0:0:0:
324,244,96996,1,14,1:0:0:0:
184,244,97163,1,10,1:0:0:0:
48,248,97329,1,14,1:3:0:0:
368,176,97496,5,14,1:0:0:0:
256,192,97663,12,0,101663,0:0:0:0:
