osu file format v14

[General]
AudioFilename: audio.mp3
AudioLeadIn: 0
PreviewTime: 62933
Countdown: 0
SampleSet: Soft
StackLeniency: 0.7
Mode: 2
LetterboxInBreaks: 0
WidescreenStoryboard: 1

[Editor]
DistanceSpacing: 1.2
BeatDivisor: 4
GridSize: 16
TimelineZoom: 3.599998

[Metadata]
Title:Sakura no Uta
TitleUnicode:櫻ノ詩
Artist:Hana
ArtistUnicode:はな
Creator:-Joakh
Version:Greaper's Overdose
Source:サクラノ詩 -櫻の森の上を舞う-
Tags:sakura no mori no ue o mau - metrowing makura 枕 visual video game novel eroge galgame japanese female vocalist Greaper Kukkai [_-Kukkai-_] -Luminate Jemzuu AJamez Rew0825 Ymiir -wwwww Fii
BeatmapID:2300357
BeatmapSetID:1093379

[Difficulty]
HPDrainRate:6
CircleSize:4.2
OverallDifficulty:9.3
ApproachRate:9.3
SliderMultiplier:2
SliderTickRate:2

[Events]
//Background and Video events
0,0,"BG5.jpg",0,0
//Break Periods
//Storyboard Layer 0 (Background)
//Storyboard Layer 1 (Fail)
//Storyboard Layer 2 (Pass)
//Storyboard Layer 3 (Foreground)
//Storyboard Layer 4 (Overlay)
//Storyboard Sound Samples

[TimingPoints]
330,333.333333333333,4,2,1,60,1,0
22996,-100,4,2,1,65,0,0
31829,-100,4,2,1,60,0,0
33329,-100,4,2,1,60,0,0
38663,-100,4,2,1,60,0,0
41663,-100,4,2,1,60,0,0
44329,-100,4,2,1,65,0,0
49579,-100,4,2,1,5,0,0
49663,-100,4,2,1,60,0,0
49913,-100,4,2,1,5,0,0
49996,-100,4,2,1,60,0,0
52246,-100,4,2,1,5,0,0
52329,-100,4,2,1,60,0,0
54996,-100,4,2,1,65,0,0
65663,-90.9090909090909,4,2,1,75,0,1
81579,-90.9090909090909,4,2,1,5,0,1
81663,-90.9090909090909,4,2,1,75,0,1
85579,-90.9090909090909,4,2,1,5,0,1
85663,-90.9090909090909,4,2,1,75,0,1
92329,-100,4,2,1,80,0,0
101663,-100,4,2,1,60,0,0

[Colours]
Combo1 : 214,136,230
Combo2 : 244,214,151
Combo3 : 183,192,202
Combo4 : 152,159,165

[HitObjects]
324,288,330,6,0,P|392:215|330:157,1,200,2|0,0:0|0:0,0:0:0:0:
235,146,829,1,2,0:0:0:0:
396,110,996,2,0,L|405:4,1,100,2|2,0:0|0:0,0:0:0:0:
173,30,1329,6,0,P|97:48|191:200,1,300,2|0,0:0|0:0,0:0:0:0:
385,211,1996,2,0,L|390:320,1,100,2|0,0:0|0:0,0:0:0:0:
227,312,2329,2,0,L|114:313,1,100,2|0,0:0|0:0,0:0:0:0:
288,227,2663,2,0,L|178:230,1,100,2|0,0:0|0:0,0:0:0:0:
424,203,2996,6,0,L|426:87,1,100,2|0,0:0|0:0,0:0:0:0:
261,102,3329,1,2,0:0:0:0:
491,59,3496,2,0,L|266:48,1,200,2|0,0:0|0:0,0:0:0:0:
49,86,3996,6,0,P|47:134|244:273,1,300,2|0,0:0|0:0,0:0:0:0:
458,258,4663,2,0,L|461:146,1,100,2|0,0:0|0:0,0:0:0:0:
225,152,4996,1,2,0:0:0:0:
121,126,5163,1,2,0:0:0:0:
111,35,5329,1,2,0:0:0:0:
211,17,5496,1,0,0:0:0:0:
448,291,5663,5,2,0:0:0:0:
346,283,5829,1,0,0:0:0:0:
243,264,5996,1,2,0:0:0:0:
404,186,6163,1,0,0:0:0:0:
169,190,6329,1,2,0:0:0:0:
321,176,6496,1,2,0:0:0:0:
88,210,6663,6,0,P|70:157|243:42,1,300,2|0,0:0|0:0,0:0:0:0:
393,46,7329,2,0,L|398:158,1,100,2|0,0:0|0:0,0:0:0:0:
155,154,7663,1,2,0:0:0:0:
54,158,7829,1,0,0:0:0:0:
50,238,7996,1,2,0:0:0:0:
152,257,8163,1,0,0:0:0:0:
393,72,8329,6,0,L|175:64,1,200,2|0,0:0|0:0,0:0:0:0:
436,142,8829,2,0,L|441:250,1,100,2|0,0:0|0:0,0:0:0:0:
338,243,9163,1,0,0:0:0:0:
99,247,9329,2,0,L|95:132,1,100,2|0,1:0|1:0,0:0:0:0:
402,113,9663,5,6,0:0:0:0:
241,107,9829,1,0,1:0:0:0:
481,115,9996,2,0,L|484:10,1,100,8|0,0:0|1:0,0:0:0:0:
250,24,10329,1,8,0:0:0:0:
486,14,10496,2,0,L|427:16,1,50,8|8,0:0|0:0,0:0:0:0:
231,122,10663,2,0,L|168:127,1,50,0|0,1:0|1:0,0:0:0:0:
382,218,10829,2,0,L|442:221,1,50,0|0,1:0|1:0,0:0:0:0:
180,287,10996,6,0,L|56:282,1,100,6|0,1:0|0:0,0:0:0:0:
330,191,11329,2,0,L|434:188,1,100,8|0,0:0|1:0,0:0:0:0:
268,142,11663,1,10,0:0:0:0:
496,128,11829,1,2,1:0:0:0:
254,76,11996,6,0,L|142:72,1,100,10|0,0:0|1:0,0:0:0:0:
316,122,12329,2,0,L|318:233,1,100,12|0,0:3|1:0,0:0:0:0:
76,237,12663,2,0,L|201:235,1,100,10|0,0:0|1:0,0:0:0:0:
228,233,12913,1,0,0:0:0:0:
82,182,12996,2,0,L|77:60,1,100,10|0,0:0|1:0,0:0:0:0:
318,83,13329,2,0,L|446:80,1,100,10|0,0:0|0:0,0:0:0:0:
116,65,13663,6,0,L|113:179,1,100,14|0,0:0|0:0,0:0:0:0:
274,172,13996,1,10,0:0:0:0:
31,197,14163,1,2,1:0:0:0:
180,235,14329,2,0,L|310:244,1,100,8|0,0:0|1:0,0:0:0:0:
34,296,14663,2,0,L|30:194,1,100,10|0,0:0|1:0,0:0:0:0:
312,190,14996,6,0,L|421:186,1,100,12|0,0:3|1:0,0:0:0:0:
168,157,15329,2,0,L|163:54,1,100,10|2,0:0|1:0,0:0:0:0:
416,46,15663,2,0,L|284:41,1,100,10|2,0:0|1:0,0:0:0:0:
76,53,15996,2,0,L|68:178,1,100,10|0,0:3|1:0,0:0:0:0:
373,123,16329,5,14,0:0:0:0:
470,155,16496,1,2,1:0:0:0:
460,263,16663,1,10,0:0:0:0:
359,278,16829,1,2,1:0:0:0:
115,281,16996,1,10,0:0:0:0:
268,280,17163,1,2,1:0:0:0:
31,237,17329,2,0,L|30:124,1,100,10|0,0:0|1:0,0:0:0:0:
330,194,17663,5,8,0:0:0:0:
181,163,17829,1,2,1:0:0:0:
423,139,17996,2,0,L|425:24,1,100,10|2,0:0|1:0,0:0:0:0:
184,50,18329,2,0,L|51:41,1,100,10|2,0:0|1:0,0:0:0:0:
238,123,18663,2,0,L|115:117,1,100,10|0,0:0|1:0,0:0:0:0:
385,214,18996,6,0,P|451:197|370:130,1,200,14|8,0:3|0:0,0:0:0:0:
156,108,19496,1,2,1:0:0:0:
297,156,19663,2,0,L|301:207,1,50,8|0,0:0|0:0,0:0:0:0:
215,207,19829,2,0,L|150:214,1,50,0|0,1:0|0:0,0:0:0:0:
315,264,19996,1,10,0:0:0:0:
366,273,20079,1,0,0:0:0:0:
381,302,20163,1,0,1:0:0:0:
371,338,20246,1,0,0:0:0:0:
119,318,20329,6,0,L|241:320,1,100,12|0,0:3|1:0,0:0:0:0:
465,322,20663,2,0,L|471:206,1,100,10|4,0:0|1:3,0:0:0:0:
227,202,20996,1,8,0:0:0:0:
176,186,21079,1,8,0:0:0:0:
329,140,21163,1,8,0:0:0:0:
380,127,21246,1,8,0:0:0:0:
181,121,21329,1,0,1:0:0:0:
129,128,21413,1,0,1:0:0:0:
314,182,21496,1,0,1:0:0:0:
364,185,21579,1,0,1:0:0:0:
137,192,21663,5,2,0:0:0:0:
268,241,21829,2,0,L|377:243,2,100,2|2|2,0:0|0:0|0:0,0:0:0:0:
114,250,22329,2,0,L|106:354,1,100,2|2,0:0|0:0,0:0:0:0:
349,348,22663,2,0,L|471:348,1,100,2|2,0:0|0:0,0:0:0:0:
145,164,22996,6,0,P|77:126|152:61,1,200,4|0,1:0|1:0,0:0:0:0:
243,56,23496,1,0,0:0:0:0:
92,206,23663,2,0,L|86:309,1,100,0|0,1:0|0:0,0:0:0:0:
328,279,23996,6,0,L|441:281,1,100,0|0,1:0|0:0,0:0:0:0:
275,227,24329,2,0,L|271:114,1,100,0|0,1:0|0:0,0:0:0:0:
30,99,24663,2,0,L|134:95,1,100,2|0,1:0|0:0,0:0:0:0:
371,93,24996,2,0,L|378:199,1,100,2|0,1:0|0:0,0:0:0:0:
216,200,25329,2,0,L|104:206,1,100,2|0,1:0|0:0,0:0:0:0:
380,222,25663,6,0,L|382:101,1,100,2|0,1:0|0:0,0:0:0:0:
139,112,25996,2,0,L|269:111,1,100,2|0,1:0|0:0,0:0:0:0:
409,333,26329,2,0,L|416:218,1,100,2|0,1:0|0:0,0:0:0:0:
169,231,26663,5,2,1:0:0:0:
69,221,26829,1,0,0:0:0:0:
89,122,26996,1,0,1:0:0:0:
189,106,27163,1,0,0:0:0:0:
432,114,27329,2,0,L|439:238,1,100,0|0,1:0|0:0,0:0:0:0:
192,217,27663,1,2,1:0:0:0:
341,221,27829,1,0,1:0:0:0:
101,215,27996,2,0,L|97:101,1,100,10|0,0:0|0:0,0:0:0:0:
402,147,28329,6,0,L|275:139,1,100,6|0,1:0|0:0,0:0:0:0:
457,59,28663,1,2,1:0:0:0:
217,151,28829,1,0,0:0:0:0:
378,200,28996,2,0,L|384:309,1,100,2|0,1:0|0:0,0:0:0:0:
121,316,29329,6,0,L|348:316,1,200,2|0,1:0|1:0,0:0:0:0:
217,264,29829,1,0,0:0:0:0:
458,269,29996,2,0,L|462:156,1,100,2|0,1:0|0:0,0:0:0:0:
304,158,30329,2,0,L|176:152,1,100,2|0,1:0|0:0,0:0:0:0:
447,132,30663,2,0,L|454:22,1,100,2|0,1:0|0:0,0:0:0:0:
154,37,30996,6,0,L|262:43,2,100,2|0|0,1:0|0:0|1:0,0:0:0:0:
394,96,31496,2,0,L|399:199,1,100,2|0,0:0|1:0,0:0:0:0:
236,200,31829,1,0,0:0:0:0:
398,227,31996,1,2,1:0:0:0:
156,239,32163,6,0,L|39:241,2,100,0|0|0,0:0|1:0|0:0,0:0:0:0:
306,235,32663,2,0,L|310:118,1,100,2|0,1:0|0:0,0:0:0:0:
154,117,32996,1,2,1:0:0:0:
394,80,33163,1,10,0:0:0:0:
244,78,33329,2,0,L|111:74,1,100,2|0,1:0|1:0,0:0:0:0:
449,129,33663,6,0,P|443:198|321:255,1,200,4|0,1:0|1:0,0:0:0:0:
486,284,34163,1,0,0:0:0:0:
333,318,34329,2,0,L|214:321,1,100,0|0,1:0|0:0,0:0:0:0:
475,223,34663,6,0,L|347:223,1,100,0|0,1:0|0:0,0:0:0:0:
226,228,34996,2,0,L|220:116,1,100,0|0,1:0|0:0,0:0:0:0:
465,167,35329,2,0,L|474:61,1,100,2|0,1:0|0:0,0:0:0:0:
318,78,35663,2,0,L|201:73,1,100,2|0,1:0|0:0,0:0:0:0:
365,139,35996,2,0,L|471:132,1,100,2|0,1:0|0:0,0:0:0:0:
162,278,36329,6,0,L|158:157,1,100,2|0,1:0|0:0,0:0:0:0:
311,150,36663,1,2,1:0:0:0:
151,138,36829,1,0,0:0:0:0:
394,100,36996,2,0,L|508:94,1,100,2|0,1:0|0:0,0:0:0:0:
231,301,37329,6,0,P|177:291|240:188,1,200,2|0,1:0|1:0,0:0:0:0:
309,177,37829,1,0,0:0:0:0:
158,136,37996,1,2,1:0:0:0:
312,133,38163,1,8,0:0:0:0:
163,126,38329,2,0,L|158:18,1,100,2|0,1:0|0:0,0:0:0:0:
400,36,38663,1,2,1:0:0:0:
249,12,38829,1,8,0:0:0:0:
496,169,38996,6,0,L|272:169,1,200,4|0,1:0|1:0,0:0:0:0:
55,120,39496,2,0,P|53:198|230:315,1,300,2|0,0:0|1:0,0:0:0:0:
323,319,40163,1,0,0:0:0:0:
25,337,40329,6,0,L|22:212,1,100,2|0,1:0|0:0,0:0:0:0:
174,227,40663,1,2,1:0:0:0:
416,168,40829,1,2,0:0:0:0:
264,158,40996,1,0,1:0:0:0:
422,122,41163,1,0,0:0:0:0:
165,103,41329,2,0,L|55:100,1,100,2|0,1:0|1:0,0:0:0:0:
372,326,41663,5,4,1:0:0:0:
212,322,41829,1,0,0:0:0:0:
372,326,41996,1,8,0:0:0:0:
136,194,42163,1,0,0:0:0:0:
376,179,42329,2,0,L|381:50,1,100,4|0,0:3|0:0,0:0:0:0:
131,69,42663,2,0,L|16:67,1,100,8|0,0:0|1:0,0:0:0:0:
338,49,42996,6,0,L|344:172,1,100,12|0,0:0|1:0,0:0:0:0:
101,160,43329,1,2,1:0:0:0:
256,181,43496,1,8,0:0:0:0:
97,213,43663,2,0,L|90:315,1,100,2|0,1:0|1:0,0:0:0:0:
333,300,43996,2,0,L|397:302,1,50,10|8,0:0|0:0,0:0:0:0:
206,302,44163,2,0,L|150:301,1,50,8|8,0:0|0:0,0:0:0:0:
356,200,44329,5,6,1:0:0:0:
214,192,44496,1,0,1:0:0:0:
359,141,44663,1,8,0:0:0:0:
118,142,44829,2,0,L|340:128,1,200,14|8,0:0|0:0,0:0:0:0:
19,82,45329,5,14,0:0:0:0:
161,77,45496,1,0,1:0:0:0:
18,38,45663,1,8,0:0:0:0:
263,43,45829,2,0,P|321:63|251:145,1,200,14|0,0:0|1:0,0:0:0:0:
24,153,46329,2,0,L|152:154,1,100,10|0,0:0|1:0,0:0:0:0:
372,174,46663,2,0,L|380:277,1,100,10|0,0:0|1:0,0:0:0:0:
88,287,46996,6,0,L|307:283,1,200,6|8,0:0|0:0,0:0:0:0:
127,225,47496,2,0,P|67:205|133:121,1,200,2|2,0:0|1:0,0:0:0:0:
369,95,47996,1,8,0:0:0:0:
67,80,48163,6,0,L|61:193,1,100,2|0,0:0|1:0,0:0:0:0:
168,185,48496,1,0,0:0:0:0:
408,185,48663,2,0,L|417:301,1,100,8|0,0:0|0:0,0:0:0:0:
264,288,48996,2,0,L|385:292,1,100,0|0,1:0|1:0,0:0:0:0:
122,285,49329,2,0,L|15:290,1,100,10|0,0:0|0:0,0:0:0:0:
328,232,49663,6,0,P|321:178|187:109,1,200,6|10,0:0|0:0,0:0:0:0:
448,194,50163,2,0,L|456:85,1,100,2|0,0:0|1:0,0:0:0:0:
213,84,50496,2,0,L|317:78,1,100,2|8,1:0|0:0,0:0:0:0:
460,70,50829,1,2,0:0:0:0:
204,194,50996,6,0,L|199:303,1,100,0|0,1:0|0:0,0:0:0:0:
351,293,51329,1,8,0:0:0:0:
115,299,51496,2,0,L|15:304,2,100,0|0|0,0:0|1:0|1:0,0:0:0:0:
369,234,51996,2,0,L|375:109,1,100,10|0,0:0|0:0,0:0:0:0:
75,111,52329,6,0,L|287:103,1,200,6|8,0:0|0:0,0:0:0:0:
175,159,52829,1,0,0:0:0:0:
416,152,52996,2,0,L|425:267,1,100,2|0,1:0|1:0,0:0:0:0:
273,248,53329,2,0,L|400:250,1,100,8|0,0:0|0:0,0:0:0:0:
117,215,53663,5,6,0:0:0:0:
266,211,53829,1,0,0:0:0:0:
25,211,53996,2,0,L|20:101,1,100,8|0,0:0|0:0,0:0:0:0:
281,98,54329,1,10,1:0:0:0:
131,61,54496,2,0,L|71:61,1,50,0|0,1:0|1:0,0:0:0:0:
308,50,54663,2,0,L|386:50,1,50,8|8,0:0|0:0,0:0:0:0:
210,147,54829,2,0,L|150:150,1,50,8|8,0:0|0:0,0:0:0:0:
388,238,54996,6,0,L|273:237,1,100,6|0,0:0|1:0,0:0:0:0:
137,230,55329,1,8,0:0:0:0:
398,169,55496,2,0,L|189:166,1,200,14|8,0:0|0:0,0:0:0:0:
442,53,55996,2,0,L|331:52,2,100,14|0|8,0:0|1:0|0:0,0:0:0:0:
179,114,56496,5,2,1:0:0:0:
421,111,56663,2,0,L|429:212,1,100,4|0,0:0|0:0,0:0:0:0:
273,214,56996,2,0,L|159:217,1,100,10|0,0:0|1:0,0:0:0:0:
419,248,57329,2,0,L|311:252,1,100,10|0,0:0|1:0,0:0:0:0:
37,287,57663,6,0,L|246:288,1,200,6|10,0:0|0:0,0:0:0:0:
87,212,58163,2,0,L|82:92,1,100,2|0,0:0|1:0,0:0:0:0:
232,144,58496,2,0,L|238:37,1,100,2|8,1:0|0:0,0:0:0:0:
82,32,58829,1,2,0:0:0:0:
331,40,58996,6,0,L|439:44,1,100,4|0,1:3|0:0,0:0:0:0:
279,103,59329,2,0,L|276:207,1,100,8|0,0:0|0:0,0:0:0:0:
32,208,59663,2,0,L|30:316,1,100,0|0,1:0|1:0,0:0:0:0:
189,316,59996,2,0,L|64:318,1,100,10|0,0:0|0:0,0:0:0:0:
391,326,60329,6,0,P|449:293|369:216,1,200,4|8,0:0|0:0,0:0:0:0:
125,177,60829,2,0,L|236:175,2,100,2|0|0,0:0|1:0|1:0,0:0:0:0:
285,144,61329,2,0,L|419:141,1,100,8|0,0:0|0:0,0:0:0:0:
89,44,61663,6,0,P|32:130|97:156,1,200,6|8,0:0|0:0,0:0:0:0:
344,142,62163,2,0,L|350:260,1,100,2|0,0:0|1:0,0:0:0:0:
104,245,62496,2,0,L|50:247,1,50,8|8,0:0|0:0,0:0:0:0:
209,269,62663,2,0,L|265:272,1,50,8|8,0:0|1:0,0:0:0:0:
84,298,62829,2,0,L|16:301,1,50,8|8,1:0|1:0,0:0:0:0:
286,53,62996,6,0,L|163:55,1,100,6|0,0:0|0:0,0:0:0:0:
347,92,63329,1,0,1:0:0:0:
93,198,63496,1,12,0:0:0:0:
394,229,63663,2,0,L|273:229,1,100,2|8,1:0|0:0,0:0:0:0:
39,254,63996,2,0,L|33:132,1,100,14|0,0:0|1:0,0:0:0:0:
340,109,64329,5,6,1:0:0:0:
186,109,64496,1,0,1:0:0:0:
438,93,64663,2,0,L|443:231,1,100,14|0,0:0|1:0,0:0:0:0:
195,194,64996,2,0,L|132:197,1,50,10|8,0:0|0:0,0:0:0:0:
323,218,65163,2,0,L|378:220,1,50,8|8,0:0|0:0,0:0:0:0:
149,246,65329,2,0,L|100:250,1,50,0|0,1:0|1:0,0:0:0:0:
279,261,65496,2,0,L|343:263,1,50,0|0,1:0|1:0,0:0:0:0:
75,304,65663,6,0,L|326:305,1,220.000006713867,6|8,1:0|0:0,0:0:0:0:
141,199,66163,1,0,0:0:0:0:
371,205,66329,2,0,L|378:82,1,110.000003356934,0|0,1:0|1:0,0:0:0:0:
128,79,66663,2,0,L|15:76,1,110.000003356934,8|0,0:0|0:0,0:0:0:0:
350,91,66996,6,0,L|470:85,1,110.000003356934,4|0,1:3|0:0,0:0:0:0:
217,143,67329,2,0,L|215:253,1,110.000003356934,10|0,0:0|0:0,0:0:0:0:
381,261,67663,2,0,L|494:261,1,110.000003356934,2|0,1:0|1:0,0:0:0:0:
205,280,67996,2,0,L|86:283,1,110.000003356934,10|0,0:0|0:0,0:0:0:0:
381,217,68329,6,0,L|158:218,1,220.000006713867,6|8,0:0|0:0,0:0:0:0:
408,164,68829,1,2,0:0:0:0:
246,156,68996,2,0,L|239:34,1,110.000003356934,0|0,1:0|1:0,0:0:0:0:
483,122,69329,2,0,L|490:8,1,110.000003356934,8|0,0:0|0:0,0:0:0:0:
157,35,69663,6,0,L|27:39,1,110.000003356934,4|0,1:3|0:0,0:0:0:0:
318,124,69996,2,0,L|327:248,1,110.000003356934,10|0,0:0|1:0,0:0:0:0:
168,239,70329,2,0,L|56:243,1,110.000003356934,10|0,0:0|1:0,0:0:0:0:
307,284,70663,2,0,L|164:291,1,110.000003356934,10|0,0:0|0:0,0:0:0:0:
483,302,70996,6,0,P|483:237|353:156,1,220.000006713867,6|8,1:0|0:0,0:0:0:0:
113,127,71496,1,2,0:0:0:0:
272,137,71663,2,0,L|279:16,1,110.000003356934,0|0,1:0|1:0,0:0:0:0:
110,314,71996,2,0,L|102:200,1,110.000003356934,8|0,0:0|0:0,0:0:0:0:
411,208,72329,5,6,1:3:0:0:
257,197,72496,1,2,0:0:0:0:
411,208,72663,1,10,0:0:0:0:
162,217,72829,1,2,0:0:0:0:
319,230,72996,2,0,L|330:358,1,110.000003356934,0|0,1:0|1:0,0:0:0:0:
82,329,73329,2,0,L|204:332,1,110.000003356934,10|0,0:0|0:0,0:0:0:0:
480,205,73663,6,0,L|259:198,1,220.000006713867,6|8,0:0|0:0,0:0:0:0:
429,140,74163,1,2,0:0:0:0:
265,130,74329,2,0,L|121:126,1,110.000003356934,0|0,1:0|1:0,0:0:0:0:
400,204,74663,2,0,L|402:323,1,110.000003356934,10|0,0:0|0:0,0:0:0:0:
93,314,74996,6,0,L|92:193,1,110.000003356934,12|0,0:0|0:0,0:0:0:0:
261,182,75329,2,0,L|391:174,1,110.000003356934,10|0,0:0|0:0,0:0:0:0:
117,99,75663,2,0,L|376:88,1,220.000006713867,2|8,1:0|0:0,0:0:0:0:
172,42,76163,1,0,0:0:0:0:
467,55,76329,5,6,0:0:0:0:
323,68,76496,1,2,0:0:0:0:
470,105,76663,1,10,0:0:0:0:
205,134,76829,2,0,L|200:248,1,110.000003356934,2|0,0:0|1:0,0:0:0:0:
448,179,77163,2,0,L|324:176,1,110.000003356934,2|8,1:0|0:0,0:0:0:0:
494,238,77496,1,2,0:0:0:0:
162,242,77663,6,0,L|158:104,1,110.000003356934,4|0,1:3|0:0,0:0:0:0:
336,112,77996,2,0,L|453:105,1,110.000003356934,10|0,0:0|0:0,0:0:0:0:
176,147,78329,2,0,L|172:30,1,110.000003356934,2|0,1:0|1:0,0:0:0:0:
417,287,78663,2,0,L|424:161,1,110.000003356934,10|0,0:0|0:0,0:0:0:0:
113,281,78996,6,0,L|343:269,1,220.000006713867,6|10,1:0|0:0,0:0:0:0:
166,213,79496,2,0,L|162:100,1,110.000003356934,2|0,0:0|1:0,0:0:0:0:
331,99,79829,2,0,L|471:90,1,110.000003356934,2|8,1:0|0:0,0:0:0:0:
195,72,80163,1,2,0:0:0:0:
481,61,80329,6,0,L|486:182,1,110.000003356934,4|0,1:3|0:0,0:0:0:0:
318,184,80663,2,0,L|442:185,1,110.000003356934,10|0,0:0|0:0,0:0:0:0:
180,250,80996,1,4,1:3:0:0:
345,246,81163,1,0,1:0:0:0:
95,297,81329,2,0,L|95:170,1,110.000003356934,8|0,0:0|0:0,0:0:0:0:
433,156,81663,5,6,1:0:0:0:
266,141,81829,1,2,0:0:0:0:
431,105,81996,1,10,0:0:0:0:
166,124,82163,2,0,L|162:7,1,110.000003356934,2|0,0:0|1:0,0:0:0:0:
329,25,82496,2,0,L|466:20,1,110.000003356934,2|8,1:0|0:0,0:0:0:0:
189,37,82829,1,2,0:0:0:0:
495,113,82996,6,0,L|361:118,1,110.000003356934,4|2,1:3|0:0,0:0:0:0:
131,167,83329,2,0,L|127:293,1,110.000003356934,10|0,0:0|0:0,0:0:0:0:
294,279,83663,1,0,1:0:0:0:
122,295,83829,1,0,1:0:0:0:
371,215,83996,2,0,L|495:217,1,110.000003356934,8|0,0:0|0:0,0:0:0:0:
149,202,84329,6,0,P|95:187|156:83,1,220.000006713867,6|8,1:3|0:0,0:0:0:0:
399,78,84829,2,0,L|406:199,1,110.000003356934,2|0,0:0|1:0,0:0:0:0:
237,187,85163,2,0,L|123:191,1,110.000003356934,2|8,1:0|0:0,0:0:0:0:
376,236,85496,1,2,0:0:0:0:
50,289,85663,6,0,L|193:289,1,110.000003356934,6|0,1:0|0:0,0:0:0:0:
408,154,85996,2,0,L|411:27,1,110.000003356934,14|0,0:3|1:0,0:0:0:0:
162,154,86329,2,0,L|158:27,1,110.000003356934,10|0,0:0|1:0,0:0:0:0:
328,42,86663,1,10,0:0:0:0:
161,37,86829,1,0,0:0:0:0:
471,194,86996,5,6,1:0:0:0:
308,196,87163,1,2,0:0:0:0:
472,148,87329,1,10,0:0:0:0:
223,142,87496,2,0,L|104:139,1,110.000003356934,2|0,0:0|1:0,0:0:0:0:
278,338,87829,2,0,L|285:226,1,110.000003356934,2|8,1:0|0:0,0:0:0:0:
115,219,88163,1,2,0:0:0:0:
422,202,88329,6,0,L|426:85,1,110.000003356934,4|0,1:3|0:0,0:0:0:0:
179,80,88663,2,0,L|421:69,1,220.000006713867,10|0,0:0|1:0,0:0:0:0:
242,131,89163,1,0,1:0:0:0:
490,139,89329,1,8,0:0:0:0:
331,159,89496,1,0,0:0:0:0:
26,270,89663,5,6,1:0:0:0:
188,268,89829,1,2,0:0:0:0:
18,209,89996,1,10,0:0:0:0:
262,217,90163,2,0,L|382:211,1,110.000003356934,2|0,0:0|1:0,0:0:0:0:
202,172,90496,2,0,L|194:52,1,110.000003356934,2|8,1:0|0:0,0:0:0:0:
438,57,90829,1,2,0:0:0:0:
97,239,90996,6,0,L|36:240,2,55.0000016784668,4|0|0,1:3|1:0|1:0,0:0:0:0:
344,191,91329,2,0,L|229:186,1,110.000003356934,10|8,0:0|0:0,0:0:0:0:
485,239,91663,2,0,L|489:174,1,55.0000016784668,10|8,0:0|0:0,0:0:0:0:
322,163,91829,2,0,L|241:161,1,55.0000016784668,8|8,0:0|0:0,0:0:0:0:
489,129,91996,1,10,1:0:0:0:
483,84,92079,1,0,0:0:0:0:
427,72,92163,1,8,1:0:0:0:
73,73,92329,5,14,1:0:0:0:
233,95,92496,1,0,1:0:0:0:
67,132,92663,1,0,1:0:0:0:
346,150,92829,1,14,1:3:0:0:
186,174,92996,1,0,1:0:0:0:
35,185,93163,1,0,1:0:0:0:
294,237,93329,1,14,1:3:0:0:
141,245,93496,1,0,1:0:0:0:
367,265,93663,1,0,1:0:0:0:
66,297,93829,5,14,1:3:0:0:
218,300,93996,1,2,1:0:0:0:
377,307,94163,1,2,1:0:0:0:
119,203,94329,1,14,1:0:0:0:
270,212,94496,1,2,1:0:0:0:
112,151,94663,1,10,1:0:0:0:
414,123,94829,5,14,1:0:0:0:
262,118,94996,1,10,1:0:0:0:
413,73,95163,1,10,1:0:0:0:
111,47,95329,1,14,1:0:0:0:
273,58,95496,1,10,1:0:0:0:
98,96,95663,1,10,1:0:0:0:
450,176,95829,1,14,1:3:0:0:
219,202,95996,1,10,1:0:0:0:
444,228,96163,1,10,1:0:0:0:
44,246,96329,5,14,1:0:0:0:
195,256,96496,1,2,1:0:0:0:
477,285,96663,1,12,0:0:0:0:
328,294,96829,1,10,0:0:0:0:
31,307,96996,2,0,L|100:305,1,50,14|0,1:0|1:0,0:0:0:0:
273,303,97163,1,10,1:0:0:0:
32,237,97329,1,14,1:3:0:0:
296,182,97496,5,14,1:0:0:0:
256,192,97663,12,0,101663,0:0:0:0:
