osu file format v14

[General]
AudioFilename: audio.mp3
AudioLeadIn: 0
PreviewTime: 62933
Countdown: 0
SampleSet: Soft
StackLeniency: 0.7
Mode: 2
LetterboxInBreaks: 0
WidescreenStoryboard: 1

[Editor]
DistanceSpacing: 1.1
BeatDivisor: 4
GridSize: 32
TimelineZoom: 2.799999

[Metadata]
Title:Sakura no Uta
TitleUnicode:櫻ノ詩
Artist:Hana
ArtistUnicode:はな
Creator:-Joakh
Version:Ephemeral Happiness
Source:サクラノ詩 -櫻の森の上を舞う-
Tags:sakura no mori no ue o mau - metrowing makura 枕 visual video game novel eroge galgame japanese female vocalist Greaper Kukkai [_-Kukkai-_] -Luminate Jemzuu AJamez Rew0825 Ymiir -wwwww Fii
BeatmapID:2285270
BeatmapSetID:1093379

[Difficulty]
HPDrainRate:7
CircleSize:4.3
OverallDifficulty:9.4
ApproachRate:9.4
SliderMultiplier:2.1
SliderTickRate:2

[Events]
//Background and Video events
0,0,"BG.jpg",0,0
//Break Periods
//Storyboard Layer 0 (Background)
//Storyboard Layer 1 (Fail)
//Storyboard Layer 2 (Pass)
//Storyboard Layer 3 (Foreground)
//Storyboard Layer 4 (Overlay)
//Storyboard Sound Samples

[TimingPoints]
330,333.333333333333,4,2,1,60,1,0
22996,-95.2380952380952,4,2,1,65,0,0
31829,-95.2380952380952,4,2,1,60,0,0
33329,-95.2380952380952,4,2,1,60,0,0
38663,-100,4,2,1,60,0,0
41663,-90.9090909090909,4,2,1,60,0,0
44329,-90.9090909090909,4,2,1,65,0,0
49579,-90.9090909090909,4,2,1,5,0,0
49663,-90.9090909090909,4,2,1,60,0,0
49913,-90.9090909090909,4,2,1,5,0,0
49996,-90.9090909090909,4,2,1,60,0,0
52246,-90.9090909090909,4,2,1,5,0,0
52329,-90.9090909090909,4,2,1,60,0,0
54996,-90.9090909090909,4,2,1,65,0,0
65663,-86.9565217391304,4,2,1,75,0,1
81579,-86.9565217391304,4,2,1,5,0,1
81663,-86.9565217391304,4,2,1,75,0,1
85663,-86.9565217391304,4,2,1,75,0,1
92329,-83.3333333333333,4,2,1,80,0,0
101663,-100,4,2,1,60,0,0

[Colours]
Combo1 : 214,136,230
Combo2 : 244,214,151
Combo3 : 183,192,202
Combo4 : 152,159,165

[HitObjects]
146,132,330,6,0,P|77:193|151:248,1,210,2|0,0:0|0:0,0:0:0:0:
296,229,829,1,2,0:0:0:0:
147,229,996,2,0,P|95:224|48:201,1,105,2|2,0:0|0:0,0:0:0:0:
329,123,1329,2,0,P|436:205|325:282,1,315,2|0,0:0|0:0,0:0:0:0:
72,270,1996,6,0,P|56:220|67:169,1,105,2|0,0:0|0:0,0:0:0:0:
213,163,2329,2,0,P|264:155|317:157,1,105,2|0,0:0|0:0,0:0:0:0:
169,123,2663,1,2,0:0:0:0:
315,125,2829,1,0,0:0:0:0:
66,281,2996,6,0,P|118:275|170:277,1,105,2|0,0:0|0:0,0:0:0:0:
317,280,3329,1,2,0:0:0:0:
74,165,3496,1,2,0:0:0:0:
221,156,3663,1,0,0:0:0:0:
366,170,3829,1,0,0:0:0:0:
108,101,3996,2,0,P|160:237|305:220,1,315,2|0,0:0|0:0,0:0:0:0:
38,217,4663,6,0,P|33:268|48:318,1,105,2|0,0:0|0:0,0:0:0:0:
273,74,4996,2,0,P|260:124|264:176,1,105,2|2,0:0|0:0,0:0:0:0:
494,224,5329,2,0,P|494:276|475:324,1,105,2|0,0:0|0:0,0:0:0:0:
202,114,5663,5,2,0:0:0:0:
348,106,5829,1,0,0:0:0:0:
199,160,5996,2,0,P|193:211|206:262,1,105,2|0,0:0|0:0,0:0:0:0:
363,256,6329,1,2,0:0:0:0:
205,254,6496,1,2,0:0:0:0:
471,145,6663,6,0,P|320:142|226:262,1,315,2|0,0:0|0:0,0:0:0:0:
348,273,7329,1,2,0:0:0:0:
226,250,7496,1,0,0:0:0:0:
264,107,7663,1,2,0:0:0:0:
393,94,7829,1,0,0:0:0:0:
258,104,7996,2,0,P|206:102|154:107,1,105,2|0,0:0|0:0,0:0:0:0:
447,185,8329,6,0,P|458:235|448:287,1,105,2|0,0:0|0:0,0:0:0:0:
300,297,8663,2,0,L|420:291,1,105,0|2,0:0|0:0,0:0:0:0:
155,214,8996,2,0,L|102:207,2,52.5
311,231,9329,1,2,1:0:0:0:
156,199,9496,1,0,1:0:0:0:
424,161,9663,6,0,P|445:207|429:256,1,105,6|0,0:0|1:0,0:0:0:0:
369,260,9913,1,0,0:0:0:0:
197,272,9996,2,0,P|146:269|77:250,1,105,8|0,0:0|1:0,0:0:0:0:
146,270,10246,1,0,0:0:0:0:
364,210,10329,6,0,L|424:197,1,52.5,8|0,0:0|0:0,0:0:0:0:
234,196,10496,1,8,0:0:0:0:
173,174,10579,1,8,0:0:0:0:
197,117,10663,1,0,1:0:0:0:
264,107,10746,1,0,1:0:0:0:
98,88,10829,2,0,L|24:74,1,52.5,0|0,1:0|1:0,0:0:0:0:
341,65,10996,6,0,L|467:62,1,105,6|0,1:0|0:0,0:0:0:0:
139,275,11329,2,0,P|113:233|139:190,1,105,8|0,0:0|1:0,0:0:0:0:
369,189,11663,1,10,0:0:0:0:
145,173,11829,1,2,1:0:0:0:
415,76,11996,6,0,P|433:124|422:174,1,105,10|0,0:0|1:0,0:0:0:0:
276,190,12329,2,0,L|384:184,1,105,12|0,0:3|1:0,0:0:0:0:
101,198,12663,2,0,L|94:92,1,105,10|0,0:0|1:0,0:0:0:0:
240,79,12996,2,0,L|108:75,1,105,10|0,0:0|1:0,0:0:0:0:
367,109,13329,2,0,P|377:159|363:210,1,105,10|0,0:0|0:0,0:0:0:0:
110,260,13663,5,14,0:0:0:0:
256,253,13829,1,0,0:0:0:0:
403,253,13996,1,10,0:0:0:0:
146,179,14163,1,2,1:0:0:0:
281,177,14329,2,0,P|304:132|282:81,1,105,8|0,0:0|1:0,0:0:0:0:
34,74,14663,2,0,L|144:68,1,105,10|0,0:0|1:0,0:0:0:0:
296,64,14996,2,0,L|417:52,1,105,12|0,0:3|1:0,0:0:0:0:
152,145,15329,6,0,P|125:188|125:240,1,105,10|2,0:0|1:0,0:0:0:0:
403,252,15663,2,0,P|424:299|420:351,1,105,10|2,0:0|1:0,0:0:0:0:
148,342,15996,1,10,0:3:0:0:
402,346,16163,1,0,1:0:0:0:
127,199,16329,5,14,0:0:0:0:
274,199,16496,1,2,1:0:0:0:
421,197,16663,1,10,0:0:0:0:
186,118,16829,1,2,1:0:0:0:
38,119,16996,1,10,0:0:0:0:
186,118,17163,1,2,1:0:0:0:
437,140,17329,6,0,P|459:186|437:242,1,105,10|0,0:0|1:0,0:0:0:0:
297,250,17663,1,8,0:0:0:0:
443,251,17829,1,2,1:0:0:0:
194,198,17996,2,0,L|51:196,1,105,10|2,0:0|1:0,0:0:0:0:
333,149,18329,2,0,L|461:139,1,105,10|2,0:0|1:0,0:0:0:0:
198,117,18663,2,0,P|122:128|88:195,1,157.5,10|0,0:0|0:0,0:0:0:0:
357,226,18996,6,0,L|484:220,2,105,14|0|8,0:3|1:0|0:0,0:0:0:0:
119,233,19496,1,2,1:0:0:0:
255,232,19663,2,0,P|267:182|260:130,1,105,8|0,0:0|1:0,0:0:0:0:
32,130,19996,2,0,L|151:121,1,105,10|0,0:0|1:0,0:0:0:0:
403,106,20329,5,12,0:3:0:0:
166,97,20496,1,0,1:0:0:0:
419,211,20663,1,10,0:0:0:0:
272,214,20829,1,4,1:3:0:0:
418,178,20996,6,0,L|472:168,1,52.5,8|8,0:0|0:0,0:0:0:0:
239,153,21163,2,0,L|166:140,1,52.5,8|8,0:0|0:0,0:0:0:0:
372,326,21329,1,0,1:0:0:0:
440,309,21413,1,0,1:0:0:0:
416,245,21496,1,0,1:0:0:0:
347,230,21579,1,0,1:0:0:0:
96,141,21663,6,0,P|78:188|106:231,1,105,2|2,0:0|0:0,0:0:0:0:
242,221,21996,2,0,P|258:270|246:320,1,105,2|2,0:0|0:0,0:0:0:0:
97,324,22329,2,0,P|76:278|86:227,1,105,2|2,0:0|0:0,0:0:0:0:
234,217,22663,1,2,0:0:0:0:
88,197,22829,1,2,0:0:0:0:
391,147,22996,6,0,P|409:198|397:251,1,110.249996635437,4|0,1:0|0:0,0:0:0:0:
254,243,23329,2,0,P|234:294|251:346,1,110.249996635437,0|0,1:0|0:0,0:0:0:0:
394,352,23663,2,0,L|283:349,1,110.249996635437,0|0,1:0|0:0,0:0:0:0:
140,334,23996,2,0,L|140:222,1,110.249996635437,0|0,1:0|0:0,0:0:0:0:
437,215,24329,6,0,L|326:206,1,110.249996635437,0|0,1:0|0:0,0:0:0:0:
194,194,24663,2,0,L|307:200,1,110.249996635437,2|0,1:0|0:0,0:0:0:0:
160,196,24996,2,0,P|151:251|159:305,1,110.249996635437,2|0,1:0|0:0,0:0:0:0:
302,306,25329,2,0,L|156:305,1,110.249996635437,2|0,1:0|0:0,0:0:0:0:
440,276,25663,5,2,1:0:0:0:
413,172,25829,1,0,0:0:0:0:
321,116,25996,1,2,1:0:0:0:
216,138,26163,1,0,0:0:0:0:
354,180,26329,2,0,P|371:233|358:286,1,110.249996635437,2|0,1:0|0:0,0:0:0:0:
214,277,26663,2,0,P|161:261|106:258,1,110.249996635437,2|0,1:0|0:0,0:0:0:0:
408,148,26996,6,0,P|427:200|413:252,1,110.249996635437,0|0,1:0|0:0,0:0:0:0:
259,153,27329,2,0,P|240:204|255:256,1,110.249996635437,0|0,1:0|0:0,0:0:0:0:
482,262,27663,2,0,L|371:256,1,110.249996635437,2|0,1:0|1:0,0:0:0:0:
217,250,27996,1,10,0:0:0:0:
371,255,28163,1,0,0:0:0:0:
107,171,28329,6,0,P|97:225|103:279,1,110.249996635437,6|0,1:0|0:0,0:0:0:0:
255,173,28663,2,0,P|234:232|258:279,1,110.249996635437,2|0,1:0|0:0,0:0:0:0:
404,172,28996,2,0,L|405:289,1,110.249996635437,2|0,1:0|0:0,0:0:0:0:
136,289,29329,2,0,L|246:288,1,110.249996635437,2|0,1:0|0:0,0:0:0:0:
396,274,29663,2,0,P|404:219|396:165,1,110.249996635437,0|0,1:0|0:0,0:0:0:0:
127,171,29996,6,0,P|113:117|120:63,1,110.249996635437,2|0,1:0|0:0,0:0:0:0:
366,86,30329,2,0,L|484:79,1,110.249996635437,2|0,1:0|0:0,0:0:0:0:
236,232,30663,2,0,L|116:219,1,110.249996635437,2|0,1:0|0:0,0:0:0:0:
394,311,30996,5,2,1:0:0:0:
338,219,31162,1,0,0:0:0:0:
240,170,31329,1,0,1:0:0:0:
132,180,31496,1,2,0:0:0:0:
277,125,31663,2,0,L|125:115,1,110.249996635437,0|0,1:0|0:0,0:0:0:0:
404,200,31996,6,0,P|424:251|409:303,1,110.249996635437,2|0,1:0|0:0,0:0:0:0:
254,317,32329,2,0,L|379:319,1,110.249996635437,0|0,1:0|0:0,0:0:0:0:
116,149,32663,2,0,L|245:147,1,110.249996635437,2|0,1:0|0:0,0:0:0:0:
380,138,32996,1,2,1:0:0:0:
126,252,33163,1,10,0:0:0:0:
280,249,33329,2,0,P|286:194|277:140,1,110.249996635437,2|0,1:0|1:0,0:0:0:0:
40,133,33663,6,0,P|95:123|150:127,1,110.249996635437,4|0,1:0|0:0,0:0:0:0:
303,127,33996,2,0,P|310:182|303:237,1,110.249996635437,0|0,1:0|0:0,0:0:0:0:
149,249,34329,2,0,L|271:244,1,110.249996635437,0|0,1:0|0:0,0:0:0:0:
414,246,34663,2,0,P|427:194|411:142,1,110.249996635437,0|0,1:0|0:0,0:0:0:0:
257,152,34996,2,0,L|388:138,1,110.249996635437,0|0,1:0|0:0,0:0:0:0:
106,162,35329,6,0,P|92:215|106:270,1,110.249996635437,2|0,1:0|0:0,0:0:0:0:
248,273,35663,2,0,L|248:155,1,110.249996635437,2|0,1:0|0:0,0:0:0:0:
478,172,35996,2,0,L|367:170,1,110.249996635437,2|0,1:0|0:0,0:0:0:0:
212,161,36329,2,0,L|212:271,1,110.249996635437,2|0,1:0|0:0,0:0:0:0:
447,271,36663,6,0,L|328:267,1,110.249996635437,2|0,1:0|0:0,0:0:0:0:
170,255,36996,2,0,L|31:249,1,110.249996635437,2|0,1:0|0:0,0:0:0:0:
323,213,37329,2,0,P|336:159|326:106,1,110.249996635437,2|0,1:0|0:0,0:0:0:0:
183,121,37663,2,0,L|307:114,1,110.249996635437,0|0,1:0|0:0,0:0:0:0:
59,185,37996,6,0,P|32:230|58:276,1,110.249996635437,2|8,1:0|0:0,0:0:0:0:
300,273,38329,1,2,1:0:0:0:
435,225,38496,1,0,0:0:0:0:
305,169,38663,1,2,1:0:0:0:
175,149,38829,1,8,0:0:0:0:
413,333,38996,6,0,P|484:277|410:226,1,210,4|0,1:0|1:0,0:0:0:0:
274,234,39496,1,2,0:0:0:0:
410,225,39663,2,0,P|418:174|413:122,1,105,0|0,1:0|0:0,0:0:0:0:
276,134,39996,2,0,L|379:118,1,105,0|0,1:0|0:0,0:0:0:0:
124,162,40329,6,0,P|69:205|121:251,1,157.5,2|0,1:0|0:0,0:0:0:0:
308,234,40663,2,0,L|417:236,1,105,2|2,1:0|0:0,0:0:0:0:
159,226,40996,2,0,P|145:175|153:123,1,105,0|0,1:0|0:0,0:0:0:0:
384,107,41329,1,2,1:0:0:0:
154,96,41496,1,0,1:0:0:0:
396,316,41663,6,0,P|282:295|167:302,1,231.000007049561,4|8,1:0|0:0,0:0:0:0:
305,287,42163,1,0,0:0:0:0:
71,265,42329,2,0,P|52:211|73:158,1,115.50000352478,4|0,0:3|0:0,0:0:0:0:
315,138,42663,2,0,L|199:136,1,115.50000352478,8|0,0:0|1:0,0:0:0:0:
440,184,42996,6,0,P|471:232|431:284,1,115.50000352478,12|0,0:0|1:0,0:0:0:0:
381,279,43246,1,0,1:0:0:0:
197,280,43329,2,0,L|62:275,1,115.50000352478,2|8,1:0|0:0,0:0:0:0:
83,209,43579,1,0,0:0:0:0:
280,196,43663,2,0,L|286:138,1,57.7500017623902,2|0,1:0|1:0,0:0:0:0:
201,140,43829,2,0,L|194:82,1,57.7500017623902,0|0,1:0|1:0,0:0:0:0:
375,81,43996,2,0,L|441:61,1,57.7500017623902,10|8,0:0|0:0,0:0:0:0:
198,55,44163,2,0,L|141:41,1,57.7500017623902,8|8,0:0|0:0,0:0:0:0:
405,279,44329,5,6,1:0:0:0:
254,269,44496,1,0,1:0:0:0:
103,258,44663,1,8,0:0:0:0:
380,219,44829,2,0,P|452:146|374:80,1,231.000007049561,14|8,0:0|0:0,0:0:0:0:
107,107,45329,5,14,0:0:0:0:
269,108,45496,1,0,1:0:0:0:
107,107,45663,1,8,0:0:0:0:
347,160,45829,2,0,P|448:200|444:308,1,231.000007049561,14|0,0:0|1:0,0:0:0:0:
191,323,46329,6,0,L|56:316,1,115.50000352478,10|0,0:0|1:0,0:0:0:0:
326,220,46663,2,0,L|440:203,1,115.50000352478,10|0,0:0|1:0,0:0:0:0:
156,177,46996,6,0,L|8:172,2,115.50000352478,6|0|8,0:0|0:0|0:0,0:0:0:0:
322,189,47496,2,0,P|346:239|324:291,1,115.50000352478,2|0,0:0|1:0,0:0:0:0:
188,299,47829,2,0,L|303:295,1,115.50000352478,2|8,1:0|0:0,0:0:0:0:
79,215,48163,5,2,0:0:0:0:
228,215,48329,2,0,L|362:211,1,115.50000352478,0|0,1:0|0:0,0:0:0:0:
102,158,48663,2,0,P|78:107|97:54,1,115.50000352478,8|0,0:0|0:0,0:0:0:0:
247,51,48996,2,0,L|378:52,1,115.50000352478,0|0,1:0|1:0,0:0:0:0:
113,239,49329,2,0,P|77:312|152:329,1,173.250005287171,10|0,0:0|0:0,0:0:0:0:
349,310,49663,6,0,P|428:288|437:206,1,173.250005287171,6|0,0:0|0:0,0:0:0:0:
171,171,49996,2,0,L|47:171,2,115.50000352478,10|2|0,0:0|0:0|1:0,0:0:0:0:
404,166,50496,2,0,P|434:213|388:263,1,115.50000352478,2|8,1:0|0:0,0:0:0:0:
152,271,50829,1,2,0:0:0:0:
302,268,50996,6,0,P|322:215|296:163,1,115.50000352478,0|0,1:0|0:0,0:0:0:0:
147,161,51329,2,0,P|126:109|146:56,1,115.50000352478,8|0,0:0|0:0,0:0:0:0:
297,53,51663,2,0,L|160:44,1,115.50000352478,0|0,1:0|1:0,0:0:0:0:
438,141,51996,2,0,P|430:223|351:243,1,173.250005287171,10|0,0:0|0:0,0:0:0:0:
107,250,52329,6,0,P|85:200|112:151,1,115.50000352478,6|0,0:0|0:0,0:0:0:0:
263,141,52663,2,0,L|378:139,1,115.50000352478,8|0,0:0|0:0,0:0:0:0:
108,303,52996,2,0,L|237:300,1,115.50000352478,2|0,1:0|1:0,0:0:0:0:
373,293,53329,2,0,P|385:238|374:181,1,115.50000352478,8|0,0:0|0:0,0:0:0:0:
107,196,53663,6,0,P|82:145|103:94,1,115.50000352478,6|0,0:0|0:0,0:0:0:0:
398,124,53996,2,0,P|419:72|403:18,1,115.50000352478,8|0,0:0|0:0,0:0:0:0:
166,58,54329,2,0,L|108:60,1,57.7500017623902,10|0,1:0|1:0,0:0:0:0:
286,251,54496,2,0,L|362:245,1,57.7500017623902,0|0,1:0|1:0,0:0:0:0:
113,210,54663,2,0,L|180:204,1,57.7500017623902,8|8,0:0|0:0,0:0:0:0:
361,165,54829,2,0,L|418:159,1,57.7500017623902,8|8,0:0|0:0,0:0:0:0:
186,131,54996,5,6,0:0:0:0:
35,137,55163,1,0,1:0:0:0:
186,131,55329,1,8,0:0:0:0:
426,115,55496,2,0,P|316:80|201:85,1,231.000007049561,14|8,0:0|0:0,0:0:0:0:
439,312,55996,5,14,0:0:0:0:
288,302,56163,1,0,1:0:0:0:
138,291,56329,1,8,0:0:0:0:
367,209,56496,1,2,1:0:0:0:
129,208,56663,2,0,P|106:156|124:102,1,115.50000352478,4|0,0:0|0:0,0:0:0:0:
364,98,56996,2,0,L|486:90,1,115.50000352478,10|0,0:0|1:0,0:0:0:0:
246,267,57329,2,0,L|361:267,1,115.50000352478,10|0,0:0|1:0,0:0:0:0:
126,248,57663,6,0,P|52:178|135:119,1,231.000007049561,6|10,0:0|0:0,0:0:0:0:
295,117,58163,2,0,P|319:168|294:218,1,115.50000352478,2|0,0:0|1:0,0:0:0:0:
136,222,58496,2,0,L|-6:220,2,115.50000352478,2|8|2,1:0|0:0|0:0,0:0:0:0:
404,154,58996,6,0,P|430:204|409:262,1,115.50000352478,4|0,1:3|0:0,0:0:0:0:
262,258,59329,1,8,0:0:0:0:
412,261,59496,1,0,0:0:0:0:
157,188,59663,2,0,L|34:180,1,115.50000352478,0|0,1:0|1:0,0:0:0:0:
291,97,59996,2,0,L|175:87,1,115.50000352478,10|0,0:0|0:0,0:0:0:0:
415,272,60329,5,4,0:0:0:0:
276,268,60496,1,0,0:0:0:0:
137,261,60663,1,8,0:0:0:0:
376,202,60829,1,2,0:0:0:0:
229,203,60996,2,0,P|202:155|228:106,1,115.50000352478,0|0,1:0|1:0,0:0:0:0:
461,99,61329,2,0,L|345:90,1,115.50000352478,8|0,0:0|0:0,0:0:0:0:
91,294,61663,5,6,0:0:0:0:
240,291,61829,1,0,0:0:0:0:
91,294,61996,1,8,0:0:0:0:
363,239,62163,1,2,0:0:0:0:
213,233,62329,6,0,L|212:169,1,57.7500017623902,0|0,1:0|1:0,0:0:0:0:
381,172,62496,1,8,0:0:0:0:
442,158,62579,1,8,0:0:0:0:
419,98,62663,1,8,0:0:0:0:
356,90,62746,1,8,1:0:0:0:
159,83,62829,2,0,L|83:73,1,57.7500017623902,8|8,1:0|1:0,0:0:0:0:
296,281,62996,6,0,L|431:274,1,115.50000352478,6|0,0:0|0:0,0:0:0:0:
149,224,63329,1,0,1:0:0:0:
425,190,63496,1,12,0:0:0:0:
127,134,63663,2,0,P|108:187|128:240,1,115.50000352478,2|8,1:0|0:0,0:0:0:0:
368,243,63996,1,14,0:0:0:0:
128,249,64163,1,0,1:0:0:0:
407,90,64329,6,0,P|425:144|419:201,1,115.50000352478,6|0,1:0|1:0,0:0:0:0:
164,205,64663,1,14,0:0:0:0:
409,189,64829,2,0,P|411:133|363:105,1,115.50000352478,0|10,1:0|0:0,0:0:0:0:
299,107,65079,1,8,0:0:0:0:
138,97,65163,2,0,L|61:92,1,57.7500017623902,8|8,0:0|0:0,0:0:0:0:
291,264,65329,2,0,L|367:258,1,57.7500017623902,0|0,1:0|1:0,0:0:0:0:
102,198,65496,2,0,L|159:192,1,57.7500017623902,0|0,1:0|1:0,0:0:0:0:
382,152,65663,6,0,P|460:224|378:292,1,241.500004606247,6|8,1:0|0:0,0:0:0:0:
219,287,66163,1,0,0:0:0:0:
380,275,66329,2,0,P|400:219|375:166,1,120.750002303124,0|0,1:0|1:0,0:0:0:0:
217,173,66663,2,0,L|343:164,1,120.750002303124,8|0,0:0|0:0,0:0:0:0:
87,150,66996,2,0,P|60:201|89:252,1,120.750002303124,4|0,1:3|0:0,0:0:0:0:
332,245,67329,6,0,L|470:244,1,120.750002303124,10|0,0:0|0:0,0:0:0:0:
192,135,67663,2,0,L|330:132,1,120.750002303124,2|0,1:0|1:0,0:0:0:0:
50,143,67996,2,0,P|39:201|50:260,1,120.750002303124,10|0,0:0|0:0,0:0:0:0:
332,124,68329,6,0,L|452:127,2,120.750002303124,6|0|8,0:0|0:0|0:0,0:0:0:0:
104,168,68829,1,2,0:0:0:0:
252,170,68996,2,0,P|258:229|250:289,1,120.750002303124,0|0,1:0|1:0,0:0:0:0:
22,310,69329,2,0,L|151:300,1,120.750002303124,8|0,0:0|0:0,0:0:0:0:
385,264,69663,1,4,1:3:0:0:
136,229,69829,1,0,0:0:0:0:
397,196,69996,6,0,P|453:178|488:130,1,120.750002303124,10|0,0:0|1:0,0:0:0:0:
420,116,70246,1,0,0:0:0:0:
226,117,70329,2,0,L|89:112,1,120.750002303124,10|0,0:0|1:0,0:0:0:0:
103,43,70579,1,0,0:0:0:0:
319,256,70663,2,0,L|390:253,1,60.3750011515618,10|0,0:0|0:0,0:0:0:0:
183,210,70829,2,0,L|110:199,1,60.3750011515618
353,205,70996,6,0,P|432:138|343:84,1,241.500004606247,6|8,1:0|0:0,0:0:0:0:
188,108,71496,1,2,0:0:0:0:
426,274,71663,2,0,L|305:268,1,120.750002303124,0|0,1:0|1:0,0:0:0:0:
135,262,71996,2,0,L|135:139,1,120.750002303124,8|0,0:0|0:0,0:0:0:0:
431,152,72329,5,6,1:3:0:0:
272,152,72496,1,2,0:0:0:0:
431,152,72663,1,10,0:0:0:0:
186,283,72829,1,2,0:0:0:0:
331,280,72996,2,0,P|341:221|330:162,1,120.750002303124,0|0,1:0|1:0,0:0:0:0:
65,162,73329,2,0,L|219:140,1,120.750002303124,10|0,0:0|0:0,0:0:0:0:
421,115,73663,6,0,P|444:168|425:224,1,120.750002303124,6|0,0:0|0:0,0:0:0:0:
186,248,73996,2,0,L|317:230,1,120.750002303124,8|2,0:0|0:0,0:0:0:0:
76,184,74329,2,0,P|55:129|71:72,1,120.750002303124,0|0,1:0|1:0,0:0:0:0:
332,63,74663,2,0,L|461:59,1,120.750002303124,10|0,0:0|0:0,0:0:0:0:
384,60,74913,1,0,0:0:0:0:
170,158,74996,6,0,P|152:214|162:273,1,120.750002303124,12|0,0:0|0:0,0:0:0:0:
407,210,75329,2,0,P|419:268|403:326,1,120.750002303124,10|0,0:0|0:0,0:0:0:0:
161,336,75663,2,0,L|40:329,1,120.750002303124,2|0,1:0|1:0,0:0:0:0:
281,191,75996,2,0,L|160:183,1,120.750002303124,8|0,0:0|0:0,0:0:0:0:
407,304,76329,5,6,0:0:0:0:
249,298,76496,1,2,0:0:0:0:
91,291,76663,1,10,0:0:0:0:
349,234,76829,2,0,P|363:176|357:116,1,120.750002303124,2|0,0:0|1:0,0:0:0:0:
120,135,77163,2,0,P|91:84|113:30,1,120.750002303124,2|8,1:0|0:0,0:0:0:0:
356,43,77496,2,0,L|416:39,1,60.3750011515618,2|0,0:0|0:0,0:0:0:0:
211,219,77663,6,0,L|77:220,1,120.750002303124,4|0,1:3|0:0,0:0:0:0:
334,143,77996,2,0,L|185:141,1,120.750002303124,10|0,0:0|0:0,0:0:0:0:
454,190,78329,2,0,P|472:247|455:304,1,120.750002303124,2|0,1:0|1:0,0:0:0:0:
200,338,78663,2,0,L|336:339,1,120.750002303124,10|0,0:0|0:0,0:0:0:0:
86,318,78996,6,0,P|99:206|209:177,1,241.500004606247,6|10,1:0|0:0,0:0:0:0:
367,177,79496,1,2,0:0:0:0:
209,198,79663,2,0,P|192:254|211:310,1,120.750002303124,0|2,1:0|1:0,0:0:0:0:
468,315,79996,2,0,L|333:306,1,120.750002303124,8|2,0:0|0:0,0:0:0:0:
289,302,80246,1,0,0:0:0:0:
125,291,80329,6,0,P|106:234|125:178,1,120.750002303124,4|0,1:3|0:0,0:0:0:0:
283,185,80663,2,0,L|133:177,1,120.750002303124,10|0,0:0|0:0,0:0:0:0:
435,96,80996,2,0,P|450:154|436:212,1,120.750002303124,4|0,1:3|1:0,0:0:0:0:
202,241,81329,2,0,P|291:229|354:167,1,181.125003454685,8|0,0:0|0:0,0:0:0:0:
146,144,81663,6,0,L|7:140,2,120.750002303124,6|2|10,1:0|0:0|0:0,0:0:0:0:
381,134,82163,2,0,P|413:182|382:243,1,120.750002303124,2|0,0:0|1:0,0:0:0:0:
105,258,82496,2,0,L|232:249,1,120.750002303124,2|8,1:0|0:0,0:0:0:0:
463,221,82829,6,0,P|476:163|467:104,1,120.750002303124,2|4,0:0|1:3,0:0:0:0:
204,112,83163,1,2,0:0:0:0:
466,100,83329,1,10,0:0:0:0:
321,107,83496,1,0,0:0:0:0:
56,132,83663,6,0,P|35:187|54:243,1,120.750002303124,0|0,1:0|1:0,0:0:0:0:
292,258,83996,1,8,0:0:0:0:
327,191,84079,1,0,0:0:0:0:
267,143,84163,1,0,0:0:0:0:
200,128,84246,1,0,0:0:0:0:
420,241,84329,2,0,P|499:173|410:119,1,241.500004606247,6|8,1:3|0:0,0:0:0:0:
160,122,84829,6,0,L|160:242,1,120.750002303124,2|0,0:0|1:0,0:0:0:0:
319,235,85163,2,0,P|335:292|324:351,1,120.750002303124,2|8,1:0|0:0,0:0:0:0:
89,350,85496,1,2,0:0:0:0:
393,309,85663,6,0,P|410:253|393:195,1,120.750002303124,6|0,1:0|0:0,0:0:0:0:
149,196,85996,1,14,0:3:0:0:
306,195,86163,1,0,1:0:0:0:
58,312,86329,2,0,P|44:254|54:195,1,120.750002303124,10|0,0:0|1:0,0:0:0:0:
294,163,86663,2,0,L|173:160,1,120.750002303124,10|0,0:0|0:0,0:0:0:0:
234,160,86913,1,0,0:0:0:0:
407,128,86996,5,6,1:0:0:0:
256,133,87163,1,2,0:0:0:0:
407,128,87329,1,10,0:0:0:0:
117,305,87496,1,2,0:0:0:0:
355,305,87663,2,0,P|374:248|358:190,1,120.750002303124,0|2,1:0|1:0,0:0:0:0:
134,214,87996,2,0,L|268:197,1,120.750002303124,8|2,0:0|0:0,0:0:0:0:
31,105,88329,6,0,L|171:100,1,120.750002303124,4|0,1:3|0:0,0:0:0:0:
321,93,88663,2,0,P|338:150|324:208,1,120.750002303124,10|0,0:0|0:0,0:0:0:0:
55,204,88996,2,0,L|175:203,1,120.750002303124,0|0,1:0|1:0,0:0:0:0:
345,198,89329,2,0,L|465:195,1,120.750002303124,8|0,0:0|0:0,0:0:0:0:
162,319,89663,5,6,1:0:0:0:
318,311,89829,1,2,0:0:0:0:
475,315,89996,1,10,0:0:0:0:
161,214,90163,2,0,P|151:155|161:96,1,120.750002303124,2|0,0:0|1:0,0:0:0:0:
410,93,90496,2,0,P|427:149|402:210,1,120.750002303124,2|8,1:0|0:0,0:0:0:0:
144,230,90829,2,0,L|83:227,1,60.3750011515618,2|0,0:0|0:0,0:0:0:0:
286,188,90996,6,0,L|346:186,1,60.3750011515618,4|0,1:3|1:0,0:0:0:0:
158,194,91163,1,0,1:0:0:0:
25,191,91329,2,0,L|93:189,1,60.3750011515618,10|8,0:0|0:0,0:0:0:0:
273,168,91496,1,8,0:0:0:0:
430,161,91663,6,0,L|369:162,1,60.3750011515618,10|8,0:0|0:0,0:0:0:0:
146,109,91829,2,0,L|212:106,1,60.3750011515618,8|8,0:0|0:0,0:0:0:0:
397,281,91996,2,0,L|472:291,1,60.3750011515618,10|0,1:0|0:0,0:0:0:0:
199,282,92163,2,0,L|123:285,1,60.3750011515618,8|0,1:0|0:0,0:0:0:0:
359,178,92329,6,0,L|499:179,2,125.999996154785,14|0|0,1:0|1:0|1:0,0:0:0:0:
104,164,92829,1,14,1:3:0:0:
353,88,92996,2,0,P|374:147|361:208,1,125.999996154785,0|0,1:0|1:0,0:0:0:0:
80,203,93329,2,0,L|220:201,1,125.999996154785,14|0,1:3|1:0,0:0:0:0:
457,162,93663,5,0,1:0:0:0:
232,179,93829,1,14,1:3:0:0:
457,162,93996,1,2,1:0:0:0:
319,153,94163,1,2,1:0:0:0:
94,142,94329,1,14,1:0:0:0:
319,153,94496,1,2,1:0:0:0:
180,163,94663,2,0,L|118:164,1,62.9999980773926,10|8,1:0|1:0,0:0:0:0:
383,217,94829,5,14,1:0:0:0:
245,220,94996,1,10,1:0:0:0:
383,217,95163,1,10,1:0:0:0:
314,216,95246,1,0,1:0:0:0:
75,130,95329,1,14,1:0:0:0:
227,130,95496,1,10,1:0:0:0:
379,119,95663,1,10,1:0:0:0:
32,320,95829,5,14,1:3:0:0:
255,325,95996,1,10,1:0:0:0:
478,321,96163,1,10,1:0:0:0:
175,194,96329,1,14,1:0:0:0:
427,192,96496,1,2,1:0:0:0:
113,231,96663,1,12,0:0:0:0:
183,231,96746,1,8,0:0:0:0:
382,228,96830,1,10,0:0:0:0:
110,146,96996,6,0,L|172:139,1,62.9999980773926,14|0,1:0|1:0,0:0:0:0:
369,120,97163,1,10,1:0:0:0:
101,87,97329,1,14,1:3:0:0:
436,64,97496,5,14,1:0:0:0:
256,192,97663,12,0,101663,0:0:0:0:
