osu file format v14

[General]
AudioFilename: audio.mp3
AudioLeadIn: 0
PreviewTime: 62933
Countdown: 0
SampleSet: Soft
StackLeniency: 0.7
Mode: 2
LetterboxInBreaks: 0
WidescreenStoryboard: 1

[Editor]
DistanceSpacing: 1.3
BeatDivisor: 4
GridSize: 32
TimelineZoom: 3.099999

[Metadata]
Title:Sakura no Uta
TitleUnicode:櫻ノ詩
Artist:Hana
ArtistUnicode:はな
Creator:-Joakh
Version:Cup
Source:サクラノ詩 -櫻の森の上を舞う-
Tags:sakura no mori no ue o mau - metrowing makura 枕 visual video game novel eroge galgame japanese female vocalist Greaper Kukkai [_-Kukkai-_] -Luminate Jemzuu AJamez Rew0825 Ymiir -wwwww Fii
BeatmapID:2857558
BeatmapSetID:1093379

[Difficulty]
HPDrainRate:3
CircleSize:2.5
OverallDifficulty:6
ApproachRate:6
SliderMultiplier:1.2
SliderTickRate:1

[Events]
//Background and Video events
0,0,"BG7.jpg",0,0
//Break Periods
//Storyboard Layer 0 (Background)
//Storyboard Layer 1 (Fail)
//Storyboard Layer 2 (Pass)
//Storyboard Layer 3 (Foreground)
//Storyboard Layer 4 (Overlay)
//Storyboard Sound Samples

[TimingPoints]
330,333.333333333333,4,2,1,60,1,0
22996,-100,4,2,1,65,0,0
31829,-100,4,2,1,60,0,0
33329,-100,4,2,1,60,0,0
38663,-100,4,2,1,60,0,0
41663,-100,4,2,1,60,0,0
44329,-100,4,2,1,65,0,0
49579,-100,4,2,1,5,0,0
49663,-100,4,2,1,60,0,0
49913,-100,4,2,1,5,0,0
49996,-100,4,2,1,60,0,0
52246,-100,4,2,1,5,0,0
52329,-100,4,2,1,60,0,0
54996,-100,4,2,1,65,0,0
65663,-100,4,2,1,75,0,1
81579,-100,4,2,1,5,0,1
81663,-100,4,2,1,75,0,1
85579,-100,4,2,1,5,0,1
85663,-100,4,2,1,75,0,1
92329,-100,4,2,1,80,0,0
101663,-100,4,2,1,60,0,0

[Colours]
Combo1 : 151,166,236
Combo2 : 243,215,163
Combo3 : 250,135,138
Combo4 : 186,197,192

[HitObjects]
169,282,330,6,0,P|102:198|190:137,1,240,2|2,0:0|0:0,0:0:0:0:
333,132,1329,1,2,0:0:0:0:
171,295,1996,6,0,P|113:297|68:260,2,120,2|2|2,0:0|0:0|0:0,0:0:0:0:
315,296,2996,2,0,P|326:238|316:179,1,120,2|2,0:0|0:0,0:0:0:0:
243,182,3496,2,0,P|199:107|244:34,1,180,2|2,0:0|0:0,0:0:0:0:
355,154,4663,6,0,P|412:168|449:213,2,120,2|2|2,0:0|0:0|0:0,0:0:0:0:
223,168,5663,2,0,L|224:296,1,120,2|2,0:0|0:0,0:0:0:0:
355,287,6329,2,0,L|356:150,1,120,2|2,0:0|0:0,0:0:0:0:
177,192,7163,5,0,0:0:0:0:
117,190,7329,2,0,L|120:116,1,60,2|0,0:0|0:0,0:0:0:0:
179,122,7663,1,2,0:0:0:0:
310,121,7996,1,2,0:0:0:0:
177,122,8329,6,0,P|120:179|177:238,1,180,2|2,0:0|0:0,0:0:0:0:
357,246,9329,1,2,1:0:0:0:
211,251,9663,6,0,P|182:203|212:155,1,120,6|8,0:0|0:0,0:0:0:0:
344,151,10329,2,0,P|365:97|341:44,1,120,8|0,0:0|1:0,0:0:0:0:
183,52,10996,6,0,P|104:118|189:177,1,240,6|10,1:0|0:0,0:0:0:0:
322,177,11996,1,10,0:0:0:0:
128,294,12663,5,10,0:0:0:0:
247,278,12996,1,10,0:0:0:0:
366,271,13329,1,10,0:0:0:0:
210,236,13663,6,0,P|126:217|96:136,2,180,14|2|10,0:0|1:0|0:0,0:0:0:0:
454,205,15329,1,10,0:0:0:0:
334,193,15663,1,10,0:0:0:0:
214,184,15996,1,10,0:3:0:0:
371,150,16329,6,0,P|429:141|467:96,2,120,14|10|10,0:0|0:0|0:0,0:0:0:0:
221,149,17329,2,0,P|119:203|197:288,1,240,10|10,0:0|0:0,0:0:0:0:
322,285,18329,1,10,0:0:0:0:
322,152,18663,1,10,0:0:0:0:
174,159,18996,6,0,P|89:181|33:250,2,180,14|2|10,0:3|1:0|0:0,0:0:0:0:
332,79,20329,2,0,L|335:324,1,240,12|8,0:3|0:0,0:0:0:0:
194,268,21663,6,0,L|434:264,1,240,2|2,0:0|0:0,0:0:0:0:
302,206,22663,1,2,0:0:0:0:
134,212,22996,6,0,P|60:137|148:78,1,240,4|0,1:0|1:0,0:0:0:0:
289,87,23996,1,0,1:0:0:0:
124,284,24663,2,0,P|68:269|42:217,2,120,2|2|2,1:0|1:0|1:0,0:0:0:0:
268,282,25663,5,2,1:0:0:0:
365,223,25996,1,2,1:0:0:0:
360,109,26329,1,2,1:0:0:0:
215,115,26663,2,0,P|145:200|218:283,1,240,2|0,1:0|1:0,0:0:0:0:
363,279,27663,2,0,P|373:221|360:163,1,120,2|10,1:0|0:0,0:0:0:0:
203,160,28329,6,0,L|90:96,2,120,6|2|2,1:0|1:0|1:0,0:0:0:0:
357,183,29329,2,0,P|431:260|351:332,1,240,2|2,1:0|1:0,0:0:0:0:
206,326,30329,1,2,1:0:0:0:
349,314,30663,1,2,1:0:0:0:
186,286,30996,6,0,P|100:263|42:195,2,180,2|2|2,1:0|0:0|1:0,0:0:0:0:
432,253,32663,1,2,1:0:0:0:
431,124,32996,1,2,1:0:0:0:
432,253,33329,1,2,1:0:0:0:
263,300,33663,6,0,P|180:238|263:176,1,240,4|0,1:0|1:0,0:0:0:0:
407,77,34663,1,0,1:0:0:0:
143,96,35329,1,2,1:0:0:0:
263,95,35663,1,2,1:0:0:0:
382,89,35996,1,2,1:0:0:0:
237,101,36329,5,2,1:0:0:0:
157,167,36662,1,2,1:0:0:0:
241,227,36995,1,2,1:0:0:0:
384,223,37329,2,0,P|465:289|381:351,1,240,2|2,1:0|1:0,0:0:0:0:
239,324,38329,2,0,L|120:307,1,120,2|2,1:0|1:0,0:0:0:0:
289,235,38996,6,0,P|377:216|446:160,2,180,4|2|0,1:0|0:0|1:0,0:0:0:0:
133,211,40329,2,0,L|26:44,2,180,2|2|2,1:0|0:0|1:0,0:0:0:0:
300,215,41663,6,0,P|388:219|453:278,2,180,4|0|8,1:0|0:0|0:0,0:0:0:0:
132,229,42996,1,12,0:0:0:0:
290,228,43329,2,0,L|439:231,1,120,2|2,1:0|1:0,0:0:0:0:
293,112,43996,1,10,0:0:0:0:
144,122,44329,6,0,P|84:176|143:230,1,180,6|14,1:0|0:0,0:0:0:0:
352,255,45329,2,0,P|357:166|352:76,1,180,14|14,0:0|0:0,0:0:0:0:
154,89,46329,2,0,P|205:59|264:57,1,120,10|10,0:0|0:0,0:0:0:0:
420,66,46996,6,0,L|425:198,1,120,6|8,0:0|0:0,0:0:0:0:
364,193,47496,1,2,0:0:0:0:
232,193,47829,1,2,1:0:0:0:
363,170,48163,6,0,P|458:264|354:348,1,300,2|0,0:0|1:0,0:0:0:0:
211,333,49329,1,10,0:0:0:0:
355,332,49663,6,0,P|366:274|348:218,1,120,6|10,0:0|0:0,0:0:0:0:
276,211,50163,2,0,L|147:212,1,120,2|2,0:0|1:0,0:0:0:0:
156,211,50663,1,8,0:0:0:0:
322,125,50996,6,0,P|405:142|429:236,2,180,0|0|10,1:0|0:0|0:0,0:0:0:0:
168,115,52329,2,0,P|61:160|30:271,2,240,6|2|6,0:0|1:0|0:0,0:0:0:0:
389,140,54329,2,0,P|455:195|371:226,1,180,10|8,1:0|0:0,0:0:0:0:
314,229,54996,6,0,P|232:197|144:210,1,180,6|14,0:0|0:0,0:0:0:0:
378,274,55996,2,0,P|430:208|378:142,1,180,14|2,0:0|1:0,0:0:0:0:
311,146,56663,1,4,0:0:0:0:
155,153,56996,1,10,0:0:0:0:
155,308,57329,1,10,0:0:0:0:
311,314,57663,6,0,P|366:299|370:236,1,120,6|10,0:0|0:0,0:0:0:0:
295,239,58163,2,0,P|237:236|197:193,1,120,2|2,0:0|1:0,0:0:0:0:
256,182,58663,1,8,0:0:0:0:
411,190,58996,2,0,P|395:79|285:55,1,240,4|0,1:3|1:0,0:0:0:0:
141,62,59996,1,10,0:0:0:0:
311,280,60329,6,0,P|397:263|447:191,2,180,4|2|8,0:0|0:0|0:0,0:0:0:0:
144,216,61663,2,0,P|61:190|36:107,2,180,6|2|8,0:0|0:0|0:0,0:0:0:0:
311,187,62996,6,0,P|389:217|375:299,1,180,6|12,0:0|0:0,0:0:0:0:
298,303,63662,2,0,L|179:289,1,120,2|14,1:0|0:0,0:0:0:0:
326,265,64328,5,6,1:0:0:0:
326,70,64662,1,14,0:0:0:0:
172,71,64996,2,0,P|110:120|165:177,1,180,10|0,0:0|1:0,0:0:0:0:
239,185,65662,6,0,P|316:260|239:336,1,240,6|0,1:0|1:0,0:0:0:0:
95,342,66662,2,0,P|150:241|265:231,1,240,8|10,0:0|0:0,0:0:0:0:
408,245,67662,1,2,1:0:0:0:
266,223,67995,1,10,0:0:0:0:
109,198,68328,6,0,P|60:131|108:62,1,180,6|2,0:0|0:0,0:0:0:0:
185,53,68995,2,0,L|305:52,1,120,0|8,1:0|0:0,0:0:0:0:
310,207,69662,1,4,1:3:0:0:
179,197,69996,2,0,P|122:187|91:138,2,120,10|10|10,0:0|0:0|0:0,0:0:0:0:
338,192,70996,6,0,P|372:236|337:280,1,120,6|8,1:0|0:0,0:0:0:0:
266,278,71496,2,0,P|181:281|155:201,1,180,2|8,0:0|0:0,0:0:0:0:
319,186,72328,2,0,P|404:163|439:84,2,180,6|2|10,1:3|0:0|0:0,0:0:0:0:
165,197,73663,6,0,P|84:227|61:310,2,180,6|2|10,0:0|0:0|0:0,0:0:0:0:
310,203,74996,2,0,P|321:145|311:86,1,120,12|10,0:0|0:0,0:0:0:0:
159,78,75663,1,2,1:0:0:0:
353,84,76329,6,0,P|380:134|358:188,1,120,6|10,0:0|0:0,0:0:0:0:
286,191,76828,2,0,P|202:211|183:294,1,180,2|8,0:0|0:0,0:0:0:0:
327,306,77663,1,4,1:3:0:0:
327,162,77996,1,10,0:0:0:0:
177,153,78329,2,0,L|58:149,1,120,2|10,1:0|0:0,0:0:0:0:
221,242,78997,6,0,P|310:233|397:255,2,180,6|2|8,1:0|0:0|0:0,0:0:0:0:
76,241,80329,1,4,1:3:0:0:
220,230,80663,1,10,0:0:0:0:
366,224,80996,2,0,P|380:167|369:108,1,120,4|8,1:3|0:0,0:0:0:0:
213,97,81663,6,0,P|193:152|207:210,1,120,6|10,1:0|0:0,0:0:0:0:
285,212,82163,2,0,P|345:264|283:313,1,180,2|8,0:0|0:0,0:0:0:0:
139,299,82996,2,0,P|125:242|139:184,1,120,4|10,1:3|0:0,0:0:0:0:
283,179,83663,2,0,L|403:176,1,120,0|8,1:0|0:0,0:0:0:0:
240,333,84329,6,0,P|181:329|127:304,1,120,6|8,1:3|0:0,0:0:0:0:
199,293,84830,2,0,P|284:285|311:204,1,180,2|8,0:0|0:0,0:0:0:0:
156,183,85663,2,0,P|100:165|66:117,2,120,6|14|10,1:0|0:3|0:0,0:0:0:0:
301,189,86663,1,10,0:0:0:0:
158,190,86996,6,0,P|140:246|155:303,1,120,6|10,1:0|0:0,0:0:0:0:
227,307,87496,2,0,P|311:300|330:217,1,180,2|8,0:0|0:0,0:0:0:0:
173,202,88329,2,0,P|155:147|176:91,1,120,4|10,1:3|0:0,0:0:0:0:
320,89,88996,2,0,P|339:144|318:199,1,120,0|8,1:0|0:0,0:0:0:0:
148,213,89663,6,0,P|121:264|148:315,1,120,6|10,1:0|0:0,0:0:0:0:
232,312,90163,2,0,L|378:309,1,120,2|2,0:0|1:0,0:0:0:0:
351,225,90663,1,8,0:0:0:0:
195,225,90996,5,4,1:3:0:0:
349,204,91329,2,0,P|408:198|463:175,2,120,10|10|10,0:0|0:0|1:0,0:0:0:0:
182,106,92329,6,0,P|163:161|183:216,1,120,14|0,1:0|1:0,0:0:0:0:
260,212,92829,2,0,P|345:221|373:302,1,180,14|14,1:3|1:3,0:0:0:0:
176,324,93829,2,0,L|116:326,2,60,14|2|2,1:3|1:0|1:0,0:0:0:0:
253,308,94329,6,0,P|305:283|322:227,1,120,14|10,1:0|1:0,0:0:0:0:
243,226,94829,2,0,P|189:206|173:151,1,120,14|10,1:0|1:0,0:0:0:0:
249,140,95329,6,0,P|336:126|395:61,2,180,14|14|14,1:0|1:3|1:0,0:0:0:0:
107,163,96663,1,12,0:0:0:0:
249,157,96996,1,14,1:0:0:0:
380,163,97329,1,14,1:3:0:0:
388,228,97496,5,14,1:0:0:0:
256,192,97996,12,0,101663,0:0:0:0:
