osu file format v14

[General]
AudioFilename: norowaretanekodsadada.mp3
AudioLeadIn: 0
PreviewTime: 110853
Countdown: 1
SampleSet: Soft
StackLeniency: 0.2
Mode: 0
LetterboxInBreaks: 0
WidescreenStoryboard: 1

[Editor]
Bookmarks: 89570,155025,273274
DistanceSpacing: 1.2
BeatDivisor: 4
GridSize: 32
TimelineZoom: 1.7

[Metadata]
Title:Norowareta Sei / Shukufuku Sareta Sei
TitleUnicode:呪われた生/祝福された生
Artist:Hana
ArtistUnicode:はな
Creator:neko ds
Version:Insane
Source:素晴らしき日々~不連続存在~
Tags:PandaHero SubaHibi Subarashiki Hibi ~Furenzoku Sonzai~ Wonderful Everyday ~Diskontinuierliches Dasein~ すかぢ SCA-ji ピクセルビー visual novel vn eroge pixelbee japanese video game rock cursed life blessed life
BeatmapID:3895453
BeatmapSetID:1011739

[Difficulty]
HPDrainRate:6
CircleSize:4
OverallDifficulty:7
ApproachRate:9
SliderMultiplier:1.6
SliderTickRate:1

[Events]
//Background and Video events
0,0,"neqqq1.png",0,0
//Break Periods
//Storyboard Layer 0 (Background)
//Storyboard Layer 1 (Fail)
//Storyboard Layer 2 (Pass)
//Storyboard Layer 3 (Foreground)
//Storyboard Layer 4 (Overlay)
//Storyboard Sound Samples

[TimingPoints]
126,545.454545454546,4,2,1,50,1,0
8853,-83.3333333333333,4,2,1,55,0,0
17580,-76.9230769230769,4,2,1,60,0,0
48126,-76.9230769230769,4,2,1,65,0,0
52489,-76.9230769230769,4,2,1,50,0,0
54671,-100,4,2,1,55,0,0
72126,-86.9565217391304,4,2,1,55,0,0
87398,-54.054054054054,4,2,1,60,0,0
113580,-54.054054054054,4,2,1,65,0,0
115762,-54.054054054054,4,1,1,75,0,0
126671,-48.780487804878,4,1,1,75,0,0
128853,-54.054054054054,4,1,1,75,0,0
155035,-66.6666666666667,4,2,1,70,0,0
174671,-83.3333333333333,4,2,1,60,0,0
192126,-83.3333333333333,4,2,1,65,0,0
209580,-66.6666666666667,4,2,1,70,0,0
229216,-45.4545454545455,4,2,1,75,0,0
231398,-54.054054054054,4,1,1,80,0,1
243398,-54.054054054054,4,1,1,80,0,1
245035,-54.054054054054,4,1,1,80,0,1
264126,-48.780487804878,4,1,1,80,0,1
266307,-100,4,2,1,60,0,0
270671,600,4,2,1,60,1,0
271496,600,4,2,1,50,1,0
272396,461.538461538462,4,2,1,50,1,0
272684,600,4,2,1,50,1,0
273191,545.454545454546,4,2,1,50,1,0

[Colours]
Combo1 : 196,196,0
Combo2 : 130,10,0
Combo3 : 0,108,108
Combo4 : 62,113,64

[HitObjects]
446,84,8853,6,0,P|398:113|307:163,2,143.999995605469,4|0|2,1:2|1:0|0:0,0:0:0:0:
370,253,10080,1,0,1:0:0:0:
234,122,10489,1,0,1:0:0:0:
310,26,10762,2,0,P|304:58|302:84,1,47.9999985351563,0|2,3:0|3:0,0:0:0:0:
234,122,11035,6,0,P|179:112|151:70,2,95.9999970703126,4|0|0,1:2|0:0|0:0,0:0:0:0:
267,195,11853,2,0,P|209:253|96:289,1,191.999994140625,0|0,1:0|1:0,0:0:0:0:
106,288,12671,2,0,P|157:303|208:325,1,95.9999970703126,0|0,3:0|1:0,0:0:0:0:
388,263,13216,6,0,P|388:196|396:99,2,143.999995605469,4|0|0,1:2|1:0|1:0,0:0:0:0:
320,335,14307,2,0,P|285:293|280:244,1,95.9999970703126,0|0,0:0|1:0,0:0:0:0:
482,275,14853,2,0,P|472:321|440:356,1,95.9999970703126,0|2,3:0|3:0,0:0:0:0:
309,179,15398,5,4,1:2:0:0:
186,141,15671,2,0,L|165:74,1,47.9999985351563,0|0,1:0|1:0,0:0:0:0:
95,295,16216,5,0,1:0:0:0:
218,257,16489,2,0,L|239:190,2,47.9999985351563,0|0|0,1:0|1:0|0:0,0:0:0:0:
323,337,17035,2,0,P|376:327|437:322,1,95.9999970703126,2|0,0:0|0:0,0:0:0:0:
306,169,17580,5,4,1:0:0:0:
242,125,17716,1,0,0:0:0:0:
272,53,17853,1,0,0:0:0:0:
165,155,18126,2,0,P|114:163|44:178,1,103.999995239258,8|0,1:0|1:0,0:0:0:0:
17,108,18535,1,0,0:0:0:0:
44,33,18671,2,0,P|95:24|146:14,1,103.999995239258,4|0,1:3|1:0,0:0:0:0:
130,241,19216,5,8,1:0:0:0:
190,78,19489,1,4,0:0:0:0:
256,288,19762,2,0,B|306:269|317:345|394:319,1,103.999995239258,4|0,1:3|0:0,0:0:0:0:
392,258,20171,1,0,1:0:0:0:
485,334,20307,2,0,P|491:282|503:212,1,103.999995239258,8|2,1:0|0:0,0:0:0:0:
331,104,20853,5,4,1:3:0:0:
271,153,20989,1,2,0:0:0:0:
318,215,21126,1,2,0:0:0:0:
434,134,21398,5,8,1:0:0:0:
494,85,21534,1,0,0:0:0:0:
447,23,21671,1,2,0:0:0:0:
367,6,21807,5,4,0:0:0:0:
367,6,21944,2,0,L|241:31,1,103.999995239258,4|0,1:3|0:0,0:0:0:0:
165,16,22353,1,0,1:0:0:0:
109,106,22489,2,0,L|235:81,1,103.999995239258,8|2,1:0|0:0,0:0:0:0:
28,64,23035,5,4,1:3:0:0:
28,64,23171,1,2,0:0:0:0:
174,185,23580,1,8,1:0:0:0:
211,85,23853,1,4,0:0:0:0:
43,156,24126,6,0,P|66:209|84:270,1,103.999995239258,4|0,1:3|0:0,0:0:0:0:
38,321,24535,1,0,1:0:0:0:
179,222,24671,2,0,P|158:269|142:319,1,103.999995239258,8|2,1:0|0:0,0:0:0:0:
206,362,25080,1,0,0:0:0:0:
285,211,25216,6,0,P|269:161|248:113,1,103.999995239258,4|2,1:3|0:0,0:0:0:0:
388,214,25762,1,8,1:0:0:0:
243,286,26035,1,2,0:0:0:0:
249,114,26307,6,0,P|243:82|234:1,1,103.999995239258,4|0,1:0|0:0,0:0:0:0:
71,36,26716,1,0,1:0:0:0:
71,36,26853,2,0,P|79:87|85:138,1,103.999995239258,8|2,1:0|0:0,0:0:0:0:
152,182,27262,1,0,3:0:0:0:
331,108,27398,6,0,P|381:95|446:90,1,103.999995239258,4|2,1:3|0:0,0:0:0:0:
467,313,27944,2,0,P|417:326|352:331,1,103.999995239258,8|4,1:0|0:0,0:0:0:0:
378,252,28353,1,2,0:0:0:0:
247,350,28489,6,0,P|237:300|219:236,1,103.999995239258,4|0,1:3|0:0,0:0:0:0:
272,185,28898,1,0,1:0:0:0:
140,250,29035,2,0,P|153:199|163:148,1,103.999995239258,8|2,1:0|0:0,0:0:0:0:
234,111,29444,1,2,0:0:0:0:
70,126,29580,6,0,P|60:76|42:12,1,103.999995239258,4|2,1:3|0:0,0:0:0:0:
272,185,30126,1,8,1:0:0:0:
338,40,30398,1,2,0:0:0:0:
163,148,30671,6,0,P|193:199|227:240,1,103.999995239258,4|0,1:3|0:0,0:0:0:0:
253,143,31080,1,0,1:0:0:0:
97,88,31216,2,0,P|66:139|33:180,1,103.999995239258,8|2,1:0|0:0,0:0:0:0:
187,26,31762,1,4,1:3:0:0:
187,26,32035,1,2,0:0:0:0:
187,26,32307,5,8,1:0:0:0:
107,256,32580,1,4,0:0:0:0:
253,143,32853,6,0,P|316:109|322:43,1,103.999995239258,4|0,1:3|0:0,0:0:0:0:
276,20,33262,1,0,1:0:0:0:
404,60,33398,2,0,P|429:104|477:121,1,103.999995239258,8|2,1:0|0:0,0:0:0:0:
322,268,33944,2,0,P|371:256|416:281,1,103.999995239258,4|0,1:3|0:0,0:0:0:0:
361,337,34353,1,2,0:0:0:0:
374,167,34489,5,8,1:2:0:0:
443,205,34626,1,8,0:0:0:0:
291,194,34762,5,8,0:0:0:0:
360,156,34899,1,4,0:0:0:0:
267,330,35035,6,0,L|149:317,1,103.999995239258,4|0,1:0|0:0,0:0:0:0:
22,256,35444,1,0,1:0:0:0:
22,256,35580,2,0,L|125:244,1,103.999995239258,8|2,1:0|0:0,0:0:0:0:
201,166,35989,1,0,0:0:0:0:
146,88,36126,2,0,P|86:112|70:151,1,103.999995239258,4|2,1:3|0:0,0:0:0:0:
322,119,36671,2,0,P|295:75|246:62,1,103.999995239258,8|4,1:0|0:0,0:0:0:0:
201,166,37080,1,2,0:0:0:0:
331,271,37216,6,0,P|349:225|380:166,2,103.999995239258,4|0|8,1:3|1:0|1:0,0:0:0:0:
381,333,37898,1,2,0:0:0:0:
474,169,38171,1,2,0:0:0:0:
418,112,38307,2,0,P|398:63|375:17,3,103.999995239258,4|2|8|2,1:3|0:0|1:0|0:0,0:0:0:0:
375,17,39262,1,4,0:0:0:0:
303,142,39398,6,0,P|242:150|185:134,1,103.999995239258,4|0,1:3|0:0,0:0:0:0:
146,200,39807,1,0,1:0:0:0:
218,312,39944,6,0,P|269:283|281:234,1,103.999995239258,8|2,1:0|0:0,0:0:0:0:
100,109,40489,2,0,P|49:138|37:187,1,103.999995239258,4|2,1:3|0:0,0:0:0:0:
79,245,40898,1,0,3:0:0:0:
146,200,41035,2,0,L|131:37,1,155.999992858887,8|2,1:0|0:0,0:0:0:0:
215,104,41580,5,4,1:3:0:0:
283,144,41716,1,0,0:0:0:0:
320,74,41853,1,0,0:0:0:0:
252,33,41989,1,0,1:0:0:0:
390,120,42126,6,0,L|460:112,1,51.999997619629,8|0,1:0|0:0,0:0:0:0:
483,30,42398,2,0,L|431:24,1,51.999997619629,4|0,0:0|0:0,0:0:0:0:
351,194,42671,2,0,P|366:242|379:319,1,103.999995239258,4|2,1:3|0:0,0:0:0:0:
376,294,43080,1,0,3:0:0:0:
443,221,43216,2,0,L|499:212,1,51.999997619629,8|2,1:0|0:0,0:0:0:0:
292,267,43489,2,0,L|240:258,1,51.999997619629,2|4,0:0|0:0,0:0:0:0:
421,138,43762,6,0,P|345:125|329:81,1,103.999995239258,4|0,1:0|0:0,0:0:0:0:
315,34,44171,1,0,1:0:0:0:
315,34,44307,2,0,L|199:70,1,103.999995239258,8|2,1:0|0:0,0:0:0:0:
90,114,44716,1,2,0:0:0:0:
90,114,44853,2,0,L|206:150,1,103.999995239258,4|2,1:3|0:0,0:0:0:0:
27,17,45398,1,8,1:0:0:0:
5,162,45671,1,4,0:0:0:0:
150,27,45944,5,4,1:3:0:0:
215,64,46080,1,0,0:0:0:0:
263,123,46216,1,0,1:0:0:0:
231,52,46353,1,4,1:2:0:0:
287,199,46489,5,8,1:0:0:0:
365,50,46762,1,4,0:0:0:0:
475,206,47035,2,0,P|430:235|390:270,1,103.999995239258,4|2,1:3|0:0,0:0:0:0:
368,184,47444,1,0,3:0:0:0:
385,346,47580,2,0,P|333:342|259:322,2,103.999995239258,8|2|4,1:0|0:0|1:3,0:0:0:0:
391,268,48262,5,0,3:0:0:0:
328,219,48398,1,2,3:0:0:0:
251,244,48535,1,0,1:0:0:0:
207,312,48671,6,0,P|144:313|111:282,1,103.999995239258,8|0,1:0|3:0,0:0:0:0:
38,148,49080,1,2,0:0:0:0:
38,148,49216,2,0,P|79:118|130:124,1,103.999995239258,4|2,1:3|0:0,0:0:0:0:
36,322,49762,2,0,L|18:265,1,51.999997619629,8|2,1:0|0:0,0:0:0:0:
80,220,50035,2,0,L|95:170,1,51.999997619629,2|4,0:0|0:0,0:0:0:0:
196,35,50307,6,0,P|146:45|70:57,1,103.999995239258,4|2,1:3|3:0,0:0:0:0:
129,123,50716,1,0,1:0:0:0:
326,247,50853,2,0,P|315:197|300:88,1,155.999992858887,8|2,1:0|3:0,0:0:0:0:
208,111,51398,5,4,1:3:0:0:
268,181,51535,1,2,0:0:0:0:
333,18,51671,1,2,0:0:0:0:
242,34,51808,1,2,3:0:0:0:
353,169,51944,1,8,1:0:0:0:
384,82,52081,1,8,0:0:0:0:
300,93,52216,1,8,0:0:0:0:
268,181,52353,1,4,0:0:0:0:
427,252,52489,6,0,P|452:187|467:44,1,207.999990478516,4|0,0:0|0:0,0:0:0:0:
353,169,53307,1,2,0:0:0:0:
396,11,53580,2,0,P|340:31|286:60,1,103.999995239258,0|0,1:0|0:0,0:0:0:0:
122,115,54126,2,0,P|178:135|232:164,1,103.999995239258,2|2,0:0|0:0,0:0:0:0:
238,9,54671,6,0,L|266:232,1,200,4|0,0:0|0:0,0:0:0:0:
226,299,55489,2,0,P|178:298|143:283,1,80,0|0,1:0|0:0,0:0:0:0:
349,174,56171,1,0,0:0:0:0:
349,174,56307,2,0,B|374:185|374:185|405:258,1,80,2|0,0:0|0:0,0:0:0:0:
433,320,56716,5,0,0:0:0:0:
433,320,56853,2,0,P|385:319|350:304,1,80,0|0,1:0|1:0,0:0:0:0:
293,352,57262,2,0,P|255:365|215:364,1,80,0|0,1:0|0:0,0:0:0:0:
147,326,57671,2,0,P|105:262|177:151,1,200,0|0,1:0|0:0,0:0:0:0:
154,159,58489,2,0,L|191:172,3,40,2|0|0|0,0:0|1:0|0:0|1:0,0:0:0:0:
276,132,59035,6,0,P|284:93|299:41,1,80,4|0,1:2|0:0,0:0:0:0:
226,14,59444,1,0,0:0:0:0:
225,14,59580,2,0,P|214:52|206:91,1,80,8|0,0:0|1:0,0:0:0:0:
408,193,60398,1,0,1:0:0:0:
489,84,60671,2,0,B|476:46|476:46|413:50,1,80,0|0,0:0|3:0,0:0:0:0:
296,122,61216,6,0,B|250:136|250:136|166:27,1,160,0|0,1:0|0:0,0:0:0:0:
50,234,62035,2,0,B|96:248|96:248|136:198|180:139,1,160,4|2,0:0|1:2,0:0:0:0:
86,107,62853,1,2,0:0:0:0:
197,253,63126,1,2,1:3:0:0:
278,189,63398,6,0,P|284:154|300:94,1,80,4|2,1:0|0:0,0:0:0:0:
248,46,63807,1,0,0:0:0:0:
320,80,63944,1,2,0:0:0:0:
207,117,64080,1,0,0:0:0:0:
363,171,64216,6,0,P|408:184|465:304,1,160,0|0,1:0|0:0,0:0:0:0:
466,274,65035,2,0,L|472:153,1,120,2|0,0:0|0:0,0:0:0:0:
494,121,65580,2,0,B|477:74|477:74|448:100,1,80,0|0,1:0|0:0,0:0:0:0:
384,121,65989,1,0,1:0:0:0:
384,121,66126,2,0,P|321:93|319:54,1,80,0|2,1:0|1:2,0:0:0:0:
319,88,66944,5,0,1:0:0:0:
381,38,67080,1,0,1:0:0:0:
454,94,67216,2,0,P|473:142|474:201,1,80,4|8,0:0|0:0,0:0:0:0:
251,147,67762,6,0,P|234:110|228:71,1,80,4|0,1:0|0:0,0:0:0:0:
163,26,68171,1,0,0:0:0:0:
163,26,68307,2,0,P|156:65|140:101,1,80,8|0,0:0|1:0,0:0:0:0:
6,200,68989,1,0,0:0:0:0:
6,200,69126,2,0,P|12:239|28:275,2,80,2|0|2,0:0|0:0|0:0,0:0:0:0:
53,119,69807,1,0,0:0:0:0:
139,101,69944,6,0,P|174:119|212:132,1,80,0|0,1:0|0:0,0:0:0:0:
212,132,70353,2,0,P|213:172|228:232,1,80,0|0,1:0|0:0,0:0:0:0:
278,84,70762,2,0,P|318:54|355:50,1,80,0|4,1:0|0:0,0:0:0:0:
439,249,71307,2,0,B|399:279|362:283,1,80,0|0,1:0|0:0,0:0:0:0:
358,158,71853,5,8,0:0:0:0:
279,340,72126,2,0,B|245:328|245:328|177:349,1,92.0000017547608,4|0,1:0|0:0,0:0:0:0:
136,288,72535,1,0,3:0:0:0:
170,216,72671,1,8,0:0:0:0:
241,252,72807,1,2,3:0:0:0:
94,185,72944,6,0,P|93:147|87:81,1,92.0000017547608,0|0,1:0|0:0,0:0:0:0:
260,21,73489,1,2,0:0:0:0:
61,18,73762,1,8,0:0:0:0:
239,101,74035,2,0,P|244:130|253:165,1,46.0000008773804,2|0,0:0|3:0,0:0:0:0:
165,52,74307,5,4,1:2:0:0:
354,21,74580,1,0,0:0:0:0:
354,21,74716,1,0,0:0:0:0:
354,21,74853,2,0,P|355:72|346:136,1,92.0000017547608,8|0,0:0|1:0,0:0:0:0:
350,112,75671,5,2,0:0:0:0:
350,112,75807,1,0,1:0:0:0:
350,112,75944,2,0,P|349:163|358:227,2,92.0000017547608,0|4|4,1:0|0:0|1:0,0:0:0:0:
415,69,76626,5,0,0:0:0:0:
479,116,76762,1,2,0:0:0:0:
458,193,76898,1,0,0:0:0:0:
413,260,77035,1,8,0:0:0:0:
464,321,77171,1,0,0:0:0:0:
510,256,77307,6,0,B|451:233|430:323|362:295,1,138.000002632141,0|0,1:0|0:0,0:0:0:0:
289,349,77853,2,0,L|278:294,1,46.0000008773804,0|0,3:0|3:0,0:0:0:0:
184,268,78126,2,0,P|187:201|224:167,1,92.0000017547608,8|0,0:0|3:0,0:0:0:0:
89,301,78671,6,0,B|53:296|29:284|29:284|3:358,2,138.000002632141,4|0|0,1:2|1:0|1:0,0:0:0:0:
271,223,79762,1,2,0:0:0:0:
140,130,80035,1,0,1:0:0:0:
140,130,80171,1,0,1:0:0:0:
140,130,80307,2,0,P|125:170|97:225,1,92.0000017547608,8|2,0:0|3:0,0:0:0:0:
165,271,80716,1,2,0:0:0:0:
244,137,80853,6,0,P|223:95|207:52,1,92.0000017547608,4|0,1:0|0:0,0:0:0:0:
207,52,81262,1,2,0:0:0:0:
207,52,81398,2,0,P|161:59|115:62,1,92.0000017547608,8|0,1:2|1:0,0:0:0:0:
341,82,82080,2,0,P|317:72|291:66,1,46.0000008773804,0|0,0:0|0:0,0:0:0:0:
443,18,82353,2,0,P|420:23|399:32,1,46.0000008773804,0|8,0:0|0:0,0:0:0:0:
379,204,82626,1,0,3:0:0:0:
379,204,82762,2,0,P|373:181|364:160,1,46.0000008773804,2|2,3:0|0:0,0:0:0:0:
341,82,83035,6,0,P|317:72|235:56,1,92.0000017547608,4|0,1:2|0:0,0:0:0:0:
186,99,83444,1,0,1:0:0:0:
186,99,83580,2,0,P|165:114|110:177,1,92.0000017547608,0|4,1:0|1:2,0:0:0:0:
156,322,84126,1,0,0:0:0:0:
50,185,84398,1,0,0:0:0:0:
122,213,84535,1,0,1:0:0:0:
74,95,84671,2,0,P|43:60|8:31,2,92.0000017547608,0|4|4,1:0|0:0|1:0,0:0:0:0:
147,127,85353,5,0,0:0:0:0:
224,110,85489,1,2,0:0:0:0:
278,52,85626,1,0,0:0:0:0:
357,43,85762,1,8,0:0:0:0:
423,87,85898,1,0,0:0:0:0:
493,49,86035,6,0,P|436:45|352:160,1,184.000003509522,0|0,1:0|3:0,0:0:0:0:
440,163,86716,1,0,3:0:0:0:
423,87,86853,1,0,1:0:0:0:
357,43,86989,1,0,0:0:0:0:
278,52,87125,1,4,0:0:0:0:
224,110,87262,1,0,0:0:0:0:
147,127,87398,6,0,P|204:123|288:247,1,221.999999153137,4|0,1:0|1:0,0:0:0:0:
288,245,87944,2,0,P|222:230|194:230,1,73.9999997177124,0|0,1:0|0:0,0:0:0:0:
336,302,88216,2,0,P|371:291|407:286,1,73.9999997177124,4|0,0:0|0:0,0:0:0:0:
272,358,88489,1,0,1:0:0:0:
272,358,88762,1,2,0:0:0:0:
272,358,89035,5,8,1:0:0:0:
336,302,89171,1,8,1:0:0:0:
288,245,89307,1,8,0:0:0:0:
407,286,89444,1,8,0:0:0:0:
451,354,89580,6,0,P|372:237|396:140,1,221.999999153137,4|0,1:0|0:0,0:0:0:0:
416,94,90126,2,0,P|454:110|501:122,2,73.9999997177124,8|0|2,1:0|0:0|0:0,0:0:0:0:
379,26,90535,1,0,0:3:0:0:
291,95,90671,6,0,B|220:132|220:132|210:208,1,147.999999435425,4|0,1:3|0:0,0:0:0:0:
227,44,91080,1,0,0:0:0:0:
64,30,91216,2,0,B|60:109|60:109|121:156,1,147.999999435425,8|2,1:0|0:0,0:0:0:0:
140,71,91626,1,0,1:0:0:0:
22,202,91762,6,0,P|112:295|155:298,1,147.999999435425,4|0,1:2|0:0,0:0:0:0:
123,297,92171,1,0,0:0:0:0:
192,340,92307,2,0,P|257:308|293:244,1,147.999999435425,8|2,1:0|0:0,0:0:0:0:
293,244,92716,1,0,3:0:0:0:
417,283,92853,6,0,L|432:128,2,147.999999435425,4|4|8,1:3|0:0|1:0,0:0:0:0:
318,122,93671,1,2,0:0:0:0:
470,32,93944,6,0,P|429:54|239:75,1,221.999999153137,4|0,1:0|0:0,0:0:0:0:
318,122,94489,1,8,1:0:0:0:
339,197,94626,1,0,0:0:0:0:
287,254,94762,2,0,P|253:239|210:227,1,73.9999997177124,2|0,0:0|0:0,0:0:0:0:
191,140,95035,6,0,P|107:120|67:61,1,147.999999435425,4|2,1:3|0:0,0:0:0:0:
123,16,95444,1,2,0:0:0:0:
70,147,95580,2,0,B|40:174|40:174|43:232,1,73.9999997177124,8|0,1:0|0:0,0:0:0:0:
157,277,95853,2,0,B|118:264|118:264|90:282,1,73.9999997177124,2|0,0:0|1:0,0:0:0:0:
196,201,96126,6,0,B|197:167|197:167|167:140,1,73.9999997177124,4|0,1:0|0:0,0:0:0:0:
120,197,96398,1,0,0:0:0:0:
120,197,96535,1,0,1:0:0:0:
286,254,96671,2,0,P|292:220|304:178,1,73.9999997177124,8|2,1:0|0:0,0:0:0:0:
230,305,96944,1,4,0:0:0:0:
230,305,97080,1,0,0:0:0:0:
384,345,97216,2,0,P|424:332|458:322,1,73.9999997177124,4|0,1:3|0:0,0:0:0:0:
462,165,97489,2,0,P|422:178|387:187,1,73.9999997177124,2|0,0:0|0:0,0:0:0:0:
369,267,97762,5,8,1:0:0:0:
454,323,97898,1,0,1:0:0:0:
462,165,98035,1,0,1:0:0:0:
391,186,98171,1,0,1:0:0:0:
506,258,98307,6,0,L|522:88,1,147.999999435425,4|0,1:0|0:0,0:0:0:0:
396,25,98716,1,0,0:0:0:0:
396,25,98853,2,0,P|430:38|466:47,1,73.9999997177124,8|0,1:0|0:0,0:0:0:0:
316,6,99126,2,0,P|280:15|245:28,1,73.9999997177124,4|2,0:0|0:0,0:0:0:0:
337,82,99398,5,4,1:3:0:0:
283,220,99671,1,2,0:0:0:0:
153,74,99944,2,0,P|186:95|226:126,1,73.9999997177124,8|0,1:0|0:0,0:0:0:0:
134,179,100216,2,0,P|100:157|61:127,1,73.9999997177124,2|0,0:0|0:0,0:0:0:0:
190,258,100489,6,0,P|220:338|291:357,1,147.999999435425,4|2,1:2|0:0,0:0:0:0:
273,358,100898,1,0,0:0:0:0:
190,258,101035,2,0,P|110:288|91:359,1,147.999999435425,8|2,1:0|0:0,0:0:0:0:
89,341,101444,1,0,0:0:0:0:
190,258,101580,2,0,P|160:178|89:159,1,147.999999435425,4|2,1:3|0:0,0:0:0:0:
106,157,101989,1,0,0:0:0:0:
276,243,102126,5,8,1:0:0:0:
347,270,102262,1,0,0:0:0:0:
406,220,102398,1,2,0:0:0:0:
384,146,102535,1,0,0:0:0:0:
318,105,102671,6,0,P|247:123|217:192,1,147.999999435425,4|0,1:0|0:0,0:0:0:0:
150,228,103080,1,0,1:0:0:0:
76,205,103216,2,0,P|68:171|56:120,1,73.9999997177124,8|2,1:0|0:0,0:0:0:0:
124,92,103489,2,0,P|115:56|107:19,1,73.9999997177124,4|0,0:0|0:0,0:0:0:0:
248,27,103762,6,0,B|346:63|346:63|346:129,1,147.999999435425,4|0,1:3|0:0,0:0:0:0:
270,120,104171,1,4,0:0:0:0:
439,87,104307,2,0,L|451:184,1,73.9999997177124,8|0,1:0|0:0,0:0:0:0:
350,268,104580,2,0,L|359:194,1,73.9999997177124,2|0,0:0|0:0,0:0:0:0:
465,279,104853,6,0,B|465:322|465:322|367:358,1,147.999999435425,4|0,1:2|0:0,0:0:0:0:
350,268,105262,1,0,0:0:0:0:
269,317,105398,2,0,P|237:308|187:299,1,73.9999997177124,8|0,1:0|0:0,0:0:0:0:
173,206,105671,2,0,P|205:215|255:224,1,73.9999997177124,2|0,0:0|0:0,0:0:0:0:
76,268,105944,5,4,1:3:0:0:
37,200,106080,1,0,0:0:0:0:
89,141,106216,2,0,L|175:121,1,73.9999997177124,0|2,0:0|0:0,0:0:0:0:
333,190,106489,5,8,1:0:0:0:
372,122,106625,1,0,0:0:0:0:
320,63,106761,2,0,L|234:43,1,73.9999997177124,2|0,0:0|0:0,0:0:0:0:
170,51,107035,6,0,P|180:130|193:284,1,221.999999153137,4|0,1:0|0:0,0:0:0:0:
125,310,107580,2,0,P|95:296|46:278,1,73.9999997177124,8|0,1:0|0:0,0:0:0:0:
22,191,107853,2,0,P|56:177|90:162,1,73.9999997177124,4|0,0:0|0:0,0:0:0:0:
278,259,108126,1,4,1:3:0:0:
192,271,108262,1,0,0:0:0:0:
172,186,108398,1,2,0:0:0:0:
258,170,108535,1,2,0:0:0:0:
353,287,108671,2,0,P|386:271|421:258,1,73.9999997177124,8|0,1:0|0:0,0:0:0:0:
395,153,108944,2,0,P|360:139|326:124,1,73.9999997177124,2|2,0:0|0:0,0:0:0:0:
474,192,109216,6,0,P|481:118|491:37,1,147.999999435425,4|8,1:2|0:0,0:0:0:0:
424,6,109626,1,8,0:0:0:0:
424,6,109762,2,0,P|336:0|296:55,1,147.999999435425,8|8,1:0|0:0,0:0:0:0:
251,99,110171,1,0,0:0:0:0:
141,148,110307,6,0,P|81:118|-4:82,2,147.999999435425,4|4|8,1:3|0:0|1:0,0:0:0:0:
223,22,111126,1,2,0:0:0:0:
47,208,111398,1,4,1:0:0:0:
108,258,111535,1,0,0:0:0:0:
175,217,111671,1,0,0:0:0:0:
141,148,111807,1,0,0:0:0:0:
113,200,111944,6,0,P|141:270|170:361,1,147.999999435425,8|4,1:0|0:0,0:0:0:0:
163,338,112353,1,0,0:0:0:0:
259,232,112489,2,0,P|247:199|232:141,1,73.9999997177124,4|0,1:3|0:0,0:0:0:0:
367,323,112762,6,0,P|402:342|447:340,1,73.9999997177124,4|0,0:0|0:0,0:0:0:0:
452,182,113035,2,0,P|420:163|383:161,1,73.9999997177124,8|0,1:0|0:0,0:0:0:0:
346,241,113307,1,2,0:0:0:0:
310,117,113444,1,0,0:0:0:0:
485,261,113580,6,0,L|508:78,2,147.999999435425,4|0|8,1:0|1:0|1:0,0:0:0:0:
346,241,114262,1,2,0:0:0:0:
310,117,114398,1,4,1:2:0:0:
418,45,114535,1,0,0:0:0:0:
403,155,114671,6,0,B|327:134|342:208|234:198,1,147.999999435425,4|2,1:0|0:0,0:0:0:0:
267,198,115080,1,0,0:0:0:0:
38,202,115216,5,8,1:0:0:0:
146,130,115353,1,8,1:0:0:0:
171,257,115489,1,8,1:0:0:0:
120,199,115626,1,8,1:0:0:0:
238,109,115762,6,0,P|255:78|275:32,1,73.9999997177124,6|0,1:0|0:0,0:0:0:0:
422,10,116035,2,0,P|437:43|454:76,1,73.9999997177124,2|2,0:0|0:0,0:0:0:0:
284,202,116307,6,0,P|301:171|321:125,1,73.9999997177124,8|2,1:0|3:0,0:0:0:0:
408,144,116580,2,0,P|423:177|440:210,1,73.9999997177124,2|0,0:0|1:0,0:0:0:0:
298,336,116853,5,4,1:3:0:0:
246,277,116989,1,0,1:0:0:0:
450,293,117126,1,2,1:0:0:0:
398,352,117262,1,2,0:1:0:0:
353,249,117398,5,8,1:0:0:0:
440,210,117535,1,2,3:0:0:0:
284,202,117671,1,2,1:0:0:0:
408,144,117807,1,0,0:0:0:0:
316,135,117944,6,0,P|308:101|291:54,1,73.9999997177124,4|0,1:0|0:0,0:0:0:0:
220,88,118216,2,0,P|212:54|195:7,1,73.9999997177124,0|0,0:0|0:0,0:0:0:0:
151,144,118489,2,0,P|143:110|126:63,2,73.9999997177124,10|2|0,0:0|0:0|0:0,0:0:0:0:
86,190,118898,1,2,0:0:0:0:
148,239,119035,2,0,P|238:272|310:227,2,147.999999435425,4|2|10,0:3|0:0|0:0,0:0:0:0:
46,40,119853,1,2,0:0:0:0:
2,257,120126,6,0,P|34:222|60:204,1,73.9999997177124,4|0,0:3|0:0,0:0:0:0:
119,162,120398,1,2,0:0:0:0:
181,209,120535,1,2,0:0:0:0:
358,81,120671,2,0,P|286:62|198:32,1,147.999999435425,8|2,0:0|0:0,0:0:0:0:
216,38,121080,1,0,0:0:0:0:
341,197,121216,2,0,B|426:184|426:184|453:113,1,147.999999435425,4|2,0:3|0:0,0:0:0:0:
261,258,121762,2,0,P|256:295|253:345,2,73.9999997177124,8|0|2,0:0|0:0|0:0,0:0:0:0:
260,172,122171,1,0,0:0:0:0:
194,117,122307,6,0,L|106:130,1,73.9999997177124,4|0,0:2|0:0,0:0:0:0:
255,41,122580,2,0,L|181:30,1,73.9999997177124,0|0,0:0|2:0,0:0:0:0:
319,109,122853,1,10,0:0:0:0:
401,157,122989,1,0,0:0:0:0:
395,64,123126,1,2,0:0:0:0:
369,113,123262,1,2,0:0:0:0:
471,228,123398,6,0,L|489:145,1,73.9999997177124,4|0,0:3|0:0,0:0:0:0:
361,298,123671,2,0,L|345:225,1,73.9999997177124,2|0,0:0|0:0,0:0:0:0:
450,312,123944,1,10,0:0:0:0:
450,312,124080,1,2,0:0:0:0:
305,363,124216,1,0,0:0:0:0:
305,363,124353,1,0,0:0:0:0:
216,321,124489,6,0,B|166:242|141:325|71:245,1,147.999999435425,4|0,0:0|0:0,0:0:0:0:
141,205,124898,1,0,2:0:0:0:
26,345,125035,2,0,P|16:281|-2:193,1,147.999999435425,10|2,0:0|0:0,0:0:0:0:
215,33,125580,2,0,P|217:69|221:106,1,73.9999997177124,4|0,0:3|0:0,0:0:0:0:
221,105,125853,2,0,P|223:141|227:178,1,73.9999997177124,2|0,0:0|0:0,0:0:0:0:
382,256,126126,5,10,0:0:0:0:
407,180,126262,1,0,2:0:0:0:
340,138,126398,2,0,P|337:101|333:64,1,73.9999997177124,0|0,0:0|0:0,0:0:0:0:
299,218,126671,6,0,B|277:234|270:267|270:267|211:270|174:323,1,164.000002502441,4|2,0:3|0:0,0:0:0:0:
28,293,127080,1,2,0:0:0:0:
28,293,127216,2,0,B|55:295|78:320|78:320|130:292|180:314,1,164.000002502441,8|2,0:0|0:0,0:0:0:0:
157,229,127626,1,0,0:0:0:0:
261,343,127762,6,0,P|307:353|360:360,1,82.0000012512207,4|0,0:3|0:0,0:0:0:0:
440,299,128035,2,0,P|399:292|359:283,1,82.0000012512207,2|2,0:0|0:0,0:0:0:0:
511,346,128307,5,8,0:0:0:0:
506,262,128444,1,0,0:0:0:0:
419,219,128580,1,2,0:0:0:0:
424,135,128717,1,0,0:0:0:0:
500,183,128853,6,0,P|422:114|415:60,1,147.999999435425,4|0,0:2|2:0,0:0:0:0:
469,21,129262,1,0,0:0:0:0:
342,35,129398,2,0,B|314:56|275:76|275:76|290:166,1,147.999999435425,10|2,0:0|0:0,0:0:0:0:
280,222,129944,1,4,0:3:0:0:
268,300,130216,1,2,2:1:0:0:
195,331,130489,6,0,L|161:254,1,73.9999997177124,8|0,0:0|2:0,0:0:0:0:
359,292,130762,2,0,L|329:359,1,73.9999997177124,0|0,0:0|2:0,0:0:0:0:
280,222,131035,6,0,P|254:198|222:164,1,73.9999997177124,6|0,0:0|0:0,0:0:0:0:
388,118,131307,2,0,P|354:128|308:139,1,73.9999997177124,0|0,0:0|0:0,0:0:0:0:
265,20,131580,2,0,P|257:54|243:99,1,73.9999997177124,10|0,0:0|0:0,0:0:0:0:
227,170,131853,5,2,0:0:0:0:
316,137,131989,1,2,0:0:0:0:
246,91,132126,2,0,P|133:73|19:65,1,221.999999153137,4|0,0:3|0:0,0:0:0:0:
53,265,132671,5,8,0:0:0:0:
118,195,132807,1,0,0:0:0:0:
41,143,132944,1,0,0:0:0:0:
134,283,133080,1,0,0:0:0:0:
253,185,133216,6,0,L|337:207,1,73.9999997177124,4|0,0:0|0:0,0:0:0:0:
362,321,133489,1,0,0:0:0:0:
406,243,133626,1,0,2:0:0:0:
280,337,133762,6,0,L|196:359,2,73.9999997177124,10|2|2,0:0|3:0|0:0,0:0:0:0:
225,269,134171,1,2,0:0:0:0:
362,321,134307,2,0,L|433:339,2,73.9999997177124,4|2|2,0:3|3:0|0:0,0:0:0:0:
406,243,134716,1,0,0:0:0:0:
280,337,134853,5,10,0:0:0:0:
225,269,134989,1,2,3:0:0:0:
406,243,135126,1,0,0:0:0:0:
362,321,135262,1,0,0:0:0:0:
262,195,135398,6,0,L|230:30,1,147.999999435425,4|0,0:2|2:0,0:0:0:0:
307,16,135807,1,2,0:0:0:0:
307,16,135944,2,0,L|335:161,1,147.999999435425,8|2,0:0|0:0,0:0:0:0:
169,134,136489,6,0,P|133:130|91:118,1,73.9999997177124,4|0,0:3|0:0,0:0:0:0:
46,221,136762,2,0,P|82:216|118:207,1,73.9999997177124,0|0,0:0|0:0,0:0:0:0:
223,299,137035,1,10,0:0:0:0:
277,243,137171,1,0,2:0:0:0:
250,170,137307,1,2,0:0:0:0:
277,243,137444,1,0,2:0:0:0:
357,249,137580,6,0,P|396:257|453:275,1,73.9999997177124,4|0,0:3|0:0,0:0:0:0:
374,121,137853,1,2,0:0:0:0:
291,92,137989,1,2,0:0:0:0:
430,182,138126,6,0,P|465:171|501:164,1,73.9999997177124,8|0,0:0|0:0,0:0:0:0:
464,42,138398,1,2,0:0:0:0:
358,39,138535,1,0,0:0:0:0:
301,181,138671,6,0,P|265:191|229:198,1,73.9999997177124,4|0,0:3|0:0,0:0:0:0:
292,220,138944,2,0,P|265:194|240:166,1,73.9999997177124,2|2,0:0|0:0,0:0:0:0:
89,192,139216,5,8,0:0:0:0:
44,112,139353,1,0,2:0:0:0:
121,66,139489,1,2,0:0:0:0:
166,145,139626,1,0,0:0:0:0:
104,130,139762,6,0,P|158:61|237:46,1,147.999999435425,4|0,0:2|2:0,0:0:0:0:
293,97,140171,1,2,0:0:0:0:
375,36,140307,2,0,P|400:62|433:89,1,73.9999997177124,8|0,0:0|0:0,0:0:0:0:
408,226,140580,2,0,P|383:200|350:173,1,73.9999997177124,2|0,0:0|0:0,0:0:0:0:
489,153,140853,5,4,0:3:0:0:
489,153,140989,1,0,0:0:0:0:
408,226,141126,1,2,0:0:0:0:
482,257,141262,1,2,0:0:0:0:
422,338,141398,2,0,L|259:327,1,147.999999435425,8|2,0:0|0:0,0:0:0:0:
274,328,141944,6,0,P|263:290|245:242,1,73.9999997177124,4|0,0:0|0:0,0:0:0:0:
358,68,142216,2,0,P|345:102|320:214,1,147.999999435425,0|8,2:0|0:0,0:0:0:0:
320,210,142762,5,2,0:0:0:0:
232,174,142898,1,0,0:0:0:0:
232,174,143035,2,0,P|201:178|140:176,1,73.9999997177124,4|0,0:3|0:0,0:0:0:0:
79,221,143307,2,0,P|45:147|65:66,1,147.999999435425,2|8,0:0|0:0,0:0:0:0:
126,47,143716,1,0,0:0:0:0:
181,104,143853,1,2,0:0:0:0:
158,177,143989,1,0,0:0:0:0:
148,256,144126,6,0,P|157:288|182:336,1,73.9999997177124,4|0,0:2|0:0,0:0:0:0:
331,268,144398,2,0,P|321:235|297:188,1,73.9999997177124,0|2,2:0|0:0,0:0:0:0:
359,343,144671,1,8,0:0:0:0:
430,288,144807,1,0,0:0:0:0:
400,199,144944,1,2,0:0:0:0:
382,272,145080,1,0,0:0:0:0:
478,161,145216,6,0,P|494:127|504:92,1,73.9999997177124,4|0,0:3|0:0,0:0:0:0:
348,35,145488,2,0,P|331:68|321:103,1,73.9999997177124,2|0,0:0|0:0,0:0:0:0:
417,103,145762,2,0,P|420:68|424:19,1,73.9999997177124,8|0,0:0|0:0,0:0:0:0:
239,56,146035,2,0,P|241:92|245:129,1,73.9999997177124,2|0,0:0|0:0,0:0:0:0:
127,227,146307,5,4,0:0:0:0:
12,76,146580,1,2,0:0:0:0:
70,287,146853,5,10,0:0:0:0:
148,106,147126,1,2,0:0:0:0:
262,294,147398,6,0,P|227:283|180:273,1,73.9999997177124,4|0,0:3|0:0,0:0:0:0:
196,177,147671,2,0,P|230:187|278:198,1,73.9999997177124,2|0,0:0|0:0,0:0:0:0:
357,348,147944,5,8,0:0:0:0:
340,272,148080,1,0,0:0:0:0:
320,195,148216,1,0,0:0:0:0:
303,120,148352,1,2,0:0:0:0:
496,195,148489,6,0,P|410:172|379:105,1,147.999999435425,4|0,0:0|0:0,0:0:0:0:
381,125,148898,1,0,2:0:0:0:
303,120,149035,2,0,P|326:34|393:3,1,147.999999435425,10|0,0:0|0:0,0:0:0:0:
372,5,149444,1,2,0:0:0:0:
229,145,149580,1,4,0:3:0:0:
165,193,149716,1,0,0:0:0:0:
99,147,149853,1,2,0:0:0:0:
123,71,149989,1,0,2:0:0:0:
205,72,150126,6,0,P|178:106|155:140,1,73.9999997177124,10|2,0:0|0:0,0:0:0:0:
263,245,150398,1,0,0:0:0:0:
310,180,150535,1,0,0:0:0:0:
181,273,150671,6,0,P|197:313|215:349,1,73.9999997177124,4|0,0:0|0:0,0:0:0:0:
103,249,150944,2,0,P|76:283|53:317,1,73.9999997177124,2|2,2:1|0:0,0:0:0:0:
80,171,151216,2,0,P|36:165|-3:162,2,73.9999997177124,8|0|2,0:0|2:0|0:0,0:0:0:0:
142,103,151626,1,0,2:0:0:0:
55,40,151762,6,0,P|127:32|226:15,1,147.999999435425,4|2,0:3|0:0,0:0:0:0:
142,103,152171,1,2,0:0:0:0:
218,158,152307,2,0,P|291:169|364:178,2,147.999999435425,8|2|4,0:0|0:0|0:0,0:0:0:0:
218,158,152989,5,0,2:0:0:0:
447,45,153262,1,2,0:0:0:0:
447,45,153398,2,0,P|451:88|462:142,1,73.9999997177124,8|0,0:0|2:0,0:0:0:0:
374,251,153671,2,0,P|369:208|359:154,1,73.9999997177124,2|0,0:0|2:0,0:0:0:0:
466,310,153944,5,4,0:3:0:0:
374,251,154080,1,0,0:0:0:0:
370,263,154148,1,2,3:0:0:0:
366,275,154216,1,2,3:0:0:0:
284,325,154353,1,0,0:0:0:0:
363,177,154489,5,10,0:0:0:0:
466,310,154626,1,10,0:0:0:0:
284,325,154762,1,8,0:0:0:0:
370,263,154898,1,10,0:0:0:0:
195,234,155035,6,0,L|178:101,1,120.000004577637,4|0,1:0|0:0,0:0:0:0:
179,114,155444,1,0,1:0:0:0:
82,152,155580,2,0,P|46:97|61:28,1,120.000004577637,8|0,1:0|1:0,0:0:0:0:
250,19,156126,2,0,P|284:66|280:125,1,120.000004577637,4|0,1:3|1:0,0:0:0:0:
179,114,156535,1,0,1:0:0:0:
82,152,156671,6,0,P|78:210|112:258,1,120.000004577637,8|4,1:0|0:0,0:0:0:0:
195,234,157080,1,0,0:0:0:0:
283,244,157216,2,0,P|300:301|314:368,2,120.000004577637,4|0|8,1:3|0:0|1:0,0:0:0:0:
361,197,157898,1,0,0:0:0:0:
448,263,158035,6,0,L|456:175,1,60.0000022888184,2|0,0:0|3:0,0:0:0:0:
415,136,158307,2,0,L|406:66,1,60.0000022888184,4|2,1:3|0:0,0:0:0:0:
284,169,158580,2,0,L|293:99,1,60.0000022888184,2|0,0:0|3:0,0:0:0:0:
361,197,158853,1,8,1:0:0:0:
283,244,158989,1,0,0:0:0:0:
369,343,159126,2,0,L|361:283,1,60.0000022888184,2|4,0:0|0:0,0:0:0:0:
199,226,159398,6,0,P|146:214|63:202,1,120.000004577637,4|0,1:3|0:0,0:0:0:0:
81,203,159807,1,0,1:0:0:0:
30,264,159944,2,0,P|42:293|55:341,1,60.0000022888184,8|0,1:0|0:0,0:0:0:0:
49,133,160216,2,0,P|37:104|24:56,1,60.0000022888184,2|0,0:0|0:0,0:0:0:0:
81,203,160489,1,4,1:3:0:0:
81,203,160626,1,2,0:0:0:0:
160,157,160762,1,2,0:0:0:0:
160,157,160898,1,0,3:0:0:0:
119,72,161035,2,0,P|158:26|232:23,1,120.000004577637,8|4,1:0|0:0,0:0:0:0:
214,17,161444,1,0,0:0:0:0:
253,177,161580,6,0,P|312:187|351:250,3,120.000004577637,4|0|8|2,1:3|0:0|1:0|0:0,0:0:0:0:
340,309,162535,1,0,0:0:0:0:
347,232,162671,2,0,L|362:104,1,120.000004577637,4|2,1:3|0:0,0:0:0:0:
285,98,163080,1,0,3:0:0:0:
442,142,163216,2,0,L|425:23,1,120.000004577637,8|2,1:0|0:0,0:0:0:0:
233,189,163762,6,0,P|199:223|119:246,1,120.000004577637,4|0,1:0|0:0,0:0:0:0:
132,245,164171,1,0,1:0:0:0:
81,305,164307,2,0,L|158:344,1,60.0000022888184,8|0,1:0|0:0,0:0:0:0:
102,174,164580,2,0,P|81:112|39:56,2,120.000004577637,2|4|2,0:0|1:3|0:0,0:0:0:0:
117,18,165398,6,0,L|194:57,1,60.0000022888184,8|0,1:0|0:0,0:0:0:0:
236,158,165671,2,0,L|231:71,1,60.0000022888184,4|2,0:0|0:0,0:0:0:0:
296,35,165944,2,0,L|391:14,3,60.0000022888184,4|0|0|0,1:3|0:0|0:0|1:0,0:0:0:0:
420,141,166489,2,0,L|423:81,3,60.0000022888184,8|0|2|2,1:0|0:0|0:0|0:0,0:0:0:0:
330,124,167035,5,4,1:3:0:0:
330,124,167171,1,2,0:0:0:0:
354,216,167307,1,2,0:0:0:0:
354,216,167444,1,0,3:0:0:0:
448,261,167580,2,0,L|483:206,1,60.0000022888184,8|0,1:0|0:0,0:0:0:0:
373,297,167853,1,2,0:0:0:0:
444,363,167989,1,4,0:0:0:0:
292,283,168126,6,0,L|257:338,1,60.0000022888184,4|0,1:3|0:0,0:0:0:0:
177,219,168398,2,0,L|212:274,1,60.0000022888184,0|0,0:0|1:0,0:0:0:0:
27,312,168671,1,8,1:0:0:0:
101,336,168807,1,0,0:0:0:0:
74,237,168944,1,2,0:0:0:0:
106,356,169080,1,0,0:0:0:0:
144,277,169216,6,0,L|167:124,1,120.000004577637,4|2,1:3|0:0,0:0:0:0:
161,158,169626,1,0,3:0:0:0:
82,160,169762,2,0,P|75:133|52:76,1,60.0000022888184,8|0,1:0|0:0,0:0:0:0:
255,137,170035,2,0,P|244:165|237:194,1,60.0000022888184,4|2,0:0|0:0,0:0:0:0:
184,74,170307,6,0,B|241:35|241:35|316:48,1,120.000004577637,4|0,1:3|0:0,0:0:0:0:
367,57,170716,1,0,1:0:0:0:
489,18,170853,2,0,B|447:47|447:47|434:115,1,120.000004577637,8|2,1:0|0:0,0:0:0:0:
434,115,171398,5,4,1:3:0:0:
476,183,171535,1,8,0:0:0:0:
430,247,171671,1,0,0:0:0:0:
357,216,171807,1,2,0:0:0:0:
357,216,171944,5,8,1:2:0:0:
293,288,172080,1,8,0:0:0:0:
212,238,172216,1,8,0:0:0:0:
246,149,172353,1,4,0:0:0:0:
173,88,172489,2,0,L|48:109,1,120.000004577637,4|0,0:0|0:0,0:0:0:0:
54,107,172898,5,8,0:0:0:0:
173,88,173035,1,4,0:0:0:0:
85,198,173307,5,2,0:0:0:0:
130,19,173580,1,0,1:0:0:0:
173,88,173716,2,0,L|160:129,2,30.0000011444092,0|0|8,3:0|3:0|0:0,0:0:0:0:
245,54,173989,1,8,0:0:0:0:
205,224,174126,1,4,0:0:0:0:
373,175,174398,5,2,0:0:0:0:
285,154,174535,1,0,0:0:0:0:
437,94,174671,6,0,P|453:165|474:245,1,143.999995605469,4|0,1:0|0:0,0:0:0:0:
404,275,175216,2,0,P|360:293|313:303,2,95.9999970703126,8|0|0,1:0|1:0|1:0,0:0:0:0:
469,322,175898,1,0,1:0:0:0:
236,276,176171,1,0,0:0:0:0:
173,333,176307,2,0,P|126:323|81:304,1,95.9999970703126,8|0,1:0|3:0,0:0:0:0:
81,304,176716,1,0,3:0:0:0:
236,276,176853,6,0,P|234:233|227:156,1,95.9999970703126,0|0,1:0|1:0,0:0:0:0:
219,106,177262,1,0,0:0:0:0:
177,38,177398,2,0,P|126:57|111:95,1,95.9999970703126,8|4,1:0|0:0,0:0:0:0:
15,15,177944,6,0,L|29:88,1,47.9999985351563,0|0,1:0|0:0,0:0:0:0:
46,138,178216,1,2,0:0:0:0:
272,47,178489,2,0,P|316:60|337:101,1,95.9999970703126,8|0,1:0|0:0,0:0:0:0:
405,171,178898,5,0,3:0:0:0:
405,171,179035,2,0,P|361:184|340:225,1,95.9999970703126,4|0,1:2|0:0,0:0:0:0:
268,145,179444,1,0,1:0:0:0:
180,252,179580,2,0,P|227:262|286:280,2,95.9999970703126,8|2|0,1:0|0:0|1:0,0:0:0:0:
101,266,180262,1,0,0:0:0:0:
86,187,180398,1,0,1:0:0:0:
153,142,180535,1,0,3:0:0:0:
138,210,180671,2,0,P|150:279|184:355,1,143.999995605469,8|0,1:0|0:0,0:0:0:0:
179,346,181216,6,0,L|215:309,1,47.9999985351563,0|0,1:0|0:0,0:0:0:0:
52,256,181489,2,0,L|68:300,1,47.9999985351563,0|0,0:0|1:0,0:0:0:0:
268,243,181762,1,8,1:0:0:0:
194,98,182035,1,2,0:0:0:0:
49,175,182307,2,0,P|99:178|154:173,1,95.9999970703126,0|2,1:0|1:2,0:0:0:0:
194,98,182716,5,0,0:0:0:0:
171,210,182853,1,8,1:0:0:0:
106,36,183126,1,4,1:2:0:0:
299,64,183398,1,4,1:0:0:0:
299,64,183535,5,0,0:0:0:0:
299,64,183671,2,0,L|321:155,1,47.9999985351563,0|0,0:0|0:0,0:0:0:0:
395,184,183944,2,0,L|424:71,1,95.9999970703126,10|2,1:0|1:0,0:0:0:0:
370,31,184353,1,2,1:0:0:0:
265,180,184489,2,0,B|225:207|225:207|181:197|133:124,1,143.999995605469,0|0,0:0|0:0,0:0:0:0:
58,222,185035,2,0,B|105:231|105:231|141:204|150:149,1,143.999995605469,8|0,1:0|0:0,0:0:0:0:
226,114,185580,6,0,P|236:74|256:16,1,95.9999970703126,4|0,1:2|3:0,0:0:0:0:
165,50,185989,1,0,3:0:0:0:
298,159,186126,1,8,1:0:0:0:
298,159,186398,1,2,1:2:0:0:
334,31,186671,1,0,1:0:0:0:
334,31,186944,5,0,1:0:0:0:
360,107,187080,1,0,0:0:0:0:
298,159,187216,2,0,P|282:204|270:250,1,95.9999970703126,8|0,1:0|3:0,0:0:0:0:
432,333,187626,1,0,3:0:0:0:
380,275,187762,6,0,B|334:275|345:343|269:326,1,95.9999970703126,4|0,1:0|3:0,0:0:0:0:
270,250,188171,1,0,3:0:0:0:
195,295,188307,2,0,P|141:273|125:221,2,95.9999970703126,8|2|0,1:0|1:0|1:0,0:0:0:0:
231,372,188989,1,0,0:0:0:0:
194,181,189262,1,0,1:0:0:0:
249,124,189398,2,0,B|291:119|354:103,1,95.9999970703126,8|2,1:0|0:0,0:0:0:0:
343,105,189807,1,0,0:0:0:0:
210,50,189944,6,0,P|159:50|92:152,1,143.999995605469,4|0,1:2|0:0,0:0:0:0:
25,147,190489,2,0,P|33:177|44:223,1,47.9999985351563,8|0,1:0|0:0,0:0:0:0:
125,244,190762,1,0,1:0:0:0:
125,244,191035,6,0,P|116:275|106:320,2,47.9999985351563,4|0|0,0:0|0:0|1:0,0:0:0:0:
216,205,191444,1,0,0:0:0:0:
258,294,191580,1,8,1:0:0:0:
258,294,191853,5,2,0:0:0:0:
296,159,191989,1,0,0:0:0:0:
425,216,192126,2,0,L|332:245,1,95.9999970703126,4|0,1:0|0:0,0:0:0:0:
468,53,192671,6,0,P|472:105|477:153,2,95.9999970703126,8|0|4,1:0|1:0|1:3,0:0:0:0:
468,53,193353,1,0,1:0:0:0:
398,14,193489,1,0,0:0:0:0:
328,54,193626,1,0,0:0:0:0:
254,22,193762,2,0,P|250:74|245:122,1,95.9999970703126,8|2,1:0|0:0,0:0:0:0:
245,117,194171,1,0,0:0:0:0:
322,140,194307,6,0,P|325:187|330:235,1,95.9999970703126,4|0,1:2|3:0,0:0:0:0:
99,147,194853,2,0,P|95:99|90:51,1,95.9999970703126,8|2,1:0|1:2,0:0:0:0:
90,51,195262,1,0,0:0:0:0:
186,182,195398,2,0,P|179:235|164:298,1,95.9999970703126,4|2,1:3|0:0,0:0:0:0:
11,127,195944,2,0,P|17:174|27:221,1,95.9999970703126,8|0,1:0|0:0,0:0:0:0:
27,221,196353,1,0,0:0:0:0:
86,282,196489,6,0,B|159:261|193:364|292:339,1,191.999994140625,4|8,1:0|1:0,0:0:0:0:
381,193,197307,2,0,P|332:207|274:217,1,95.9999970703126,0|4,1:0|1:3,0:0:0:0:
322,287,197716,1,0,0:0:0:0:
460,260,197853,2,0,P|462:234|468:205,1,47.9999985351563,2|2,3:0|3:0,0:0:0:0:
397,311,198126,2,0,P|405:360|456:374,1,95.9999970703126,8|0,1:0|0:0,0:0:0:0:
446,137,198671,6,0,P|424:78|346:35,1,143.999995605469,4|0,1:2|0:0,0:0:0:0:
357,36,199216,2,0,L|272:62,1,47.9999985351563,8|0,1:0|0:0,0:0:0:0:
168,95,199489,2,0,L|253:120,1,47.9999985351563,0|0,1:0|0:0,0:0:0:0:
310,149,199762,1,4,0:0:0:0:
222,18,200035,1,0,1:2:0:0:
74,192,200307,1,8,1:0:0:0:
148,257,200444,1,0,0:0:0:0:
152,173,200580,1,4,0:0:0:0:
70,272,200716,1,0,0:0:0:0:
165,328,200853,6,0,P|194:275|228:227,1,95.9999970703126,4|0,1:0|0:0,0:0:0:0:
152,173,201262,1,0,0:0:0:0:
280,184,201398,2,0,P|302:236|289:285,1,95.9999970703126,8|4,1:0|1:2,0:0:0:0:
225,122,201944,6,0,P|246:83|270:23,1,95.9999970703126,4|0,1:3|3:0,0:0:0:0:
364,18,202353,1,0,3:0:0:0:
364,18,202489,2,0,P|382:62|404:104,1,95.9999970703126,8|0,1:0|0:0,0:0:0:0:
346,157,202898,1,0,0:0:0:0:
486,140,203035,6,0,P|470:185|441:285,1,143.999995605469,4|0,1:2|0:0,0:0:0:0:
462,357,203580,2,0,P|392:339|321:325,1,143.999995605469,8|0,1:0|0:0,0:0:0:0:
242,348,204126,2,0,P|259:278|269:227,2,95.9999970703126,4|2|8,1:3|0:0|1:0,0:0:0:0:
359,226,204944,1,4,0:0:0:0:
187,155,205216,6,0,P|166:163|127:170,1,47.9999985351563,4|0,1:0|0:0,0:0:0:0:
239,95,205626,1,0,0:0:0:0:
187,37,205762,2,0,P|164:28|141:23,1,47.9999985351563,8|0,1:0|0:0,0:0:0:0:
308,136,206035,2,0,P|366:163|402:161,1,95.9999970703126,2|4,1:0|1:3,0:0:0:0:
470,98,206444,1,0,3:0:0:0:
470,98,206580,2,0,P|412:71|376:73,1,95.9999970703126,2|10,3:0|1:0,0:0:0:0:
262,204,207126,1,4,0:0:0:0:
308,136,207262,1,0,0:0:0:0:
307,55,207398,6,0,P|261:39|216:16,1,95.9999970703126,6|2,1:0|3:0,0:0:0:0:
62,149,207944,2,0,P|108:133|153:110,2,95.9999970703126,10|2|4,1:0|1:0|1:3,0:0:0:0:
28,221,208626,1,2,3:0:0:0:
28,221,208762,1,2,0:0:0:0:
28,221,208898,1,0,0:0:0:0:
73,287,209035,1,8,1:0:0:0:
108,215,209307,5,8,0:0:0:0:
62,149,209444,1,8,0:0:0:0:
101,81,209580,6,0,P|161:58|221:29,1,120.000004577637,4|0,1:0|0:0,0:0:0:0:
385,127,209989,1,0,0:0:0:0:
310,179,210126,2,0,P|303:120|293:49,1,120.000004577637,8|2,1:0|0:0,0:0:0:0:
462,84,210535,1,0,0:0:0:0:
462,84,210671,2,0,P|469:143|479:214,2,120.000004577637,4|2|8,1:3|3:0|1:0,0:0:0:0:
462,84,211353,1,0,0:0:0:0:
398,207,211626,5,0,0:0:0:0:
398,207,211762,2,0,P|391:266|381:337,1,120.000004577637,4|2,1:2|0:0,0:0:0:0:
302,157,212307,2,0,P|295:216|285:287,1,120.000004577637,8|2,1:0|0:0,0:0:0:0:
219,205,212716,1,0,3:0:0:0:
149,251,212853,2,0,P|93:231|57:173,1,120.000004577637,4|4,1:3|0:0,0:0:0:0:
21,114,213262,1,0,0:0:0:0:
21,114,213398,2,0,L|33:53,1,60.0000022888184,8|0,1:0|0:0,0:0:0:0:
130,151,213671,2,0,L|118:92,1,60.0000022888184,2|0,0:0|0:0,0:0:0:0:
103,12,213944,6,0,L|247:38,1,120.000004577637,4|2,1:0|0:0,0:0:0:0:
221,33,214353,1,0,0:0:0:0:
381,145,214489,2,0,P|399:124|407:86,1,60.0000022888184,8|0,1:0|0:0,0:0:0:0:
280,126,214762,2,0,P|287:154|306:177,1,60.0000022888184,2|0,0:0|0:0,0:0:0:0:
327,21,215035,1,4,1:3:0:0:
130,151,215307,1,4,0:0:0:0:
263,335,215580,2,0,L|243:210,1,120.000004577637,8|2,1:0|0:0,0:0:0:0:
244,216,215989,1,0,1:0:0:0:
47,168,216126,6,0,L|36:246,1,60.0000022888184,4|0,1:0|0:0,0:0:0:0:
130,151,216398,1,0,0:0:0:0:
107,77,216535,1,0,0:0:0:0:
244,216,216671,6,0,L|252:275,1,60.0000022888184,8|2,1:0|0:0,0:0:0:0:
161,199,216943,1,4,0:0:0:0:
184,125,217080,1,0,0:0:0:0:
111,273,217216,6,0,L|103:332,1,60.0000022888184,4|0,1:3|0:0,0:0:0:0:
185,308,217489,2,0,L|193:367,1,60.0000022888184,2|0,0:0|0:0,0:0:0:0:
161,199,217762,1,8,1:0:0:0:
184,125,217898,1,0,1:0:0:0:
130,151,218035,1,0,1:0:0:0:
107,77,218171,1,0,1:0:0:0:
187,31,218307,6,0,L|318:61,1,120.000004577637,4|0,1:0|0:0,0:0:0:0:
303,57,218716,1,0,0:0:0:0:
406,172,218853,2,0,P|401:144|395:98,1,60.0000022888184,8|0,1:0|0:0,0:0:0:0:
300,144,219126,2,0,P|295:173|290:203,1,60.0000022888184,4|0,0:0|0:0,0:0:0:0:
368,273,219398,6,0,L|484:246,2,120.000004577637,4|2|8,1:3|0:0|1:0,0:0:0:0:
321,334,220080,1,0,0:0:0:0:
258,291,220216,1,2,0:0:0:0:
182,300,220353,1,0,0:0:0:0:
127,354,220489,6,0,P|75:309|64:240,1,120.000004577637,4|0,1:2|0:0,0:0:0:0:
149,135,220898,1,2,3:0:0:0:
149,135,221035,2,0,P|201:180|212:249,1,120.000004577637,8|0,1:0|0:0,0:0:0:0:
66,175,221444,1,2,3:0:0:0:
66,175,221580,2,0,B|29:99|29:99|61:57,1,120.000004577637,4|0,1:3|0:0,0:0:0:0:
134,37,221989,1,0,0:0:0:0:
224,32,222126,2,0,B|259:34|259:34|290:90|316:174,1,180.000006866455,8|0,1:0|0:0,0:0:0:0:
378,216,222671,5,4,1:0:0:0:
452,186,222807,1,0,0:0:0:0:
428,109,222944,2,0,P|400:103|369:92,1,60.0000022888184,0|0,0:0|0:0,0:0:0:0:
222,242,223216,5,8,1:0:0:0:
299,248,223353,1,2,0:0:0:0:
241,209,223489,1,4,0:0:0:0:
278,277,223626,1,0,0:0:0:0:
222,131,223762,5,4,1:3:0:0:
157,87,223898,1,0,0:0:0:0:
86,123,224035,2,0,P|83:157|74:193,1,60.0000022888184,0|4,0:0|0:0,0:0:0:0:
352,148,224307,5,8,1:0:0:0:
357,69,224443,1,0,0:0:0:0:
290,26,224580,2,0,P|259:40|223:50,1,60.0000022888184,2|0,0:0|0:0,0:0:0:0:
442,211,224853,6,0,P|451:156|466:87,1,120.000004577637,4|0,1:2|0:0,0:0:0:0:
265,191,225398,1,8,1:0:0:0:
354,253,225671,1,2,0:0:0:0:
387,38,225944,1,4,1:3:0:0:
387,38,226080,1,0,0:0:0:0:
387,38,226216,1,0,0:0:0:0:
387,38,226353,1,2,0:0:0:0:
296,90,226489,2,0,P|240:106|113:123,1,180.000006866455,8|0,1:0|0:0,0:0:0:0:
66,65,227035,6,0,P|25:116|26:176,1,120.000004577637,4|0,1:0|0:0,0:0:0:0:
97,201,227444,1,0,0:0:0:0:
97,201,227580,2,0,P|148:242|208:241,2,120.000004577637,8|4|4,1:0|0:0|1:3,0:0:0:0:
153,37,228398,1,2,0:0:0:0:
256,187,228671,1,8,1:0:0:0:
165,126,228944,1,2,0:0:0:0:
228,79,229080,1,2,0:0:0:0:
307,103,229216,6,0,P|329:138|363:203,1,88.000002685547,4|0,1:2|0:0,0:0:0:0:
249,344,229489,2,0,P|272:299|297:257,1,88.000002685547,8|8,0:0|0:0,0:0:0:0:
490,276,229762,2,0,P|447:277|376:273,1,88.000002685547,8|0,1:0|0:0,0:0:0:0:
348,239,230035,1,8,0:0:0:0:
212,30,230307,5,4,1:3:0:0:
174,110,230444,1,0,0:0:0:0:
85,105,230580,1,4,0:0:0:0:
17,165,230716,1,0,0:0:0:0:
110,184,230853,5,8,1:0:0:0:
135,35,230989,1,0,0:0:0:0:
4,86,231126,1,2,0:0:0:0:
85,105,231262,1,2,0:0:0:0:
314,33,231398,6,0,P|360:37|406:41,1,73.9999997177124,6|0,1:0|0:0,0:0:0:0:
248,177,231671,1,2,0:0:0:0:
248,177,231807,1,2,0:0:0:0:
248,177,231944,2,0,P|253:130|256:84,1,73.9999997177124,8|0,1:0|0:0,0:0:0:0:
447,109,232216,1,2,0:0:0:0:
447,109,232352,1,0,1:0:0:0:
447,109,232489,2,0,P|442:155|438:200,1,73.9999997177124,4|0,1:3|1:0,0:0:0:0:
360,304,232762,2,0,P|356:260|351:219,1,73.9999997177124,2|2,1:0|0:1,0:0:0:0:
261,266,233035,5,8,1:0:0:0:
191,231,233171,1,2,3:0:0:0:
119,301,233307,1,2,1:0:0:0:
119,301,233444,1,0,0:0:0:0:
285,347,233580,6,0,B|358:304|344:382|440:361,1,147.999999435425,4|0,1:0|0:0,0:0:0:0:
435,290,233989,1,0,0:0:0:0:
274,185,234126,2,0,P|203:124|135:152,2,147.999999435425,10|0|4,0:0|0:0|0:3,0:0:0:0:
447,46,234944,1,2,0:0:0:0:
447,46,235216,5,10,0:0:0:0:
368,57,235353,1,0,0:0:0:0:
341,132,235489,1,2,0:0:0:0:
345,52,235626,1,0,2:0:0:0:
275,15,235762,6,0,L|192:2,1,73.9999997177124,4|0,0:3|0:0,0:0:0:0:
80,100,236035,2,0,L|163:87,1,73.9999997177124,2|2,0:0|0:0,0:0:0:0:
252,243,236307,2,0,L|236:84,1,147.999999435425,8|2,0:0|0:0,0:0:0:0:
237,95,236716,1,2,3:0:0:0:
339,196,236853,2,0,P|380:201|412:254,1,73.9999997177124,4|0,0:3|0:0,0:0:0:0:
403,222,237126,2,0,L|391:309,1,73.9999997177124,2|2,0:0|0:0,0:0:0:0:
242,345,237398,2,0,P|171:321|84:298,2,147.999999435425,8|2|4,0:0|0:0|0:2,0:0:0:0:
291,280,238080,5,0,0:0:0:0:
244,217,238216,1,0,0:0:0:0:
167,219,238353,1,2,3:0:0:0:
96,182,238489,1,10,0:0:0:0:
73,106,238762,5,2,0:0:0:0:
165,142,238898,1,2,0:0:0:0:
42,245,239035,2,0,P|27:213|13:171,1,73.9999997177124,4|0,0:3|0:0,0:0:0:0:
42,245,239307,2,0,P|30:280|14:313,1,73.9999997177124,2|0,0:0|0:0,0:0:0:0:
42,245,239580,2,0,P|77:248|120:256,1,73.9999997177124,10|2,0:0|0:0,0:0:0:0:
223,325,239853,1,0,0:0:0:0:
131,352,239989,1,0,0:0:0:0:
228,223,240126,6,0,P|298:208|388:182,1,147.999999435425,4|0,0:0|0:0,0:0:0:0:
371,187,240535,1,2,3:0:0:0:
440,117,240671,2,0,P|455:153|471:202,1,73.9999997177124,10|0,0:0|2:0,0:0:0:0:
309,125,240944,2,0,P|314:92|329:36,1,73.9999997177124,2|0,0:0|0:0,0:0:0:0:
385,273,241216,1,4,0:3:0:0:
385,273,241353,1,0,0:0:0:0:
298,297,241489,1,2,0:0:0:0:
298,297,241626,1,0,0:0:0:0:
221,129,241762,2,0,P|158:79|18:84,1,221.999999153137,10|0,0:0|0:0,0:0:0:0:
21,82,242307,5,4,0:3:0:0:
70,234,242444,1,0,0:0:0:0:
155,178,242580,2,0,P|118:168|73:154,1,73.9999997177124,2|2,0:0|0:0,0:0:0:0:
191,260,242853,5,8,0:0:0:0:
221,129,242989,1,0,0:0:0:0:
254,206,243126,1,2,0:0:0:0:
221,129,243262,1,0,0:0:0:0:
339,223,243398,6,0,P|375:213|421:199,1,73.9999997177124,4|0,0:3|0:0,0:0:0:0:
312,136,243671,2,0,P|322:99|332:52,1,73.9999997177124,0|0,0:0|2:0,0:0:0:0:
446,20,243944,2,0,P|473:105|482:184,1,147.999999435425,8|0,0:0|0:0,0:0:0:0:
397,123,244353,1,0,2:0:0:0:
269,22,244489,6,0,B|223:8|223:8|178:52|165:114,1,147.999999435425,4|0,0:2|0:0,0:0:0:0:
94,109,244898,1,0,2:0:0:0:
120,183,245035,2,0,P|157:188|215:193,1,73.9999997177124,10|0,0:0|0:0,0:0:0:0:
234,259,245307,2,0,P|123:303|69:292,3,147.999999435425,2|4|2|8,0:0|0:3|2:1|0:0,0:0:0:0:
43,224,246262,1,0,2:0:0:0:
120,183,246398,1,0,0:0:0:0:
43,224,246535,1,0,2:0:0:0:
239,168,246671,6,0,P|276:171|336:152,1,73.9999997177124,6|0,0:0|0:0,0:0:0:0:
171,41,246944,2,0,P|168:78|187:138,1,73.9999997177124,0|0,0:0|0:0,0:0:0:0:
369,105,247216,2,0,P|376:68|373:32,1,73.9999997177124,10|0,0:0|0:0,0:0:0:0:
271,76,247489,1,2,0:0:0:0:
377,289,247762,5,4,0:3:0:0:
414,220,247898,1,0,0:0:0:0:
341,190,248035,1,2,0:0:0:0:
304,259,248171,1,0,0:0:0:0:
377,289,248307,5,8,0:0:0:0:
493,238,248444,1,2,3:0:0:0:
402,141,248580,1,0,0:0:0:0:
414,220,248716,1,0,0:0:0:0:
490,113,248853,6,0,L|471:41,1,73.9999997177124,4|0,0:0|0:0,0:0:0:0:
377,22,249126,1,0,0:0:0:0:
240,220,249398,5,10,0:0:0:0:
174,261,249535,1,2,3:0:0:0:
102,236,249671,1,2,0:0:0:0:
77,163,249807,1,2,0:0:0:0:
104,90,249944,1,4,0:3:0:0:
178,65,250080,1,0,0:0:0:0:
243,108,250216,1,2,0:0:0:0:
318,86,250353,1,0,0:0:0:0:
256,20,250489,1,10,0:0:0:0:
305,168,250626,1,2,3:0:0:0:
318,86,250762,1,0,0:0:0:0:
243,108,250898,1,0,0:0:0:0:
321,245,251035,6,0,P|344:162|393:121,1,147.999999435425,4|0,0:2|0:0,0:0:0:0:
305,168,251444,1,2,0:0:0:0:
394,278,251580,2,0,L|494:264,1,73.9999997177124,8|0,0:0|0:0,0:0:0:0:
286,332,251853,2,0,L|212:342,1,73.9999997177124,2|0,0:0|0:0,0:0:0:0:
370,357,252126,1,4,0:3:0:0:
34,36,252671,6,0,L|124:47,1,73.9999997177124,10|0,0:0|2:0,0:0:0:0:
184,158,252944,1,2,0:0:0:0:
90,141,253080,1,0,2:0:0:0:
194,73,253216,6,0,L|267:64,2,73.9999997177124,4|0|2,0:3|0:0|0:0,0:0:0:0:
294,140,253626,2,0,L|367:148,2,73.9999997177124,2|8|0,0:0|0:0|0:0,0:0:0:0:
253,207,254035,1,2,0:0:0:0:
306,267,254171,1,0,0:0:0:0:
454,239,254307,2,0,P|457:180|466:83,1,147.999999435425,4|2,0:3|0:0,0:0:0:0:
405,25,254716,1,2,0:0:0:0:
317,85,254853,2,0,P|282:96|243:112,1,73.9999997177124,8|0,0:0|0:0,0:0:0:0:
253,207,255126,2,0,P|288:196|327:180,1,73.9999997177124,2|0,0:0|0:0,0:0:0:0:
166,52,255398,5,4,0:2:0:0:
89,60,255535,1,2,3:0:0:0:
36,117,255671,1,0,0:0:0:0:
43,194,255807,1,2,0:0:0:0:
120,208,255944,2,0,P|147:188|183:155,1,73.9999997177124,8|2,0:0|3:0,0:0:0:0:
168,271,256216,1,2,0:0:0:0:
131,338,256353,1,0,0:0:0:0:
56,315,256489,6,0,L|21:158,2,147.999999435425,4|2|8,0:3|0:0|0:0,0:0:0:0:
131,338,257171,1,0,0:0:0:0:
329,295,257444,5,0,0:0:0:0:
391,349,257580,2,0,L|426:192,1,147.999999435425,4|0,0:0|0:0,0:0:0:0:
423,204,257989,1,2,0:0:0:0:
501,192,258126,2,0,P|491:155|472:105,1,73.9999997177124,8|0,0:0|2:0,0:0:0:0:
388,82,258398,1,2,0:0:0:0:
388,82,258535,1,0,0:0:0:0:
338,159,258671,6,0,P|256:137|237:63,1,147.999999435425,4|2,0:3|0:0,0:0:0:0:
283,19,259080,1,2,0:0:0:0:
144,118,259216,2,0,L|53:139,2,73.9999997177124,8|2|2,0:0|3:0|0:0,0:0:0:0:
85,50,259626,1,0,0:0:0:0:
196,195,259762,6,0,L|177:347,1,147.999999435425,4|0,0:2|0:0,0:0:0:0:
177,341,260171,1,2,0:0:0:0:
301,313,260307,1,8,0:0:0:0:
275,239,260444,1,2,3:0:0:0:
301,313,260580,1,2,0:0:0:0:
275,239,260717,1,0,0:0:0:0:
402,264,260853,6,0,L|420:117,1,147.999999435425,4|2,0:3|0:0,0:0:0:0:
420,117,261262,1,2,0:0:0:0:
340,124,261398,2,0,P|342:40|421:37,1,147.999999435425,8|2,0:0|0:0,0:0:0:0:
479,275,261944,6,0,B|412:248|416:342|322:317,2,147.999999435425,4|2|10,0:0|0:0|0:0,0:0:0:0:
431,196,262626,1,0,2:0:0:0:
353,242,262762,1,2,0:0:0:0:
346,321,262898,1,2,0:0:0:0:
273,194,263035,1,4,0:3:0:0:
273,194,263307,1,2,0:0:0:0:
26,276,263580,5,8,0:0:0:0:
131,349,263716,1,0,0:0:0:0:
159,162,263853,1,2,0:0:0:0:
88,217,263989,1,0,0:0:0:0:
208,236,264126,6,0,L|191:56,1,164.000002502441,4|0,0:0|0:0,0:0:0:0:
285,39,264535,1,0,0:0:0:0:
98,112,264671,2,0,P|71:92|28:68,1,82.0000012512207,10|2,0:0|0:0,0:0:0:0:
75,4,264944,2,0,P|102:24|145:48,1,82.0000012512207,0|2,0:0|0:0,0:0:0:0:
289,130,265216,5,4,0:3:0:0:
417,98,265353,1,0,0:0:0:0:
457,196,265489,1,2,0:0:0:0:
363,179,265626,1,0,0:0:0:0:
394,263,265762,5,10,0:0:0:0:
507,133,265898,1,2,0:0:0:0:
396,22,266035,1,0,0:0:0:0:
413,151,266171,1,0,0:0:0:0:
500,16,266307,1,4,0:0:0:0:
256,192,266444,12,0,270671,0:0:0:0:
454,79,271496,5,0,0:0:0:0:
454,79,272396,1,0,0:0:0:0:
454,79,273191,1,0,0:0:0:0:
