osu file format v14

[General]
AudioFilename: audio.mp3
AudioLeadIn: 0
PreviewTime: 68968
Countdown: 0
SampleSet: Soft
StackLeniency: 0.7
Mode: 0
LetterboxInBreaks: 0
WidescreenStoryboard: 1

[Editor]
Bookmarks: 37968,69968,94301,94384,94468,94551,94634,94718,94801,94884,94968,95051,95134,95218,95301,95384,95468,95551,95634,95718,95801,95884,95968,96051,96134,96218,96301,96384,96468,96551,96634,96718,96801,96884,96968,97051,97134,97218,97301,97384,97468,97551,97634,97718,97801,97884,97968,98051,98134,98218,98301,98384,98468,98551,98634,98718,98801,98884,98968,99051,99134,99218,99301,99384,99468,99551,99634,99718,99801,99884,99968,100051,100134,100218,100301,100384,100468,100551,100634,100718,100801,100884,100968,101051,101134,101218,101301,101384,101468,101551,101634,101718,101801,101884,101968,102051,102134,102218,102301,102384,102468,102551,102634,102718,102801,102884,102968,103051,103134,103218,103301,103384,103468,103551,103634,103718,103801,103884,103968,104051,104134,104218,104301,104384,104468,104551,104634,104718,104801,104884,104968,105051,105134,105218,105301,105384,105468,105551,105634,105718,105801,105884,105968
DistanceSpacing: 1
BeatDivisor: 4
GridSize: 32
TimelineZoom: 1

[Metadata]
Title:Lament
TitleUnicode:Lament
Artist:Hana
ArtistUnicode:はな
Creator:Pache Knowledge
Version:toreihane's Normal
Source:
Tags:koldnoodl torriru shirahane suou shirahane_suou spokenaway subahibi kleune japanese rock jrock j-rock female vocal vocals forest うさ usa 松本文紀 fuminori matsumoto reisevia roda totsuki roda_totsuki
BeatmapID:3454719
BeatmapSetID:1680419

[Difficulty]
HPDrainRate:3
CircleSize:3
OverallDifficulty:4
ApproachRate:5
SliderMultiplier:1
SliderTickRate:1

[Events]
//Background and Video events
0,0,"bg.jpg",0,0
//Break Periods
2,94301,105968
//Storyboard Layer 0 (Background)
//Storyboard Layer 1 (Fail)
//Storyboard Layer 2 (Pass)
//Storyboard Layer 3 (Foreground)
//Storyboard Layer 4 (Overlay)
//Storyboard Sound Samples

[TimingPoints]
635,333.333333333333,4,2,1,60,1,0
16634,-100,4,2,1,40,0,0
37968,-100,4,2,1,45,0,0
48634,-100,4,2,1,50,0,0
53968,-100,4,2,1,45,0,0
59301,-100,4,2,1,55,0,0
67301,-100,4,2,1,60,0,0
69968,-100,4,2,1,70,0,0
85968,-100,4,2,1,65,0,0
91301,-100,4,2,1,60,0,0
107301,-100,4,2,1,45,0,0
117968,-100,4,2,1,50,0,0
123301,-100,4,2,1,45,0,0
128634,-100,4,2,1,55,0,0
136634,-100,4,2,1,60,0,0
139301,-100,4,2,1,70,0,0
155301,-100,4,2,1,65,0,0
176634,-100,4,2,1,70,0,0
213968,-100,4,2,1,65,0,0
224634,-100,4,2,1,60,0,0
241968,-100,4,2,1,50,0,0
243301,-100,4,2,1,35,0,0
244634,-100,4,2,1,20,0,0
245968,-100,4,2,1,5,0,0

[Colours]
Combo1 : 104,151,221
Combo2 : 255,180,130
Combo3 : 176,216,255
Combo4 : 255,255,187

[HitObjects]
73,146,635,6,0,P|121:153|160:124,1,100,14|8,0:1|0:0,0:0:0:0:
177,77,1134,1,2,0:0:0:0:
269,38,1468,2,0,L|328:47,1,50,8|10,0:1|0:0,0:0:0:0:
358,75,1801,2,0,P|346:149|338:223,1,150,14|10,0:1|0:0,0:0:0:0:
393,306,2634,2,0,L|449:297,1,50,8|8,0:1|0:1,0:0:0:0:
487,276,2968,1,8,0:0:0:0:
487,276,3134,6,0,B|509:200|509:200|492:154|442:152,1,150,14|10,0:1|0:0,0:0:0:0:
367,113,3968,2,0,L|310:122,1,50,10|10,0:1|0:1,0:0:0:0:
269,134,4301,1,8,0:0:0:0:
221,222,4634,2,0,P|215:270|248:305,1,100,10|10,0:1|0:0,0:0:0:0:
345,333,5301,2,0,L|336:382,2,50,10|10|2,0:0|0:1|0:0,0:0:0:0:
388,305,5801,1,8,0:0:0:0:
388,305,5968,6,0,P|405:267|379:207,1,100,14|8,0:1|0:0,0:0:0:0:
342,190,6468,1,10,0:1:0:0:
246,219,6801,2,0,L|187:211,1,50,8|10,0:1|0:0,0:0:0:0:
147,204,7134,2,0,P|137:154|126:106,1,100,14|8,0:1|0:1,0:0:0:0:
104,67,7634,1,10,0:0:0:0:
104,67,7801,2,0,B|160:56|160:56|179:30|179:30|247:17,1,150,10|8,0:1|0:0,0:0:0:0:
299,98,8634,6,0,P|348:105|397:115,1,100,14|8,0:1|0:0,0:0:0:0:
476,54,9301,2,0,P|476:26|458:0,2,50,8|8|8,0:1|0:1|0:0,0:0:0:0:
510,148,9968,2,0,P|499:196|492:246,1,100,2|8,0:0|0:0,0:0:0:0:
422,317,10634,2,0,L|434:382,2,50,8|8|8,0:1|0:1|0:0,0:0:0:0:
384,293,11134,1,8,0:1:0:0:
384,293,11301,6,0,P|334:302|286:313,1,100,14|8,0:1|0:0,0:0:0:0:
201,260,11968,2,0,P|176:266|152:270,2,50,8|10|8,0:1|0:1|0:0,0:0:0:0:
266,184,12634,2,0,P|272:138|233:92,1,100,2|8,0:0|0:0,0:0:0:0:
153,48,13301,2,0,L|164:-12,2,50,10|8|8,0:1|0:1|0:0,0:0:0:0:
121,87,13801,1,0,0:0:0:0:
121,87,13968,6,0,P|115:136|108:186,1,100,14|8,0:1|0:0,0:0:0:0:
54,270,14634,2,0,L|-2:282,2,50,8|8|8,0:1|0:1|0:0,0:0:0:0:
133,330,15301,2,0,P|179:336|225:297,1,100,14|8,0:1|0:0,0:0:0:0:
271,221,15968,1,8,0:3:0:0:
271,221,16134,2,0,L|258:165,1,50,8|8,0:1|0:1,0:0:0:0:
218,154,16468,1,8,0:0:0:0:
218,154,16634,6,0,B|191:112|191:112|221:55,1,100,14|8,0:1|0:0,0:0:0:0:
298,13,17301,2,0,L|410:33,1,100,10|10,0:1|0:0,0:0:0:0:
435,62,17801,2,0,P|420:135|412:210,1,150,10|8,0:1|0:0,0:0:0:0:
288,295,18801,2,0,L|227:305,1,50,10|10,0:1|0:0,0:0:0:0:
200,335,19134,6,0,P|159:348|82:272,1,150,2|8,0:0|0:0,0:0:0:0:
137,201,19968,1,10,0:1:0:0:
54,155,20301,1,10,0:0:0:0:
54,155,20468,2,0,P|44:105|32:57,1,100,10|10,0:1|0:1,0:0:0:0:
118,7,21134,2,0,P|127:56|139:104,1,100,2|10,0:0|0:1,0:0:0:0:
227,164,21801,1,10,0:1:0:0:
227,164,21968,6,0,P|276:155|325:149,1,100,8|8,0:1|0:0,0:0:0:0:
392,223,22634,2,0,P|423:229|478:186,1,100,8|8,0:1|0:0,0:0:0:0:
502,149,23134,2,0,P|489:100|479:51,1,100,8|8,0:1|0:1,0:0:0:0:
457,6,23634,1,8,0:0:0:0:
318,69,24134,2,0,L|251:59,1,50,10|10,0:1|0:0,0:0:0:0:
228,41,24468,1,2,0:0:0:0:
228,41,24634,6,0,P|179:52|130:61,1,100,8|8,0:1|0:0,0:0:0:0:
45,7,25301,2,0,P|35:56|24:104,1,100,2|10,0:0|0:0,0:0:0:0:
0,148,25801,2,0,P|11:196|20:245,1,100,2|10,0:0|0:1,0:0:0:0:
102,303,26468,2,0,P|150:291|199:282,1,100,10|10,0:1|0:1,0:0:0:0:
238,250,26968,1,8,0:0:0:0:
176,170,27301,6,0,P|152:120|177:68,1,100,14|8,0:1|0:0,0:0:0:0:
245,19,27968,2,0,L|360:40,1,100,10|10,0:1|0:0,0:0:0:0:
385,64,28468,2,0,B|397:141|331:121|353:221,1,150,10|8,0:1|0:0,0:0:0:0:
418,344,29468,1,10,0:1:0:0:
418,344,29634,2,0,L|362:354,1,50,10|2,0:0|0:0,0:0:0:0:
325,378,29968,6,0,P|276:365|227:357,1,100,8|8,0:1|0:0,0:0:0:0:
153,289,30634,2,0,P|106:278|58:316,1,100,2|10,0:0|0:0,0:0:0:0:
17,320,31134,2,0,P|9:270|-1:221,1,100,10|10,0:1|0:1,0:0:0:0:
63,144,31801,2,0,B|100:139|130:110|130:110|148:151|200:164,1,150,2|10,0:0|0:0,0:0:0:0:
282,154,32634,6,0,P|316:121|316:67,1,100,10|8,0:1|0:0,0:0:0:0:
292,26,33134,2,0,P|243:19|194:10,1,100,2|0,0:0|0:0,0:0:0:0:
96,32,33801,2,0,B|63:73|63:73|82:112|94:164,1,150,8|8,0:1|0:0,0:0:0:0:
174,224,34634,2,0,L|161:290,1,50,8|8,0:1|0:1,0:0:0:0:
142,318,34968,1,8,0:0:0:0:
225,372,35301,6,0,P|274:362|323:354,1,100,10|8,0:1|0:0,0:0:0:0:
371,339,35801,2,0,P|394:309|383:246,1,100,10|8,0:1|0:1,0:0:0:0:
345,220,36301,2,0,B|284:173|325:99|325:99|388:123,1,200,10|10,0:0|0:0,0:0:0:0:
479,167,37301,1,6,0:0:0:0:
479,167,37468,2,0,L|472:222,2,50,8|8|8,0:0|0:3|0:0,0:0:0:0:
509,126,37968,6,0,P|512:75|486:23,1,100,14|8,0:1|0:0,0:0:0:0:
396,5,38634,1,10,0:1:0:0:
309,55,38968,1,10,0:0:0:0:
309,55,39134,2,0,P|238:51|155:31,1,150,10|8,0:1|0:0,0:0:0:0:
72,78,39968,2,0,P|35:85|17:93,2,50,0|10|10,0:0|0:1|0:0,0:0:0:0:
103,124,40468,1,2,0:0:0:0:
103,124,40634,6,0,P|98:171|92:235,1,100,8|8,0:1|0:0,0:0:0:0:
146,308,41301,1,10,0:1:0:0:
237,266,41634,1,10,0:0:0:0:
237,266,41801,2,0,P|280:271|344:291,1,100,10|10,0:1|0:1,0:0:0:0:
355,188,42468,2,0,P|312:183|248:163,1,100,2|10,0:0|0:1,0:0:0:0:
200,85,43134,5,10,0:1:0:0:
200,85,43301,2,0,P|216:36|320:29,1,150,8|0,0:1|0:0,0:0:0:0:
344,48,43968,2,0,P|390:42|446:34,1,100,8|8,0:1|0:0,0:0:0:0:
485,61,44468,2,0,P|502:94|493:165,1,100,8|8,0:1|0:1,0:0:0:0:
470,197,44968,1,8,0:0:0:0:
391,324,45468,6,0,L|398:382,2,50,10|10|2,0:1|0:0|0:0,0:0:0:0:
349,296,45968,2,0,P|305:299|248:328,1,100,8|8,0:1|0:0,0:0:0:0:
170,269,46634,2,0,L|175:165,1,100,2|10,0:0|0:0,0:0:0:0:
213,137,47134,1,2,0:0:0:0:
305,176,47468,1,10,0:1:0:0:
392,128,47801,2,0,P|397:78|370:32,1,100,10|8,0:1|0:1,0:0:0:0:
327,15,48301,1,10,0:0:0:0:
232,48,48634,6,0,P|160:58|96:13,2,150,14|14|8,0:1|0:1|0:0,0:0:0:0:
295,126,49968,1,14,0:1:0:0:
232,203,50301,1,10,0:0:0:0:
232,203,50468,1,14,0:1:0:0:
134,180,50801,1,10,0:1:0:0:
62,249,51134,6,0,P|68:318|72:362,1,100,2|8,0:0|0:1,0:0:0:0:
113,374,51634,2,0,P|146:377|201:336,2,100,10|2|10,0:0|0:0|0:0,0:0:0:0:
25,325,52634,1,14,0:1:0:0:
73,237,52968,2,0,P|66:174|60:127,2,100,10|2|8,0:0|0:0|0:0,0:0:0:0:
164,277,53968,6,0,B|245:291|230:236|317:251,1,150,14|8,0:1|0:1,0:0:0:0:
445,308,54968,1,10,0:0:0:0:
505,228,55301,2,0,P|516:178|495:128,1,100,10|10,0:1|0:0,0:0:0:0:
459,102,55801,2,0,P|404:110|341:119,1,100,10|8,0:1|0:1,0:0:0:0:
317,142,56301,1,10,0:0:0:0:
237,82,56634,6,0,P|185:58|134:72,1,100,14|8,0:1|0:0,0:0:0:0:
81,143,57301,1,2,0:0:0:0:
137,225,57634,2,0,L|131:283,1,50,10|2,0:0|0:0,0:0:0:0:
100,314,57968,2,0,P|51:320|7:297,2,100,8|8|8,0:1|0:0|0:3,0:0:0:0:
180,374,58968,1,8,0:0:0:0:
261,316,59301,6,0,B|278:286|320:275|359:286|359:286|388:338|449:317,1,200,14|10,0:1|0:1,0:0:0:0:
488,236,60301,1,10,0:0:0:0:
488,236,60468,2,0,P|480:182|470:126,1,100,10|8,0:1|0:1,0:0:0:0:
430,109,60968,2,0,P|438:55|448:-1,2,100,10|10|10,0:0|0:1|0:0,0:0:0:0:
337,147,61968,5,10,0:1:0:0:
242,169,62301,1,10,0:0:0:0:
242,169,62468,2,0,P|186:168|134:132,1,100,2|0,0:0|0:0,0:0:0:0:
112,121,62968,1,10,0:0:0:0:
112,121,63134,2,0,P|124:195|135:273,1,150,10|8,0:1|0:0,0:0:0:0:
199,345,63968,2,0,P|228:350|286:309,1,100,8|10,0:1|0:0,0:0:0:0:
333,226,64634,6,0,P|406:236|492:247,2,150,14|10|10,0:1|0:1|0:0,0:0:0:0:
251,167,65968,2,0,L|143:182,1,100,14|8,0:1|0:0,0:0:0:0:
71,240,66634,2,0,P|37:234|-10:248,2,75,2|2|2,0:0|0:0|0:0,0:0:0:0:
95,284,67301,2,0,P|145:296|196:283,1,100,10|8,0:0|0:1,0:0:0:0:
230,253,67801,2,0,P|242:203|229:152,1,100,8|8,0:0|0:1,0:0:0:0:
191,126,68301,1,10,0:0:0:0:
234,35,68634,6,0,P|264:41|287:50,1,50,8|8,0:0|0:1,0:0:0:0:
318,82,68968,1,10,0:0:0:0:
410,43,69301,2,0,P|422:82|426:113,1,50,10|8,0:1|0:1,0:0:0:0:
462,122,69634,2,0,P|456:146|448:169,1,50,8|8,0:0|0:0,0:0:0:0:
470,215,69968,6,0,P|431:219|418:290,1,100,14|8,0:1|0:2,0:0:0:0:
420,318,70468,2,0,P|372:328|309:344,1,100
273,350,70968,1,10,0:2:0:0:
186,299,71301,2,0,B|97:282|129:339|28:319,1,150,10|0,0:1|0:0,0:0:0:0:
18,277,71968,1,10,0:1:0:0:
67,190,72301,2,0,L|56:127,1,50,10|0,0:0|0:0,0:0:0:0:
36,95,72634,6,0,P|76:67|133:72,1,100,8|10,0:1|0:0,0:0:0:0:
161,107,73134,1,0,0:0:0:0:
161,107,73301,1,10,0:1:0:0:
229,34,73634,1,10,0:0:0:0:
315,84,73968,2,0,P|308:108|280:186,1,100,0|10,0:0|0:0,0:0:0:0:
208,242,74634,1,10,0:1:0:0:
287,312,74968,1,10,0:0:0:0:
287,312,75134,6,0,L|393:331,1,100,2|0,0:0|0:0,0:0:0:0:
433,343,75634,2,0,P|459:304|432:243,1,100,8|8,0:0|0:1,0:0:0:0:
373,186,76301,1,10,0:0:0:0:
438,110,76634,2,0,P|422:27|351:15,1,150,2|0,0:0|0:0,0:0:0:0:
320,28,77301,1,10,0:1:0:0:
250,99,77634,2,0,P|226:90|202:84,1,50,10|0,0:0|0:0,0:0:0:0:
169,46,77967,6,0,P|119:44|79:72,1,100,8|10,0:1|0:0,0:0:0:0:
44,106,78468,1,0,0:0:0:0:
44,106,78634,2,0,P|54:154|63:204,1,100,10|10,0:1|0:0,0:0:0:0:
113,205,79134,2,0,P|102:253|93:303,1,100,2|10,0:0|0:1,0:0:0:0:
59,340,79634,1,10,0:0:0:0:
204,375,80134,2,0,L|272:359,1,50,10|10,0:0|0:3,0:0:0:0:
306,358,80468,1,10,0:3:0:0:
306,358,80634,6,0,P|319:316|290:257,1,100,14|8,0:1|0:0,0:0:0:0:
253,244,81135,2,0,P|243:196|227:133,1,100
200,106,81635,1,10,0:0:0:0:
279,45,81968,2,0,B|347:12|347:12|366:40|428:53,1,150,2|0,0:0|0:0,0:0:0:0:
457,32,82634,1,10,0:1:0:0:
490,126,82968,2,0,P|484:150|482:175,1,50,10|0,0:0|0:0,0:0:0:0:
445,209,83301,6,0,P|395:207|355:235,1,100,8|10,0:1|0:0,0:0:0:0:
340,284,83801,1,0,0:0:0:0:
340,284,83968,1,10,0:1:0:0:
242,304,84301,2,0,L|184:295,1,50,10|10,0:0|0:1,0:0:0:0:
150,269,84634,2,0,P|129:241|146:168,1,100,0|8,0:0|0:0,0:0:0:0:
142,83,85301,1,10,0:1:0:0:
142,83,85468,2,0,L|189:99,1,50,8|10,0:0|0:1,0:0:0:0:
227,67,85801,1,10,0:0:0:0:
227,67,85968,6,0,P|274:12|346:20,1,150,14|0,0:1|0:0,0:0:0:0:
386,48,86634,2,0,L|365:167,1,100,8|0,0:0|0:0,0:0:0:0:
285,199,87301,2,0,B|236:216|236:216|223:252|223:252|150:274,1,150,0|8,0:0|0:1,0:0:0:0:
128,302,87968,2,0,L|65:289,2,50,8|0|0,0:0|0:0|0:0,0:0:0:0:
198,372,88634,6,0,P|271:356|345:344,1,150,14|8,0:1|0:1,0:0:0:0:
387,316,89301,1,8,0:0:0:0:
324,237,89634,1,2,0:0:0:0:
400,172,89968,2,0,P|406:143|408:117,1,50,10|8,0:1|0:1,0:0:0:0:
368,92,90301,2,0,P|366:67|361:42,1,50,2|8,0:0|0:1,0:0:0:0:
314,25,90634,1,10,0:0:0:0:
217,52,90968,2,0,P|193:44|169:40,1,50,10|8,0:0|0:0,0:0:0:0:
120,53,91301,5,14,0:1:0:0:
256,192,91384,12,14,93801,0:1:0:0:
398,72,107301,6,0,P|354:57|294:95,1,100,14|8,0:1|0:0,0:0:0:0:
266,168,107968,2,0,L|284:276,1,100,10|10,0:1|0:0,0:0:0:0:
309,308,108468,2,0,B|225:304|260:359|149:350,1,150,10|8,0:1|0:0,0:0:0:0:
50,259,109468,2,0,P|32:230|32:205,1,50,10|10,0:1|0:0,0:0:0:0:
49,168,109801,6,0,B|132:145|132:145|195:200,1,150,2|8,0:0|0:0,0:0:0:0:
227,274,110634,1,10,0:1:0:0:
314,222,110968,1,10,0:0:0:0:
314,222,111134,2,0,P|339:182|315:119,1,100,10|10,0:1|0:1,0:0:0:0:
242,78,111801,2,0,P|194:90|145:99,1,100,2|10,0:0|0:1,0:0:0:0:
104,83,112301,1,8,0:0:0:0:
104,83,112468,6,0,P|50:136|74:201,1,150,10|8,0:1|0:0,0:0:0:0:
137,273,113301,2,0,P|186:280|235:289,1,100,8|8,0:1|0:0,0:0:0:0:
271,254,113801,2,0,P|320:245|369:237,1,100,8|8,0:1|0:1,0:0:0:0:
400,197,114301,1,8,0:0:0:0:
508,302,114801,2,0,L|494:358,1,50,10|10,0:1|0:0,0:0:0:0:
457,381,115134,1,2,0:0:0:0:
457,381,115301,6,0,P|409:350|353:366,1,100,8|8,0:1|0:0,0:0:0:0:
270,372,115968,2,0,P|262:322|252:273,1,100,2|10,0:0|0:0,0:0:0:0:
213,241,116468,2,0,P|223:192|230:142,1,100,2|10,0:0|0:1,0:0:0:0:
291,63,117134,2,0,P|340:54|389:43,1,100,10|8,0:1|0:1,0:0:0:0:
428,13,117634,1,10,0:0:0:0:
489,92,117968,6,0,P|481:142|474:190,1,100,14|8,0:1|0:0,0:0:0:0:
477,240,118468,2,0,B|448:253|423:294|423:294|389:260|335:265,1,150,14|8,0:1|0:0,0:0:0:0:
284,198,119301,2,0,P|242:190|200:228,1,100,14|10,0:1|0:0,0:0:0:0:
187,273,119801,1,14,0:1:0:0:
104,329,120134,1,10,0:1:0:0:
27,264,120468,6,0,P|39:215|50:166,1,100,2|8,0:0|0:1,0:0:0:0:
79,126,120968,1,10,0:0:0:0:
16,47,121301,1,2,0:0:0:0:
105,3,121634,2,0,P|155:11|204:21,1,100,10|14,0:0|0:1,0:0:0:0:
271,95,122301,1,10,0:0:0:0:
351,35,122634,1,2,0:0:0:0:
404,119,122968,2,0,P|407:143|410:168,1,50,8|8,0:0|0:0,0:0:0:0:
438,210,123301,6,0,P|389:204|350:297,1,150,14|8,0:1|0:1,0:0:0:0:
219,365,124301,1,10,0:0:0:0:
163,281,124634,2,0,P|168:231|177:182,1,100,10|10,0:1|0:0,0:0:0:0:
210,144,125134,2,0,B|290:127|268:194|366:168,1,150,10|10,0:1|0:0,0:0:0:0:
437,118,125968,6,0,P|451:91|426:28,1,100,14|8,0:1|0:0,0:0:0:0:
383,7,126468,1,10,0:1:0:0:
383,7,126634,2,0,L|276:40,1,100,2|10,0:0|0:0,0:0:0:0:
256,76,127134,2,0,P|186:98|128:51,1,150,2|8,0:0|0:0,0:0:0:0:
23,160,128134,2,0,L|31:209,1,50,8|8,0:1|0:0,0:0:0:0:
45,257,128468,1,4,0:3:0:0:
45,257,128634,6,0,B|153:233|111:328|252:276,1,200,14|10,0:1|0:1,0:0:0:0:
302,208,129634,1,10,0:0:0:0:
301,207,129801,2,0,P|349:222|399:230,1,100,10|8,0:1|0:1,0:0:0:0:
444,209,130301,1,10,0:0:0:0:
482,116,130634,2,0,P|471:81|405:68,1,100,10|10,0:1|0:0,0:0:0:0:
318,91,131301,5,10,0:1:0:0:
240,37,131634,1,10,0:0:0:0:
240,37,131801,2,0,P|190:42|119:60,1,100,2|0,0:0|0:0,0:0:0:0:
108,90,132301,1,10,0:0:0:0:
108,90,132468,2,0,B|143:156|143:156|113:230,1,150,10|8,0:1|0:0,0:0:0:0:
73,316,133301,2,0,P|122:324|171:335,1,100,8|10,0:1|0:0,0:0:0:0:
232,256,133968,6,0,P|264:227|331:240,1,100,14|8,0:1|0:0,0:0:0:0:
363,251,134468,2,0,B|337:200|337:200|378:109,1,150,10|10,0:1|0:0,0:0:0:0:
451,179,135301,2,0,L|469:286,1,100,14|8,0:1|0:0,0:0:0:0:
403,355,135968,2,0,P|440:363|476:373,2,75,2|2|2,0:0|0:0|0:0,0:0:0:0:
354,353,136634,6,0,B|316:319|316:319|268:332,1,100,10|8,0:0|0:1,0:0:0:0:
225,358,137134,2,0,B|187:324|187:324|139:337,1,100,8|8,0:0|0:1,0:0:0:0:
95,362,137634,1,10,0:0:0:0:
34,282,137968,2,0,L|21:225,1,50,8|8,0:0|0:1,0:0:0:0:
15,183,138301,1,10,0:0:0:0:
94,122,138634,2,0,L|157:112,1,50,14|8,0:1|0:1,0:0:0:0:
174,153,138968,2,0,L|237:163,1,50,8|8,0:0|0:0,0:0:0:0:
263,191,139301,6,0,P|309:204|351:165,1,100,14|8,0:1|0:2,0:0:0:0:
385,141,139801,2,0,B|399:94|399:94|356:33,1,100
335,15,140301,1,10,0:2:0:0:
240,46,140634,2,0,B|156:27|156:27|142:59|101:82,1,150,10|0,0:1|0:0,0:0:0:0:
64,85,141301,1,10,0:1:0:0:
22,175,141634,2,0,P|31:197|36:222,1,50,10|0,0:0|0:0,0:0:0:0:
12,267,141968,6,0,P|62:275|110:286,1,100,8|10,0:1|0:0,0:0:0:0:
156,319,142468,1,0,0:0:0:0:
156,319,142634,1,10,0:1:0:0:
229,251,142968,1,10,0:0:0:0:
316,299,143301,2,0,P|348:305|403:262,1,100,0|10,0:0|0:0,0:0:0:0:
445,179,143968,1,10,0:1:0:0:
359,139,144301,1,10,0:0:0:0:
359,139,144468,6,0,P|309:147|260:157,1,100,2|0,0:0|0:0,0:0:0:0:
214,177,144968,2,0,P|185:152|196:86,1,100,8|8,0:0|0:1,0:0:0:0:
244,11,145634,2,0,L|298:25,1,50,10|8,0:0|0:1,0:0:0:0:
341,35,145968,2,0,P|376:6|477:25,1,150,2|0,0:0|0:0,0:0:0:0:
504,60,146634,1,10,0:1:0:0:
446,142,146968,2,0,P|440:166|435:190,1,50,10|0,0:0|0:0,0:0:0:0:
468,227,147301,6,0,P|501:261|494:314,1,100,8|10,0:1|0:0,0:0:0:0:
414,367,147968,2,0,L|359:354,1,50,10|2,0:1|0:0,0:0:0:0:
325,325,148301,1,10,0:0:0:0:
325,325,148468,2,0,L|222:349,1,100,2|10,0:0|0:1,0:0:0:0:
178,356,148968,1,10,0:0:0:0:
178,356,149134,1,8,0:1:0:0:
172,260,149468,1,10,0:0:0:0:
172,260,149634,2,0,L|159:205,1,50,10|10,0:3|0:3,0:0:0:0:
135,167,149968,6,0,P|110:126|145:66,1,100,14|8,0:1|0:0,0:0:0:0:
157,41,150468,2,0,P|206:34|256:29,1,100
302,48,150968,1,10,0:0:0:0:
363,128,151301,2,0,P|373:170|282:211,1,150,2|0,0:0|0:0,0:0:0:0:
249,193,151968,1,10,0:1:0:0:
176,262,152301,2,0,L|118:276,1,50,10|0,0:0|0:0,0:0:0:0:
83,297,152634,6,0,P|72:248|61:199,1,100,8|10,0:1|0:0,0:0:0:0:
139,135,153301,1,10,0:1:0:0:
127,35,153634,2,0,P|98:23|65:29,1,50,10|10,0:0|0:1,0:0:0:0:
31,8,153968,2,0,P|23:57|18:107,1,100,0|8,0:0|0:0,0:0:0:0:
62,199,154634,1,10,0:1:0:0:
62,199,154801,2,0,P|84:210|106:222,1,50,8|10,0:0|0:1,0:0:0:0:
140,258,155134,1,10,0:0:0:0:
140,258,155301,6,0,P|92:290|112:378,1,150,14|0,0:1|0:0,0:0:0:0:
154,378,155968,2,0,B|195:350|195:350|246:367,1,100,8|0,0:0|0:0,0:0:0:0:
329,316,156634,2,0,B|356:231|356:231|316:184,1,150,0|8,0:0|0:1,0:0:0:0:
275,155,157301,2,0,L|283:102,2,50,8|0|0,0:0|0:0|0:0,0:0:0:0:
194,214,157968,6,0,B|154:217|128:244|128:244|101:200|64:195,1,150,14|8,0:1|0:1,0:0:0:0:
28,170,158634,1,8,0:0:0:0:
15,70,158968,1,2,0:0:0:0:
99,17,159301,2,0,P|123:21|147:27,1,50,10|8,0:1|0:1,0:0:0:0:
181,65,159634,2,0,P|205:60|229:54,1,50,2|8,0:0|0:1,0:0:0:0:
267,20,159968,1,10,0:0:0:0:
344,82,160301,2,0,P|358:116|359:142,1,50,10|8,0:0|0:0,0:0:0:0:
352,178,160634,6,0,P|302:184|253:193,1,100,14|10,0:1|0:0,0:0:0:0:
161,234,161301,1,10,0:1:0:0:
161,234,161468,2,0,P|143:258|166:335,1,100,10|10,0:1|0:1,0:0:0:0:
193,353,161968,2,0,B|244:343|244:343|296:370,1,100,0|10,0:0|0:0,0:0:0:0:
335,376,162468,2,0,L|349:261,1,100,2|8,0:0|0:1,0:0:0:0:
380,239,162968,1,10,0:0:0:0:
308,169,163301,6,0,L|245:157,1,50,10|2,0:1|0:0,0:0:0:0:
211,144,163634,2,0,L|161:153,1,50,10|2,0:0|0:0,0:0:0:0:
128,190,163968,2,0,B|100:229|100:229|127:280,1,100,10|10,0:1|0:0,0:0:0:0:
143,321,164468,2,0,B|213:327|187:378|281:373,1,150,10|10,0:1|0:0,0:0:0:0:
319,344,165134,2,0,B|343:300|343:300|316:249,1,100,2|8,0:0|0:1,0:0:0:0:
293,213,165634,1,10,0:0:0:0:
210,269,165968,6,0,L|202:331,2,50,14|2|10,0:1|0:0|0:0,0:0:0:0:
171,236,166468,2,0,L|149:135,1,100,2|8,0:0|0:1,0:0:0:0:
138,89,166968,2,0,L|84:78,2,50,10|10|2,0:0|0:1|0:0,0:0:0:0:
179,61,167468,2,0,L|284:45,1,100,10|2,0:1|0:0,0:0:0:0:
322,67,167968,2,0,L|339:118,1,50,10|10,0:1|0:1,0:0:0:0:
319,161,168301,1,10,0:0:0:0:
388,233,168634,6,0,L|477:215,2,75,10|0|2,0:1|0:0|0:0,0:0:0:0:
350,266,169301,2,0,B|304:285|304:285|247:249,1,100,8|10,0:1|0:0,0:0:0:0:
191,195,169968,1,0,0:0:0:0:
191,195,170134,2,0,P|198:145|208:96,1,100,10|0,0:1|0:0,0:0:0:0:
237,55,170634,2,0,L|289:44,1,50,10|8,0:1|0:1,0:0:0:0:
331,66,170968,1,10,0:0:0:0:
429,49,171301,6,0,L|435:-4,2,50,10|10|10,0:0|0:1|0:1,0:0:0:0:
448,95,171801,2,0,P|441:144|436:194,1,100,10|10,0:3|0:1,0:0:0:0:
447,242,172301,2,0,L|504:234,2,50,10|10|10,0:0|0:1|0:1,0:0:0:0:
412,278,172801,2,0,P|372:293|315:247,1,100,10|10,0:3|0:1,0:0:0:0:
294,227,173301,2,0,L|298:169,1,50,10|10,0:0|0:1,0:0:0:0:
316,130,173634,1,10,0:1:0:0:
235,70,173968,6,0,L|217:12,2,50,14|10|10,0:0|0:1|0:1,0:0:0:0:
206,111,174468,2,0,P|167:129|102:100,1,100,14|10,0:0|0:1,0:0:0:0:
80,76,174968,1,14,0:0:0:0:
1,138,175301,1,10,0:0:0:0:
10,237,175634,1,10,0:0:0:0:
68,318,175968,2,0,P|92:321|116:327,1,50,8|8,0:1|0:0,0:0:0:0:
159,300,176301,2,0,P|183:294|207:290,1,50,8|8,0:0|0:0,0:0:0:0:
257,293,176634,6,0,P|270:261|260:184,1,100,14|8,0:1|0:2,0:0:0:0:
251,148,177134,2,0,P|201:156|153:168,1,100
108,190,177634,1,10,0:2:0:0:
30,127,177968,2,0,B|5:53|5:53|78:28,1,150,10|0,0:1|0:0,0:0:0:0:
119,11,178634,1,10,0:1:0:0:
203,65,178968,2,0,L|267:80,1,50,10|0,0:0|0:0,0:0:0:0:
298,59,179301,6,0,P|329:82|334:152,1,100,8|10,0:1|0:0,0:0:0:0:
324,190,179801,1,0,0:0:0:0:
324,190,179968,1,10,0:1:0:0:
398,256,180301,1,10,0:0:0:0:
321,319,180634,2,0,P|271:327|222:337,1,100,0|10,0:0|0:0,0:0:0:0:
144,275,181301,1,10,0:1:0:0:
216,206,181634,1,10,0:0:0:0:
216,206,181801,6,0,P|231:167|194:107,1,100,2|0,0:0|0:0,0:0:0:0:
196,67,182301,2,0,P|146:73|97:84,1,100,8|8,0:0|0:1,0:0:0:0:
10,133,182968,1,10,0:0:0:0:
82,201,183301,2,0,B|121:243|121:243|92:341,1,150,2|0,0:0|0:0,0:0:0:0:
110,379,183968,1,10,0:1:0:0:
209,376,184301,2,0,L|263:365,1,50,10|0,0:0|0:0,0:0:0:0:
304,346,184634,6,0,L|284:244,1,100,8|10,0:1|0:0,0:0:0:0:
247,224,185134,1,0,0:0:0:0:
247,224,185301,2,0,P|222:180|238:129,1,100,10|10,0:1|0:0,0:0:0:0:
269,99,185801,2,0,P|318:108|367:114,1,100,2|10,0:0|0:1,0:0:0:0:
406,82,186301,1,10,0:0:0:0:
500,206,186801,1,10,0:0:0:0:
500,206,186968,2,0,P|493:230|490:254,1,50,10|10,0:3|0:3,0:0:0:0:
497,304,187301,6,0,P|447:312|399:325,1,100,14|8,0:1|0:0,0:0:0:0:
364,361,187801,2,0,P|315:347|266:339,1,100
220,318,188301,1,10,0:0:0:0:
277,236,188634,2,0,B|280:187|299:150|299:150|283:118|253:98,1,150,2|0,0:0|0:0,0:0:0:0:
219,74,189301,1,10,0:1:0:0:
152,148,189634,2,0,L|94:158,1,50,10|0,0:0|0:0,0:0:0:0:
52,148,189968,6,0,P|38:196|30:245,1,100,8|10,0:1|0:0,0:0:0:0:
49,297,190468,1,0,0:0:0:0:
49,297,190634,1,10,0:1:0:0:
147,314,190968,2,0,L|197:303,1,50,10|10,0:0|0:1,0:0:0:0:
225,263,191301,2,0,B|267:237|267:237|324:260,1,100,0|8,0:0|0:0,0:0:0:0:
400,316,191968,1,10,0:1:0:0:
400,316,192134,2,0,L|451:306,1,50,8|10,0:0|0:1,0:0:0:0:
476,265,192468,1,10,0:0:0:0:
476,265,192634,6,0,P|467:215|459:166,1,100,6|10,0:0|0:0,0:0:0:0:
488,70,193301,2,0,L|423:55,1,50,8|0,0:1|0:0,0:0:0:0:
394,35,193634,1,8,0:0:0:0:
325,107,193968,1,0,0:0:0:0:
325,107,194134,2,0,P|275:116|227:128,1,100,8|0,0:1|0:0,0:0:0:0:
189,161,194634,1,10,0:1:0:0:
110,98,194968,1,10,0:0:0:0:
40,170,195301,6,0,P|15:216|32:263,1,100,10|10,0:1|0:0,0:0:0:0:
75,347,195968,1,10,0:1:0:0:
154,286,196301,2,0,L|212:272,1,50,10|8,0:0|0:1,0:0:0:0:
242,303,196634,2,0,L|290:314,1,50,14|8,0:1|0:1,0:0:0:0:
335,291,196968,1,10,0:0:0:0:
339,191,197301,1,10,0:0:0:0:
258,132,197634,2,0,L|191:146,1,50,10|10,0:0|0:0,0:0:0:0:
170,174,197968,6,0,P|128:188|73:144,1,100,14|8,0:1|0:2,0:0:0:0:
34,146,198468,2,0,P|44:97|52:47,1,100
85,10,198968,1,10,0:2:0:0:
180,40,199301,2,0,P|254:28|328:20,1,150,10|0,0:1|0:0,0:0:0:0:
377,8,199968,1,10,0:1:0:0:
434,89,200301,2,0,L|450:142,1,50,10|0,0:0|0:0,0:0:0:0:
479,176,200634,6,0,P|465:224|453:272,1,100,8|10,0:1|0:0,0:0:0:0:
451,322,201134,1,0,0:0:0:0:
451,322,201301,1,10,0:1:0:0:
366,375,201634,1,10,0:0:0:0:
303,296,201968,2,0,P|276:274|208:283,1,100,0|10,0:0|0:0,0:0:0:0:
127,329,202634,1,10,0:1:0:0:
70,253,202968,1,10,0:0:0:0:
70,253,203134,6,0,P|79:203|86:154,1,100,2|0,0:0|0:0,0:0:0:0:
79,104,203634,2,0,P|117:74|164:83,1,100,8|8,0:0|0:1,0:0:0:0:
246,141,204301,1,10,0:0:0:0:
317,71,204634,2,0,B|364:73|401:48|401:48|434:61|456:100,1,150,2|0,0:0|0:0,0:0:0:0:
480,124,205301,1,10,0:1:0:0:
443,216,205634,2,0,L|383:232,1,50,10|0,0:0|0:0,0:0:0:0:
359,265,205968,6,0,L|248:247,1,100,8|10,0:1|0:0,0:0:0:0:
217,235,206468,1,0,0:0:0:0:
217,235,206634,2,0,P|191:198|218:145,1,100,10|10,0:1|0:0,0:0:0:0:
257,133,207134,2,0,P|249:84|239:35,1,100,2|10,0:0|0:1,0:0:0:0:
198,7,207634,1,10,0:0:0:0:
67,81,208134,1,10,0:0:0:0:
67,81,208301,2,0,L|32:125,1,50,10|10,0:3|0:3,0:0:0:0:
10,163,208634,6,0,P|23:211|34:259,1,100,14|8,0:1|0:0,0:0:0:0:
69,295,209134,2,0,P|120:312|176:282,1,100
194,258,209634,1,10,0:0:0:0:
273,319,209968,2,0,P|346:333|419:349,1,150,2|0,0:0|0:0,0:0:0:0:
467,334,210634,1,10,0:1:0:0:
501,240,210968,2,0,L|489:176,1,50,10|0,0:0|0:0,0:0:0:0:
475,143,211301,6,0,P|445:108|384:113,1,100,8|10,0:1|0:0,0:0:0:0:
352,135,211801,1,0,0:0:0:0:
352,135,211968,1,10,0:1:0:0:
263,88,212301,2,0,L|254:31,1,50,10|10,0:0|0:1,0:0:0:0:
213,10,212634,2,0,B|170:36|170:36|103:11,1,100,0|8,0:0|0:0,0:0:0:0:
73,12,213134,2,0,L|63:73,1,50,2|10,0:0|0:1,0:0:0:0:
34,102,213468,1,8,0:0:0:0:
34,102,213634,2,0,L|44:163,1,50,10|10,0:1|0:0,0:0:0:0:
68,194,213968,6,0,B|112:216|112:216|166:206|197:163,1,150,14|0,0:1|0:0,0:0:0:0:
207,115,214634,2,0,L|314:137,1,100,8|0,0:0|0:0,0:0:0:0:
396,94,215301,2,0,P|445:168|429:221,1,150,0|8,0:0|0:1,0:0:0:0:
394,257,215968,2,0,L|405:307,2,50,12|0|0,0:0|0:0|0:0,0:0:0:0:
296,280,216634,6,0,B|258:280|228:261|228:261|207:302|161:317,1,150,14|8,0:1|0:1,0:0:0:0:
125,333,217301,1,8,0:0:0:0:
52,264,217634,1,2,0:0:0:0:
122,194,217968,2,0,P|146:155|130:104,1,100,10|2,0:1|0:0,0:0:0:0:
60,35,218634,2,0,L|42:93,1,50,10|8,0:0|0:0,0:0:0:0:
4,113,218968,2,0,L|22:171,1,50,10|8,0:0|0:0,0:0:0:0:
38,206,219301,6,0,B|3:288|3:288|49:344,1,150,14|2,0:1|0:0,0:0:0:0:
86,355,219968,2,0,P|135:341|183:328,1,100,8|0,0:0|0:0,0:0:0:0:
253,257,220634,2,0,P|298:241|384:300,1,150,0|8,0:0|0:1,0:0:0:0:
418,323,221301,2,0,L|409:379,2,50,8|0|0,0:0|0:0|0:0,0:0:0:0:
481,245,221968,6,0,P|501:205|470:146,1,100,14|8,0:0|0:1,0:0:0:0:
452,115,222468,2,0,L|338:139,1,100,8|8,0:3|0:1,0:0:0:0:
317,169,222968,2,0,P|300:149|280:135,1,50,8|8,0:0|0:1,0:0:0:0:
263,88,223301,2,0,P|229:79|197:82,1,50,8|8,0:1|0:1,0:0:0:0:
164,81,223634,1,8,0:0:0:0:
85,19,223968,2,0,P|64:32|61:110,1,100,8|8,0:0|0:0,0:0:0:0:
84,148,224468,1,8,0:0:0:0:
84,148,224634,6,0,P|75:197|67:246,1,100,14|8,0:1|0:0,0:0:0:0:
79,295,225134,1,2,0:0:0:0:
161,351,225468,2,0,L|223:336,1,50,8|10,0:1|0:0,0:0:0:0:
254,317,225801,2,0,B|283:235|283:235|238:167,1,150,14|10,0:1|0:0,0:0:0:0:
172,116,226634,2,0,L|181:60,1,50,8|8,0:1|0:1,0:0:0:0:
224,41,226968,1,8,0:0:0:0:
224,41,227134,6,0,B|266:31|289:-3|289:-3|321:33|370:39,1,150,14|10,0:1|0:0,0:0:0:0:
439,72,227968,2,0,L|430:129,1,50,10|10,0:1|0:1,0:0:0:0:
418,170,228301,1,8,0:0:0:0:
331,221,228634,2,0,P|282:211|233:202,1,100,10|10,0:1|0:0,0:0:0:0:
146,153,229301,2,0,L|137:104,2,50,10|10|2,0:0|0:1|0:0,0:0:0:0:
114,192,229801,1,8,0:0:0:0:
114,192,229968,6,0,P|97:230|123:290,1,100,14|8,0:1|0:0,0:0:0:0:
141,325,230468,1,10,0:1:0:0:
238,304,230801,2,0,L|287:310,1,50,8|10,0:1|0:0,0:0:0:0:
325,343,231134,2,0,P|373:331|422:322,1,100,14|8,0:1|0:1,0:0:0:0:
472,304,231634,1,10,0:0:0:0:
472,304,231801,2,0,B|495:229|438:240|469:156,1,150,10|8,0:1|0:0,0:0:0:0:
405,80,232634,6,0,P|356:87|307:97,1,100,14|8,0:1|0:0,0:0:0:0:
206,99,233301,2,0,P|206:71|224:45,2,50,8|8|8,0:1|0:1|0:0,0:0:0:0:
253,187,233968,2,0,P|242:235|235:285,1,100,2|8,0:0|0:0,0:0:0:0:
305,355,234634,2,0,L|370:343,2,50,8|8|8,0:1|0:1|0:0,0:0:0:0:
265,384,235134,1,8,0:1:0:0:
265,384,235301,6,0,P|216:372|167:364,1,100,14|8,0:1|0:0,0:0:0:0:
96,293,235968,2,0,P|42:278|38:280,2,50,8|10|8,0:1|0:1|0:0,0:0:0:0:
180,239,236634,2,0,P|186:193|147:147,1,100,2|8,0:0|0:0,0:0:0:0:
87,78,237301,2,0,L|27:89,2,50,10|8|8,0:1|0:1|0:0,0:0:0:0:
125,45,237801,1,0,0:0:0:0:
125,45,237968,6,0,P|174:51|224:58,1,100,14|8,0:1|0:0,0:0:0:0:
313,102,238634,2,0,L|369:90,2,50,8|8|8,0:1|0:1|0:0,0:0:0:0:
237,167,239301,2,0,B|215:213|215:213|255:266,1,100,14|8,0:1|0:0,0:0:0:0:
332,311,239968,1,8,0:3:0:0:
332,311,240134,2,0,L|345:255,1,50,8|8,0:1|0:1,0:0:0:0:
376,224,240468,1,8,0:0:0:0:
376,224,240634,5,14,0:1:0:0:
256,192,240801,12,0,245968,0:0:0:0:
