osu file format v14

[General]
AudioFilename: audio.mp3
AudioLeadIn: 0
PreviewTime: 68968
Countdown: 0
SampleSet: Soft
StackLeniency: 0.7
Mode: 0
LetterboxInBreaks: 0
WidescreenStoryboard: 0

[Editor]
DistanceSpacing: 1.3
BeatDivisor: 4
GridSize: 32
TimelineZoom: 1.4

[Metadata]
Title:Lament
TitleUnicode:Lament
Artist:Hana
ArtistUnicode:はな
Creator:Pache Knowledge
Version:Sorrow
Source:
Tags:koldnoodl torriru shirahane suou shirahane_suou spokenaway subahibi kleune japanese rock jrock j-rock female vocal vocals forest うさ usa 松本文紀 fuminori matsumoto reisevia roda totsuki roda_totsuki
BeatmapID:3432906
BeatmapSetID:1680419

[Difficulty]
HPDrainRate:6
CircleSize:4
OverallDifficulty:8.5
ApproachRate:9.3
SliderMultiplier:1.6
SliderTickRate:1

[Events]
//Background and Video events
0,0,"bg.jpg",0,0
//Break Periods
2,94301,104634
//Storyboard Layer 0 (Background)
//Storyboard Layer 1 (Fail)
//Storyboard Layer 2 (Pass)
//Storyboard Layer 3 (Foreground)
//Storyboard Layer 4 (Overlay)
//Storyboard Sound Samples

[TimingPoints]
635,333.333333333333,4,2,1,60,1,0
16634,-125,4,2,1,40,0,0
37968,-125,4,2,1,45,0,0
48634,-111.111111111111,4,2,1,50,0,0
50718,-111.111111111111,4,2,1,5,0,0
50801,-111.111111111111,4,2,1,50,0,0
53968,-125,4,2,1,45,0,0
59301,-111.111111111111,4,2,1,55,0,0
67301,-111.111111111111,4,2,1,60,0,0
68634,-100,4,2,1,60,0,0
68718,-100,4,2,1,5,0,0
68801,-100,4,2,1,60,0,0
68884,-100,4,2,1,5,0,0
68968,-100,4,2,1,60,0,0
69968,-90.9090909090909,4,2,1,70,0,1
70218,-90.9090909090909,4,2,1,5,0,1
70301,-90.9090909090909,4,2,1,70,0,1
72884,-90.9090909090909,4,2,1,5,0,1
72968,-90.9090909090909,4,2,1,70,0,1
73551,-90.9090909090909,4,2,1,5,0,1
73634,-90.9090909090909,4,2,1,70,0,1
75551,-90.9090909090909,4,2,1,5,0,1
75634,-90.9090909090909,4,2,1,70,0,1
77551,-90.9090909090909,4,2,1,5,0,1
77634,-90.9090909090909,4,2,1,70,0,1
78551,-90.9090909090909,4,2,1,5,0,1
78634,-90.9090909090909,4,2,1,70,0,1
80884,-90.9090909090909,4,2,1,5,0,1
80968,-90.9090909090909,4,2,1,70,0,1
83551,-90.9090909090909,4,2,1,5,0,1
83634,-90.9090909090909,4,2,1,70,0,1
85968,-111.111111111111,4,2,1,65,0,0
89634,-100,4,2,1,65,0,0
91301,-100,4,2,1,60,0,0
107301,-125,4,2,1,45,0,0
117968,-111.111111111111,4,2,1,50,0,0
120051,-111.111111111111,4,2,1,5,0,0
120134,-111.111111111111,4,2,1,50,0,0
123301,-125,4,2,1,45,0,0
128634,-111.111111111111,4,2,1,55,0,0
136634,-111.111111111111,4,2,1,60,0,0
138051,-111.111111111111,4,2,1,5,0,0
138134,-111.111111111111,4,2,1,60,0,0
138218,-111.111111111111,4,2,1,5,0,0
138301,-111.111111111111,4,2,1,60,0,0
139301,-90.9090909090909,4,2,1,70,0,1
139551,-90.9090909090909,4,2,1,5,0,1
139634,-90.9090909090909,4,2,1,70,0,1
142218,-90.9090909090909,4,2,1,5,0,1
142301,-90.9090909090909,4,2,1,70,0,1
142884,-90.9090909090909,4,2,1,5,0,1
142968,-90.9090909090909,4,2,1,70,0,1
144884,-90.9090909090909,4,2,1,5,0,1
144968,-90.9090909090909,4,2,1,70,0,1
146884,-90.9090909090909,4,2,1,5,0,1
146968,-90.9090909090909,4,2,1,70,0,1
147884,-90.9090909090909,4,2,1,5,0,1
147968,-90.9090909090909,4,2,1,70,0,1
150218,-90.9090909090909,4,2,1,5,0,1
150301,-90.9090909090909,4,2,1,70,0,1
152884,-90.9090909090909,4,2,1,5,0,1
152968,-90.9090909090909,4,2,1,70,0,1
155301,-111.111111111111,4,2,1,65,0,0
160634,-100,4,2,1,65,0,1
175968,-100,4,2,1,65,0,0
176634,-90.9090909090909,4,2,1,70,0,1
176884,-90.9090909090909,4,2,1,5,0,1
176968,-90.9090909090909,4,2,1,70,0,1
179551,-90.9090909090909,4,2,1,5,0,1
179634,-90.9090909090909,4,2,1,70,0,1
180218,-90.9090909090909,4,2,1,5,0,1
180301,-90.9090909090909,4,2,1,70,0,1
182218,-90.9090909090909,4,2,1,5,0,1
182301,-90.9090909090909,4,2,1,70,0,1
184218,-90.9090909090909,4,2,1,5,0,1
184301,-90.9090909090909,4,2,1,70,0,1
185218,-90.9090909090909,4,2,1,5,0,1
185301,-90.9090909090909,4,2,1,70,0,1
187551,-90.9090909090909,4,2,1,5,0,1
187634,-90.9090909090909,4,2,1,70,0,1
190218,-90.9090909090909,4,2,1,5,0,1
190301,-90.9090909090909,4,2,1,70,0,1
192884,-90.9090909090909,4,2,1,5,0,1
192968,-90.9090909090909,4,2,1,70,0,1
194884,-90.9090909090909,4,2,1,5,0,1
194968,-90.9090909090909,4,2,1,70,0,1
197384,-90.9090909090909,4,2,1,5,0,1
197468,-90.9090909090909,4,2,1,70,0,1
197551,-90.9090909090909,4,2,1,5,0,1
197634,-90.9090909090909,4,2,1,70,0,1
198218,-90.9090909090909,4,2,1,5,0,1
198301,-90.9090909090909,4,2,1,70,0,1
200884,-90.9090909090909,4,2,1,5,0,1
200968,-90.9090909090909,4,2,1,70,0,1
201551,-90.9090909090909,4,2,1,5,0,1
201634,-90.9090909090909,4,2,1,70,0,1
203551,-90.9090909090909,4,2,1,5,0,1
203634,-90.9090909090909,4,2,1,70,0,1
205551,-90.9090909090909,4,2,1,5,0,1
205634,-90.9090909090909,4,2,1,70,0,1
206551,-90.9090909090909,4,2,1,5,0,1
206634,-90.9090909090909,4,2,1,70,0,1
208884,-90.9090909090909,4,2,1,5,0,1
208968,-90.9090909090909,4,2,1,70,0,1
211551,-90.9090909090909,4,2,1,5,0,1
211634,-90.9090909090909,4,2,1,70,0,1
213968,-111.111111111111,4,2,1,65,0,0
223634,-100,4,2,1,65,0,0
224634,-100,4,2,1,60,0,0
241968,-100,4,2,1,50,0,0
243301,-100,4,2,1,35,0,0
244634,-100,4,2,1,20,0,0
245968,-100,4,2,1,5,0,0

[Colours]
Combo1 : 104,151,221
Combo2 : 255,180,130
Combo3 : 176,216,255
Combo4 : 255,255,187

[HitObjects]
231,377,635,6,0,P|288:335|272:249,1,160,14|8,0:1|0:0,0:0:0:0:
99,134,1134,2,0,P|108:182|120:242,1,80,2|8,0:0|0:1,0:0:0:0:
166,65,1468,1,8,0:1:0:0:
15,202,1634,1,10,0:0:0:0:
180,327,1801,6,0,B|217:287|273:297|273:297|294:330|333:330,1,160,14|8,0:1|0:1,0:0:0:0:
399,284,2301,2,0,P|411:240|395:198,1,80,10|0,0:0|0:0,0:0:0:0:
473,137,2634,1,8,0:1:0:0:
293,247,2801,1,8,0:1:0:0:
494,328,2968,1,8,0:0:0:0:
336,108,3134,6,0,P|268:100|190:177,1,160,14|10,0:1|0:1,0:0:0:0:
61,384,3634,2,0,P|114:341|115:231,1,160,10|10,0:0|0:1,0:0:0:0:
0,165,4134,1,10,0:1:0:0:
109,16,4301,2,0,P|97:62|104:98,1,80,8|2,0:0|0:0,0:0:0:0:
295,215,4634,5,10,0:1:0:0:
256,0,4801,1,10,0:1:0:0:
180,136,4968,1,10,0:0:0:0:
393,57,5134,1,10,0:1:0:0:
402,54,5218,1,10,0:1:0:0:
410,51,5301,2,0,L|496:61,1,80,10|10,0:0|0:1,0:0:0:0:
306,248,5634,2,0,L|220:238,1,80,2|8,0:0|0:0,0:0:0:0:
422,355,5968,6,0,P|426:307|436:269,1,80,14|8,0:1|0:1,0:0:0:0:
205,159,6301,1,8,0:0:0:0:
320,72,6468,2,0,P|310:127|328:236,1,160,10|8,0:1|0:1,0:0:0:0:
164,377,6968,1,10,0:0:0:0:
72,316,7134,6,0,P|109:280|212:276,1,160,14|8,0:1|0:1,0:0:0:0:
311,136,7634,1,10,0:0:0:0:
244,67,7801,2,0,P|204:63|164:68,1,80,10|0,0:1|0:0,0:0:0:0:
374,210,8134,2,0,P|414:214|454:209,1,80,8|8,0:1|0:0,0:0:0:0:
453,209,8634,6,0,P|416:188|290:195,2,160,14|8|8,0:1|0:0|0:1,0:0:0:0:
378,361,9468,1,8,0:1:0:0:
288,282,9634,2,0,P|248:288|200:295,1,80,8|8,0:0|0:1,0:0:0:0:
45,199,9968,2,0,P|33:138|47:42,1,160,2|8,0:0|0:0,0:0:0:0:
121,2,10468,1,0,0:0:0:0:
264,111,10634,2,0,P|306:107|359:101,1,80,8|8,0:1|0:1,0:0:0:0:
406,35,10968,2,0,P|404:7|402:35,1,80,8|8,0:0|0:1,0:0:0:0:
512,222,11301,6,0,B|438:231|432:167|344:190,1,160,14|8,0:1|0:0,0:0:0:0:
207,325,11801,1,0,0:0:0:0:
190,235,11968,1,8,0:1:0:0:
277,273,12134,2,0,P|323:280|370:288,1,80,10|8,0:1|0:0,0:0:0:0:
138,373,12468,1,10,0:1:0:0:
138,373,12634,2,0,P|60:384|-2:315,2,160,2|8|10,0:0|0:0|0:1,0:0:0:0:
190,235,13468,1,8,0:1:0:0:
48,148,13634,2,0,P|54:192|59:234,1,80,8|0,0:0|0:0,0:0:0:0:
274,30,13968,6,0,P|194:23|144:82,1,160,14|8,0:1|0:0,0:0:0:0:
58,227,14468,1,0,0:0:0:0:
219,156,14634,2,0,P|259:162|306:172,1,80,8|8,0:1|0:1,0:0:0:0:
373,232,14968,2,0,P|379:270|357:312,1,80,8|0,0:0|0:0,0:0:0:0:
288,378,15301,5,14,0:1:0:0:
480,285,15468,1,0,0:0:0:0:
297,170,15634,1,8,0:0:0:0:
480,285,15968,5,8,0:3:0:0:
385,228,16134,1,8,0:1:0:0:
365,223,16217,1,8,0:0:0:0:
346,221,16300,1,8,0:1:0:0:
326,222,16384,1,8,0:0:0:0:
306,227,16467,1,8,0:0:0:0:
288,235,16550,1,8,0:0:0:0:
271,246,16634,6,0,P|211:261|169:208,2,128,14|8|10,0:1|0:0|0:1,0:0:0:0:
408,41,17634,1,10,0:0:0:0:
408,41,17801,2,0,P|348:26|306:79,1,128,10|8,0:1|0:1,0:0:0:0:
345,150,18301,1,8,0:0:0:0:
345,150,18634,2,0,P|384:142|424:134,2,64,0|10|10,0:0|0:1|0:0,0:0:0:0:
276,222,19134,1,2,0:0:0:0:
156,42,19301,6,0,P|114:37|46:101,2,128,8|8|10,0:1|0:0|0:1,0:0:0:0:
205,115,20134,1,0,0:0:0:0:
205,115,20301,1,10,0:0:0:0:
175,199,20468,2,0,P|166:235|157:271,1,64,10|0,0:1|0:0,0:0:0:0:
278,182,20801,2,0,P|314:191|350:200,1,64,10|8,0:1|0:0,0:0:0:0:
362,206,21134,2,0,P|321:213|313:289,1,128,2|10,0:0|0:1,0:0:0:0:
362,357,21634,1,8,0:0:0:0:
488,274,21801,5,10,0:1:0:0:
488,274,21968,2,0,P|486:218|468:140,2,128,8|8|8,0:1|0:0|0:1,0:0:0:0:
299,167,22968,1,8,0:0:0:0:
299,167,23135,2,0,P|301:111|319:33,1,128,8|8,0:1|0:1,0:0:0:0:
244,0,23634,1,8,0:0:0:0:
244,0,23968,2,0,L|166:11,2,64,0|10|10,0:0|0:1|0:0,0:0:0:0:
316,40,24468,1,2,0:0:0:0:
442,3,24634,6,0,P|478:10|489:97,1,128,8|8,0:1|0:0,0:0:0:0:
396,166,25134,2,0,P|335:145|267:143,1,128,8|8,0:1|0:1,0:0:0:0:
212,209,25634,1,10,0:0:0:0:
212,209,25801,2,0,P|218:240|227:274,1,64,2|8,0:0|0:1,0:0:0:0:
306,309,26134,2,0,P|337:302|371:294,1,64,10|8,0:1|0:0,0:0:0:0:
175,384,26468,2,0,P|135:354|39:365,1,128,10|10,0:1|0:1,0:0:0:0:
5,290,26968,1,8,0:0:0:0:
28,210,27134,1,8,0:1:0:0:
48,129,27301,6,0,P|47:71|25:-3,2,128,14|8|10,0:1|0:0|0:1,0:0:0:0:
135,187,28134,1,8,0:1:0:0:
135,187,28301,1,10,0:0:0:0:
216,136,28468,2,0,B|276:126|280:171|349:158,1,128,10|8,0:1|0:1,0:0:0:0:
410,109,28968,1,8,0:0:0:0:
410,109,29301,2,0,P|404:60|394:35,2,64,8|10|10,0:1|0:1|0:0,0:0:0:0:
471,182,29801,1,2,0:0:0:0:
392,283,29968,6,0,P|424:273|470:351,2,128,8|8|2,0:1|0:0|0:0,0:0:0:0:
332,354,30801,1,8,0:1:0:0:
332,354,30968,1,10,0:0:0:0:
248,308,31134,2,0,P|239:252|251:177,1,128,10|10,0:1|0:1,0:0:0:0:
188,116,31634,1,8,0:0:0:0:
188,116,31801,2,0,L|61:135,1,128,2|8,0:0|0:1,0:0:0:0:
0,202,32301,1,10,0:0:0:0:
0,202,32634,6,0,P|61:199|85:256,1,128,10|8,0:1|0:0,0:0:0:0:
159,337,33134,2,0,P|197:342|289:299,1,128,2|0,0:0|0:0,0:0:0:0:
335,238,33634,1,8,0:0:0:0:
335,238,33801,2,0,P|330:169|325:95,1,128,8|8,0:1|0:1,0:0:0:0:
398,44,34301,1,8,0:0:0:0:
398,44,34634,2,0,P|437:46|471:64,2,64,8|8|8,0:1|0:1|0:0,0:0:0:0:
326,110,35134,1,0,0:0:0:0:
190,13,35301,6,0,P|150:7|116:83,1,128,10|8,0:1|0:0,0:0:0:0:
44,122,35801,2,0,P|33:166|80:236,1,128,10|8,0:1|0:1,0:0:0:0:
136,292,36301,2,0,P|169:276|211:274,1,64,10|0,0:0|0:0,0:0:0:0:
319,345,36634,1,8,0:1:0:0:
319,345,36801,1,8,0:1:0:0:
272,258,36968,1,10,0:0:0:0:
310,171,37134,1,8,0:1:0:0:
319,345,37301,5,6,0:0:0:0:
398,264,37468,1,8,0:0:0:0:
411,255,37551,1,8,0:0:0:0:
426,249,37634,1,8,0:3:0:0:
441,245,37718,1,8,0:1:0:0:
457,243,37801,1,8,0:0:0:0:
473,245,37884,1,8,0:1:0:0:
487,252,37968,6,0,P|481:308|492:380,2,128,14|8|10,0:1|0:0|0:1,0:0:0:0:
389,82,38968,1,10,0:0:0:0:
389,82,39134,2,0,P|341:68|306:135,1,128,10|8,0:1|0:1,0:0:0:0:
258,196,39634,1,8,0:0:0:0:
258,196,39968,2,0,P|210:190|185:187,2,64,0|10|10,0:0|0:1|0:0,0:0:0:0:
315,266,40468,1,2,0:0:0:0:
179,372,40634,6,0,P|139:377|61:329,2,128,8|8|10,0:1|0:0|0:1,0:0:0:0:
241,314,41468,1,0,0:0:0:0:
241,314,41634,1,10,0:0:0:0:
188,249,41801,2,0,P|154:236|113:240,1,64,10|0,0:1|0:0,0:0:0:0:
70,177,42134,2,0,P|63:134|58:103,1,64,10|8,0:1|0:0,0:0:0:0:
56,88,42468,2,0,P|102:101|124:38,1,128,2|10,0:0|0:1,0:0:0:0:
199,6,42968,2,0,P|231:3|267:18,1,64,8|10,0:0|0:1,0:0:0:0:
379,47,43301,6,0,P|443:38|510:27,2,128,8|8|8,0:1|0:0|0:1,0:0:0:0:
237,207,44301,1,8,0:0:0:0:
237,207,44468,2,0,P|173:216|106:227,1,128,8|8,0:1|0:1,0:0:0:0:
42,175,44968,1,8,0:0:0:0:
42,175,45301,2,0,P|32:126|43:95,2,64,0|10|10,0:0|0:1|0:0,0:0:0:0:
110,226,45801,1,2,0:0:0:0:
0,361,45968,6,0,P|28:330|128:329,1,128,8|8,0:1|0:0,0:0:0:0:
197,368,46468,2,0,P|254:362|338:353,1,128,8|8,0:1|0:1,0:0:0:0:
387,295,46968,1,10,0:0:0:0:
387,295,47134,2,0,P|380:241|371:219,1,64,2|8,0:0|0:1,0:0:0:0:
301,184,47468,2,0,P|262:191|215:199,1,64,10|8,0:1|0:0,0:0:0:0:
88,84,47801,2,0,P|137:81|147:162,1,128,10|8,0:1|0:1,0:0:0:0:
42,310,48301,1,10,0:0:0:0:
0,185,48468,1,8,0:3:0:0:
173,282,48634,6,0,P|248:281|334:228,1,143.999995605469,14|8,0:1|0:0,0:0:0:0:
485,52,49134,2,0,P|420:21|348:21,1,143.999995605469,14|0,0:1|0:0,0:0:0:0:
267,78,49634,1,8,0:0:0:0:
267,78,49968,2,0,P|261:22|257:-10,1,71.9999978027344,14|0,0:1|0:0,0:0:0:0:
437,149,50301,1,10,0:0:0:0:
281,266,50468,2,0,P|225:266|167:216,1,107.999996704102,14|0,0:1|0:0,0:0:0:0:
170,242,50801,2,0,P|166:205|161:153,1,71.9999978027344,10|8,0:1|0:0,0:0:0:0:
94,111,51134,1,2,0:0:0:0:
275,62,51301,5,14,0:1:0:0:
184,85,51468,1,8,0:1:0:0:
94,111,51634,2,0,P|48:106|3:85,1,71.9999978027344,10|14,0:0|0:1,0:0:0:0:
170,242,51968,2,0,P|176:291|181:330,1,71.9999978027344,2|0,0:0|0:0,0:0:0:0:
262,369,52301,2,0,B|346:375|323:323|414:339,1,143.999995605469,10|14,0:0|0:1,0:0:0:0:
398,336,52968,6,0,P|409:272|392:240,1,71.9999978027344,10|14,0:0|0:1,0:0:0:0:
204,143,53301,2,0,P|193:207|210:239,1,71.9999978027344,2|8,0:0|0:1,0:0:0:0:
331,139,53634,1,8,0:0:0:0:
329,121,53717,1,8,0:0:0:0:
328,103,53800,1,8,0:0:0:0:
327,85,53884,1,8,0:0:0:0:
326,67,53968,6,0,P|397:32|446:33,1,128,14|8,0:1|0:0,0:0:0:0:
483,182,54468,2,0,P|412:217|363:216,1,128,8|0,0:1|0:0,0:0:0:0:
261,149,54968,2,0,P|206:159|181:164,1,64,10|0,0:0|0:0,0:0:0:0:
81,2,55301,5,10,0:1:0:0:
81,2,55468,1,8,0:1:0:0:
153,72,55634,1,10,0:0:0:0:
86,145,55801,2,0,P|77:205|86:278,1,128,10|8,0:1|0:1,0:0:0:0:
158,335,56301,2,0,L|229:324,1,64,10|8,0:0|0:1,0:0:0:0:
476,363,56634,6,0,P|415:368|400:307,1,128,14|8,0:1|0:0,0:0:0:0:
451,199,57134,2,0,P|458:132|439:54,1,128,8|8,0:1|0:1,0:0:0:0:
310,15,57634,1,10,0:0:0:0:
334,147,57801,1,2,0:0:0:0:
204,89,57968,6,0,P|161:93|117:98,1,64,8|8,0:1|0:1,0:0:0:0:
310,15,58301,1,8,0:0:0:0:
232,206,58468,1,8,0:1:0:0:
180,68,58634,5,8,0:3:0:0:
357,161,58801,1,8,0:1:0:0:
157,291,58968,1,8,0:0:0:0:
230,170,59134,1,4,0:3:0:0:
339,343,59301,6,0,P|393:352|448:275,1,143.999995605469,14|8,0:1|0:0,0:0:0:0:
338,185,59801,1,0,0:0:0:0:
485,94,59968,2,0,P|476:150|481:184,1,71.9999978027344,10|0,0:1|0:0,0:0:0:0:
277,91,60301,1,10,0:0:0:0:
230,170,60468,2,0,P|245:232|238:329,1,143.999995605469,10|8,0:1|0:1,0:0:0:0:
37,383,60968,2,0,P|29:352|33:303,1,71.9999978027344,10|0,0:0|0:0,0:0:0:0:
86,247,61301,2,0,P|130:253|170:259,1,71.9999978027344,10|0,0:1|0:0,0:0:0:0:
277,91,61634,2,0,P|233:85|193:79,1,71.9999978027344,10|0,0:0|0:0,0:0:0:0:
1,25,61968,6,0,P|29:73|116:55,1,143.999995605469,10|10,0:1|0:0,0:0:0:0:
264,217,62468,2,0,P|197:201|156:256,1,143.999995605469,2|0,0:0|0:0,0:0:0:0:
220,384,62968,1,10,0:0:0:0:
264,217,63134,1,10,0:1:0:0:
117,362,63301,2,0,P|62:355|30:324,1,71.9999978027344,0|8,0:0|0:1,0:0:0:0:
51,163,63634,2,0,P|83:147|118:147,1,71.9999978027344,8|0,0:0|0:0,0:0:0:0:
276,313,63968,2,0,P|332:324|386:247,1,143.999995605469,8|10,0:1|0:0,0:0:0:0:
471,133,64468,5,0,0:0:0:0:
471,133,64551,1,0,0:0:0:0:
471,133,64634,2,0,P|408:143|323:156,1,143.999995605469,14|8,0:1|0:0,0:0:0:0:
92,9,65134,2,0,P|160:4|215:67,1,143.999995605469,10|8,0:1|0:1,0:0:0:0:
117,254,65634,2,0,P|100:211|105:164,1,71.9999978027344,10|0,0:0|0:0,0:0:0:0:
230,187,65968,5,14,0:1:0:0:
230,187,66134,1,8,0:1:0:0:
275,268,66301,2,0,P|268:328|265:355,1,71.9999978027344,8|8,0:0|0:1,0:0:0:0:
12,187,66634,6,0,P|17:138|40:113,1,71.9999978027344,2|8,0:0|0:1,0:0:0:0:
58,48,66884,2,0,P|92:43|137:32,1,71.9999978027344,2|0,0:0|0:0,0:0:0:0:
187,83,67134,1,2,0:0:0:0:
131,162,67301,5,10,0:0:0:0:
330,65,67468,1,8,0:1:0:0:
346,298,67634,1,8,0:1:0:0:
187,83,67801,5,8,0:0:0:0:
397,178,67968,1,10,0:1:0:0:
222,337,68134,1,8,0:1:0:0:
265,132,68301,5,10,0:0:0:0:
397,384,68468,1,10,0:1:0:0:
512,138,68634,6,0,P|491:146|448:153,1,40,8|0,0:0|0:0,0:0:0:0:
279,251,68801,2,0,P|298:255|316:263,1,40,8|0,0:1|0:0,0:0:0:0:
478,355,68968,2,0,P|490:309|471:257,1,80,10|0,0:0|0:0,0:0:0:0:
367,88,69301,5,10,0:1:0:0:
173,264,69468,1,8,0:1:0:0:
148,273,69551,1,8,0:0:0:0:
121,275,69634,1,8,0:0:0:0:
95,269,69717,1,8,0:0:0:0:
72,257,69801,1,8,0:0:0:0:
53,238,69884,1,8,0:0:0:0:
41,214,69968,6,0,B|17:163|33:119|33:119|68:88,1,132.00000402832,14|0,0:1|0:0,0:0:0:0:
119,48,70301,2,0,P|161:54|214:68,1,88.000002685547,8|0,0:2|0:0,0:0:0:0:
438,171,70634,2,0,P|445:91|383:22,1,176.000005371094,8|10,0:1|0:2,0:0:0:0:
307,57,71134,1,0,0:0:0:0:
427,267,71301,6,0,P|470:254|530:246,1,88.000002685547,10|0,0:1|0:0,0:0:0:0:
260,151,71634,2,0,P|252:194|240:236,1,88.000002685547,8|0,0:0|0:0,0:0:0:0:
92,354,71968,2,0,P|43:350|7:322,1,88.000002685547,10|0,0:1|0:0,0:0:0:0:
72,138,72301,2,0,P|121:142|157:170,1,88.000002685547,10|0,0:0|0:0,0:0:0:0:
283,324,72634,6,0,B|310:314|310:314|332:318|347:327|347:327|371:313|411:320,1,132.00000402832,8|0,0:1|0:0,0:0:0:0:
468,267,72968,2,0,P|475:227|466:172,1,88.000002685547,10|0,0:0|0:0,0:0:0:0:
292,31,73301,2,0,P|234:66|243:121,1,132.00000402832,10|0,0:1|0:0,0:0:0:0:
289,182,73634,2,0,P|340:179|384:146,1,88.000002685547,10|8,0:0|0:1,0:0:0:0:
212,49,73968,6,0,P|149:41|54:115,1,176.000005371094,0|10,0:0|0:0,0:0:0:0:
25,194,74468,1,0,0:0:0:0:
218,353,74634,2,0,P|215:311|185:260,1,88.000002685547,10|8,0:1|0:1,0:0:0:0:
127,195,74968,1,10,0:0:0:0:
301,266,75134,1,2,0:0:0:0:
131,382,75301,6,0,P|70:384|18:336,1,132.00000402832,14|0,0:1|0:0,0:0:0:0:
46,268,75634,2,0,P|38:217|43:177,1,88.000002685547,8|0,0:0|0:0,0:0:0:0:
130,42,75968,2,0,B|167:3|226:23|226:23|249:63|313:52,1,176.000005371094,8|10,0:1|0:0,0:0:0:0:
369,5,76468,1,8,0:1:0:0:
505,159,76634,6,0,P|461:140|397:142,1,88.000002685547,2|8,0:0|0:1,0:0:0:0:
252,332,76968,2,0,P|295:328|335:310,1,88.000002685547,8|0,0:0|0:0,0:0:0:0:
194,118,77301,2,0,P|147:150|158:221,1,132.00000402832,10|0,0:1|0:0,0:0:0:0:
226,248,77634,2,0,P|265:229|309:226,1,88.000002685547,10|0,0:0|0:0,0:0:0:0:
431,3,77968,5,8,0:1:0:0:
291,107,78134,1,8,0:1:0:0:
425,232,78301,2,0,P|417:289|427:368,1,132.00000402832,10|0,0:0|0:0,0:0:0:0:
352,384,78634,2,0,P|297:374|242:379,1,88.000002685547,10|0,0:1|0:0,0:0:0:0:
205,299,78968,1,10,0:0:0:0:
323,123,79134,5,2,0:0:0:0:
323,123,79218,1,2,0:0:0:0:
323,123,79301,1,10,0:1:0:0:
189,324,79468,1,10,0:1:0:0:
124,94,79634,1,10,0:0:0:0:
242,208,79801,1,8,0:1:0:0:
0,256,79968,5,4,0:0:0:0:
170,181,80134,1,10,0:0:0:0:
170,181,80217,1,8,0:0:0:0:
170,181,80301,2,0,P|204:186|223:197,1,44.0000013427735,10|8,0:3|0:1,0:0:0:0:
282,136,80468,5,10,0:3:0:0:
282,136,80551,1,8,0:1:0:0:
282,136,80635,2,0,P|284:79|217:23,1,132.00000402832,14|0,0:1|0:0,0:0:0:0:
166,68,80968,2,0,P|118:66|74:82,1,88.000002685547,8|0,0:0|0:0,0:0:0:0:
269,257,81301,2,0,P|369:247|435:178,1,176.000005371094,8|10,0:1|0:0,0:0:0:0:
456,120,81801,1,8,0:1:0:0:
384,362,81968,6,0,P|376:296|364:263,1,88.000002685547,2|8,0:0|0:1,0:0:0:0:
191,144,82301,2,0,P|179:186|176:230,1,88.000002685547,8|0,0:0|0:0,0:0:0:0:
78,311,82634,2,0,P|30:302|-9:268,1,88.000002685547,10|0,0:1|0:0,0:0:0:0:
224,45,82968,2,0,P|272:54|311:88,1,88.000002685547,10|0,0:0|0:0,0:0:0:0:
483,239,83301,6,0,B|452:229|452:229|388:232|365:284,1,132.00000402832,8|0,0:1|0:0,0:0:0:0:
294,259,83634,2,0,P|280:218|287:170,1,88.000002685547,10|0,0:0|0:0,0:0:0:0:
111,24,83968,2,0,P|121:76|120:130,1,88.000002685547,10|0,0:1|0:0,0:0:0:0:
176,249,84301,1,10,0:0:0:0:
15,148,84468,1,10,0:1:0:0:
208,22,84634,6,0,L|295:30,1,88.000002685547,0|8,0:0|0:1,0:0:0:0:
471,233,84968,2,0,L|383:224,1,88.000002685547,8|0,0:0|0:0,0:0:0:0:
288,288,85301,5,10,0:1:0:0:
463,89,85468,1,8,0:0:0:0:
391,355,85634,1,10,0:1:0:0:
338,96,85801,1,10,0:0:0:0:
503,218,85968,6,0,B|435:209|446:259|352:245,1,143.999995605469,14|2,0:1|0:0,0:0:0:0:
197,179,86468,1,0,0:0:0:0:
136,239,86634,2,0,P|127:284|143:383,1,143.999995605469,8|0,0:0|0:0,0:0:0:0:
274,249,87134,2,0,P|289:179|279:108,2,143.999995605469,8|8|8,0:1|0:1|0:1,0:0:0:0:
81,317,87968,1,8,0:0:0:0:
81,317,88134,1,0,0:0:0:0:
17,254,88301,2,0,P|14:216|29:162,1,71.9999978027344
163,24,88634,5,14,0:1:0:0:
93,99,88801,1,0,0:0:0:0:
170,164,88968,1,0,0:0:0:0:
237,96,89134,1,8,0:1:0:0:
237,96,89301,2,0,P|281:101|315:108,1,71.9999978027344,8|8,0:0|0:1,0:0:0:0:
468,46,89634,6,0,P|423:28|364:42,1,80,2|8,0:0|0:1,0:0:0:0:
241,247,89968,2,0,P|286:265|345:251,1,80,10|8,0:1|0:1,0:0:0:0:
468,367,90301,6,0,P|473:325|483:268,1,80,2|8,0:0|0:1,0:0:0:0:
333,81,90634,1,10,0:0:0:0:
165,199,90801,1,8,0:1:0:0:
139,205,90884,1,8,0:0:0:0:
112,205,90967,1,10,0:0:0:0:
86,199,91050,1,8,0:0:0:0:
63,186,91134,1,8,0:0:0:0:
43,169,91217,1,8,0:0:0:0:
27,147,91300,1,14,0:1:0:0:
256,192,91384,12,14,93801,0:1:0:0:
128,160,105968,5,14,0:1:0:0:
256,256,106134,1,0,0:0:0:0:
192,96,106301,1,8,0:0:0:0:
192,320,106468,1,0,0:0:0:0:
320,192,106634,5,8,0:3:0:0:
192,96,106801,1,8,0:1:0:0:
178,93,106884,1,8,0:0:0:0:
165,91,106967,1,8,0:1:0:0:
152,88,107050,1,8,0:0:0:0:
139,86,107134,1,8,0:0:0:0:
126,84,107217,1,8,0:0:0:0:
113,81,107301,6,0,P|54:86|14:14,2,128,14|8|10,0:1|0:0|0:1,0:0:0:0:
221,18,108134,1,0,0:0:0:0:
221,18,108301,1,10,0:0:0:0:
281,109,108468,2,0,P|275:167|266:249,1,128,10|8,0:1|0:1,0:0:0:0:
397,343,108968,2,0,P|389:299|374:278,1,64,8|0,0:0|0:0,0:0:0:0:
267,236,109301,1,0,0:0:0:0:
375,194,109468,1,10,0:1:0:0:
282,348,109634,1,10,0:0:0:0:
282,348,109801,1,2,0:0:0:0:
126,283,109968,6,0,P|76:281|10:338,2,128,8|8|10,0:1|0:0|0:1,0:0:0:0:
188,202,110801,1,0,0:0:0:0:
188,202,110968,1,10,0:0:0:0:
104,138,111134,2,0,L|31:147,1,64,10|0,0:1|0:0,0:0:0:0:
162,63,111468,2,0,L|153:-10,1,64,10|8,0:1|0:0,0:0:0:0:
237,121,111801,2,0,P|297:104|366:102,1,128,2|10,0:0|0:1,0:0:0:0:
487,208,112301,1,8,0:0:0:0:
449,104,112468,1,10,0:1:0:0:
449,104,112634,6,0,P|459:59|410:-1,2,128,8|8|8,0:1|0:0|0:1,0:0:0:0:
325,202,113634,1,8,0:0:0:0:
325,202,113801,2,0,P|292:256|317:330,1,128,8|8,0:1|0:1,0:0:0:0:
376,384,114301,1,8,0:0:0:0:
376,384,114468,1,0,0:0:0:0:
460,325,114634,1,0,0:0:0:0:
386,249,114801,1,10,0:1:0:0:
305,316,114968,2,0,P|258:324|218:334,1,64,10|2,0:0|0:0,0:0:0:0:
62,342,115301,6,0,P|111:340|136:262,1,128,8|8,0:1|0:0,0:0:0:0:
76,214,115801,1,8,0:1:0:0:
76,214,115968,2,0,P|32:208|-6:193,1,64,2|8,0:0|0:1,0:0:0:0:
139,75,116301,1,10,0:0:0:0:
139,75,116468,2,0,P|183:81|221:96,1,64,2|8,0:0|0:1,0:0:0:0:
296,67,116801,2,0,P|310:31|299:-4,1,64,10|8,0:1|0:0,0:0:0:0:
45,108,117134,2,0,P|31:144|86:217,1,128,10|8,0:1|0:1,0:0:0:0:
146,266,117634,2,0,P|184:250|222:247,1,64,10|8,0:0|0:3,0:0:0:0:
398,378,117968,6,0,P|428:332|403:229,1,143.999995605469,14|8,0:1|0:0,0:0:0:0:
205,24,118468,2,0,P|190:93|224:155,1,143.999995605469,14|0,0:1|0:0,0:0:0:0:
319,210,118968,1,8,0:0:0:0:
319,210,119301,2,0,P|326:161|331:127,1,71.9999978027344,14|0,0:1|0:0,0:0:0:0:
183,253,119634,1,10,0:0:0:0:
335,350,119801,2,0,P|340:310|323:345,1,107.999996704102,14|0,0:1|0:0,0:0:0:0:
335,350,120134,2,0,P|387:358|463:302,1,143.999995605469,10|2,0:1|0:0,0:0:0:0:
402,205,120634,5,14,0:1:0:0:
422,114,120801,1,8,0:1:0:0:
438,22,120968,2,0,P|482:15|513:9,1,71.9999978027344,10|14,0:0|0:1,0:0:0:0:
329,140,121301,2,0,P|288:133|255:116,1,71.9999978027344,2|0,0:0|0:0,0:0:0:0:
157,35,121634,2,0,P|106:26|41:98,1,143.999995605469,10|14,0:0|0:1,0:0:0:0:
43,84,122301,6,0,P|49:122|55:161,1,71.9999978027344,10|14,0:0|0:1,0:0:0:0:
272,284,122634,2,0,P|266:246|260:207,1,71.9999978027344,2|8,0:0|0:1,0:0:0:0:
6,281,122968,1,8,0:0:0:0:
22,259,123051,1,8,0:0:0:0:
45,245,123134,1,8,0:0:0:0:
71,240,123217,1,8,0:0:0:0:
98,245,123301,6,0,P|109:311|105:379,1,128,14|8,0:1|0:0,0:0:0:0:
256,360,123801,2,0,P|245:297|247:233,1,128,8|0,0:1|0:0,0:0:0:0:
315,166,124301,2,0,P|350:171|384:189,1,64,10|0,0:0|0:0,0:0:0:0:
477,33,124634,5,10,0:1:0:0:
477,33,124801,1,8,0:1:0:0:
389,98,124968,1,10,0:0:0:0:
296,47,125134,2,0,B|225:42|248:77|151:66,1,128,10|8,0:1|0:1,0:0:0:0:
101,132,125634,2,0,P|94:175|106:204,1,64,10|8,0:0|0:1,0:0:0:0:
5,345,125968,6,0,P|28:309|122:310,1,128,14|8,0:1|0:0,0:0:0:0:
292,379,126468,1,10,0:1:0:0:
254,299,126634,2,0,P|246:237|258:155,1,128,2|10,0:0|0:0,0:0:0:0:
329,123,127134,1,2,0:0:0:0:
138,177,127301,5,8,0:1:0:0:
348,236,127468,1,8,0:1:0:0:
160,67,127634,1,8,0:0:0:0:
253,172,127801,1,8,0:1:0:0:
376,17,127968,5,8,0:3:0:0:
255,80,128134,1,8,0:1:0:0:
420,243,128301,1,8,0:0:0:0:
391,114,128468,1,4,0:3:0:0:
188,273,128634,6,0,P|127:277|55:231,1,143.999995605469,14|8,0:1|0:0,0:0:0:0:
147,166,129134,1,0,0:0:0:0:
234,362,129301,2,0,P|270:353|311:352,1,71.9999978027344,10|0,0:1|0:0,0:0:0:0:
461,245,129634,1,10,0:0:0:0:
410,174,129801,2,0,P|353:180|334:262,1,143.999995605469,10|8,0:1|0:1,0:0:0:0:
489,128,130301,2,0,P|500:92|486:48,1,71.9999978027344,10|0,0:0|0:0,0:0:0:0:
330,254,130634,2,0,P|319:290|333:334,1,71.9999978027344,10|0,0:1|0:0,0:0:0:0:
251,378,130968,2,0,P|207:373|172:370,1,71.9999978027344,10|0,0:0|0:0,0:0:0:0:
58,334,131301,6,0,B|40:259|83:281|60:186,1,143.999995605469,10|10,0:1|0:0,0:0:0:0:
172,15,131801,2,0,P|118:36|138:122,1,143.999995605469,2|0,0:0|0:0,0:0:0:0:
228,208,132301,1,10,0:0:0:0:
277,60,132468,1,10,0:1:0:0:
228,208,132634,2,0,P|271:200|317:192,1,71.9999978027344,0|8,0:0|0:1,0:0:0:0:
473,22,132968,2,0,P|430:30|384:38,1,71.9999978027344,8|0,0:0|0:0,0:0:0:0:
377,123,133301,2,0,P|387:160|418:274,1,143.999995605469,8|10,0:1|0:0,0:0:0:0:
490,176,133801,1,0,0:0:0:0:
341,318,133968,6,0,P|288:324|231:251,1,143.999995605469,14|8,0:1|0:0,0:0:0:0:
87,51,134468,2,0,P|117:97|133:197,1,143.999995605469,10|8,0:1|0:1,0:0:0:0:
1,308,134968,2,0,P|34:277|70:271,1,71.9999978027344,10|0,0:0|0:0,0:0:0:0:
224,384,135301,5,14,0:1:0:0:
224,384,135468,1,8,0:1:0:0:
233,287,135634,2,0,L|241:202,1,71.9999978027344,8|8,0:0|0:1,0:0:0:0:
450,63,135968,6,0,P|455:97|462:147,1,71.9999978027344,2|8,0:0|0:1,0:0:0:0:
411,194,136218,2,0,P|353:186|334:166,1,71.9999978027344,2|0,0:0|0:0,0:0:0:0:
304,112,136468,1,2,0:0:0:0:
105,200,136634,5,10,0:0:0:0:
283,345,136801,1,8,0:1:0:0:
304,112,136968,1,8,0:1:0:0:
147,309,137134,5,8,0:0:0:0:
195,84,137301,1,10,0:1:0:0:
363,243,137468,1,8,0:1:0:0:
105,200,137634,5,10,0:0:0:0:
333,94,137801,1,10,0:1:0:0:
38,26,137968,2,0,L|78:37,1,35.9999989013672,8|0,0:0|0:0,0:0:0:0:
229,74,138134,2,0,L|189:85,1,35.9999989013672,8|0,0:1|0:0,0:0:0:0:
19,182,138301,2,0,L|103:145,1,71.9999978027344,10|8,0:0|0:1,0:0:0:0:
212,377,138634,5,14,0:1:0:0:
92,293,138801,1,8,0:1:0:0:
108,275,138884,1,8,0:0:0:0:
127,261,138967,1,8,0:0:0:0:
149,251,139051,1,8,0:0:0:0:
172,245,139134,1,8,0:0:0:0:
196,244,139217,1,8,0:0:0:0:
220,247,139301,6,0,B|248:244|248:244|268:253|281:266|281:266|307:259|344:276,1,132.00000402832,14|0,0:1|0:0,0:0:0:0:
414,300,139634,2,0,P|407:360|391:393,1,88.000002685547,8|0,0:2|0:0,0:0:0:0:
207,165,139968,2,0,P|185:102|218:-7,1,176.000005371094,8|10,0:1|0:2,0:0:0:0:
284,43,140468,1,0,0:0:0:0:
99,177,140634,6,0,P|57:170|3:178,1,88.000002685547,10|0,0:1|0:0,0:0:0:0:
177,357,140968,2,0,P|211:329|237:294,1,88.000002685547,8|0,0:0|0:0,0:0:0:0:
345,139,141301,2,0,P|358:180|366:224,1,88.000002685547,10|0,0:1|0:0,0:0:0:0:
161,85,141634,2,0,P|147:43|139:0,1,88.000002685547,10|0,0:0|0:0,0:0:0:0:
282,42,141968,6,0,P|329:9|419:22,1,132.00000402832,8|0,0:1|0:0,0:0:0:0:
465,55,142301,2,0,P|475:97|467:142,1,88.000002685547,10|0,0:0|0:0,0:0:0:0:
301,361,142634,2,0,B|270:313|294:262|294:262|324:288,1,132.00000402832,10|0,0:1|0:0,0:0:0:0:
383,315,142968,2,0,P|434:309|478:293,1,88.000002685547,10|8,0:0|0:1,0:0:0:0:
220,229,143301,6,0,B|130:222|145:274|35:266,1,176.000005371094,0|10,0:0|0:0,0:0:0:0:
0,199,143801,1,0,0:0:0:0:
129,43,143968,2,0,P|136:96|131:135,1,88.000002685547,10|8,0:1|0:1,0:0:0:0:
229,0,144301,1,10,0:0:0:0:
30,90,144468,1,2,0:0:0:0:
223,197,144634,6,0,B|266:186|266:186|306:196|306:196|374:186,1,132.00000402832,14|0,0:1|0:0,0:0:0:0:
419,226,144968,2,0,P|425:278|413:321,1,88.000002685547,8|0,0:0|0:0,0:0:0:0:
266,374,145301,2,0,P|164:382|97:328,1,176.000005371094,8|10,0:1|0:0,0:0:0:0:
26,384,145801,1,8,0:1:0:0:
23,167,145968,6,0,P|3:235|2:268,1,88.000002685547,2|8,0:0|0:1,0:0:0:0:
207,176,146301,2,0,P|201:132|185:91,1,88.000002685547,8|0,0:0|0:0,0:0:0:0:
0,2,146634,2,0,P|2:59|86:47,1,132.00000402832,10|0,0:1|0:0,0:0:0:0:
118,15,146968,2,0,P|158:8|213:-1,1,88.000002685547,10|0,0:0|0:0,0:0:0:0:
297,220,147301,5,8,0:1:0:0:
503,112,147468,1,8,0:1:0:0:
385,21,147634,2,0,B|370:56|370:56|371:80|387:98|387:98|378:152,1,132.00000402832,10|0,0:0|0:0,0:0:0:0:
319,193,147968,2,0,P|271:190|222:168,1,88.000002685547,10|2,0:1|0:0,0:0:0:0:
97,102,148301,1,10,0:0:0:0:
234,175,148468,1,2,0:0:0:0:
126,281,148634,5,8,0:1:0:0:
242,82,148801,1,10,0:1:0:0:
305,310,148968,1,10,0:0:0:0:
97,102,149134,1,8,0:1:0:0:
321,188,149301,5,4,0:0:0:0:
206,384,149468,1,10,0:0:0:0:
206,384,149551,1,8,0:0:0:0:
206,384,149634,2,0,P|195:358|181:331,1,44.0000013427735,10|8,0:3|0:1,0:0:0:0:
169,258,149801,5,10,0:3:0:0:
169,258,149884,1,8,0:1:0:0:
169,258,149968,2,0,B|204:232|247:243|247:243|268:277|301:279,1,132.00000402832,14|0,0:1|0:0,0:0:0:0:
351,240,150301,2,0,P|355:179|341:145,1,88.000002685547,8|0,0:0|0:0,0:0:0:0:
233,37,150634,2,0,P|185:32|91:124,1,176.000005371094,8|10,0:1|0:0,0:0:0:0:
21,40,151134,1,10,0:1:0:0:
160,183,151301,6,0,P|210:180|259:151,1,88.000002685547,2|8,0:0|0:1,0:0:0:0:
418,31,151634,2,0,P|468:34|517:63,1,88.000002685547,8|0,0:0|0:0,0:0:0:0:
377,262,151968,2,0,P|382:219|393:176,1,88.000002685547,10|0,0:1|0:0,0:0:0:0:
207,0,152301,2,0,P|201:43|190:86,1,88.000002685547,10|0,0:0|0:0,0:0:0:0:
11,244,152634,6,0,P|49:207|127:210,1,132.00000402832,8|0,0:1|0:0,0:0:0:0:
164,276,152968,2,0,P|155:319|144:373,1,88.000002685547,10|0,0:0|0:0,0:0:0:0:
284,216,153301,2,0,P|334:201|406:202,1,88.000002685547,10|0,0:1|0:0,0:0:0:0:
305,103,153634,1,10,0:0:0:0:
343,304,153801,1,10,0:1:0:0:
305,103,153968,6,0,L|208:122,1,88.000002685547,0|8,0:0|0:1,0:0:0:0:
59,366,154301,2,0,L|156:347,1,88.000002685547,8|0,0:0|0:0,0:0:0:0:
262,215,154634,1,10,0:1:0:0:
28,120,154801,2,0,L|16:179,1,44.0000013427735,8|8,0:0|0:0,0:0:0:0:
49,239,154968,1,10,0:1:0:0:
218,119,155134,5,10,0:0:0:0:
238,81,155217,1,8,0:0:0:0:
232,38,155301,2,0,P|165:37|71:76,1,143.999995605469,14|2,0:1|0:0,0:0:0:0:
134,147,155801,1,0,0:0:0:0:
326,14,155968,2,0,P|370:5|405:91,1,143.999995605469,8|0,0:0|0:0,0:0:0:0:
383,195,156468,2,0,P|400:259|467:261,2,143.999995605469,8|8|8,0:1|0:1|0:1,0:0:0:0:
306,138,157301,1,8,0:0:0:0:
306,138,157468,1,0,0:0:0:0:
242,208,157634,2,0,P|248:251|253:287,1,71.9999978027344
126,368,157968,5,14,0:1:0:0:
126,368,158134,1,0,0:0:0:0:
51,314,158301,1,0,0:0:0:0:
152,279,158468,1,8,0:1:0:0:
75,215,158634,2,0,P|69:171|62:126,1,71.9999978027344,8|8,0:0|0:1,0:0:0:0:
164,0,158968,2,0,P|158:43|151:88,1,71.9999978027344,2|8,0:0|0:1,0:0:0:0:
291,203,159301,2,0,P|327:198|363:180,1,71.9999978027344,10|8,0:1|0:1,0:0:0:0:
454,27,159635,2,0,L|469:97,1,71.9999978027344,2|8,0:0|0:1,0:0:0:0:
506,254,159968,5,10,0:0:0:0:
329,96,160134,1,8,0:1:0:0:
305,93,160217,1,8,0:0:0:0:
281,95,160300,1,10,0:0:0:0:
258,102,160384,1,8,0:0:0:0:
238,115,160467,1,8,0:0:0:0:
220,131,160550,1,8,0:0:0:0:
206,151,160634,5,14,0:1:0:0:
166,245,160801,1,2,0:0:0:0:
294,180,160968,1,10,0:0:0:0:
179,51,161134,1,2,0:0:0:0:
253,277,161301,1,10,0:1:0:0:
305,93,161468,1,10,0:1:0:0:
113,165,161634,1,10,0:0:0:0:
273,310,161801,6,0,B|329:334|380:279|380:279|315:252,1,160,10|8,0:1|0:1,0:0:0:0:
216,167,162301,1,10,0:0:0:0:
137,293,162468,2,0,L|147:376,1,80,2|10,0:0|0:1,0:0:0:0:
312,174,162801,2,0,L|302:91,1,80,8|10,0:1|0:0,0:0:0:0:
229,39,163134,1,8,0:1:0:0:
17,175,163301,5,10,0:1:0:0:
86,38,163468,1,2,0:0:0:0:
181,193,163634,1,10,0:0:0:0:
0,292,163801,1,2,0:0:0:0:
181,193,163968,1,10,0:1:0:0:
117,377,164134,1,10,0:1:0:0:
17,175,164301,1,10,0:0:0:0:
222,287,164468,6,0,B|250:291|278:278|278:278|300:283|329:296|329:296|346:287|386:291,1,160,10|8,0:1|0:1,0:0:0:0:
243,384,164968,1,10,0:0:0:0:
349,198,165134,2,0,P|352:125|340:30,1,160,2|8,0:0|0:1,0:0:0:0:
256,4,165634,1,10,0:0:0:0:
456,91,165801,5,8,0:1:0:0:
456,91,165884,1,0,0:0:0:0:
456,91,165968,1,14,0:1:0:0:
185,189,166134,1,2,0:0:0:0:
185,189,166301,1,10,0:0:0:0:
443,207,166468,5,2,0:0:0:0:
250,106,166634,1,8,0:1:0:0:
250,106,166801,1,8,0:1:0:0:
437,110,166968,5,10,0:0:0:0:
249,267,167134,1,10,0:1:0:0:
249,267,167301,1,2,0:0:0:0:
453,299,167468,5,10,0:1:0:0:
321,178,167634,1,10,0:0:0:0:
372,371,167801,1,2,0:0:0:0:
431,132,167968,5,10,0:1:0:0:
271,267,168134,1,10,0:1:0:0:
449,336,168301,2,0,P|498:324|523:301,1,80,10|10,0:0|0:1,0:0:0:0:
300,165,168634,5,10,0:1:0:0:
151,255,168801,2,0,L|49:244,1,80,0|10,0:0|0:0,0:0:0:0:
300,165,169134,5,2,0:0:0:0:
94,347,169301,2,0,L|-8:358,1,80,8|8,0:1|0:1,0:0:0:0:
271,267,169634,5,10,0:0:0:0:
129,147,169801,2,0,P|120:108|140:50,1,80,10|0,0:1|0:0,0:0:0:0:
271,267,170134,5,10,0:1:0:0:
233,60,170301,2,0,P|254:26|309:0,1,80,8|0,0:0|0:0,0:0:0:0:
175,236,170634,6,0,P|117:250|65:244,1,80,10|8,0:1|0:1,0:0:0:0:
357,84,170968,2,0,P|396:85|434:97,1,80,10|0,0:0|0:0,0:0:0:0:
353,380,171301,5,10,0:0:0:0:
268,142,171468,1,10,0:1:0:0:
353,380,171634,1,10,0:1:0:0:
430,195,171801,5,10,0:3:0:0:
211,324,171968,1,10,0:1:0:0:
430,195,172134,1,10,0:1:0:0:
161,172,172301,5,10,0:0:0:0:
403,289,172468,1,10,0:1:0:0:
161,172,172634,1,10,0:1:0:0:
206,354,172801,5,10,0:3:0:0:
303,103,172968,1,10,0:1:0:0:
206,354,173134,1,10,0:1:0:0:
133,74,173301,5,10,0:0:0:0:
319,218,173468,1,10,0:1:0:0:
114,327,173634,2,0,P|73:328|22:294,1,80,10|0,0:1|0:0,0:0:0:0:
306,39,173968,5,14,0:0:0:0:
157,234,174134,1,10,0:1:0:0:
382,324,174301,1,10,0:1:0:0:
172,83,174468,5,14,0:0:0:0:
275,340,174634,1,10,0:1:0:0:
444,118,174801,1,10,0:1:0:0:
226,179,174968,5,14,0:0:0:0:
382,324,175134,1,8,0:1:0:0:
132,247,175301,5,10,0:0:0:0:
358,95,175468,1,8,0:1:0:0:
175,335,175634,5,10,0:0:0:0:
224,14,175801,1,8,0:1:0:0:
23,276,175968,5,8,0:1:0:0:
13,258,176051,1,8,0:0:0:0:
6,239,176134,1,8,0:0:0:0:
2,220,176218,1,8,0:0:0:0:
0,200,176301,1,8,0:0:0:0:
2,180,176384,1,8,0:0:0:0:
6,160,176468,1,8,0:0:0:0:
13,142,176551,1,8,0:0:0:0:
22,124,176634,6,0,B|61:111|61:111|101:145|164:138,1,132.00000402832,14|0,0:1|0:0,0:0:0:0:
201,89,176968,2,0,P|204:35|195:0,1,88.000002685547,8|0,0:2|0:0,0:0:0:0:
344,162,177301,2,0,P|293:169|238:278,1,176.000005371094,8|10,0:1|0:2,0:0:0:0:
293,345,177801,1,0,0:0:0:0:
491,201,177968,6,0,P|479:141|456:95,1,88.000002685547,10|0,0:1|0:0,0:0:0:0:
307,0,178301,2,0,P|291:41|284:84,1,88.000002685547,8|0,0:0|0:0,0:0:0:0:
169,160,178634,2,0,P|109:148|63:125,1,88.000002685547,10|0,0:1|0:0,0:0:0:0:
22,333,178968,2,0,P|82:345|128:368,1,88.000002685547,10|0,0:0|0:0,0:0:0:0:
32,238,179301,6,0,B|95:231|90:267|164:260,1,132.00000402832,8|0,0:1|0:0,0:0:0:0:
224,298,179634,2,0,P|235:352|236:389,1,88.000002685547,10|0,0:0|0:0,0:0:0:0:
418,191,179968,2,0,P|367:213|317:158,1,132.00000402832,10|0,0:1|0:0,0:0:0:0:
256,123,180301,2,0,P|259:77|277:26,1,88.000002685547,10|8,0:0|0:1,0:0:0:0:
21,68,180634,6,0,B|51:10|123:30|123:30|124:78|167:95,1,176.000005371094,0|10,0:0|0:0,0:0:0:0:
271,37,181134,1,0,0:0:0:0:
116,303,181301,2,0,P|109:245|105:207,1,88.000002685547,10|8,0:1|0:1,0:0:0:0:
208,356,181634,1,10,0:0:0:0:
3,264,181801,1,2,0:0:0:0:
202,161,181968,6,0,B|247:173|296:144|296:144|267:184,1,132.00000402832,14|0,0:1|0:0,0:0:0:0:
256,243,182301,2,0,P|263:292|266:340,1,88.000002685547,8|0,0:0|0:0,0:0:0:0:
455,178,182634,2,0,P|441:80|435:-16,1,176.000005371094,8|10,0:1|0:0,0:0:0:0:
349,43,183134,1,8,0:1:0:0:
480,295,183301,6,0,P|440:275|397:272,1,88.000002685547,2|8,0:0|0:1,0:0:0:0:
185,145,183634,2,0,P|141:147|102:167,1,88.000002685547,8|0,0:0|0:0,0:0:0:0:
241,380,183968,2,0,P|288:348|277:277,1,132.00000402832,10|0,0:1|0:0,0:0:0:0:
209,250,184301,2,0,P|170:269|126:272,1,88.000002685547,10|0,0:0|0:0,0:0:0:0:
0,53,184634,5,8,0:1:0:0:
102,166,184801,1,8,0:1:0:0:
195,59,184968,2,0,B|240:37|291:42|291:42|335:72,1,132.00000402832,10|0,0:0|0:0,0:0:0:0:
379,105,185301,2,0,P|431:98|474:73,1,88.000002685547,10|0,0:1|0:0,0:0:0:0:
286,207,185634,1,10,0:0:0:0:
384,348,185801,5,2,0:0:0:0:
384,348,185884,1,2,0:0:0:0:
384,348,185968,1,10,0:1:0:0:
167,229,186134,1,10,0:1:0:0:
379,105,186301,1,10,0:0:0:0:
276,320,186468,1,8,0:1:0:0:
389,242,186634,5,4,0:0:0:0:
276,177,186801,1,10,0:0:0:0:
276,177,186884,1,8,0:0:0:0:
276,177,186968,2,0,P|253:185|230:195,1,44.0000013427735,10|8,0:3|0:1,0:0:0:0:
155,180,187134,5,10,0:3:0:0:
155,180,187218,1,8,0:1:0:0:
155,180,187301,2,0,B|128:212|125:247|125:247|135:282|178:314,1,132.00000402832,14|0,0:1|0:0,0:0:0:0:
124,366,187634,2,0,P|81:358|37:343,1,88.000002685547,8|0,0:0|0:0,0:0:0:0:
261,242,187968,2,0,P|317:250|411:331,1,176.000005371094,8|10,0:1|0:0,0:0:0:0:
483,292,188468,1,8,0:1:0:0:
290,73,188634,6,0,P|270:113|278:175,1,88.000002685547,2|8,0:0|0:1,0:0:0:0:
483,292,188968,2,0,P|503:252|495:190,1,88.000002685547,8|0,0:0|0:0,0:0:0:0:
295,339,189301,2,0,P|251:330|210:316,1,88.000002685547,10|0,0:1|0:0,0:0:0:0:
85,85,189634,2,0,P|109:121|128:161,1,88.000002685547,10|0,0:0|0:0,0:0:0:0:
11,320,189968,6,0,B|31:314|49:295|49:295|71:294|93:302|93:302|105:288|128:282,1,132.00000402832,8|0,0:1|0:0,0:0:0:0:
180,226,190301,2,0,P|225:231|278:248,1,88.000002685547,10|0,0:0|0:0,0:0:0:0:
397,97,190634,2,0,L|298:116,1,88.000002685547,10|0,0:1|0:0,0:0:0:0:
450,195,190968,1,10,0:0:0:0:
338,1,191134,1,10,0:1:0:0:
191,202,191301,6,0,P|134:203|92:181,1,88.000002685547,0|8,0:0|0:1,0:0:0:0:
106,12,191634,2,0,P|147:-2|190:1,1,88.000002685547,8|0,0:0|0:0,0:0:0:0:
358,143,191968,1,10,0:1:0:0:
358,143,192134,2,0,L|344:203,1,44.0000013427735,8|8,0:0|0:0,0:0:0:0:
381,270,192301,1,10,0:1:0:0:
179,361,192468,2,0,L|239:347,1,44.0000013427735,10|8,0:0|0:0,0:0:0:0:
295,325,192634,6,0,P|240:318|156:308,1,132.00000402832,6|0,0:0|0:0,0:0:0:0:
93,341,192968,2,0,P|76:285|90:241,1,88.000002685547,10|0,0:0|0:0,0:0:0:0:
0,100,193301,2,0,P|27:156|129:151,1,176.000005371094,8|8,0:1|0:0,0:0:0:0:
233,10,193801,1,8,0:1:0:0:
117,49,193968,2,0,P|78:28|27:-7,1,88.000002685547,0|8,0:0|0:1,0:0:0:0:
309,96,194301,2,0,P|351:83|412:71,1,88.000002685547,8|0,0:0|0:0,0:0:0:0:
494,238,194634,2,0,P|467:201|384:213,1,132.00000402832,10|0,0:1|0:0,0:0:0:0:
325,253,194968,2,0,P|329:300|360:347,1,88.000002685547,10|0,0:0|0:0,0:0:0:0:
459,163,195301,6,0,L|476:59,1,88.000002685547,10|0,0:1|0:0,0:0:0:0:
233,13,195634,2,0,L|218:99,1,88.000002685547,10|0,0:0|0:0,0:0:0:0:
348,335,195968,6,0,P|341:292|331:227,1,88.000002685547,10|0,0:1|0:0,0:0:0:0:
39,129,196301,2,0,P|46:172|56:237,1,88.000002685547,10|8,0:0|0:1,0:0:0:0:
175,370,196634,5,14,0:1:0:0:
262,234,196801,1,8,0:1:0:0:
80,149,196968,1,10,0:0:0:0:
258,60,197135,1,8,0:1:0:0:
147,280,197301,6,0,P|152:253|166:213,1,44.0000013427735,10|0,0:0|0:0,0:0:0:0:
330,92,197468,2,0,P|302:87|262:88,1,44.0000013427735,10|0,0:1|0:0,0:0:0:0:
84,0,197634,2,0,P|95:35|103:58,1,44.0000013427735,10|8,0:0|0:0,0:0:0:0:
170,104,197801,5,10,0:0:0:0:
170,104,197884,1,8,0:0:0:0:
170,104,197968,2,0,B|210:123|251:120|251:120|291:83,1,132.00000402832,14|0,0:1|0:0,0:0:0:0:
346,41,198301,2,0,P|392:50|443:61,1,88.000002685547,8|0,0:2|0:0,0:0:0:0:
512,236,198634,2,0,B|410:219|443:292|315:255,1,176.000005371094,8|10,0:1|0:2,0:0:0:0:
283,200,199134,1,0,0:0:0:0:
79,384,199301,6,0,P|49:333|95:224,1,176.000005371094,10|8,0:1|0:0,0:0:0:0:
186,162,199801,1,0,0:0:0:0:
57,40,199968,2,0,P|69:92|90:132,1,88.000002685547,10|0,0:1|0:0,0:0:0:0:
283,200,200301,2,0,P|337:191|405:181,1,88.000002685547,10|0,0:0|0:0,0:0:0:0:
492,369,200634,6,0,P|446:380|423:301,1,132.00000402832,8|0,0:1|0:0,0:0:0:0:
463,254,200968,2,0,P|464:202|474:159,1,88.000002685547,10|0,0:0|0:0,0:0:0:0:
290,29,201301,2,0,B|257:83|297:127|297:127|330:98,1,132.00000402832,10|0,0:1|0:0,0:0:0:0:
370,57,201634,2,0,P|419:62|458:66,1,88.000002685547,10|8,0:0|0:1,0:0:0:0:
244,223,201968,6,0,P|169:245|90:179,1,176.000005371094,0|10,0:0|0:0,0:0:0:0:
61,112,202468,1,0,0:0:0:0:
143,275,202634,2,0,P|130:321|130:363,1,88.000002685547,10|8,0:1|0:1,0:0:0:0:
225,126,202968,1,10,0:0:0:0:
24,275,203134,1,2,0:0:0:0:
241,382,203301,6,0,P|296:381|362:324,1,132.00000402832,14|0,0:1|0:0,0:0:0:0:
409,282,203634,2,0,P|458:288|499:303,1,88.000002685547,8|0,0:0|0:0,0:0:0:0:
311,162,203968,2,0,P|307:103|248:-8,1,176.000005371094,8|10,0:1|0:0,0:0:0:0:
391,42,204468,1,8,0:1:0:0:
199,186,204634,6,0,L|3:172,1,176.000005371094,2|8,0:0|0:0,0:0:0:0:
76,83,205134,1,0,0:0:0:0:
183,275,205301,2,0,P|225:228|314:245,1,132.00000402832,10|0,0:1|0:0,0:0:0:0:
354,187,205634,2,0,P|357:126|345:87,1,88.000002685547,10|0,0:0|0:0,0:0:0:0:
354,331,205968,5,8,0:1:0:0:
496,215,206135,1,8,0:1:0:0:
350,100,206301,2,0,P|279:105|216:132,1,132.00000402832,10|0,0:0|0:0,0:0:0:0:
157,92,206634,2,0,P|112:83|61:73,1,88.000002685547,10|0,0:1|0:0,0:0:0:0:
235,19,206968,1,10,0:0:0:0:
142,217,207134,1,2,0:0:0:0:
63,85,207301,5,8,0:1:0:0:
133,314,207468,1,2,0:1:0:0:
289,165,207634,1,10,0:0:0:0:
133,314,207801,1,0,0:1:0:0:
0,173,207968,5,4,0:0:0:0:
222,286,208134,1,10,0:0:0:0:
222,286,208218,1,8,0:0:0:0:
222,286,208301,2,0,L|267:269,1,44.0000013427735,10|8,0:3|0:1,0:0:0:0:
341,274,208468,2,0,L|360:230,1,44.0000013427735,10|8,0:3|0:1,0:0:0:0:
436,204,208634,6,0,P|429:145|420:71,1,132.00000402832,14|0,0:1|0:0,0:0:0:0:
357,35,208968,2,0,P|316:52|273:57,1,88.000002685547,8|0,0:0|0:0,0:0:0:0:
35,35,209301,2,0,B|63:5|104:17|104:17|142:72|98:131,1,176.000005371094,8|10,0:1|0:0,0:0:0:0:
19,303,209801,1,8,0:1:0:0:
214,230,209968,6,0,P|150:221|21:208,1,176.000005371094,2|8,0:0|0:0,0:0:0:0:
150,329,210468,1,0,0:0:0:0:
312,204,210634,2,0,P|306:152|293:116,1,88.000002685547,10|0,0:1|0:0,0:0:0:0:
474,318,210968,2,0,P|487:276|491:232,1,88.000002685547,10|0,0:0|0:0,0:0:0:0:
345,384,211301,6,0,P|302:343|205:357,1,132.00000402832,8|0,0:1|0:0,0:0:0:0:
163,379,211634,2,0,P|116:366|65:346,1,88.000002685547,10|0,0:0|0:0,0:0:0:0:
81,120,211968,2,0,P|105:162|126:212,1,88.000002685547,10|0,0:1|0:0,0:0:0:0:
174,43,212301,1,10,0:0:0:0:
7,197,212468,1,10,0:1:0:0:
213,286,212634,6,0,P|267:267|320:260,1,88.000002685547,0|8,0:0|0:1,0:0:0:0:
461,73,212968,1,8,0:0:0:0:
268,168,213134,1,2,0:0:0:0:
461,73,213301,1,10,0:1:0:0:
331,93,213468,2,0,L|384:109,1,44.0000013427735,8|8,0:0|0:0,0:0:0:0:
432,172,213634,1,10,0:1:0:0:
297,261,213801,1,10,0:0:0:0:
158,204,213968,6,0,P|121:206|46:285,1,143.999995605469,14|2,0:1|0:0,0:0:0:0:
189,379,214468,1,0,0:0:0:0:
251,318,214634,2,0,B|319:327|308:277|402:291,1,143.999995605469,8|0,0:0|0:0,0:0:0:0:
434,147,215134,2,0,P|419:58|431:-6,2,143.999995605469,8|8|8,0:1|0:1|0:1,0:0:0:0:
369,214,215968,1,12,0:0:0:0:
369,214,216134,1,0,0:0:0:0:
290,169,216301,2,0,P|240:176|207:189,1,71.9999978027344
43,75,216634,6,0,P|76:133|161:111,1,143.999995605469,14|0,0:1|0:0,0:0:0:0:
222,42,217134,1,8,0:1:0:0:
222,42,217301,1,8,0:0:0:0:
323,92,217468,1,8,0:1:0:0:
418,30,217634,2,0,P|465:18|511:6,1,71.9999978027344,2|8,0:0|0:1,0:0:0:0:
437,173,217968,2,0,P|455:141|473:111,1,71.9999978027344,10|8,0:1|0:1,0:0:0:0:
403,300,218301,2,0,P|384:268|370:232,1,71.9999978027344,2|8,0:0|0:1,0:0:0:0:
320,128,218634,5,10,0:0:0:0:
192,320,218801,1,8,0:0:0:0:
224,160,218968,1,10,0:0:0:0:
288,384,219134,1,8,0:0:0:0:
117,260,219301,6,0,P|104:226|119:113,1,143.999995605469,14|0,0:1|0:0,0:0:0:0:
39,77,219801,1,2,0:0:0:0:
204,1,219968,2,0,P|237:-11|351:3,1,143.999995605469,8|0,0:0|0:0,0:0:0:0:
417,160,220468,2,0,L|409:321,2,143.999995605469,8|8|8,0:1|0:1|0:1,0:0:0:0:
482,95,221301,1,8,0:0:0:0:
482,95,221468,1,0,0:0:0:0:
426,27,221634,2,0,P|383:31|342:63,1,71.9999978027344
153,127,221968,5,14,0:0:0:0:
339,300,222134,1,8,0:1:0:0:
358,44,222301,1,8,0:1:0:0:
213,290,222468,5,8,0:3:0:0:
441,184,222634,1,8,0:1:0:0:
216,37,222801,1,8,0:1:0:0:
469,72,222968,5,8,0:0:0:0:
248,184,223134,1,8,0:1:0:0:
385,31,223301,5,8,0:1:0:0:
317,276,223468,1,8,0:1:0:0:
134,102,223634,2,0,P|141:55|165:1,1,80,8|8,0:0|0:1,0:0:0:0:
0,196,223968,1,8,0:1:0:0:
8,216,224051,1,8,0:0:0:0:
21,235,224134,1,8,0:0:0:0:
40,248,224218,1,8,0:0:0:0:
60,255,224301,1,8,0:0:0:0:
84,257,224384,1,8,0:0:0:0:
105,250,224468,1,8,0:0:0:0:
125,239,224551,1,8,0:0:0:0:
140,223,224634,6,0,P|218:232|303:243,1,160,14|8,0:1|0:0,0:0:0:0:
246,53,225134,2,0,P|237:93|236:132,1,80,2|8,0:0|0:1,0:0:0:0:
339,0,225468,1,8,0:1:0:0:
139,76,225634,1,10,0:0:0:0:
330,197,225801,6,0,P|397:206|440:110,1,160,14|8,0:1|0:1,0:0:0:0:
313,313,226301,2,0,P|271:308|236:285,1,80,10|0,0:0|0:0,0:0:0:0:
378,76,226634,1,8,0:1:0:0:
465,272,226801,1,8,0:1:0:0:
300,179,226968,1,8,0:0:0:0:
453,31,227134,6,0,B|499:9|499:9|542:70|493:115,1,160,14|10,0:1|0:1,0:0:0:0:
300,179,227634,2,0,P|223:165|142:160,1,160,10|10,0:0|0:1,0:0:0:0:
270,275,228134,1,10,0:1:0:0:
204,78,228301,2,0,P|206:41|216:-1,1,80,8|2,0:0|0:0,0:0:0:0:
320,123,228634,5,10,0:1:0:0:
115,27,228801,1,10,0:1:0:0:
187,248,228968,1,10,0:0:0:0:
347,6,229134,1,10,0:1:0:0:
356,3,229218,1,10,0:1:0:0:
364,0,229301,2,0,L|450:10,1,80,10|10,0:0|0:1,0:0:0:0:
233,138,229634,2,0,P|211:97|233:49,1,80,2|8,0:0|0:0,0:0:0:0:
426,187,229968,6,0,P|432:225|412:258,1,80,14|8,0:1|0:1,0:0:0:0:
273,375,230301,1,8,0:0:0:0:
138,243,230468,2,0,P|216:230|296:220,1,160,10|8,0:1|0:1,0:0:0:0:
175,384,230968,1,10,0:0:0:0:
55,304,231134,6,0,B|19:282|10:236|10:236|25:202|74:170,1,160,14|8,0:1|0:1,0:0:0:0:
226,55,231634,1,10,0:0:0:0:
168,210,231801,2,0,P|159:170|153:131,1,80,10|0,0:1|0:0,0:0:0:0:
321,0,232134,2,0,P|329:39|335:78,1,80,10|8,0:1|0:0,0:0:0:0:
335,78,232634,6,0,P|351:152|297:218,2,160,14|8|8,0:1|0:0|0:1,0:0:0:0:
201,171,233468,1,8,0:1:0:0:
359,287,233634,2,0,L|448:272,1,80,8|8,0:0|0:1,0:0:0:0:
249,381,233968,2,0,B|156:396|186:327|66:360,1,160,2|8,0:0|0:0,0:0:0:0:
0,216,234468,1,0,0:0:0:0:
48,139,234634,2,0,P|87:150|132:159,1,80,8|8,0:1|0:1,0:0:0:0:
231,78,234968,2,0,L|248:-1,1,80,8|8,0:0|0:1,0:0:0:0:
500,194,235301,6,0,P|445:140|368:149,1,160,14|8,0:1|0:0,0:0:0:0:
237,365,235801,1,8,0:1:0:0:
201,272,235968,1,0,0:0:0:0:
297,290,236134,2,0,P|338:278|384:268,1,80,10|8,0:1|0:0,0:0:0:0:
171,182,236468,1,10,0:1:0:0:
171,182,236634,2,0,P|158:134|171:10,2,160,2|8|10,0:0|0:0|0:1,0:0:0:0:
45,126,237468,1,8,0:1:0:0:
252,69,237634,2,0,P|290:73|347:79,1,80,8|0,0:0|0:0,0:0:0:0:
328,319,237968,5,14,0:1:0:0:
391,157,238134,1,8,0:1:0:0:
280,213,238301,1,8,0:0:0:0:
428,277,238468,1,0,0:0:0:0:
261,379,238634,2,0,P|201:376|171:362,1,80,8|8,0:1|0:1,0:0:0:0:
92,180,238968,1,8,0:0:0:0:
221,236,239134,1,0,0:0:0:0:
13,331,239301,5,14,0:1:0:0:
221,236,239468,1,0,0:0:0:0:
0,122,239634,1,10,0:0:0:0:
106,346,239801,1,0,0:0:0:0:
184,93,239968,5,10,0:3:0:0:
319,281,240134,1,8,0:1:0:0:
344,260,240217,1,8,0:0:0:0:
363,233,240300,1,8,0:1:0:0:
376,202,240384,1,8,0:0:0:0:
381,170,240467,1,8,0:0:0:0:
379,136,240550,1,8,0:0:0:0:
368,105,240634,1,14,0:1:0:0:
256,192,240718,12,0,245968,0:0:0:0:
