osu file format v14

[General]
AudioFilename: audio.mp3
AudioLeadIn: 0
PreviewTime: 53617
Countdown: 0
SampleSet: Soft
StackLeniency: 0.7
Mode: 0
LetterboxInBreaks: 0
WidescreenStoryboard: 0

[Editor]
DistanceSpacing: 1.1
BeatDivisor: 2
GridSize: 4
TimelineZoom: 1

[Metadata]
Title:Kuukirikigaku Shoujo to Shounen no Uta
TitleUnicode:空気力学少女と少年の詩
Artist:Hana
ArtistUnicode:はな
Creator:missa1912
Version:Normal
Source:素晴らしき日々~不連続存在~
Tags:Usa うさ Subarashiki Hibi ~Furenzoku Sonzai~ Wonderful Everyday: Discontinuous Existence Aerodynamics Girls and Boys Poem short version Szak SCA-JI KEROQ visual novel opening eroge opUsa うさ Subarashiki Hibi ~Furenzoku Sonzai~ Wonderful Everyday: Discontinuous Existence Aerodynamics Girls and Boys Poem short version Szak SCA-JI KEROQ visual novel opening eroge op
BeatmapID:1655937
BeatmapSetID:510605

[Difficulty]
HPDrainRate:3
CircleSize:2.8
OverallDifficulty:4
ApproachRate:4.5
SliderMultiplier:1
SliderTickRate:1

[Events]
//Background and Video events
0,0,"0.jpg",0,0
//Break Periods
//Storyboard Layer 0 (Background)
//Storyboard Layer 1 (Fail)
//Storyboard Layer 2 (Pass)
//Storyboard Layer 3 (Foreground)
//Storyboard Sound Samples

[TimingPoints]
278,329.67032967033,4,2,1,40,1,0
10827,-100,4,2,1,60,0,0
11486,-100,4,2,1,50,0,0
11651,-100,4,2,1,60,0,0
11981,-100,4,2,1,50,0,0
12146,-100,4,2,1,60,0,0
12805,-100,4,2,1,50,0,0
12970,-100,4,2,1,60,0,0
13464,-100,4,2,1,50,0,0
14618,-100,4,2,1,60,0,0
14948,-100,4,2,1,50,0,0
15113,-100,4,2,1,60,0,0
15442,-100,4,2,1,50,0,0
16102,-100,4,2,1,60,0,0
16761,-100,4,2,1,50,0,0
17091,-100,4,2,1,60,0,0
17256,-100,4,2,1,50,0,0
17420,-100,4,2,1,60,0,0
18080,-100,4,2,1,50,0,0
20387,-100,4,2,1,60,0,0
20717,-100,4,1,0,50,0,0
21376,-100,4,2,2,80,0,0
26651,-100,4,2,2,70,0,0
26816,-100,4,2,2,80,0,0
31926,-100,4,2,2,70,0,0
32256,-100,4,2,2,80,0,0
37201,-100,4,2,2,70,0,0
37365,-100,4,2,2,80,0,0
39508,-100,4,2,2,80,0,0
39838,-100,4,2,2,70,0,0
40168,-100,4,2,2,80,0,0
42475,-100,4,2,1,70,0,0
44453,-100,4,2,1,60,0,0
45113,-100,4,2,2,60,0,0
45772,-100,4,2,1,60,0,0
48080,-100,4,2,1,80,0,0
53025,-100,4,2,1,70,0,0
53354,-100,4,2,1,80,0,0
54343,-100,4,2,1,70,0,1
55003,-100,4,2,2,80,0,1
55332,-100,4,2,1,70,0,1
55662,-100,4,2,2,80,0,1
55992,-100,4,2,1,70,0,1
56321,-100,4,2,2,70,0,1
56651,-100,4,2,1,70,0,1
56981,-100,4,2,2,80,0,1
57310,-100,4,2,1,70,0,1
57640,-100,4,2,2,80,0,1
57970,-100,4,2,1,70,0,1
59618,-100,4,2,2,70,0,1
59948,-100,4,2,1,70,0,1
60278,-100,4,2,2,80,0,1
60607,-100,4,2,1,70,0,1
60937,-100,4,2,2,80,0,1
61267,-100,4,2,1,70,0,1
61596,-100,4,2,2,80,0,1
61926,-100,4,2,1,70,0,1
62256,-100,4,2,2,80,0,1
62585,-100,4,2,1,70,0,1
62915,-100,4,2,2,80,0,1
63245,-100,4,2,1,70,0,1
64234,-100,4,2,1,60,0,1
64398,-100,4,2,1,50,0,1
64810,-100,4,3,0,100,0,0
64893,-100,4,2,1,70,0,1
65552,-100,4,2,2,80,0,1
65882,-100,4,2,1,70,0,1
66212,-100,4,2,2,80,0,1
66541,-100,4,2,1,70,0,1
67530,-100,4,2,1,40,0,1
67695,-100,4,2,1,70,0,1
68190,-100,4,2,2,80,0,1
68519,-100,4,2,1,70,0,1
68684,-100,4,2,2,80,0,1
69179,-100,4,2,1,70,0,1
69508,-100,4,2,2,80,0,1
69838,-100,4,2,1,70,0,1
70168,-100,4,2,1,60,0,1
70662,-100,4,2,2,70,0,1
71157,-100,4,2,1,60,0,1
71486,-100,4,2,2,70,0,1
71816,-100,4,2,1,60,0,1
72805,-100,4,2,1,65,0,1
74124,-100,4,2,1,70,0,1
74783,-100,4,1,0,50,0,1
75442,-100,4,2,1,70,0,0
80058,-100,4,1,0,50,0,0
80717,-100,4,2,1,70,0,0
81706,-100,4,2,1,60,0,0
83354,-100,4,2,1,70,0,0
84343,-100,4,2,1,60,0,0
86157,-100,4,2,1,70,0,0
87640,-100,4,2,1,60,0,0
88629,-100,4,2,1,60,0,0
88794,-100,4,2,1,70,0,0
90937,-100,4,1,0,50,0,0
91267,-100,4,2,1,60,0,0
91596,-100,4,2,1,70,0,0
93904,-100,4,2,1,60,0,0
94069,-100,4,2,1,70,0,0

[Colours]
Combo1 : 76,223,247
Combo2 : 244,255,125
Combo3 : 101,223,171
Combo4 : 196,141,247

[HitObjects]
92,192,278,6,0,P|54:138|56:92,2,100,2|2|2,0:0|0:0|0:0,0:0:0:0:
184,252,1267,1,0,0:0:0:0:
184,252,1431,2,0,P|201:202|184:139,1,100,2|0,0:0|0:0,0:0:0:0:
156,114,1926,2,0,P|158:64|185:19,2,100,2|2|2,0:0|0:0|0:0,0:0:0:0:
264,95,2915,6,0,B|310:85|310:85|357:59|357:59|425:51,2,150,2|2|2,0:0|0:0|0:0,0:0:0:0:
227,135,4069,2,0,L|265:237,1,100,2|2,0:0|0:0,0:0:0:0:
306,260,4563,2,0,L|288:371,2,100,0|2|2,0:0|0:0|0:0,0:0:0:0:
393,193,5552,6,0,B|429:181|429:181|458:185|458:185|498:166,2,100,2|2|2,0:0|0:0|0:0,0:0:0:0:
306,260,6541,1,0,0:0:0:0:
306,260,6706,2,0,P|257:275|201:263,1,100,2|0,0:0|0:0,0:0:0:0:
160,242,7201,2,0,P|114:221|40:238,2,100,2|2|2,0:0|0:0|0:0,0:0:0:0:
95,331,8190,6,0,B|140:364|189:347|189:347|218:362|218:362|254:363,2,150,2|2|2,0:0|0:0|0:0,0:0:0:0:
63,286,9343,2,0,P|54:230|81:173,1,100,2|2,0:0|0:0,0:0:0:0:
110,154,9838,2,0,P|119:98|92:41,2,100,2|2|2,0:0|0:0|0:0,0:0:0:0:
171,245,10827,6,0,B|207:252|207:252|245:245|245:245|291:259,1,100,6|8,0:0|0:0,0:0:0:0:
370,294,11486,2,0,P|378:234|363:198,1,100,2|8,0:0|0:0,0:0:0:0:
318,166,11981,2,0,P|290:111|308:57,1,100,2|0,0:0|0:0,0:0:0:0:
334,35,12475,2,0,P|399:30|443:54,2,100,8|2|10,0:0|0:0|0:0,0:0:0:0:
256,113,13464,6,0,B|221:85|220:33|220:33|180:32|180:32|144:28,2,150,2|2|10,0:0|0:0|0:0,0:0:0:0:
289,156,14618,2,0,P|344:184|391:176,1,100,0|2,0:0|0:0,0:0:0:0:
429,154,15113,2,0,P|442:93|424:39,2,100,8|2|10,0:0|0:0|0:0,0:0:0:0:
390,259,16102,6,0,B|354:266|354:266|316:259|316:259|270:273,1,100,6|8,0:0|0:0,0:0:0:0:
214,342,16761,1,2,0:0:0:0:
106,317,17091,1,8,0:0:0:0:
106,317,17256,2,0,P|135:261|169:240,1,100,2|0,0:0|0:0,0:0:0:0:
217,225,17750,2,0,P|233:181|201:104,2,100,8|2|10,0:0|0:0|0:0,0:0:0:0:
120,171,18739,6,0,P|116:100|170:34,2,150,2|2|10,0:0|0:0|0:0,0:0:0:0:
158,209,19893,2,0,P|197:228|258:221,1,100,0|2,0:0|0:0,0:0:0:0:
295,189,20387,2,0,P|337:168|405:166,1,100,8|0,0:0|0:0,0:0:0:0:
471,237,21047,1,0,0:0:0:0:
369,272,21376,5,4,0:0:0:0:
389,163,21706,2,0,P|319:92|215:122,1,200,8|8,0:0|0:0,0:0:0:0:
222,329,23025,2,0,P|127:345|61:275,1,200,8|8,0:0|0:0,0:0:0:0:
53,165,24014,5,2,0:0:0:0:
129,85,24343,2,0,P|185:157|149:261,1,200,8|8,0:0|0:0,0:0:0:0:
376,253,25662,2,0,P|346:161|403:83,1,200,8|8,0:0|0:0,0:0:0:0:
457,179,26651,5,4,0:0:0:0:
376,253,26981,2,0,B|322:267|322:267|232:244|232:244|174:266,1,200,8|8,0:0|0:0,0:0:0:0:
0,169,28299,2,0,B|54:155|54:155|144:178|144:178|202:156,1,200,8|8,0:0|0:0,0:0:0:0:
279,92,29288,5,2,0:0:0:0:
177,49,29618,2,0,B|176:112|176:112|209:208|209:208|211:249,1,200,8|8,0:0|0:0,0:0:0:0:
401,353,30937,2,0,B|402:290|402:290|368:193|368:193|367:153,1,200,8|8,0:0|0:0,0:0:0:0:
379,49,31926,5,6,0:0:0:0:
278,94,32256,2,0,P|176:122|82:79,1,200,8|8,0:0|0:0,0:0:0:0:
270,216,33574,2,0,P|372:188|466:231,1,200,8|8,0:0|0:0,0:0:0:0:
454,332,34563,5,2,0:0:0:0:
344,341,34893,2,0,P|302:366|241:360,2,100,8|0|8,0:0|0:0|0:0,0:0:0:0:
372,293,35717,2,0,P|357:243|316:195,1,100,2|2,0:0|0:0,0:0:0:0:
273,212,36212,1,8,0:0:0:0:
219,224,36376,2,0,P|169:216|110:128,1,150,2|8,0:0|0:0,0:0:0:0:
155,39,37201,5,6,0:0:0:0:
247,97,37530,2,0,B|196:164|111:141|111:141|113:191|113:191|89:250,1,250,8|2,0:0|0:0,0:0:0:0:
164,320,38684,2,0,B|115:328|115:328|51:325,2,100,2|0|2,0:0|0:0|0:0,0:0:0:0:
196,277,39508,1,8,0:0:0:0:
269,200,39838,6,0,P|281:141|272:100,1,100,6|8,0:0|0:0,0:0:0:0:
236,61,40332,2,0,L|125:53,1,100,0|2,0:0|0:0,0:0:0:0:
142,164,40992,2,0,L|145:266,2,100,2|2|2,0:0|0:0|0:0,0:0:0:0:
233,106,41981,2,0,L|223:7,1,100,2|0,0:0|0:0,0:0:0:0:
275,17,42475,6,0,B|332:28|364:102|323:155|323:155|357:203|352:244|306:288,1,300,8|2,0:0|0:0,0:0:0:0:
232,333,43794,2,0,P|190:292|176:240,1,100,4|0,0:0|0:0,0:0:0:0:
171,144,44453,2,0,P|216:108|264:100,1,100,2|2,0:0|0:0,0:0:0:0:
362,125,45113,6,0,B|316:289,1,150,2|2,0:0|0:0,0:0:0:0:
290,314,45772,2,0,L|159:285,1,100,8|8,0:0|0:0,0:0:0:0:
85,264,46431,2,0,P|48:196|101:71,1,200,4|4,0:0|0:0,0:0:0:0:
190,111,47420,1,8,0:0:0:0:
296,85,47750,6,0,P|351:84|403:99,2,100,6|8|2,0:0|0:0|0:0,0:0:0:0:
268,191,48739,1,8,0:0:0:0:
190,111,49069,1,2,0:0:0:0:
161,219,49398,2,0,P|194:273|246:298,2,100,8|0|8,0:0|0:0|0:0,0:0:0:0:
190,111,50387,6,0,P|157:57|105:32,2,100,2|8|0,0:0|0:0|0:0,0:0:0:0:
84,143,51376,1,8,0:0:0:0:
54,248,51706,2,0,P|87:302|139:327,1,100,2|8,0:0|0:0,0:0:0:0:
227,321,52365,2,0,P|267:292|290:248,1,100,2|8,0:0|0:0,0:0:0:0:
315,140,53025,5,6,0:0:0:0:
413,90,53354,1,6,0:0:0:0:
319,35,53684,2,0,P|256:52|226:84,1,100,12|8,0:0|0:0,0:0:0:0:
207,125,54179,1,8,0:0:0:0:
190,177,54343,6,0,P|151:197|73:201,2,100,4|8|2,0:0|0:0|0:0,0:0:0:0:
274,106,55332,2,0,P|312:137|361:146,1,100,8|2,0:0|0:0,0:0:0:0:
471,142,55992,1,8,0:0:0:0:
422,240,56321,1,6,0:0:0:0:
315,268,56651,6,0,P|263:263|203:284,1,100,8|2,0:0|0:0,0:0:0:0:
143,353,57310,2,0,P|95:366|45:360,2,100,8|2|8,0:0|0:0|0:0,0:0:0:0:
217,275,58299,1,2,0:0:0:0:
196,166,58629,2,0,P|185:106|199:55,1,100,8|2,0:0|0:0,0:0:0:0:
300,93,59288,1,8,0:0:0:0:
407,69,59618,5,6,0:0:0:0:
374,174,59948,2,0,P|327:213|276:226,2,100,8|0|8,0:0|0:0|0:0,0:0:0:0:
407,69,60937,1,2,0:0:0:0:
300,93,61267,2,0,P|249:118|213:165,1,100,8|0,0:0|0:0,0:0:0:0:
191,256,61926,1,8,0:0:0:0:
260,341,62256,6,0,P|321:353|392:335,1,100,2|8,0:0|0:0,0:0:0:0:
447,285,62915,2,0,P|451:235|439:186,1,100,2|8,0:0|0:0,0:0:0:0:
372,99,63574,1,8,0:0:0:0:
281,160,63904,1,8,0:0:0:0:
192,97,64234,2,0,P|132:94|76:59,1,100,8|8,0:0|0:0,0:0:0:0:
69,124,64728,1,8,0:0:0:0:
51,176,64893,6,0,P|51:225|71:271,2,100,4|8|2,0:0|0:0|0:0,0:0:0:0:
96,76,65882,2,0,P|142:96|192:97,1,100,8|2,0:0|0:0,0:0:0:0:
294,58,66541,2,0,P|354:87|383:131,2,100,8|0|8,0:0|0:0|0:0,0:0:0:0:
279,167,67530,6,0,P|235:201|174:208,1,100,4|8,0:0|0:0,0:0:0:0:
134,303,68190,2,0,P|208:319|257:302,1,100,2|8,0:0|0:0,0:0:0:0:
278,286,68684,2,0,P|352:270|401:287,1,100,2|2,0:0|0:0,0:0:0:0:
427,290,69179,2,0,P|446:226|458:183,1,100,8|2,0:0|0:0,0:0:0:0:
467,84,69838,1,8,0:0:0:0:
364,43,70168,6,0,P|290:70|197:70,2,150,4|2|8,0:0|0:0|0:0,0:0:0:0:
370,152,71486,2,0,P|312:168|261:174,1,100,2|0,0:0|0:0,0:0:0:0:
162,176,72146,2,0,P|108:173|53:157,1,100,8|8,0:0|0:0,0:0:0:0:
62,216,72640,1,8,0:0:0:0:
80,267,72805,6,0,P|99:325|133:357,1,100,4|8,0:0|0:0,0:0:0:0:
235,352,73464,2,0,P|267:314|280:266,1,100,8|8,0:0|0:0,0:0:0:0:
281,157,74124,2,0,P|293:109|326:71,1,100,8|8,0:0|0:0,0:0:0:0:
435,60,74783,1,0,0:0:0:0:
390,161,75113,1,0,0:0:0:0:
281,157,75442,6,0,P|221:161|155:189,1,100,4|8,0:0|0:0,0:0:0:0:
90,233,76102,2,0,P|74:182|92:111,1,100,0|8,0:0|0:0,0:0:0:0:
110,90,76596,2,0,B|141:89|170:56|170:56|204:81|230:78|265:59,1,150,2|8,0:0|0:0,0:0:0:0:
347,30,77420,1,2,0:0:0:0:
433,98,77750,1,8,0:0:0:0:
406,204,78080,6,0,P|403:265|421:312,1,100,4|8,0:0|0:0,0:0:0:0:
340,382,78739,2,0,P|292:368|242:372,1,100,0|8,0:0|0:0,0:0:0:0:
195,343,79234,2,0,B|161:326|124:326|124:326|101:298|101:298|42:265,1,150,2|8,0:0|0:0,0:0:0:0:
80,169,80058,2,0,L|178:220,1,100,0|0,0:0|0:0,0:0:0:0:
264,161,80717,6,0,P|361:165|445:194,2,150,6|8|6,0:0|0:0|0:0,0:0:0:0:
264,326,82201,2,0,P|336:343|411:344,1,150,8|4,0:0|0:0,0:0:0:0:
484,261,83025,1,4,0:0:0:0:
411,179,83354,6,0,L|477:3,2,150,4|8|4,0:0|0:0|0:0,0:0:0:0:
411,343,84838,2,0,L|270:290,1,150,8|4,0:0|0:0,0:0:0:0:
187,217,85662,1,4,0:0:0:0:
220,112,85992,6,0,P|163:109|113:135,2,100,12|0|2,0:0|0:0|0:0,0:0:0:0:
187,217,86981,2,0,P|166:271|182:343,1,100,8|0,0:0|0:0,0:0:0:0:
276,284,87640,1,0,0:0:0:0:
276,284,87805,2,0,L|406:266,1,100,2|0,0:0|0:0,0:0:0:0:
415,232,88300,1,10,0:0:0:0:
448,127,88629,6,0,P|362:136|308:215,1,150,6|2,0:0|0:0,0:0:0:0:
415,232,89453,2,0,L|467:267,1,50,2|10,0:0|0:0,0:0:0:0:
492,302,89783,2,0,P|450:343|387:355,1,100,2|2,0:0|0:0,0:0:0:0:
322,290,90442,2,0,P|262:294|201:324,1,100,2|2,0:0|0:0,0:0:0:0:
179,339,90937,1,0,0:0:0:0:
150,232,91267,6,0,P|137:157|75:108,1,150,6|2,0:0|0:0,0:0:0:0:
161,33,92091,2,0,P|208:82|265:74,1,100,2|0,0:0|0:0,0:0:0:0:
346,75,92750,2,0,L|290:207,1,100,2|0,0:0|0:0,0:0:0:0:
303,222,93245,2,0,L|329:291,2,50,2|0|10,0:0|0:0|0:0,0:0:0:0:
198,187,93904,6,0,B|120:203|120:203|47:194,2,150,4|2|8,0:0|0:0|0:0,0:0:0:0:
220,136,95058,1,8,0:0:0:0:
