osu file format v14

[General]
AudioFilename: audio.mp3
AudioLeadIn: 0
PreviewTime: 53617
Countdown: 0
SampleSet: Soft
StackLeniency: 0.7
Mode: 0
LetterboxInBreaks: 0
WidescreenStoryboard: 1

[Editor]
DistanceSpacing: 1.6
BeatDivisor: 4
GridSize: 4
TimelineZoom: 1.3

[Metadata]
Title:Kuukirikigaku Shoujo to Shounen no Uta
TitleUnicode:空気力学少女と少年の詩
Artist:Hana
ArtistUnicode:はな
Creator:missa1912
Version:Light Hard
Source:素晴らしき日々~不連続存在~
Tags:Usa うさ Subarashiki Hibi ~Furenzoku Sonzai~ Wonderful Everyday: Discontinuous Existence Aerodynamics Girls and Boys Poem short version Szak SCA-JI KEROQ visual novel opening eroge opUsa うさ Subarashiki Hibi ~Furenzoku Sonzai~ Wonderful Everyday: Discontinuous Existence Aerodynamics Girls and Boys Poem short version Szak SCA-JI KEROQ visual novel opening eroge op
BeatmapID:1656350
BeatmapSetID:510605

[Difficulty]
HPDrainRate:4.5
CircleSize:3
OverallDifficulty:5
ApproachRate:6
SliderMultiplier:1.1
SliderTickRate:1

[Events]
//Background and Video events
0,0,"0.jpg",0,0
//Break Periods
//Storyboard Layer 0 (Background)
//Storyboard Layer 1 (Fail)
//Storyboard Layer 2 (Pass)
//Storyboard Layer 3 (Foreground)
//Storyboard Layer 4 (Overlay)
//Storyboard Sound Samples

[TimingPoints]
278,329.67032967033,4,2,1,40,1,0
10827,-100,4,2,1,60,0,0
11486,-100,4,2,1,50,0,0
11651,-100,4,2,1,60,0,0
11981,-100,4,2,1,50,0,0
12146,-100,4,2,1,60,0,0
12805,-100,4,2,1,50,0,0
12970,-100,4,2,1,60,0,0
13464,-100,4,2,1,50,0,0
13629,-100,4,2,1,60,0,0
13959,-100,4,2,1,50,0,0
14618,-100,4,2,1,60,0,0
14948,-100,4,2,1,50,0,0
15113,-100,4,2,1,60,0,0
15442,-100,4,2,1,50,0,0
16102,-100,4,2,1,60,0,0
16761,-100,4,2,1,50,0,0
17091,-100,4,2,1,60,0,0
17256,-100,4,2,1,50,0,0
17420,-100,4,2,1,60,0,0
18080,-100,4,2,1,50,0,0
18904,-100,4,2,1,60,0,0
19234,-100,4,2,1,50,0,0
20387,-100,4,2,1,60,0,0
20717,-100,4,1,0,50,0,0
21376,-100,4,2,2,80,0,0
26651,-100,4,2,2,70,0,0
26816,-100,4,2,2,80,0,0
31926,-100,4,2,2,70,0,0
32256,-100,4,2,2,80,0,0
37201,-100,4,2,2,70,0,0
37365,-100,4,2,2,80,0,0
39838,-100,4,2,2,70,0,0
40168,-100,4,2,2,80,0,0
42475,-100,4,2,1,70,0,0
43794,-100,4,2,1,60,0,0
45113,-100,4,2,2,60,0,0
45772,-100,4,2,1,60,0,0
48080,-100,4,2,1,80,0,0
53025,-100,4,2,1,70,0,0
53354,-100,4,2,1,80,0,0
54343,-100,4,2,1,70,0,1
55003,-100,4,2,2,80,0,1
55332,-100,4,2,1,70,0,1
55662,-100,4,2,2,80,0,1
55992,-100,4,2,1,70,0,1
56321,-100,4,2,2,70,0,1
56651,-100,4,2,1,70,0,1
56981,-100,4,2,2,80,0,1
57310,-100,4,2,1,70,0,1
57640,-100,4,2,2,80,0,1
57970,-100,4,2,1,70,0,1
59618,-100,4,2,2,70,0,1
59948,-100,4,2,1,70,0,1
60278,-100,4,2,2,80,0,1
60607,-100,4,2,1,70,0,1
60937,-100,4,2,2,80,0,1
61267,-100,4,2,1,70,0,1
61596,-100,4,2,2,80,0,1
61926,-100,4,2,1,70,0,1
62256,-100,4,2,2,80,0,1
62585,-100,4,2,1,70,0,1
62915,-100,4,2,2,80,0,1
63245,-100,4,2,1,70,0,1
64234,-100,4,2,1,60,0,1
64398,-100,4,2,1,50,0,1
64810,-100,4,3,0,100,0,0
64893,-100,4,2,1,70,0,1
65552,-100,4,2,2,80,0,1
65882,-100,4,2,1,70,0,1
66212,-100,4,2,2,80,0,1
66541,-100,4,2,1,70,0,1
67530,-100,4,2,1,40,0,1
67695,-100,4,2,1,70,0,1
68190,-100,4,2,2,80,0,1
68519,-100,4,2,1,70,0,1
68684,-100,4,2,2,80,0,1
69179,-100,4,2,1,70,0,1
69508,-100,4,2,2,80,0,1
69838,-100,4,2,1,70,0,1
70003,-100,4,2,2,80,0,1
70168,-100,4,2,1,60,0,1
70662,-100,4,2,2,70,0,1
71157,-100,4,2,1,60,0,1
72805,-100,4,2,1,65,0,1
74124,-100,4,2,1,70,0,1
74783,-100,4,1,0,50,0,1
75442,-100,4,2,1,70,0,0
80058,-100,4,1,0,50,0,0
80717,-100,4,2,1,70,0,0
81706,-100,4,2,1,60,0,0
83354,-100,4,2,1,70,0,0
84343,-100,4,2,1,60,0,0
86157,-100,4,2,1,70,0,0
87640,-100,4,2,1,60,0,0
88794,-100,4,2,1,70,0,0
90937,-100,4,1,0,50,0,0
91267,-100,4,2,1,60,0,0
91596,-100,4,2,1,70,0,0
93904,-100,4,2,1,60,0,0
94069,-100,4,2,1,70,0,0

[Colours]
Combo1 : 76,223,247
Combo2 : 244,255,125
Combo3 : 101,223,171
Combo4 : 196,141,247

[HitObjects]
356,152,278,6,0,P|390:141|472:157,1,110,2|0,0:0|0:0,0:0:0:0:
361,282,937,2,0,P|327:293|245:277,1,110,2|0,0:0|0:0,0:0:0:0:
199,221,1431,2,0,P|145:208|92:221,1,110,2|0,0:0|0:0,0:0:0:0:
44,153,1926,2,0,P|56:99|43:46,2,110,0|2|2,0:0|0:0|0:0,0:0:0:0:
114,302,2915,6,0,P|96:328|88:354,2,55,2|0|0,0:0|0:0|0:0,0:0:0:0:
194,284,3409,2,0,P|184:256|168:232,2,55,2|0|0,0:0|0:0|0:0,0:0:0:0:
262,237,3904,1,2,0:0:0:0:
262,237,4069,2,0,P|271:213|288:185,1,55
341,258,4398,2,0,P|365:285|385:327,2,55,2|0|0,0:0|0:0|0:0,0:0:0:0:
368,178,4893,2,0,P|405:176|443:160,1,55,0|2,0:0|0:0,0:0:0:0:
375,95,5223,2,0,P|348:98|317:111,1,55,0|0,0:0|0:0,0:0:0:0:
285,187,5552,6,0,P|245:148|242:76,1,110,2|0,0:0|0:0,0:0:0:0:
368,178,6212,2,0,P|355:234|285:272,1,110,2|0,0:0|0:0,0:0:0:0:
229,280,6706,2,0,P|183:294|140:353,1,110,2|0,0:0|0:0,0:0:0:0:
89,270,7201,2,0,P|55:227|4:209,2,110,0|2|2,0:0|0:0|0:0,0:0:0:0:
132,172,8025,1,0,0:0:0:0:
86,93,8190,6,0,P|52:78|20:78,2,55,2|0|0,0:0|0:0|0:0,0:0:0:0:
132,172,8684,2,0,P|156:213|178:233,2,55,2|0|0,0:0|0:0|0:0,0:0:0:0:
178,90,9179,1,2,0:0:0:0:
178,90,9343,2,0,P|207:91|251:105,1,55,0|0,0:0|0:0,0:0:0:0:
320,91,9673,2,0,P|355:74|371:53,2,55,2|0|0,0:0|0:0|0:0,0:0:0:0:
335,177,10168,2,0,P|307:179|281:171,1,55,2|0,0:0|0:0,0:0:0:0:
279,259,10497,2,0,P|232:244|210:215,1,55,2|0,0:0|0:0,0:0:0:0:
163,181,10827,6,0,P|116:166|28:204,1,110,6|8,0:0|0:0,0:0:0:0:
60,355,11486,2,0,P|112:368|164:352,1,110,2|8,0:0|0:0,0:0:0:0:
227,289,11981,2,0,P|279:275|331:291,1,110,2|0,0:0|0:0,0:0:0:0:
398,349,12475,1,8,0:0:0:0:
486,196,12805,2,0,P|444:146|402:122,1,110,2|10,0:0|0:0,0:0:0:0:
318,129,13299,1,0,0:0:0:0:
288,45,13464,6,0,P|320:40|361:50,2,55,2|0|8,0:0|0:0|0:0,0:0:0:0:
231,113,13959,2,0,P|207:79|202:56,2,55,2|0|0,0:0|0:0|0:0,0:0:0:0:
261,196,14453,1,10,0:0:0:0:
261,196,14618,2,0,P|196:195|154:154,1,110,0|2,0:0|0:0,0:0:0:0:
108,97,15113,2,0,P|77:142|83:209,1,110,8|2,0:0|0:0,0:0:0:0:
143,254,15607,1,0,0:0:0:0:
160,340,15772,1,10,0:0:0:0:
261,196,16102,6,0,P|308:171|385:184,1,110,6|8,0:0|0:0,0:0:0:0:
393,347,16761,2,0,P|349:296|323:238,1,110,2|8,0:0|0:0,0:0:0:0:
363,173,17256,2,0,P|336:124|299:84,1,110,2|0,0:0|0:0,0:0:0:0:
211,84,17750,2,0,P|174:124|147:172,2,110,8|2|10,0:0|0:0|0:0,0:0:0:0:
299,84,18574,1,0,0:0:0:0:
384,64,18739,6,0,P|411:42|435:30,2,55,2|0|8,0:0|0:0|0:0,0:0:0:0:
359,149,19234,2,0,P|399:153|428:140,2,55,2|0|0,0:0|0:0|0:0,0:0:0:0:
273,170,19728,2,0,P|232:166|198:173,2,55,10|0|0,0:0|0:0|0:0,0:0:0:0:
335,233,20223,1,2,0:0:0:0:
335,233,20387,2,0,L|402:240,1,55,8|0,0:0|0:0,0:0:0:0:
302,310,20717,2,0,L|345:358,1,55,0|0,0:0|0:0,0:0:0:0:
219,319,21047,2,0,L|201:390,1,55,0|0,0:0|0:0,0:0:0:0:
160,260,21376,6,0,P|98:246|39:264,2,110,4|8|0,0:0|0:0|0:0,0:0:0:0:
306,358,22365,1,8,0:0:0:0:
355,285,22530,2,0,P|392:273|461:285,1,110,2|0,0:0|0:0,0:0:0:0:
443,197,23025,2,0,B|430:138|446:102|446:102|412:118|367:113,1,165,8|2,0:0|0:0,0:0:0:0:
292,101,23684,2,0,P|264:84|242:62,1,55,8|0,0:0|0:0,0:0:0:0:
191,137,24014,5,2,0:0:0:0:
191,137,24179,1,2,0:0:0:0:
109,102,24343,2,0,P|104:158|137:209,2,110,8|0|8,0:0|0:0|0:0,0:0:0:0:
181,50,25168,1,2,0:0:0:0:
339,126,25497,1,2,0:0:0:0:
499,199,25827,1,2,0:0:0:0:
327,257,26157,2,0,P|288:246|245:241,1,55,2|2,0:0|0:0,0:0:0:0:
185,238,26486,1,0,0:0:0:0:
185,238,26651,6,0,L|175:170,1,55,4|0,0:0|0:0,0:0:0:0:
98,255,26981,2,0,B|108:295|140:325|191:328|191:328|226:320|226:320|263:342|314:329,1,220,8|8,0:0|0:0,0:0:0:0:
273,243,27805,2,0,P|277:180|234:130,1,110,2|2,0:0|0:0,0:0:0:0:
171,108,28299,2,0,B|185:79|210:58|243:54|243:54|257:35|285:18|345:28,1,165,8|2,0:0|0:0,0:0:0:0:
390,50,28959,2,0,P|419:41|443:20,1,55,8|0,0:0|0:0,0:0:0:0:
490,96,29288,6,0,P|454:127|430:137,1,55,2|2,0:0|0:0,0:0:0:0:
357,136,29619,1,8,0:0:0:0:
357,136,29783,2,0,P|306:125|237:154,1,110,0|2,0:0|0:0,0:0:0:0:
159,133,30278,1,8,0:0:0:0:
91,69,30442,2,0,P|69:119|80:180,1,110,2|0,0:0|0:0,0:0:0:0:
142,241,30937,1,8,0:0:0:0:
142,241,31102,2,0,P|195:252|248:222,1,110,2|2,0:0|0:0,0:0:0:0:
323,190,31596,2,0,P|350:182|377:181,1,55,8|2,0:0|0:0,0:0:0:0:
449,230,31926,6,0,P|462:175|428:109,2,110,6|8|0,0:0|0:0|0:0,0:0:0:0:
310,345,32915,1,8,0:0:0:0:
236,297,33080,2,0,P|179:282|123:301,1,110,2|2,0:0|0:0,0:0:0:0:
59,347,33574,2,0,B|26:289|63:236|63:236|37:201|39:161,1,165,8|2,0:0|0:0,0:0:0:0:
32,106,34234,2,0,P|62:93|106:91,1,55,8|0,0:0|0:0,0:0:0:0:
167,118,34563,6,0,P|219:104|266:61,1,110,2|8,0:0|0:0,0:0:0:0:
184,227,35223,1,0,0:0:0:0:
359,231,35552,1,8,0:0:0:0:
289,176,35717,2,0,P|340:144|407:152,1,110,2|2,0:0|0:0,0:0:0:0:
443,213,36212,1,8,0:0:0:0:
417,296,36376,2,0,P|350:315|294:291,1,110,2|2,0:0|0:0,0:0:0:0:
228,278,36871,1,8,0:0:0:0:
150,323,37036,1,2,0:0:0:0:
149,234,37201,6,0,P|132:181|92:116,2,110,6|8|0,0:0|0:0|0:0,0:0:0:0:
150,323,38025,2,0,P|174:335|241:337,1,55,2|8,0:0|0:0,0:0:0:0:
283,310,38354,2,0,P|334:301|409:320,1,110,2|2,0:0|0:0,0:0:0:0:
463,362,38849,2,0,P|471:295|440:244,1,110,8|2,0:0|0:0,0:0:0:0:
371,216,39343,2,0,P|332:203|310:185,2,55,0|8|0,0:0|0:0|0:0,0:0:0:0:
387,129,39838,6,0,P|333:109|257:116,2,110,6|8|0,0:0|0:0|0:0,0:0:0:0:
320,195,40662,2,0,P|275:220|248:222,1,55,2|8,0:0|0:0,0:0:0:0:
186,241,40992,2,0,P|225:297|302:305,1,110,2|2,0:0|0:0,0:0:0:0:
346,334,41486,1,8,0:0:0:0:
324,251,41651,2,0,P|369:252|427:308,1,110,2|2,0:0|0:0,0:0:0:0:
491,341,42146,2,0,P|504:307|497:255,1,55,8|0,0:0|0:0,0:0:0:0:
465,210,42475,6,0,B|421:192|358:200|323:252|323:252|266:199|266:199|219:220|161:193,1,330,8|2,0:0|0:0,0:0:0:0:
215,114,43629,1,0,0:0:0:0:
215,114,43794,2,0,P|103:112|70:211,1,220,4|2,0:0|0:0,0:0:0:0:
136,362,44783,2,0,P|179:347|206:329,1,55,2|0,0:0|0:0,0:0:0:0:
242,275,45113,6,0,P|332:292|396:333,1,165,2|2,0:0|0:0,0:0:0:0:
462,384,45772,2,0,P|479:325|452:267,1,110,8|8,0:0|0:0,0:0:0:0:
354,142,46431,2,0,P|461:128|405:197,1,220,4|4,0:0|0:0,0:0:0:0:
280,254,47420,2,0,P|210:258|186:253,1,55,8|0,0:0|0:0,0:0:0:0:
137,245,47750,6,0,P|76:218|37:175,1,110,6|8,0:0|0:0,0:0:0:0:
174,67,48409,2,0,P|193:123|190:197,1,110,2|8,0:0|0:0,0:0:0:0:
225,259,48904,1,0,0:0:0:0:
225,259,49069,2,0,P|270:224|284:170,1,110,2|8,0:0|0:0,0:0:0:0:
147,63,49728,1,0,0:0:0:0:
114,234,50058,1,8,0:0:0:0:
114,234,50223,6,0,P|60:215|-8:248,1,110,2|0,0:0|0:0,0:0:0:0:
59,303,50717,2,0,P|115:324|188:282,2,110,8|0|8,0:0|0:0|0:0,0:0:0:0:
112,135,51706,2,0,P|174:162|203:217,1,110,2|8,0:0|0:0,0:0:0:0:
370,227,52365,2,0,P|364:155|336:94,1,110,2|8,0:0|0:0,0:0:0:0:
263,135,52860,1,0,0:0:0:0:
196,195,53025,6,0,L|145:220,1,55,6|0,0:0|0:0,0:0:0:0:
181,300,53354,2,0,L|152:364,1,55,6|0,0:0|0:0,0:0:0:0:
268,296,53684,6,0,L|294:249,3,27.5,12|0|0|0,0:0|0:0|0:0|0:0,0:0:0:0:
324,256,54014,2,0,L|350:209,3,27.5,8|0|8|0,0:0|0:0|0:0|0:0,0:0:0:0:
376,216,54343,6,0,P|400:148|392:72,1,110,4|8,0:0|0:0,0:0:0:0:
223,108,55003,2,0,P|226:162|247:213,1,110,2|8,0:0|0:0,0:0:0:0:
275,39,55662,2,0,P|217:23|154:52,1,110,2|8,0:0|0:0,0:0:0:0:
317,135,56321,1,6,0:0:0:0:
140,133,56651,1,8,0:0:0:0:
279,240,56981,6,0,P|340:243|397:213,1,110,2|8,0:0|0:0,0:0:0:0:
229,308,57640,2,0,P|178:287|123:292,1,110,2|8,0:0|0:0,0:0:0:0:
278,377,58299,1,2,0:0:0:0:
124,291,58629,1,8,0:0:0:0:
296,255,58959,1,2,0:0:0:0:
142,169,59288,1,8,0:0:0:0:
314,133,59618,6,0,L|330:70,1,55,6|0,0:0|0:0,0:0:0:0:
250,36,59948,2,0,L|225:150,1,110,8|0,0:0|0:0,0:0:0:0:
224,319,60607,2,0,P|193:277|177:268,1,55,8|0,0:0|0:0,0:0:0:0:
112,235,60937,2,0,P|45:244|-8:294,1,110,2|8,0:0|0:0,0:0:0:0:
1,180,61431,2,0,P|57:160|112:158,1,110,2|0,0:0|0:0,0:0:0:0:
186,198,61926,1,8,0:0:0:0:
96,349,62256,6,0,P|136:334|218:350,1,110,2|8,0:0|0:0,0:0:0:0:
286,366,62750,1,0,0:0:0:0:
264,280,62915,2,0,L|270:162,1,110,2|8,0:0|0:0,0:0:0:0:
430,248,63574,6,0,L|505:238,1,55,8|0,0:0|0:0,0:0:0:0:
494,152,63904,2,0,L|424:161,1,55,8|0,0:0|0:0,0:0:0:0:
371,101,64234,2,8,L|373:46,1,55
287,28,64563,2,8,L|278:99,1,55
269,170,64893,6,0,L|264:299,1,110,4|8,0:0|0:0,0:0:0:0:
190,131,65552,2,0,P|226:91|279:81,2,110,2|8|2,0:0|0:0|0:0,0:0:0:0:
146,292,66541,2,0,L|128:169,1,110,8|0,0:0|0:0,0:0:0:0:
38,334,67201,1,8,0:0:0:0:
213,348,67530,6,0,P|262:331|329:356,1,110,4|8,0:0|0:0,0:0:0:0:
298,170,68190,2,0,P|281:108|293:56,1,110,2|8,0:0|0:0,0:0:0:0:
373,36,68684,2,0,P|390:93|371:160,1,110,2|2,0:0|0:0,0:0:0:0:
298,170,69179,1,8,0:0:0:0:
166,286,69508,2,0,L|99:278,1,55,2|2,0:0|0:0,0:0:0:0:
80,197,69838,2,0,L|47:146,1,55,8|2,0:0|0:0,0:0:0:0:
77,65,70168,6,0,P|134:39|200:55,1,110,4|8,0:0|0:0,0:0:0:0:
267,54,70662,2,0,L|385:30,1,110,2|2,0:0|0:0,0:0:0:0:
423,106,71157,1,8,0:0:0:0:
341,138,71321,2,0,P|395:191|491:167,1,165,2|8,0:0|0:0,0:0:0:0:
336,284,72146,2,0,L|268:262,1,55,8|0,0:0|0:0,0:0:0:0:
269,180,72475,2,0,L|201:208,1,55,8|8,0:0|0:0,0:0:0:0:
133,175,72805,6,0,P|54:205|16:254,2,110,4|8|8,0:0|0:0|0:0,0:0:0:0:
283,267,73794,1,8,0:0:0:0:
342,101,74124,6,0,L|360:146,3,27.5,8|0|0|0,0:0|0:0|0:0|0:0,0:0:0:0:
348,170,74453,2,0,L|366:215,3,27.5,8|0|0|0,0:0|0:0|0:0|0:0,0:0:0:0:
381,233,74783,6,0,L|399:278,3,27.5,0|0|0|0,0:0|0:0|0:0|0:0,0:0:0:0:
387,302,75112,2,0,L|405:347,3,27.5,0|0|0|0,0:0|0:0|0:0|0:0,0:0:0:0:
429,357,75442,5,4,0:0:0:0:
256,192,75525,12,0,80058,0:0:0:0:
192,158,80717,6,0,P|247:129|350:137,1,165,6|8,0:0|0:0,0:0:0:0:
206,241,81541,1,0,0:0:0:0:
124,208,81706,2,0,P|108:142|183:73,1,165,6|8,0:0|0:0,0:0:0:0:
408,192,82695,5,4,0:0:0:0:
232,192,83025,1,4,0:0:0:0:
385,107,83354,6,0,P|465:126|493:205,1,165,4|8,0:0|0:0,0:0:0:0:
321,235,84179,1,0,0:0:0:0:
308,148,84343,2,0,P|305:72|377:20,1,165,4|8,0:0|0:0,0:0:0:0:
397,283,85332,5,4,0:0:0:0:
387,107,85662,1,4,0:0:0:0:
232,192,85992,6,0,B|188:193|157:180|138:135|138:135|98:143|59:109,1,165,12|8,0:0|0:0,0:0:0:0:
122,47,86651,2,0,L|192:29,1,55,0|0,0:0|0:0,0:0:0:0:
217,110,86981,2,0,L|289:115,1,55,8|0,0:0|0:0,0:0:0:0:
357,134,87310,2,0,P|413:166|460:246,1,110,0|0,0:0|0:0,0:0:0:0:
451,288,87805,2,0,L|512:277,2,55,2|0|0,0:0|0:0|0:0,0:0:0:0:
368,255,88299,1,8,0:0:0:0:
195,218,88629,6,0,P|260:203|224:286,1,165,6|2,0:0|0:0,0:0:0:0:
159,130,89453,1,2,0:0:0:0:
210,58,89618,1,10,0:0:0:0:
296,43,89783,2,0,P|357:59|405:45,2,110,2|2|2,0:0|0:0|0:0,0:0:0:0:
210,58,90607,2,0,P|159:44|134:33,1,55,2|2,0:0|0:0,0:0:0:0:
159,130,90937,1,0,0:0:0:0:
109,203,91102,1,0,0:0:0:0:
165,270,91267,6,0,P|221:258|295:283,2,110,6|10|0,0:0|0:0|0:0,0:0:0:0:
109,203,92091,2,0,P|53:191|-21:216,1,110,2|0,0:0|0:0,0:0:0:0:
124,75,92750,2,0,P|177:86|230:74,1,110,2|0,0:0|0:0,0:0:0:0:
304,24,93245,1,2,0:0:0:0:
389,42,93409,1,0,0:0:0:0:
420,124,93574,2,0,P|444:161|475:187,1,55,10|2,0:0|0:0,0:0:0:0:
404,244,93904,6,0,P|357:222|284:240,1,110,4|8,0:0|0:0,0:0:0:0:
222,190,94398,2,0,P|155:194|107:154,1,110,0|0,0:0|0:0,0:0:0:0:
182,108,94893,1,8,0:0:0:0:
182,108,95058,1,8,0:0:0:0:
