osu file format v14

[General]
AudioFilename: audio.mp3
AudioLeadIn: 0
PreviewTime: 106136
Countdown: 0
SampleSet: None
StackLeniency: 0.3
Mode: 0
LetterboxInBreaks: 0
EpilepsyWarning: 1
WidescreenStoryboard: 1

[Editor]
Bookmarks: 31713,73911,106877,149075,201821,212370,222920,233469,238744,244019,247798
DistanceSpacing: 1.1
BeatDivisor: 4
GridSize: 4
TimelineZoom: 2.2

[Metadata]
Title:Kuukirikigaku Shoujo to Shounen no Uta
TitleUnicode:空気力学少女と少年の詩
Artist:Hana
ArtistUnicode:はな
Creator:Luscent
Version:Mirash & Delis' Collab Extra
Source:素晴らしき日々~不連続存在~
Tags:Aerodynamics Girls and Boys Poem Song Subarashiki Hibi ~Furenzoku Sonzai~ 404 aimnotfound Garden ak74 vikala toybot mirash delis shirohamymommy smm PandaHero Kalibe IOException Jezag Nagi Hisakawa cyndere TtmnZk TT Mouse japanese rock jrock eroge すかぢ szak SCA-ji KeroQ うさ Utaite Usa Wonderful Everyday Discontinuous Existence Diskontinuierliches Dasein Fuminori Matsumoto 松本文紀 metrowing SubaHibi visual novel opening full version aero dynamics 櫻ノ詩 サクラノ詩 sakura no uta
BeatmapID:2744118
BeatmapSetID:1164291

[Difficulty]
HPDrainRate:7
CircleSize:4
OverallDifficulty:8
ApproachRate:8
SliderMultiplier:1.8
SliderTickRate:1

[Events]
//Background and Video events
0,0,"003.jpg",0,0
//Break Periods
2,186197,187884
//Storyboard Layer 0 (Background)
Sprite,Background,Centre,"003.jpg",320,240 F,0,-500,,0
//Storyboard Layer 1 (Fail)
//Storyboard Layer 2 (Pass)
//Storyboard Layer 3 (Foreground)
Sprite,Foreground,Centre,"sb\text\beatmapinfo\_004.png",320,241.25 F,0,22941,23141,0,1 S,0,23141,,0.5 F,0,25908,26108,1,0
//Storyboard Layer 4 (Overlay)
//Storyboard Sound Samples

[TimingPoints]
65,329.67032967033,4,2,1,50,1,0
31713,-133.333333333333,4,2,1,50,0,0
53966,-100,4,2,1,50,0,0
95092,-100,4,2,1,5,0,0
95174,-83.3333333333333,4,2,1,50,0,0
95257,-83.3333333333333,4,2,1,5,0,0
95339,-71.4285714285714,4,2,1,50,0,0
95422,-71.4285714285714,4,2,1,5,0,0
95504,-62.5,4,2,1,50,0,0
95586,-62.5,4,2,1,5,0,0
95669,-55.5555555555556,4,2,1,50,0,0
95751,-55.5555555555556,4,2,1,5,0,0
95834,-50,4,2,1,50,0,0
95916,-50,4,2,1,5,0,0
95999,-285.714285714286,4,2,1,50,0,0
96328,300,4,2,20,50,1,0
96328,-133.333333333333,4,2,20,50,0,0
96822,329.67032967033,4,2,1,60,1,0
96986,-100,4,2,21,60,0,0
97481,-100,4,2,22,60,0,0
97975,-100,4,2,23,60,0,0
98140,-100,4,2,1,60,0,0
98635,-100,4,2,7,60,0,0
99446,329.67032967033,4,2,7,55,1,0
99940,-100,4,2,1,55,0,0
100093,329.67032967033,4,2,6,60,1,0
100104,-100,4,2,1,60,0,0
100284,329.67032967033,4,2,32,60,1,0
100613,-100,4,2,6,60,0,0
101602,-100,4,2,33,60,0,0
102261,-100,4,2,6,60,0,0
103251,-100,4,2,34,60,0,0
103415,-100,4,2,6,60,0,0
104569,-100,4,2,35,60,0,0
104899,-100,4,2,7,60,0,0
105229,-100,4,2,1,60,0,0
105558,-100,4,2,36,60,0,0
106218,-100,4,2,37,60,0,0
106877,-83.3333333333333,4,2,41,60,0,0
107207,-83.3333333333333,4,2,1,60,0,0
108525,-83.3333333333333,4,2,7,60,0,0
108855,-83.3333333333333,4,2,6,60,0,0
109185,-83.3333333333333,4,2,5,60,0,0
109514,-83.3333333333333,4,2,42,60,0,0
109844,-83.3333333333333,4,2,3,60,0,0
111162,-83.3333333333333,4,2,2,60,0,0
111492,-83.3333333333333,4,2,1,60,0,0
111821,-83.3333333333333,4,2,7,60,0,0
112152,-83.3333333333333,4,2,43,60,0,0
112481,-83.3333333333333,4,2,6,60,0,0
113140,-83.3333333333333,4,2,1,60,0,0
113470,-83.3333333333333,4,2,5,60,0,0
114047,-83.3333333333333,4,2,6,60,0,0
114459,-83.3333333333333,4,2,7,60,0,0
114789,-83.3333333333333,4,2,44,60,0,0
115448,-83.3333333333333,4,2,7,60,0,0
115778,-83.3333333333333,4,2,6,60,0,0
116108,-83.3333333333333,4,2,1,60,0,0
116437,-83.3333333333333,4,2,7,60,0,0
117426,-83.3333333333333,4,2,45,60,0,0
118086,-83.3333333333333,4,2,1,60,0,0
118909,-83.3333333333333,4,2,46,60,0,0
119404,-83.3333333333333,4,2,2,60,0,0
119734,-83.3333333333333,4,2,1,60,0,0
120064,-83.3333333333333,4,2,47,60,0,0
120393,-83.3333333333333,4,2,6,60,0,0
121218,-83.3333333333333,4,2,48,60,0,0
121712,-83.3333333333333,4,2,6,60,0,0
122041,-83.3333333333333,4,2,49,60,0,0
122701,-83.3333333333333,4,2,50,60,0,0
123196,-83.3333333333333,4,2,1,60,0,0
123360,-100,4,2,1,60,0,0
123689,-100,4,2,7,60,0,0
124349,-100,4,2,1,60,0,0
124514,-100,4,2,6,60,0,0
125338,-100,4,2,51,60,0,0
125668,-100,4,2,1,60,0,0
126327,-100,4,2,7,60,0,0
126657,-100,4,2,2,60,0,0
126822,-100,4,2,1,60,0,0
127316,-100,4,2,5,60,0,0
127481,-100,4,2,1,60,0,0
127646,-100,4,2,6,60,0,0
127811,-100,4,2,1,60,0,0
127976,-100,4,2,52,60,0,0
128058,-100,4,2,1,60,0,0
137866,-100,4,2,1,60,0,0
170174,-133.333333333333,4,2,1,60,0,0
172470,329.67032967033,4,2,1,50,1,0
173159,329.67032967033,4,2,1,60,1,0
173305,329.67032967033,4,2,1,50,1,0
174129,329.67032967033,4,2,1,60,1,0
201161,-83.3333333333333,4,2,1,60,0,0
201821,-83.3333333333333,4,2,41,60,0,0
202150,-83.3333333333333,4,2,1,60,0,0
203469,-83.3333333333333,4,2,7,60,0,0
203799,-83.3333333333333,4,2,6,60,0,0
204129,-83.3333333333333,4,2,5,60,0,0
204458,-83.3333333333333,4,2,42,60,0,0
204787,-83.3333333333333,4,2,3,60,0,0
206107,-83.3333333333333,4,2,2,60,0,0
206436,-83.3333333333333,4,2,1,60,0,0
206766,-83.3333333333333,4,2,7,60,0,0
207096,-83.3333333333333,4,2,43,60,0,0
207260,-83.3333333333333,4,2,1,60,0,0
207425,-83.3333333333333,4,2,6,60,0,0
208085,-83.3333333333333,4,2,1,60,0,0
208414,-83.3333333333333,4,2,5,60,0,0
208909,-83.3333333333333,4,2,6,60,0,0
209403,-83.3333333333333,4,2,7,60,0,0
209733,-83.3333333333333,4,2,44,60,0,0
210063,-83.3333333333333,4,2,1,60,0,0
210392,-83.3333333333333,4,2,7,60,0,0
210722,-83.3333333333333,4,2,6,60,0,0
211052,-83.3333333333333,4,2,1,60,0,0
211381,-83.3333333333333,4,2,7,60,0,0
211546,-83.3333333333333,4,2,1,60,0,0
211711,-83.3333333333333,4,2,7,60,0,0
211876,-83.3333333333333,4,2,1,60,0,0
212370,-83.3333333333333,4,2,45,60,0,0
213030,-83.3333333333333,4,2,1,60,0,0
213853,-83.3333333333333,4,2,46,60,0,0
214348,-83.3333333333333,4,2,2,60,0,0
214678,-83.3333333333333,4,2,1,60,0,0
215008,-83.3333333333333,4,2,47,60,0,0
215337,-83.3333333333333,4,2,6,60,0,0
215501,-83.3333333333333,4,2,7,60,0,0
215667,-83.3333333333333,4,2,6,60,0,0
216161,-83.3333333333333,4,2,48,60,0,0
216656,-83.3333333333333,4,2,6,60,0,0
216986,-83.3333333333333,4,2,49,60,0,0
217645,-83.3333333333333,4,2,50,60,0,0
218139,-83.3333333333333,4,2,1,60,0,0
218634,-83.3333333333333,4,2,7,60,0,0
219293,-83.3333333333333,4,2,1,60,0,0
219457,-83.3333333333333,4,2,6,60,0,0
220282,-83.3333333333333,4,2,51,60,0,0
220942,-83.3333333333333,4,2,1,60,0,0
221271,-83.3333333333333,4,2,7,60,0,0
221601,-83.3333333333333,4,2,2,60,0,0
221766,-83.3333333333333,4,2,1,60,0,0
222260,-83.3333333333333,4,2,5,60,0,0
222425,-83.3333333333333,4,2,1,60,0,0
222590,-83.3333333333333,4,2,6,60,0,0
222755,-83.3333333333333,4,2,1,60,0,0
222920,-83.3333333333333,4,2,52,60,0,0
223908,-83.3333333333333,4,2,7,60,0,0
224567,-83.3333333333333,4,2,1,60,0,0
224733,-83.3333333333333,4,2,6,60,0,0
224898,-83.3333333333333,4,2,1,60,0,0
225557,-83.3333333333333,4,2,53,60,0,0
225804,-83.3333333333333,4,2,1,60,0,0
226546,-83.3333333333333,4,2,7,60,0,0
226711,-83.3333333333333,4,2,1,60,0,0
226876,-83.3333333333333,4,2,53,60,0,0
227205,-83.3333333333333,4,2,2,60,0,0
227535,-83.3333333333333,4,2,54,60,0,0
227865,-83.3333333333333,4,2,1,60,0,0
228194,-83.3333333333333,4,2,56,60,0,0
228689,-83.3333333333333,4,2,6,60,0,0
233469,-83.3333333333333,4,2,1,60,0,0
235447,-166.666666666667,4,2,1,60,0,0
235777,-100,4,2,1,60,0,0
236107,-250,4,2,1,60,0,0
237096,-100,4,2,1,60,0,0
237590,-66.6666666666667,4,2,1,60,0,0
241876,-83.3333333333333,4,2,1,60,0,0
244019,-83.3333333333333,4,2,2,60,0,0
247798,329.67032967033,4,2,2,60,1,0

[Colours]
Combo1 : 227,138,140
Combo2 : 158,214,254
Combo3 : 128,168,213
Combo4 : 251,174,186

[HitObjects]
56,264,65,5,2,0:0:0:0:
56,264,229,1,0,0:0:0:0:
148,256,394,1,2,0:0:0:0:
148,256,559,1,0,0:0:0:0:
160,348,724,5,2,0:0:0:0:
68,356,889,1,0,0:0:0:0:
56,264,1054,1,2,0:0:0:0:
148,256,1218,2,0,P|252:248|332:208,1,180,2|0,0:0|0:0,0:0:0:0:
384,160,1713,1,2,0:0:0:0:
376,76,1878,1,0,0:0:0:0:
292,40,2043,5,2,0:0:0:0:
304,152,2207,1,0,0:0:0:0:
272,256,2372,1,2,0:0:0:0:
176,320,2537,1,0,0:0:0:0:
96,280,2702,6,0,L|-16:296,2,90,2|0|0,0:0|0:0|0:0,0:0:0:0:
104,196,3196,2,0,L|-12:212,2,90,2|0|0,0:0|0:0|0:0,0:0:0:0:
112,112,3691,2,0,L|0:124,2,90,2|0|0,0:0|0:0|0:0,0:0:0:0:
140,32,4185,2,0,L|24:40,2,90,2|0|2,0:0|0:0|0:0,0:0:0:0:
200,112,4680,5,0,0:0:0:0:
380,68,4845,1,2,0:0:0:0:
428,144,5010,1,0,0:0:0:0:
336,148,5174,1,2,0:0:0:0:
280,224,5339,6,0,P|336:240|372:244,1,90,2|0,0:0|0:0,0:0:0:0:
456,232,5669,1,2,0:0:0:0:
400,344,5834,1,0,0:0:0:0:
312,312,5999,1,2,0:0:0:0:
280,224,6163,2,0,P|216:236|172:248,1,90,0|2,0:0|0:0,0:0:0:0:
88,352,6493,6,0,P|72:268|72:160,1,180,2|0,0:0|0:0,0:0:0:0:
160,124,6988,1,2,0:0:0:0:
160,124,7152,1,0,0:0:0:0:
20,52,7317,2,0,L|120:44,1,90,2|0,0:0|0:0,0:0:0:0:
260,64,7647,1,2,0:0:0:0:
440,56,7812,5,0,0:0:0:0:
432,60,7894,1,0,0:0:0:0:
424,64,7977,2,0,P|424:156|436:248,1,180,2|0,0:0|0:0,0:0:0:0:
320,96,8471,2,0,L|300:204,2,90,2|0|0,0:0|0:0|0:0,0:0:0:0:
252,40,8966,5,2,0:0:0:0:
168,96,9130,1,2,0:0:0:0:
60,88,9295,1,0,0:0:0:0:
112,32,9460,5,2,0:0:0:0:
156,132,9625,1,0,0:0:0:0:
136,240,9790,1,2,0:0:0:0:
80,304,9955,5,0,0:0:0:0:
192,296,10119,1,2,0:0:0:0:
304,284,10284,1,2,0:0:0:0:
416,272,10449,2,0,B|404:292|404:292|412:316,1,45
448,316,10614,6,0,L|424:116,1,180,4|2,3:2|1:2,0:0:0:0:
444,52,11108,1,0,3:0:0:0:
444,52,11191,1,0,3:0:0:0:
444,52,11273,1,2,3:2:0:0:
344,92,11438,1,0,3:0:0:0:
260,80,11603,1,2,1:2:0:0:
176,108,11768,2,0,L|68:128,1,90,4|0,3:2|0:0,0:0:0:0:
196,28,12097,5,0,0:0:0:0:
160,196,12262,1,2,1:2:0:0:
176,108,12427,1,0,0:0:0:0:
252,212,12592,1,2,3:2:0:0:
144,284,12757,1,0,3:0:0:0:
160,196,12922,1,2,1:2:0:0:
128,376,13086,5,0,3:0:0:0:
128,376,13169,1,0,3:0:0:0:
128,376,13251,1,2,3:2:0:0:
288,296,13416,2,0,L|400:336,1,90,0|0,3:0|1:0,0:0:0:0:
208,332,13746,5,2,3:2:0:0:
376,220,13911,2,0,L|400:124,1,90,0|0,3:0|3:0,0:0:0:0:
188,144,14240,5,2,1:2:0:0:
320,64,14405,2,0,L|292:180,1,90,0|0,3:0|3:0,0:0:0:0:
276,244,14735,5,2,3:2:0:0:
164,280,14900,1,0,1:0:0:0:
104,188,15065,1,0,3:0:0:0:
208,164,15229,5,2,3:2:0:0:
140,256,15394,1,0,3:0:0:0:
288,168,15559,1,2,1:2:0:0:
236,336,15724,1,0,0:0:0:0:
312,288,15889,6,0,P|352:264|396:256,1,90,4|0,3:2|0:0,0:0:0:0:
400,160,16218,2,0,P|468:188|492:212,1,90,2|0,1:2|3:0,0:0:0:0:
484,300,16548,1,2,3:2:0:0:
394,256,16713,1,0,3:0:0:0:
479,198,16878,1,2,1:2:0:0:
400,364,17043,6,0,P|316:324|216:340,1,180,4|0,3:2|3:0,0:0:0:0:
176,272,17537,1,2,1:2:0:0:
60,220,17702,1,0,0:0:0:0:
196,196,17867,1,2,3:2:0:0:
244,80,18032,1,0,3:0:0:0:
136,104,18196,1,2,1:2:0:0:
300,164,18361,1,0,0:0:0:0:
420,64,18526,6,0,L|456:180,1,90,6|0,3:2|3:0,0:0:0:0:
492,336,18856,1,0,1:0:0:0:
328,124,19021,2,0,L|344:232,1,90,2|0,3:2|3:0,0:0:0:0:
360,360,19350,1,0,3:0:0:0:
224,124,19515,2,0,L|212:244,1,90,2|2,1:2|3:2,0:0:0:0:
204,324,19845,1,2,3:2:0:0:
112,104,20010,2,0,L|84:212,1,90,2|0,3:2|1:0,0:0:0:0:
68,276,20339,1,0,3:0:0:0:
200,188,20504,5,0,1:0:0:0:
224,148,20586,1,0,1:0:0:0:
268,136,20669,1,0,1:0:0:0:
312,152,20751,1,0,1:0:0:0:
340,188,20834,1,0,1:0:0:0:
348,232,20916,1,0,1:0:0:0:
388,252,20999,1,0,1:0:0:0:
432,248,21081,1,0,1:0:0:0:
456,208,21163,2,0,L|488:96,1,90,4|0,3:2|0:0,2:0:0:0:
364,72,21493,6,0,L|356:292,1,180,2|2,1:2|3:2,0:0:0:0:
264,148,21988,1,0,3:0:0:0:
264,148,22070,1,0,3:0:0:0:
264,148,22152,2,0,L|256:280,1,90,2|4,1:2|3:2,0:0:0:0:
258,237,22647,1,0,3:0:0:0:
92,296,22812,2,0,P|88:248|100:208,1,90,2|0,1:2|0:0,0:0:0:0:
172,256,23141,5,2,3:2:0:0:
188,76,23306,1,0,3:0:0:0:
200,184,23471,1,2,1:2:0:0:
92,104,23636,1,0,0:0:0:0:
272,128,23801,5,2,3:2:0:0:
384,88,23966,2,0,L|492:64,1,90,0|0,3:0|1:0,0:0:0:0:
324,212,24295,1,2,3:2:0:0:
308,48,24460,1,0,3:0:0:0:
408,180,24625,1,0,3:0:0:0:
272,128,24790,5,2,1:2:0:0:
180,108,24955,2,0,P|100:128|52:236,1,180,0|2,3:0|3:2,0:0:0:0:
160,356,25449,2,0,P|240:336|288:228,1,180,0|2,1:0|3:2,0:0:0:0:
208,192,25944,1,0,3:0:0:0:
208,192,26026,1,0,3:0:0:0:
208,192,26108,1,2,1:2:0:0:
316,120,26273,1,0,0:0:0:0:
432,332,26438,6,0,P|424:284|424:236,1,90,4|0,3:2|0:0,0:0:0:0:
340,344,26768,2,0,P|340:244|356:148,1,180,2|2,1:2|3:2,0:0:0:0:
436,132,27262,1,0,3:0:0:0:
440,216,27427,1,2,1:2:0:0:
304,88,27592,2,0,P|232:104|176:116,1,90,4|0,3:2|0:0,0:0:0:0:
144,64,27922,1,0,3:0:0:0:
76,112,28086,1,2,1:2:0:0:
144,160,28251,5,0,0:0:0:0:
72,296,28416,1,2,3:2:0:0:
216,356,28581,1,0,3:0:0:0:
288,220,28746,1,2,1:2:0:0:
180,260,28911,5,0,0:0:0:0:
180,260,28993,1,0,0:0:0:0:
180,260,29075,1,2,3:2:0:0:
376,304,29240,1,0,3:0:0:0:
376,304,29405,1,0,1:0:0:0:
228,156,29570,5,2,3:2:0:0:
344,236,29735,1,0,3:0:0:0:
344,236,29900,1,0,3:0:0:0:
292,72,30065,5,2,1:2:0:0:
348,160,30229,1,2,3:2:0:0:
348,160,30394,1,2,3:2:0:0:
380,32,30559,5,2,3:2:0:0:
408,112,30724,1,0,1:0:0:0:
408,112,30889,1,2,3:2:0:0:
292,216,31054,6,0,L|228:228,1,45,0|0,1:0|1:0,0:0:0:0:
212,204,31218,2,0,L|140:216,1,45,0|0,1:0|1:0,0:0:0:0:
44,72,31383,5,0,1:0:0:0:
16,148,31548,2,0,L|32:220,1,45,0|0,0:0|2:0,0:0:0:0:
204,124,31713,5,4,3:2:0:0:
204,124,32043,1,0,1:0:0:0:
253,68,32207,2,0,P|311:65|401:28,1,135.000005149842,2|0,0:0|0:0,0:0:0:0:
466,148,32702,1,0,1:0:0:0:
407,199,32867,2,0,P|351:190|323:173,1,67.5000025749208,2|0,3:2|2:0,0:0:0:0:
235,227,33196,1,0,3:0:0:0:
289,294,33361,1,0,1:0:0:0:
266,323,33526,2,0,P|263:251|256:158,1,135.000005149842,2|0,0:0|3:0,0:0:0:0:
87,327,34021,2,0,P|128:357|165:372,1,67.5000025749208,0|0,1:0|3:0,0:0:0:0:
121,207,34350,5,2,3:2:0:0:
8,307,34515,1,2,3:2:0:0:
148,384,34680,2,0,P|196:352|258:283,1,135.000005149842,0|0,1:0|2:0,0:0:0:0:
315,257,35174,1,0,3:0:0:0:
426,202,35339,2,0,L|491:231,1,67.5000025749208,0|2,1:0|0:0,0:0:0:0:
403,271,35669,5,0,3:0:0:0:
347,190,35834,1,0,3:0:0:0:
404,115,35999,1,0,1:0:0:0:
497,146,36163,1,0,3:0:0:0:
423,148,36328,1,0,3:0:0:0:
386,83,36493,1,0,3:0:0:0:
427,16,36658,2,0,L|362:45,1,67.5000025749208,0|0,1:0|3:0,0:0:0:0:
140,63,36988,5,2,3:2:0:0:
232,142,37152,1,2,0:0:0:0:
140,155,37317,1,0,1:0:0:0:
226,58,37482,2,0,P|300:31|376:31,1,135.000005149842,2|0,0:0|0:0,0:0:0:0:
352,189,37977,1,0,1:0:0:0:
417,138,38141,2,0,P|463:161|499:170,1,67.5000025749208,2|0,3:2|2:0,0:0:0:0:
400,326,38471,1,0,3:0:0:0:
481,283,38636,1,0,1:0:0:0:
382,238,38801,1,2,0:0:0:0:
399,354,38966,2,0,L|321:336,1,67.5000025749208,0|0,0:0|3:0,0:0:0:0:
286,255,39295,2,0,P|223:258|150:306,1,135.000005149842,0|2,1:0|3:2,2:0:0:0:
79,266,39790,5,2,3:2:0:0:
148,370,39955,1,0,1:0:0:0:
51,360,40119,2,0,P|30:289|21:217,1,135.000005149842,2|0,0:0|3:0,0:0:0:0:
7,158,40614,1,0,1:0:0:0:
12,83,40779,2,0,P|27:39|39:11,1,67.5000025749208,2|0,3:2|0:0,0:0:0:0:
86,183,41108,1,0,3:0:0:0:
91,108,41273,2,0,P|106:64|118:36,1,67.5000025749208,0|2,1:0|3:2,0:0:0:0:
165,208,41603,1,0,3:0:0:0:
170,133,41768,1,0,3:0:0:0:
244,233,41933,1,0,1:0:0:0:
249,158,42098,1,0,3:0:0:0:
376,36,42262,5,4,3:2:0:0:
376,36,42592,1,0,1:0:0:0:
423,98,42757,2,0,P|452:149|459:165,2,67.5000025749208,2|0|0,0:0|2:0|3:0,0:0:0:0:
271,198,43251,1,0,1:0:0:0:
294,286,43416,2,0,P|314:226|352:136,1,135.000005149842,2|2,3:2|3:2,0:0:0:0:
420,268,43911,2,0,P|444:312|460:347,1,67.5000025749208,0|2,1:0|0:0,0:0:0:0:
381,358,44240,1,0,3:0:0:0:
346,292,44405,1,0,3:0:0:0:
420,268,44570,1,0,1:0:0:0:
218,285,44900,6,0,P|196:222|170:159,1,135.000005149842,2|0,3:2|1:0,0:0:0:0:
135,88,45394,1,2,0:0:0:0:
65,126,45559,2,0,P|31:148|5:167,1,67.5000025749208,0|2,3:0|3:2,0:0:0:0:
135,88,45889,1,0,1:0:0:0:
208,56,46054,2,0,P|270:40|350:26,1,135.000005149842,2|0,3:2|3:0,0:0:0:0:
415,20,46548,1,0,1:0:0:0:
485,55,46713,1,2,3:2:0:0:
501,128,46878,2,0,P|488:179|479:208,1,67.5000025749208,0|0,0:0|3:0,0:0:0:0:
307,169,47207,2,0,P|316:136|324:103,1,67.5000025749208,2|0,1:2|3:0,2:0:0:0:
389,195,47537,6,0,P|400:250|424:346,2,135.000005149842,2|0|0,3:2|1:0|0:0,0:0:0:0:
331,305,48361,1,2,3:2:0:0:
439,366,48526,2,0,P|481:334|508:315,1,67.5000025749208,0|2,1:0|3:2,0:0:0:0:
308,232,48856,2,0,P|266:253|169:306,2,135.000005149842,0|0|0,0:0|1:0|0:0,0:0:0:0:
285,334,49680,1,0,3:0:0:0:
153,286,49845,2,0,P|162:232|167:196,1,67.5000025749208,2|0,1:2|0:0,0:0:0:0:
226,126,50174,5,2,3:2:0:0:
206,31,50339,1,0,2:0:0:0:
302,57,50504,1,2,1:2:0:0:
216,54,50669,2,0,P|249:57|283:64,2,67.5000025749208,2|0|2,0:0|3:0|0:0,0:0:0:0:
166,117,51163,1,0,1:0:0:0:
324,134,51328,6,0,P|366:129|406:121,1,67.5000025749208,2|0,3:2|0:0,0:0:0:0:
182,195,51658,2,0,P|140:190|100:182,1,67.5000025749208,0|0,3:0|1:0,0:0:0:0:
356,292,51988,2,0,P|398:287|438:279,1,67.5000025749208,0|0,3:0|1:0,0:0:0:0:
212,324,52317,1,0,3:0:0:0:
146,369,52482,5,2,1:2:0:0:
113,360,52565,1,0,3:0:0:0:
80,351,52647,1,0,3:0:0:0:
47,343,52729,1,0,3:0:0:0:
13,335,52812,1,4,3:2:0:0:
39,269,52977,1,0,0:0:0:0:
110,245,53141,1,2,1:2:0:0:
180,284,53306,1,6,3:2:0:0:
279,324,53471,1,2,3:2:0:0:
369,275,53636,1,0,3:0:0:0:
391,207,53801,1,2,1:2:0:0:
378,176,53966,6,0,P|373:130|467:50,1,180,4|0,3:2|3:0,0:0:0:0:
492,219,54460,2,0,P|480:288|469:331,1,90,2|0,1:2|0:0,0:0:0:0:
369,356,54790,1,2,3:2:0:0:
310,268,54955,1,0,3:0:0:0:
400,261,55119,1,2,1:2:0:0:
285,358,55284,1,0,0:0:0:0:
247,212,55449,5,2,3:2:0:0:
113,251,55614,1,0,3:0:0:0:
146,378,55779,1,0,1:0:0:0:
183,299,55944,5,2,3:2:0:0:
32,264,56108,1,0,3:0:0:0:
126,165,56273,1,0,3:0:0:0:
124,259,56438,1,2,1:2:0:0:
124,259,56521,1,0,3:0:0:0:
124,259,56603,1,0,3:0:0:0:
124,259,56685,1,0,3:0:0:0:
124,259,56768,1,0,3:0:0:0:
53,197,56933,5,2,3:2:0:0:
193,210,57097,2,0,P|241:186|277:157,1,90,0|0,1:0|3:0,0:0:0:0:
114,130,57427,2,0,P|65:105|32:80,1,90,2|0,3:2|3:0,0:0:0:0:
223,29,57757,1,2,1:2:0:0:
199,102,57922,1,0,2:0:0:0:
405,106,58086,5,4,3:2:0:0:
344,59,58251,1,0,0:0:0:0:
280,102,58416,1,2,1:2:0:0:
282,189,58581,1,0,2:0:0:0:
224,261,58746,1,2,3:2:0:0:
136,249,58911,1,0,3:0:0:0:
63,270,59075,1,2,1:2:0:0:
45,294,59240,6,0,B|150:285|153:285|238:271,1,180,4|0,3:2|3:0,0:0:0:0:
411,152,59735,2,0,P|394:122|338:98,1,90,2|0,1:2|0:0,0:0:0:0:
328,206,60065,1,2,3:2:0:0:
395,272,60229,1,0,3:0:0:0:
480,215,60394,1,2,1:2:0:0:
411,152,60559,1,0,0:0:0:0:
270,260,60724,5,6,3:2:0:0:
171,214,60889,1,0,3:0:0:0:
251,171,61054,1,0,1:0:0:0:
195,286,61218,1,2,3:2:0:0:
164,163,61383,5,0,3:0:0:0:
101,206,61548,1,0,3:0:0:0:
83,280,61713,1,2,1:2:0:0:
76,180,61878,2,0,P|86:118|81:66,1,90,2|2,3:2|3:2,0:0:0:0:
271,40,62207,5,2,3:2:0:0:
149,20,62372,1,0,1:0:0:0:
271,40,62537,1,2,3:2:0:0:
149,20,62702,1,2,1:2:0:0:
97,35,62784,1,0,1:0:0:0:
63,77,62867,1,0,1:0:0:0:
71,130,62949,1,0,1:0:0:0:
105,171,63032,1,0,1:0:0:0:
128,219,63114,1,0,1:0:0:0:
122,272,63196,1,0,1:0:0:0:
96,319,63279,1,0,1:0:0:0:
58,357,63361,5,4,3:2:0:0:
41,288,63526,1,0,3:0:0:0:
88,232,63691,1,2,1:2:0:0:
171,253,63856,1,0,3:0:0:0:
261,272,64021,1,2,3:2:0:0:
332,205,64185,1,0,3:0:0:0:
322,126,64350,1,2,1:2:0:0:
298,100,64515,6,0,P|271:162|243:288,1,180,4|0,3:2|3:0,0:0:0:0:
423,258,65010,2,0,P|458:191|469:159,1,90,2|0,1:2|0:0,0:0:0:0:
362,195,65339,1,2,3:2:0:0:
349,290,65504,1,0,3:0:0:0:
444,335,65669,1,2,1:2:0:0:
512,264,65834,1,0,0:0:0:0:
446,101,65999,5,2,3:2:0:0:
359,160,66163,1,0,3:0:0:0:
290,89,66328,1,0,1:0:0:0:
367,85,66493,1,2,3:2:0:0:
271,182,66658,1,0,3:0:0:0:
188,100,66823,1,0,3:0:0:0:
237,37,66988,1,2,1:2:0:0:
290,89,67152,1,0,3:0:0:0:
243,149,67317,1,0,3:0:0:0:
129,52,67482,1,2,3:2:0:0:
32,166,67647,1,0,1:0:0:0:
146,263,67812,1,0,3:0:0:0:
172,161,67977,5,2,3:2:0:0:
151,136,68059,1,0,3:0:0:0:
130,110,68141,1,0,3:0:0:0:
105,131,68224,1,0,3:0:0:0:
79,152,68306,1,2,1:2:0:0:
100,177,68389,1,0,3:0:0:0:
121,203,68471,1,0,3:0:0:0:
146,182,68554,1,0,3:0:0:0:
172,161,68636,1,4,3:2:0:0:
239,136,68801,1,0,0:0:0:0:
305,168,68966,1,2,1:2:0:0:
348,251,69130,1,0,3:0:0:0:
439,245,69295,1,2,3:2:0:0:
476,171,69460,1,0,3:0:0:0:
436,108,69625,1,2,1:2:0:0:
416,99,69790,6,0,B|332:122|359:167|258:194,1,180,4|0,3:2|3:0,0:0:0:0:
89,95,70284,2,0,P|38:152|31:182,1,90,2|0,1:2|0:0,0:0:0:0:
98,260,70614,1,2,3:2:0:0:
171,187,70779,1,0,3:0:0:0:
13,261,70944,1,2,1:2:0:0:
145,338,71108,1,0,0:0:0:0:
266,247,71273,5,2,3:2:0:0:
380,302,71438,1,0,3:0:0:0:
268,352,71603,1,0,1:0:0:0:
309,296,71768,1,2,3:2:0:0:
297,145,71933,5,0,3:0:0:0:
411,200,72098,1,0,3:0:0:0:
196,334,72263,5,2,1:2:0:0:
147,238,72427,2,0,P|166:169|185:40,1,180,2|2,3:2|3:2,0:0:0:0:
420,172,72922,2,0,P|428:249|434:274,1,90,2|0,1:2|0:0,0:0:0:0:
420,172,73251,1,0,1:0:0:0:
410,140,73334,1,0,1:0:0:0:
406,108,73416,1,0,1:0:0:0:
405,75,73499,1,0,1:0:0:0:
405,42,73581,1,0,1:0:0:0:
254,182,73746,1,0,0:0:0:0:
271,56,73911,6,0,P|150:51|97:107,1,180,4|0,3:2|1:0,0:0:0:0:
109,85,74570,1,0,0:0:0:0:
69,154,74735,1,0,3:0:0:0:
84,229,74900,1,0,1:0:0:0:
84,229,75229,2,0,P|133:249|180:273,1,90,0|0,3:0|3:0,0:0:0:0:
196,180,75559,2,0,P|184:218|161:276,1,90,0|2,1:0|0:0,0:0:0:0:
116,333,75889,1,0,3:0:0:0:
207,363,76054,1,0,3:0:0:0:
321,198,76218,5,0,1:0:0:0:
321,198,76548,2,0,P|361:124|471:73,1,180,2|0,3:2|1:0,0:0:0:0:
212,63,77043,2,0,L|254:178,1,90,2|0,0:0|0:0,0:0:0:0:
331,320,77372,1,2,3:2:0:0:
393,236,77537,1,0,1:0:0:0:
393,236,77867,1,0,0:0:0:0:
232,283,78032,1,0,3:0:0:0:
413,332,78196,1,0,1:0:0:0:
413,332,78526,1,0,3:0:0:0:
448,137,78691,1,0,3:0:0:0:
476,253,78856,1,0,1:0:0:0:
311,219,79021,1,0,3:0:0:0:
386,184,79185,6,0,P|399:264|336:360,1,180,2|0,3:2|1:0,0:0:0:0:
128,203,79845,2,0,P|115:123|178:27,1,180,0|0,3:0|1:0,0:0:0:0:
229,244,80339,2,0,P|220:296|207:345,1,90,2|0,0:0|3:0,0:0:0:0:
141,273,80669,1,2,3:2:0:0:
277,143,80834,2,0,P|337:152|386:166,1,90,0|2,1:0|0:0,0:0:0:0:
449,119,81163,1,0,0:0:0:0:
449,119,81328,1,0,3:0:0:0:
413,275,81493,5,0,1:0:0:0:
413,275,81823,2,0,P|319:276|226:295,1,180,2|0,3:2|1:0,0:0:0:0:
234,292,82482,1,0,3:0:0:0:
161,242,82647,1,2,3:2:0:0:
214,173,82812,1,0,1:0:0:0:
214,173,83141,1,0,3:0:0:0:
240,89,83306,1,0,3:0:0:0:
173,43,83471,1,0,1:0:0:0:
134,117,83636,1,2,3:2:0:0:
389,169,83801,6,0,L|410:73,1,90,0|0,0:0|3:0,0:0:0:0:
478,142,84130,2,0,L|457:241,1,90,0|0,1:0|3:0,0:0:0:0:
435,243,84378,1,0,3:0:0:0:
410,254,84460,1,4,3:2:0:0:
348,315,84625,1,0,0:0:0:0:
267,346,84790,1,0,1:0:0:0:
195,296,84955,2,0,P|199:211|218:111,1,180,2|0,0:0|3:0,0:0:0:0:
98,155,85449,2,0,P|91:256|80:341,1,180,0|0,1:0|0:0,0:0:0:0:
162,361,85944,1,0,3:0:0:0:
331,361,86108,2,0,P|283:362|232:355,1,90,0|0,1:0|0:0,0:0:0:0:
162,361,86438,5,0,3:0:0:0:
414,372,86768,1,0,1:0:0:0:
414,372,87097,2,0,P|441:288|407:204,1,180,2|0,3:2|1:0,0:0:0:0:
408,205,87757,1,0,0:0:0:0:
336,241,87922,1,0,3:0:0:0:
357,125,88086,5,0,1:0:0:0:
357,125,88416,2,0,P|296:117|245:119,1,90,2|2,3:2|3:2,0:0:0:0:
197,155,88746,1,0,1:0:0:0:
197,155,89075,1,0,3:0:0:0:
227,237,89240,1,0,3:0:0:0:
144,262,89405,1,2,1:2:0:0:
109,185,89570,1,0,0:0:0:0:
311,270,89735,6,0,P|406:282|506:285,1,180,4|0,3:2|1:0,0:0:0:0:
490,285,90229,1,2,0:0:0:0:
368,99,90394,2,0,P|359:144|354:196,1,90,0|2,0:0|3:2,0:0:0:0:
441,158,90724,1,0,1:0:0:0:
253,217,90889,2,0,P|276:137|277:24,1,180,2|2,3:2|3:2,0:0:0:0:
205,77,91383,1,0,1:0:0:0:
209,300,91548,2,0,P|254:295|331:279,1,90,2|0,0:0|3:0,0:0:0:0:
297,287,91878,1,2,3:2:0:0:
165,194,92043,2,0,P|112:199|68:205,1,90,0|0,1:0|3:0,0:0:0:0:
59,291,92372,5,4,3:2:0:0:
75,203,92537,1,0,0:0:0:0:
92,116,92702,1,0,1:0:0:0:
92,116,93032,2,0,P|223:107|304:95,1,180,0|0,3:0|1:0,0:0:0:0:
271,100,93526,1,2,0:0:0:0:
444,229,93691,5,0,3:0:0:0:
358,255,93856,1,2,3:2:0:0:
269,232,94021,5,0,1:0:0:0:
35,277,94185,1,2,3:2:0:0:
257,359,94515,5,2,3:2:0:0:
179,277,94680,5,0,1:0:0:0:
179,277,94762,5,0,3:0:0:0:
179,277,94845,5,0,3:0:0:0:
179,277,94927,5,0,3:0:0:0:
179,277,95010,6,0,P|181:247|191:228,1,45,0|0,1:0|0:0,0:0:0:0:
141,175,95174,6,0,P|182:157|197:156,1,53.9999983520508,2|0,0:0|0:0,0:0:0:0:
201,81,95339,6,0,P|241:102|253:115,1,62.9999980773926,2|0,0:0|0:0,0:0:0:0:
318,71,95504,6,0,P|328:108|326:147,1,72,2|0,0:0|0:0,0:0:0:0:
400,181,95669,6,0,P|358:211|325:223,1,80.9999975280763,2|0,0:0|0:0,0:0:0:0:
346,304,95834,6,0,P|297:295|255:273,1,90,2|0,0:0|0:0,0:0:0:0:
264,195,95999,6,0,B|263:210|239:200|258:190,1,31.4999990386963,2|0,0:0|0:0,0:0:0:0:
184,242,96328,6,0,P|125:277|41:266,1,135.000005149842,4|0,3:2|2:0,0:0:0:0:
134,138,96822,1,0,3:0:0:0:
134,138,96904,1,0,3:0:0:0:
134,138,96986,2,0,P|198:108|312:119,1,180,12|0,3:3|0:3,0:0:0:0:
368,62,97481,1,4,3:2:0:0:
474,215,97646,6,0,L|370:234,1,90,2|0,0:0|2:0,0:0:0:0:
414,147,97975,1,4,0:0:0:0:
370,308,98140,1,0,1:0:0:0:
330,164,98305,2,0,P|284:178|228:183,1,90,0|0,0:0|3:0,0:0:0:0:
148,346,98635,2,0,P|194:332|250:327,1,90,8|0,3:2|2:0,0:0:0:0:
242,182,98964,5,0,0:0:0:0:
235,327,99129,1,0,2:0:0:0:
114,256,99294,1,12,0:2:0:0:
114,256,99446,1,0,0:0:0:0:
54,194,99610,6,0,P|52:169|63:93,1,90,10|0,0:2|0:0,2:0:0:0:
150,96,99940,2,0,P|152:121|141:197,1,84,12|8,1:2|0:0,0:0:0:0:
435,63,100284,6,0,P|335:66|256:66,3,180,4|10|10|10,3:2|1:2|3:2|1:2,0:0:0:0:
255,192,101437,1,2,0:0:0:0:
255,318,101602,1,12,3:2:0:0:
255,318,101932,2,0,P|144:322|46:319,2,180,2|0|0,1:2|3:0|1:0,2:0:0:0:
255,192,102756,1,2,3:2:0:0:
255,65,102921,6,0,P|199:66|150:69,1,90,0|0,0:0|2:0,0:0:0:0:
86,88,103251,1,0,1:0:0:0:
96,297,103415,1,10,0:0:0:0:
30,250,103580,2,0,P|27:204|29:156,1,90,0|2,3:0|3:2,0:0:0:0:
229,216,103910,2,0,P|232:262|230:310,1,90,2|0,1:2|3:0,0:0:0:0:
135,208,104240,5,0,0:0:0:0:
135,208,104404,1,0,2:0:0:0:
233,82,104569,1,0,1:0:0:0:
233,82,104734,1,0,0:0:0:0:
90,148,104899,1,10,3:2:0:0:
90,148,105064,1,0,2:0:0:0:
248,155,105229,1,0,1:0:0:0:
248,155,105393,1,0,0:0:0:0:
320,102,105558,5,14,1:2:0:0:
260,234,105723,1,0,0:0:0:0:
146,144,105888,1,0,1:2:0:0:
229,307,106053,1,0,0:0:0:0:
400,224,106218,5,14,1:2:0:0:
432,239,106300,1,0,1:0:0:0:
432,274,106382,1,0,1:0:0:0:
397,283,106465,1,0,1:0:0:0:
377,252,106547,1,4,0:3:0:0:
368,43,106712,5,4,0:3:0:0:
368,43,106794,1,4,0:3:0:0:
368,43,106877,2,0,P|303:59|190:63,1,161.999995056153,12|0,1:2|0:0,0:0:0:0:
196,46,107207,2,0,P|185:102|167:155,1,107.999996704102,0|0,1:0|3:0,2:0:0:0:
59,218,107536,1,0,3:0:0:0:
27,107,107701,1,0,3:0:0:0:
148,222,107866,2,0,P|159:278|177:331,1,107.999996704102,0|0,1:0|0:0,0:0:0:0:
330,237,108196,5,0,3:0:0:0:
232,226,108360,1,0,3:0:0:0:
267,315,108525,1,14,1:2:0:0:
414,263,108690,5,0,3:0:0:0:
308,258,108855,1,10,3:2:0:0:
349,163,109020,1,0,0:0:0:0:
393,334,109185,5,10,1:2:0:0:
433,348,109267,1,0,3:0:0:0:
473,362,109349,1,0,3:0:0:0:
510,379,109432,1,0,3:0:0:0:
510,379,109514,2,0,L|486:244,1,107.999996704102,4|0,3:2|2:0,0:0:0:0:
324,363,109844,5,0,1:0:0:0:
348,265,110009,1,8,0:0:0:0:
222,300,110174,2,0,P|194:317|170:400,2,107.999996704102,2|0|0,3:2|0:0|1:0,0:0:0:0:
181,234,110668,1,0,3:0:0:0:
125,178,110833,2,0,P|90:174|54:96,2,107.999996704102,2|0|12,3:2|0:0|1:2,0:0:0:0:
176,124,111327,1,0,2:0:0:0:
217,58,111492,2,0,P|241:14|305:7,2,107.999996704102,10|0|12,3:2|0:0|1:2,0:0:0:0:
277,107,111987,1,0,0:0:0:0:
130,62,112152,5,14,3:2:0:0:
85,209,112316,1,0,0:0:0:0:
232,254,112481,1,2,1:2:0:0:
277,324,112646,6,0,P|344:312|453:279,1,161.999995056153,8|0,2:0|0:0,2:0:0:0:
456,298,112976,2,0,P|452:227|431:171,1,107.999996704102,2|2,3:2|1:2,0:0:0:0:
477,89,113305,1,0,0:0:0:0:
345,202,113470,1,10,3:2:0:0:
377,81,113635,1,8,3:2:0:0:
308,20,113800,6,0,P|230:43|150:58,1,161.999995056153,10|0,1:2|3:2,0:0:0:0:
126,47,114130,1,2,3:2:0:0:
84,150,114294,1,0,3:0:0:0:
203,134,114459,2,0,P|261:119|314:97,1,107.999996704102,10|0,1:2|2:0,0:0:0:0:
253,251,114789,5,14,3:2:0:0:
144,230,114954,1,0,0:0:0:0:
187,126,115119,1,0,1:0:0:0:
246,172,115284,5,0,0:0:0:0:
105,142,115448,1,10,3:2:0:0:
80,276,115613,1,0,0:0:0:0:
225,314,115778,1,8,1:2:0:0:
184,249,115943,5,0,0:0:0:0:
32,208,116108,1,12,1:2:0:0:
80,56,116273,1,2,0:0:0:0:
227,97,116437,1,12,1:2:0:0:
59,136,116602,5,2,3:2:0:0:
157,159,116767,1,12,3:2:0:0:
82,141,116932,1,4,3:0:0:0:
239,179,117097,5,0,1:0:0:0:
371,217,117262,5,4,3:0:0:0:
512,265,117426,6,0,P|496:192|484:66,1,161.999995056153,12|0,3:2|0:0,0:0:0:0:
495,84,117756,2,0,P|436:84|366:78,1,107.999996704102,8|8,1:2|3:2,2:0:0:0:
270,5,118086,1,2,3:2:0:0:
306,142,118251,1,0,0:0:0:0:
366,6,118415,1,10,1:2:0:0:
231,89,118580,2,0,P|166:80|12:24,1,215.999993408203,0|0,0:0|3:0,2:0:0:0:
185,174,119075,6,0,P|226:233|225:282,1,107.999996704102,10|0,1:2|3:0,2:0:0:0:
104,336,119404,1,10,3:2:0:0:
208,383,119569,1,0,0:0:0:0:
89,363,119734,2,0,L|101:236,1,107.999996704102,10|0,1:2|2:0,0:0:0:0:
281,161,120064,6,0,P|354:189|363:327,1,215.999993408203,12|10,3:2|1:2,0:0:0:0:
222,300,120558,1,0,0:0:0:0:
272,240,120723,1,2,3:2:0:0:
144,281,120888,1,0,0:0:0:0:
233,377,121053,1,0,1:0:0:0:
222,300,121218,6,0,P|223:201|215:58,1,215.999993408203,12|0,3:2|0:0,0:0:0:0:
197,12,121712,2,0,P|202:119|201:227,1,215.999993408203,10|4,1:2|3:2,0:0:0:0:
296,116,122207,1,0,3:0:0:0:
197,12,122371,1,0,1:0:0:0:
103,120,122536,1,0,3:0:0:0:
201,227,122701,5,12,3:2:0:0:
251,174,122866,1,0,0:0:0:0:
182,156,123031,1,8,0:0:0:0:
130,210,123196,1,10,1:2:0:0:
248,293,123360,6,0,P|308:263|402:172,1,180,0|8,2:0|3:2,0:0:0:0:
425,115,123855,1,0,1:0:0:0:
466,311,124020,6,0,P|399:316|358:313,2,90,10|0|8,1:2|3:0|3:2,2:0:0:0:
307,351,124514,1,10,1:2:0:0:
270,351,124597,1,0,3:0:0:0:
234,351,124679,1,0,3:0:0:0:
162,356,124844,1,0,3:0:0:0:
90,348,125009,1,4,1:2:0:0:
19,360,125174,1,0,3:0:0:0:
196,241,125338,5,14,1:2:0:0:
303,278,125503,1,8,3:2:0:0:
304,132,125668,2,0,L|196:153,1,90,12|0,1:2|2:0,0:0:0:0:
141,127,125998,5,10,1:2:0:0:
266,216,126163,1,0,3:0:0:0:
238,36,126327,2,0,L|346:57,1,90,12|0,1:2|2:0,0:0:0:0:
399,31,126657,5,10,1:2:0:0:
293,141,126822,1,8,0:3:0:0:
425,135,126987,1,10,1:2:0:0:
319,245,127152,1,8,0:3:0:0:
488,331,127316,5,10,1:2:0:0:
479,295,127399,1,0,0:0:0:0:
464,262,127481,1,2,1:2:0:0:
444,231,127564,1,0,0:0:0:0:
419,204,127646,1,10,1:2:0:0:
390,181,127729,1,0,0:0:0:0:
364,155,127811,1,2,1:2:0:0:
349,122,127893,1,0,0:0:0:0:
345,85,127976,6,0,P|430:84|506:8,2,180,4|2|2,3:2|1:2|3:2,0:0:0:0:
272,17,128800,1,0,3:0:0:0:
159,158,128965,1,2,1:2:0:0:
218,237,129130,2,0,P|234:173|253:31,1,180,4|0,3:2|3:0,0:0:0:0:
102,108,129624,2,0,P|54:153|40:198,1,90,2|0,1:2|0:0,0:0:0:0:
132,253,129954,1,2,3:2:0:0:
76,340,130119,1,0,3:0:0:0:
266,341,130284,2,0,P|244:301|208:274,1,90,2|0,1:2|0:0,0:0:0:0:
199,368,130613,5,2,3:2:0:0:
363,312,130778,1,0,3:0:0:0:
289,195,130943,1,0,1:0:0:0:
285,272,131108,5,2,3:2:0:0:
376,169,131273,1,0,3:0:0:0:
465,273,131437,1,0,3:0:0:0:
370,250,131602,5,2,1:2:0:0:
306,122,131767,1,0,3:0:0:0:
445,83,131932,1,0,3:0:0:0:
401,172,132097,5,2,3:2:0:0:
317,34,132262,1,0,1:0:0:0:
189,123,132427,1,0,3:0:0:0:
291,132,132591,5,2,3:2:0:0:
203,11,132756,1,0,3:0:0:0:
332,28,132921,1,2,1:2:0:0:
165,112,133086,1,0,2:0:0:0:
111,54,133251,6,0,L|16:69,1,90,4|0,3:2|0:0,0:0:0:0:
206,182,133580,2,0,L|294:167,1,90,2|0,1:2|2:0,0:0:0:0:
226,80,133910,1,2,3:2:0:0:
108,175,134075,1,0,3:0:0:0:
221,284,134240,1,2,1:2:0:0:
298,260,134404,6,0,P|357:246|489:233,1,180,4|0,3:2|3:0,0:0:0:0:
300,358,134899,2,0,P|251:349|209:326,1,90,2|0,1:2|0:0,0:0:0:0:
330,112,135229,2,0,P|282:167|292:216,1,90,2|0,3:2|3:0,0:0:0:0:
404,182,135558,1,2,1:2:0:0:
417,69,135723,1,0,0:0:0:0:
225,128,135888,5,6,3:2:0:0:
144,64,136053,1,0,3:0:0:0:
271,17,136218,1,0,1:0:0:0:
207,121,136382,5,2,3:2:0:0:
91,66,136547,1,0,3:0:0:0:
131,217,136712,1,0,3:0:0:0:
192,113,136877,5,2,1:2:0:0:
69,17,137042,1,2,3:2:0:0:
25,258,137207,5,2,3:2:0:0:
97,209,137371,1,2,3:2:0:0:
227,328,137536,1,0,1:0:0:0:
227,328,137866,1,0,1:0:0:0:
261,317,137948,1,0,1:0:0:0:
295,306,138031,1,0,1:0:0:0:
329,296,138113,1,0,1:0:0:0:
364,289,138196,1,0,1:0:0:0:
398,281,138278,1,0,1:0:0:0:
431,269,138360,1,0,1:0:0:0:
465,257,138443,1,0,1:0:0:0:
474,208,138525,6,0,P|422:215|288:251,1,180,4|2,3:2|1:2,0:0:0:0:
207,201,139020,1,0,0:0:0:0:
167,298,139185,2,0,P|107:315|50:336,1,90,2|0,3:2|3:0,0:0:0:0:
261,340,139514,1,2,1:2:0:0:
191,209,139679,2,0,P|171:141|124:19,1,180,4|0,3:2|3:0,0:0:0:0:
251,102,140174,2,0,P|266:158|278:196,1,90,2|0,1:2|0:0,0:0:0:0:
72,126,140503,2,0,P|58:82|47:39,1,90,2|0,3:2|3:0,0:0:0:0:
209,39,140833,1,2,1:2:0:0:
280,14,140998,1,0,0:0:0:0:
341,68,141163,5,2,3:2:0:0:
479,27,141327,1,0,3:0:0:0:
512,166,141492,1,0,1:0:0:0:
374,207,141656,1,2,3:2:0:0:
330,147,141822,5,0,3:0:0:0:
449,212,141987,1,0,3:0:0:0:
344,275,142152,1,2,1:2:0:0:
374,207,142316,1,0,3:0:0:0:
374,207,142646,5,2,3:2:0:0:
234,144,142811,1,0,1:0:0:0:
202,295,142976,1,0,3:0:0:0:
135,189,143141,5,2,3:2:0:0:
251,237,143305,1,0,3:0:0:0:
246,123,143470,1,2,1:2:0:0:
204,182,143635,1,0,0:0:0:0:
336,179,143800,5,4,3:2:0:0:
316,84,143965,1,0,0:0:0:0:
418,85,144130,1,2,1:2:0:0:
416,193,144294,1,0,3:0:0:0:
502,201,144459,1,2,3:2:0:0:
506,95,144624,1,0,3:0:0:0:
361,19,144789,5,2,1:2:0:0:
295,86,144954,2,0,P|237:106|136:192,1,180,4|0,3:2|3:0,0:0:0:0:
46,168,145448,1,2,1:2:0:0:
91,258,145613,1,0,0:0:0:0:
112,90,145778,2,0,P|91:38|55:0,1,90,2|0,3:2|3:0,0:0:0:0:
176,275,146108,2,0,P|148:310|133:352,1,90,2|0,1:2|0:0,0:0:0:0:
236,219,146437,5,2,3:2:0:0:
291,297,146602,1,0,3:0:0:0:
365,175,146767,1,0,1:0:0:0:
413,254,146932,1,2,3:2:0:0:
313,230,147097,5,0,3:0:0:0:
355,97,147262,1,0,3:0:0:0:
440,162,147426,1,2,1:2:0:0:
387,322,147591,1,2,3:2:0:0:
351,167,147756,5,2,3:2:0:0:
237,140,147921,1,2,3:2:0:0:
307,66,148086,1,0,1:0:0:0:
479,122,148251,5,2,3:2:0:0:
431,195,148415,1,0,1:0:0:0:
442,229,148498,1,0,1:0:0:0:
452,263,148580,1,0,1:0:0:0:
463,297,148663,1,0,1:0:0:0:
475,330,148745,1,0,1:0:0:0:
430,324,148827,1,0,3:0:0:0:
385,325,148909,1,0,3:2:0:0:
341,333,148992,1,0,3:0:0:0:
298,347,149074,1,4,3:2:0:0:
116,108,149404,5,0,1:0:0:0:
48,144,149569,2,0,P|44:192|72:240,1,90,2|0,0:0|0:0,0:0:0:0:
204,216,149899,1,0,3:0:0:0:
348,224,150064,1,0,1:0:0:0:
484,232,150229,2,0,P|480:120|472:32,1,180,2|0,0:0|3:0,0:0:0:0:
368,68,150723,2,0,P|372:112|380:168,1,90,0|2,1:0|0:0,0:0:0:0:
400,240,151053,1,0,0:0:0:0:
356,320,151218,1,0,3:0:0:0:
356,320,151300,1,0,0:0:0:0:
356,320,151382,1,0,1:0:0:0:
264,288,151547,1,0,3:0:0:0:
40,344,151712,6,0,P|32:244|84:160,1,180,2|0,3:2|1:0,0:0:0:0:
164,164,152207,2,0,P|208:176|288:192,1,90,2|0,0:0|3:0,0:0:0:0:
224,96,152536,1,2,3:2:0:0:
72,48,152701,1,0,1:0:0:0:
96,128,152866,2,0,P|48:140|-4:144,1,90,2|0,0:0|0:0,0:0:0:0:
160,64,153196,1,0,3:0:0:0:
116,204,153360,1,0,1:0:0:0:
252,168,153525,1,0,0:0:0:0:
96,128,153690,1,0,3:0:0:0:
176,144,153855,1,0,3:0:0:0:
116,204,154020,1,0,1:0:0:0:
360,52,154185,5,0,3:0:0:0:
360,52,154267,1,0,3:0:0:0:
360,52,154349,2,0,P|352:148|364:244,1,180,2|0,3:2|1:0,0:0:0:0:
361,230,155009,2,0,P|257:230|173:238,1,180,0|0,3:0|1:0,0:0:0:0:
128,172,155503,2,0,P|172:164|232:160,1,90,2|0,0:0|0:0,0:0:0:0:
308,308,155833,2,0,P|264:316|204:320,1,90,2|0,3:2|1:0,0:0:0:0:
140,336,156163,1,2,0:0:0:0:
68,260,156327,1,0,0:0:0:0:
216,240,156492,1,0,3:0:0:0:
196,88,156657,1,0,1:0:0:0:
216,240,156822,1,0,3:0:0:0:
344,128,156987,6,0,P|448:124|508:168,1,180,2|0,3:2|1:0,0:0:0:0:
440,220,157481,1,2,0:0:0:0:
496,284,157646,1,0,3:0:0:0:
408,304,157811,1,2,3:2:0:0:
440,380,157976,1,0,1:0:0:0:
336,252,158141,1,2,0:0:0:0:
264,208,158305,2,0,P|220:224|184:248,1,90,0|0,0:0|3:0,0:0:0:0:
148,172,158635,1,0,1:0:0:0:
96,312,158800,1,0,3:2:0:0:
16,200,158965,2,0,P|56:216|108:232,1,90,2|2,3:2|3:2,0:0:0:0:
204,76,159294,1,2,1:2:0:0:
124,100,159459,1,2,3:2:0:0:
124,100,159542,1,0,3:0:0:0:
124,100,159624,1,4,3:2:0:0:
52,48,159789,1,0,0:0:0:0:
312,72,159954,5,0,1:0:0:0:
396,88,160119,2,0,P|408:168|364:264,1,180,2|0,0:0|3:0,0:0:0:0:
256,280,160613,1,0,1:0:0:0:
320,184,160778,2,0,P|316:128|304:76,1,90,2|0,0:0|0:0,0:0:0:0:
232,152,161108,1,2,3:2:0:0:
88,220,161273,2,0,L|200:232,1,90,0|2,1:0|0:0,0:0:0:0:
177,229,161520,1,0,0:0:0:0:
177,229,161602,1,0,3:0:0:0:
152,44,161767,1,0,3:0:0:0:
88,108,161932,1,0,1:0:0:0:
232,152,162097,1,0,3:0:0:0:
372,48,162262,6,0,P|372:104|368:172,1,90,2|0,3:2|0:0,0:0:0:0:
332,216,162591,1,0,1:0:0:0:
496,284,162756,2,0,P|492:232|492:184,1,90,2|0,0:0|0:0,0:0:0:0:
408,232,163086,2,0,P|412:284|412:332,1,90,2|0,3:2|1:0,0:0:0:0:
336,336,163415,1,0,3:0:0:0:
272,136,163580,2,0,P|272:88|268:28,1,90,2|2,3:2|3:2,0:0:0:0:
188,96,163910,1,0,1:0:0:0:
104,52,164075,1,0,3:0:0:0:
104,52,164157,1,0,3:0:0:0:
104,52,164240,1,0,3:0:0:0:
32,192,164404,1,0,3:0:0:0:
176,276,164569,1,2,1:2:0:0:
80,328,164734,1,0,0:0:0:0:
292,176,164899,6,0,P|400:192|460:152,1,180,4|0,3:2|1:0,0:0:0:0:
456,156,165393,2,0,L|432:256,1,90,2|0,0:0|3:0,0:0:0:0:
292,176,165723,2,0,L|320:60,1,90,2|0,3:2|1:0,0:0:0:0:
400,48,166053,2,0,L|356:236,1,180,2|2,3:2|3:2,0:0:0:0:
336,304,166547,1,0,1:0:0:0:
408,364,166712,1,2,0:0:0:0:
472,292,166877,5,0,3:0:0:0:
358,223,167042,1,2,3:2:0:0:
228,204,167207,1,0,1:0:0:0:
96,216,167371,1,0,3:0:0:0:
160,268,167536,6,0,P|176:224|168:172,2,90,4|0|0,3:2|0:0|1:0,0:0:0:0:
40,124,168031,1,2,0:0:0:0:
40,124,168360,1,2,3:2:0:0:
40,124,168690,2,0,L|140:88,1,90,2|0,0:0|0:0,0:0:0:0:
268,40,169020,2,0,L|232:144,1,90,2|0,3:2|1:0,0:0:0:0:
348,136,169349,2,0,L|384:32,1,90,2|0,3:2|0:0,0:0:0:0:
377,50,169679,1,2,3:2:0:0:
308,248,169844,2,0,L|272:352,1,90,0|0,1:0|0:0,0:0:0:0:
264,144,170174,6,0,P|196:224|48:192,1,270.000010299683,4|2,1:2|3:2,0:0:0:0:
140,64,171163,1,8,0:3:0:0:
140,64,171327,1,2,0:0:0:0:
152,144,171492,1,4,3:2:0:0:
392,76,171822,2,0,P|356:76|320:84,1,67.5000025749208,2|0,0:0|1:0,0:0:0:0:
248,72,172152,2,0,L|260:144,1,67.5000025749208,4|4,0:3|0:3,0:0:0:0:
336,176,172470,2,0,L|240:196,1,90,0|0,3:0|3:0,0:0:0:0:
172,160,172799,5,4,1:2:0:0:
160,248,172964,1,0,0:0:0:0:
232,300,173159,2,0,P|276:316|317:315,1,80
172,160,173469,5,2,0:0:0:0:
80,284,173634,1,8,3:0:0:0:
232,300,173799,1,2,1:2:0:0:
172,160,173964,1,0,3:0:0:0:
64,40,174129,6,0,P|24:128|68:212,2,180,4|2|2,3:2|1:2|3:2,0:0:0:0:
232,88,174953,1,2,3:2:0:0:
148,64,175118,1,2,1:2:0:0:
304,52,175282,1,0,0:0:0:0:
460,40,175447,2,0,P|472:120|472:220,1,180,4|2,3:2|1:2,0:0:0:0:
160,328,176107,2,0,P|152:280|152:232,1,90,2|0,3:2|3:0,0:0:0:0:
236,272,176436,1,2,1:2:0:0:
76,292,176601,1,2,3:2:0:0:
140,148,176766,2,0,B|200:168|200:168|256:128|336:140,1,180,4|0,3:2|1:0,0:0:0:0:
488,40,177425,5,0,3:0:0:0:
320,64,177590,1,2,3:2:0:0:
240,332,177755,5,2,1:2:0:0:
260,188,177920,1,0,3:0:0:0:
16,84,178085,6,0,P|96:60|216:52,2,180,4|0|4,3:2|1:0|3:2,0:0:0:0:
72,144,178909,1,0,0:0:0:0:
8,192,179074,1,2,1:2:0:0:
76,236,179238,1,0,0:0:0:0:
228,352,179403,6,0,P|276:336|320:312,1,90,4|0,1:2|3:0,0:0:0:0:
284,32,179733,2,0,P|236:48|192:72,1,90,4|0,1:2|3:0,0:0:0:0:
256,192,180063,5,0,1:0:0:0:
296,212,180145,1,0,1:0:0:0:
340,220,180227,1,0,1:0:0:0:
384,220,180310,1,0,1:0:0:0:
428,212,180392,2,0,L|452:148,1,45,0|0,1:0|1:0,0:0:0:0:
496,112,180557,2,0,L|472:48,1,45,0|0,1:0|1:0,0:0:0:0:
400,40,180722,1,4,3:2:0:0:
256,192,181052,12,0,185997,3:0:0:0:
396,304,188634,6,0,P|416:264|420:204,1,90,0|0,3:0|3:0,0:0:0:0:
412,136,188964,1,0,1:0:0:0:
192,284,189129,2,0,P|244:280|280:264,1,90,0|0,0:0|3:0,0:0:0:0:
332,200,189458,1,0,3:0:0:0:
108,236,189623,2,0,L|4:208,1,90,0|0,1:0|0:0,0:0:0:0:
172,48,189953,5,0,1:0:0:0:
200,136,190118,1,0,3:0:0:0:
292,84,190282,1,0,1:0:0:0:
260,212,190447,1,0,3:0:0:0:
392,104,190612,1,0,3:0:0:0:
336,288,190777,5,0,1:0:0:0:
424,256,190942,1,4,0:3:0:0:
356,196,191107,1,4,0:3:0:0:
260,212,191271,2,0,P|160:236|112:244,1,135,4|0,3:2|0:0,0:0:0:0:
100,268,191601,2,0,P|108:216|112:156,1,90,0|0,1:0|0:0,0:0:0:0:
48,40,191931,1,0,3:0:0:0:
32,168,192096,1,0,3:0:0:0:
180,128,192260,2,0,P|182:83|192:20,1,90,0|0,1:0|0:0,0:0:0:0:
264,92,192590,5,0,3:0:0:0:
288,260,192755,1,0,3:0:0:0:
376,296,192920,2,0,P|376:232|364:192,1,90,0|0,1:0|3:0,0:0:0:0:
396,128,193249,1,0,0:0:0:0:
464,204,193414,1,0,3:0:0:0:
284,188,193579,1,0,1:0:0:0:
192,220,193744,1,0,0:0:0:0:
104,148,193909,6,0,L|88:44,1,90,0|0,3:0|3:0,0:0:0:0:
104,148,194238,2,0,L|68:236,1,90,0|0,1:0|0:0,0:0:0:0:
112,308,194568,1,0,3:0:0:0:
184,172,194733,1,0,3:0:0:0:
252,256,194898,1,0,1:0:0:0:
208,356,195063,1,0,3:0:0:0:
208,356,195392,5,0,3:0:0:0:
336,308,195557,1,0,1:0:0:0:
336,308,195887,5,0,3:0:0:0:
368,144,196052,1,0,3:0:0:0:
240,44,196216,1,0,1:0:0:0:
204,216,196381,1,0,3:0:0:0:
204,216,196464,1,0,3:0:0:0:
204,216,196546,1,0,3:0:0:0:
292,188,196711,1,0,3:0:0:0:
220,128,196876,1,0,1:0:0:0:
220,128,197205,5,0,3:0:0:0:
100,168,197370,1,0,3:0:0:0:
168,296,197535,1,0,1:0:0:0:
296,248,197700,1,0,0:0:0:0:
252,96,197865,5,0,3:0:0:0:
232,184,198030,1,0,3:0:0:0:
216,272,198194,1,0,1:0:0:0:
216,272,198524,5,0,3:0:0:0:
324,348,198689,1,0,3:0:0:0:
340,216,198854,1,0,1:0:0:0:
356,84,199019,1,0,0:0:0:0:
276,136,199183,5,4,3:2:0:0:
412,156,199348,1,0,3:0:0:0:
364,32,199513,1,0,1:0:0:0:
364,32,199843,5,4,3:2:0:0:
152,108,200008,1,0,3:0:0:0:
320,232,200172,1,0,1:0:0:0:
320,232,200337,1,0,3:0:0:0:
232,128,200502,5,4,3:2:0:0:
96,184,200667,1,0,3:0:0:0:
228,360,200832,6,0,P|268:328|364:316,1,135,4|0,1:2|1:0,0:0:0:0:
392,348,201161,2,0,L|416:232,1,107.999996704102,4|0,1:2|1:0,0:0:0:0:
448,280,201409,1,0,1:0:0:0:
472,240,201491,5,4,1:2:0:0:
456,196,201574,1,0,1:0:0:0:
436,156,201656,1,0,1:0:0:0:
420,116,201738,1,0,1:0:0:0:
387,154,201821,6,0,B|276:181|271:90|164:120,2,215.999993408203,12|0|0,1:2|1:0|3:0,0:0:0:0:
320,27,202645,1,0,3:0:0:0:
444,88,202810,2,0,P|483:59|512:-2,1,107.999996704102,0|0,1:0|0:0,0:0:0:0:
488,171,203139,5,0,3:0:0:0:
442,257,203304,1,0,3:0:0:0:
336,269,203469,2,0,P|297:240|268:179,1,107.999996704102,14|0,1:2|0:0,0:0:0:0:
189,338,203799,5,10,3:2:0:0:
180,214,203964,1,0,0:0:0:0:
251,293,204129,1,10,1:2:0:0:
114,255,204293,1,0,0:0:0:0:
189,338,204458,2,0,P|262:315|344:179,1,215.999993408203,4|0,3:2|1:0,0:0:0:0:
233,94,204953,1,8,0:0:0:0:
266,187,205118,5,2,3:2:0:0:
343,95,205282,1,0,0:0:0:0:
238,22,205447,1,0,1:0:0:0:
233,94,205612,1,0,3:0:0:0:
420,37,205777,1,2,3:2:0:0:
415,109,205942,1,0,0:0:0:0:
157,61,206107,5,12,1:2:0:0:
311,35,206271,1,0,0:0:0:0:
490,162,206436,1,10,3:2:0:0:
336,188,206600,1,0,0:0:0:0:
274,121,206766,2,0,P|206:136|148:150,1,107.999996704102,12|0,1:2|0:0,0:0:0:0:
91,116,207096,5,14,3:2:0:0:
145,266,207260,1,0,3:0:0:0:
221,252,207425,1,2,1:2:0:0:
17,128,207590,2,0,P|26:187|51:349,1,215.999993408203,8|2,0:0|3:2,0:0:0:0:
111,210,208085,2,0,P|121:282|130:325,1,107.999996704102,2|0,1:2|0:0,0:0:0:0:
101,137,208414,1,10,3:2:0:0:
85,60,208579,1,8,3:2:0:0:
175,164,208744,1,10,1:2:0:0:
195,242,208909,2,0,P|205:314|214:357,1,107.999996704102,8|2,0:0|3:2,0:0:0:0:
169,89,209238,1,0,3:0:0:0:
155,11,209403,1,10,1:2:0:0:
229,34,209568,1,0,0:0:0:0:
341,171,209733,6,0,P|276:140|234:126,1,107.999996704102,14|0,3:2|0:0,0:0:0:0:
324,76,210063,2,0,P|396:107|530:182,1,215.999993408203,0|10,1:0|3:2,0:0:0:0:
369,211,210557,1,0,0:0:0:0:
296,69,210722,1,8,1:2:0:0:
450,38,210887,1,0,0:0:0:0:
234,156,211052,5,12,1:2:0:0:
260,231,211216,1,2,0:0:0:0:
32,241,211381,5,12,1:2:0:0:
58,132,211546,1,2,3:2:0:0:
157,207,211711,5,12,3:2:0:0:
135,304,211876,5,4,3:0:0:0:
178,109,212041,1,0,1:0:0:0:
135,304,212205,1,4,3:0:0:0:
284,112,212370,6,0,P|385:118|488:68,1,215.999993408203,12|8,3:2|1:2,0:0:0:0:
416,196,212865,1,8,3:2:0:0:
416,196,212947,1,0,3:0:0:0:
416,196,213030,2,0,P|400:248|400:308,1,107.999996704102,2|0,3:2|0:0,0:0:0:0:
488,272,213359,1,10,1:2:0:0:
328,208,213524,2,0,P|272:136|152:88,1,215.999993408203,0|0,0:0|3:0,0:0:0:0:
66,114,214019,1,10,1:2:0:0:
66,114,214183,1,0,3:0:0:0:
110,27,214348,1,10,3:2:0:0:
257,315,214678,6,0,L|441:308,1,161.999995056153,10|0,1:2|0:0,0:0:0:0:
418,308,215008,2,0,P|424:258|417:200,1,107.999996704102,12|0,3:2|0:0,0:0:0:0:
176,107,215337,2,0,P|169:164|179:229,1,107.999996704102,10|8,1:2|0:0,0:0:0:0:
254,247,215667,1,2,3:2:0:0:
337,206,215832,1,8,3:2:0:0:
346,121,215997,1,0,1:0:0:0:
282,51,216161,1,12,3:2:0:0:
282,51,216244,1,0,0:0:0:0:
282,51,216326,1,0,0:0:0:0:
337,206,216491,5,0,0:0:0:0:
257,134,216656,1,10,1:2:0:0:
150,112,216821,1,0,0:0:0:0:
43,138,216986,2,0,P|21:192|1:253,1,107.999996704102,4|0,3:2|3:0,0:0:0:0:
29,271,217233,1,0,0:0:0:0:
29,271,217315,1,0,1:0:0:0:
116,216,217480,1,0,3:0:0:0:
288,323,217645,6,0,P|407:341|468:260,1,215.999993408203,12|8,3:2|0:0,0:0:0:0:
466,192,218139,1,10,1:2:0:0:
370,260,218304,1,0,0:0:0:0:
370,260,218634,2,0,L|352:141,1,107.999996704102,8|0,3:2|1:0,0:0:0:0:
331,174,218881,1,0,0:0:0:0:
308,192,218964,2,0,L|326:56,1,107.999996704102,10|0,1:2|3:0,0:0:0:0:
229,120,219293,2,0,L|192:232,1,107.999996704102,8|10,3:2|1:2,0:0:0:0:
75,298,219623,2,0,P|116:181|95:64,1,215.999993408203,0|4,3:0|1:2,0:0:0:0:
31,155,220118,1,0,3:0:0:0:
188,130,220282,5,14,1:2:0:0:
277,115,220447,1,8,3:2:0:0:
367,99,220612,1,0,0:0:0:0:
367,99,220942,2,0,P|371:157|381:216,1,107.999996704102,10|0,1:2|3:0,0:0:0:0:
454,142,221271,1,12,1:2:0:0:
479,321,221436,5,0,3:0:0:0:
479,321,221519,1,0,3:0:0:0:
479,321,221601,1,10,1:2:0:0:
467,218,221766,1,8,0:3:0:0:
380,286,221931,1,10,1:2:0:0:
175,239,222096,1,8,0:3:0:0:
175,239,222178,1,0,0:0:0:0:
175,239,222260,1,10,1:2:0:0:
259,176,222425,1,2,1:2:0:0:
274,282,222590,1,10,1:2:0:0:
360,76,222755,5,2,1:2:0:0:
412,130,222920,2,0,P|479:113|532:97,1,107.999996704102,12|0,1:2|0:0,0:0:0:0:
305,161,223249,2,0,P|288:94|272:41,1,107.999996704102,10|8,1:2|0:0,0:0:0:0:
335,268,223579,2,0,P|268:285|125:346,1,215.999993408203,8|10,3:2|1:2,0:0:0:0:
30,252,224074,1,0,3:0:0:0:
79,127,224238,6,0,P|108:172|145:227,2,107.999996704102,12|0|8,2:0|0:0|1:2,0:0:0:0:
204,96,224733,1,8,3:2:0:0:
271,183,224898,1,4,3:2:0:0:
209,278,225063,2,0,P|141:308|103:328,2,107.999996704102,0|0|0,0:0|1:2|3:0,0:0:0:0:
271,183,225557,6,0,P|326:196|477:237,1,161.999995056153,12|0,3:2|0:0,0:0:0:0:
451,214,225887,1,8,1:2:0:0:
491,301,226052,1,0,3:0:0:0:
288,316,226216,1,8,3:2:0:0:
335,229,226381,1,0,3:2:0:0:
129,210,226546,1,8,1:2:0:0:
159,313,226711,1,0,3:0:0:0:
10,267,226876,5,6,1:2:0:0:
16,224,226958,1,0,1:0:0:0:
20,180,227041,1,0,1:0:0:0:
25,137,227123,1,0,1:0:0:0:
25,94,227205,1,8,1:2:0:0:
25,94,227453,1,0,1:0:0:0:
25,94,227535,2,0,P|97:122|140:138,1,107.999996704102,4|4,1:2|0:3,0:0:0:0:
229,32,227865,5,4,3:3:0:0:
193,71,227947,1,0,3:0:0:0:
203,124,228030,1,0,3:0:0:0:
218,175,228112,1,0,3:0:0:0:
206,227,228194,1,4,1:2:0:0:
279,307,228359,1,0,3:0:0:0:
348,218,228524,1,0,3:0:0:0:
257,287,228689,5,4,1:2:0:0:
348,359,228854,1,0,3:0:0:0:
423,270,229019,1,0,3:0:0:0:
342,346,229183,5,0,1:0:0:0:
377,203,229348,1,0,3:0:0:0:
222,215,229513,1,0,1:0:0:0:
336,270,229678,5,0,3:0:0:0:
242,125,229843,1,0,1:0:0:0:
398,85,230008,1,0,3:0:0:0:
404,215,230172,5,0,1:0:0:0:
373,337,230337,1,0,3:0:0:0:
256,310,230502,1,0,1:0:0:0:
287,188,230667,1,0,3:0:0:0:
234,125,230832,5,4,3:2:0:0:
154,173,230997,1,0,3:0:0:0:
154,173,231079,1,0,0:0:0:0:
154,173,231161,1,0,3:0:0:0:
97,98,231326,1,0,1:0:0:0:
167,73,231491,5,0,3:0:0:0:
66,174,231656,1,0,3:0:0:0:
171,255,231821,1,0,1:0:0:0:
266,161,231986,1,0,3:0:0:0:
162,168,232150,5,0,1:0:0:0:
187,247,232315,1,0,3:0:0:0:
108,246,232480,1,0,1:0:0:0:
186,86,232645,5,0,3:0:0:0:
253,187,232810,1,0,1:0:0:0:
303,169,232892,1,0,1:0:0:0:
354,152,232975,1,0,1:0:0:0:
369,156,233057,1,0,1:0:0:0:
384,160,233139,1,4,0:3:0:0:
399,164,233222,1,4,0:3:0:0:
414,169,233304,1,4,0:3:0:0:
429,174,233387,1,4,0:3:0:0:
475,160,233469,6,0,P|457:92|383:31,1,161.999995056153,4|0,3:2|0:0,0:0:0:0:
368,71,233799,2,0,L|305:81,1,53.9999983520508,2|0,0:0|0:0,0:0:0:0:
173,29,233964,6,0,B|122:96|122:96|154:192,1,161.999995056153,0|0,1:0|0:0,0:0:0:0:
221,192,234293,2,0,L|232:130,1,53.9999983520508,0|0,3:0|0:0,0:0:0:0:
240,86,234458,2,0,L|227:156,1,53.9999983520508,2|0,1:2|0:0,0:0:0:0:
188,287,234623,6,0,P|136:259|81:266,1,107.999996704102,0|0,3:0|0:0,0:0:0:0:
26,333,234953,2,0,P|62:227|28:127,1,215.999993408203,2|4,3:2|0:3,0:0:0:0:
154,35,235447,6,0,P|146:52|149:64,1,26.9999991760254,4|0,1:2|0:0,0:0:0:0:
227,58,235612,2,0,P|221:73|224:86,1,26.9999991760254
293,132,235777,6,0,P|336:152|375:142,1,90,2|0,1:2|0:0,0:0:0:0:
455,39,236107,6,0,P|448:45|438:44,1,18,4|0,3:2|0:0,0:0:0:0:
389,249,236271,2,0,P|388:238|393:231,1,18
475,133,236436,2,0,P|475:144|473:150,1,18
220,268,236601,6,0,P|241:260|256:262,2,36,4|0|0,1:2|0:0|3:0,0:0:0:0:
117,331,237096,6,0,P|105:314|107:291,1,45,4|0,1:2|0:0,0:0:0:0:
81,220,237260,2,0,P|95:197|110:189,1,45
124,114,237425,2,0,P|148:104|166:103,1,45,2|0,0:0|0:0,0:0:0:0:
196,76,237590,6,0,P|167:58|135:54,1,67.5000025749208,4|0,3:2|0:0,0:0:0:0:
82,116,237755,2,0,P|47:123|21:140,1,67.5000025749208
31,217,237920,2,0,P|10:248|4:279,1,67.5000025749208,0|0,3:0|0:0,0:0:0:0:
165,178,238085,6,0,L|180:260,1,67.5000025749208,0|0,1:2|0:0,0:0:0:0:
242,283,238249,2,0,L|324:268,1,67.5000025749208,0|0,1:0|0:0,0:0:0:0:
350,208,238414,2,0,L|335:126,1,67.5000025749208,8|0,0:3|0:0,0:0:0:0:
273,102,238578,2,0,L|191:117,1,67.5000025749208,2|0,1:2|0:0,0:0:0:0:
243,182,238744,5,4,3:2:0:0:
311,146,238909,1,2,0:0:0:0:
341,76,239074,1,2,0:0:0:0:
303,7,239238,1,2,3:2:0:0:
399,133,239403,5,4,3:2:0:0:
365,225,239568,1,0,1:0:0:0:
286,277,239733,1,0,1:0:0:0:
198,274,239898,1,4,3:2:0:0:
198,274,240227,5,0,0:0:0:0:
281,186,240392,1,2,3:2:0:0:
395,200,240557,1,0,1:0:0:0:
453,304,240722,1,2,0:0:0:0:
275,367,240887,5,2,3:2:0:0:
153,341,241052,1,4,1:2:0:0:
138,211,241216,1,2,1:2:0:0:
342,85,241381,5,2,3:2:0:0:
457,203,241546,1,2,3:2:0:0:
335,187,241711,1,2,3:2:0:0:
454,97,241876,2,0,P|496:24|528:-3,1,107.999996704102,2|0,0:0|0:0,0:0:0:0:
342,85,242205,1,2,3:2:0:0:
211,12,242370,1,2,1:2:0:0:
127,69,242535,1,2,3:2:0:0:
32,38,242700,5,2,0:0:0:0:
149,110,242865,1,2,3:2:0:0:
271,7,243030,1,2,0:0:0:0:
382,85,243194,1,2,3:2:0:0:
257,302,243359,5,4,0:0:0:0:
263,317,243442,1,0,0:0:0:0:
258,332,243524,1,2,0:0:0:0:
254,347,243607,1,0,0:0:0:0:
260,361,243689,1,0,3:0:0:0:
350,259,243854,1,0,3:0:0:0:
159,286,244019,5,4,3:2:0:0:
27,239,244183,1,2,0:0:0:0:
10,163,244348,1,2,0:2:0:0:
91,126,244513,5,2,3:2:0:0:
309,143,244678,1,0,0:0:0:0:
391,107,244843,1,0,1:0:0:0:
478,96,245008,5,4,3:2:0:0:
310,60,245172,1,2,3:2:0:0:
272,231,245337,1,2,0:0:0:0:
431,148,245502,5,2,1:2:0:0:
355,124,245667,1,0,0:0:0:0:
335,198,245832,1,0,1:0:0:0:
297,364,245997,5,2,0:0:0:0:
129,321,246161,1,2,1:2:0:0:
171,154,246326,1,2,3:2:0:0:
335,198,246491,1,2,0:0:0:0:
199,246,246656,5,4,3:2:0:0:
72,174,246821,2,0,P|58:123|62:62,1,107.999996704102,2|2,3:2|3:2,0:0:0:0:
246,92,247150,1,2,3:2:0:0:
79,255,247315,1,2,1:2:0:0:
133,260,247398,1,0,1:0:0:0:
180,285,247480,1,2,1:2:0:0:
217,324,247563,1,0,1:0:0:0:
237,373,247645,1,4,1:2:0:0:
357,236,247798,1,2,1:2:0:0:
