osu file format v14

[General]
AudioFilename: audio.mp3
AudioLeadIn: 0
PreviewTime: 106136
Countdown: 0
SampleSet: None
StackLeniency: 0.3
Mode: 0
LetterboxInBreaks: 0
EpilepsyWarning: 1
WidescreenStoryboard: 1

[Editor]
Bookmarks: 31713,52812,73911,106877,127976,149075,170174,191271,201821,228194,247798
DistanceSpacing: 0.1
BeatDivisor: 4
GridSize: 4
TimelineZoom: 1.7

[Metadata]
Title:Kuukirikigaku Shoujo to Shounen no Uta
TitleUnicode:空気力学少女と少年の詩
Artist:Hana
ArtistUnicode:はな
Creator:Luscent
Version:Kalibe & IOException's Collab Another
Source:素晴らしき日々~不連続存在~
Tags:Aerodynamics Girls and Boys Poem Song Subarashiki Hibi ~Furenzoku Sonzai~ 404 aimnotfound Garden ak74 vikala toybot mirash delis shirohamymommy smm PandaHero Kalibe IOException Jezag Nagi Hisakawa cyndere TtmnZk TT Mouse japanese rock jrock eroge すかぢ szak SCA-ji KeroQ うさ Utaite Usa Wonderful Everyday Discontinuous Existence Diskontinuierliches Dasein Fuminori Matsumoto 松本文紀 metrowing SubaHibi visual novel opening full version aero dynamics 櫻ノ詩 サクラノ詩 sakura no uta
BeatmapID:2744108
BeatmapSetID:1164291

[Difficulty]
HPDrainRate:6
CircleSize:4
OverallDifficulty:8
ApproachRate:9
SliderMultiplier:1.7
SliderTickRate:1

[Events]
//Background and Video events
0,0,"001.jpg",0,0
//Break Periods
//Storyboard Layer 0 (Background)
Sprite,Background,Centre,"001.jpg",320,240 F,0,-500,,0
//Storyboard Layer 1 (Fail)
//Storyboard Layer 2 (Pass)
//Storyboard Layer 3 (Foreground)
Sprite,Foreground,Centre,"sb\text\beatmapinfo\_003.png",320.25,242.75 F,0,22941,23141,0,1 S,0,23141,,0.5 F,0,25908,26108,1,0
//Storyboard Layer 4 (Overlay)
//Storyboard Sound Samples

[TimingPoints]
65,329.67032967033,4,2,1,50,1,0
65,-142.857142857143,4,2,1,50,0,0
10614,-100,4,2,1,50,0,0
30559,-83.3333333333333,4,2,1,50,0,0
30889,-100,4,2,1,50,0,0
31383,-250,4,2,1,50,0,0
31713,-111.111111111109,4,2,1,50,0,0
32207,-111.111111111112,4,2,1,50,0,0
32702,-111.111111111111,4,2,1,50,0,0
42262,-100,4,2,1,50,0,0
73911,-111.111111111111,4,2,1,50,0,0
81493,-83.3333333333333,4,2,1,50,0,0
81823,-111.111111111111,4,2,1,50,0,0
84130,-83.3333333333333,4,2,1,50,0,0
84460,-111.111111111111,4,2,1,50,0,0
95010,-133.333333333333,4,2,1,50,0,0
96328,300,4,2,20,50,1,0
96822,329.67032967033,4,2,1,60,1,0
96986,-100,4,2,21,60,0,0
97481,-111.111111111111,4,2,22,60,0,0
97975,-111.111111111111,4,2,23,60,0,0
98140,-111.111111111111,4,2,1,60,0,0
98635,-111.111111111111,4,2,7,60,0,0
98964,-111.111111111111,4,2,7,60,0,0
99294,-111.111111111111,4,2,7,60,0,0
99446,329.67032967033,4,2,7,55,1,0
99610,-100,4,2,7,55,0,0
99940,-100,4,2,1,55,0,0
100093,329.67032967033,4,2,6,60,1,0
100104,-100,4,2,6,60,0,0
100284,329.67032967033,4,2,32,60,1,0
100613,-100,4,2,6,60,0,0
101602,-100,4,2,33,60,0,0
102097,-100,4,2,6,60,0,0
102261,-100,4,2,6,60,0,0
102921,-100,4,2,6,60,0,0
103251,-100,4,2,34,60,0,0
103415,-100,4,2,6,60,0,0
104240,-90.9090909090909,4,2,6,60,0,0
104569,-90.9090909090909,4,2,35,60,0,0
104899,-90.9090909090909,4,2,7,60,0,0
105229,-90.9090909090909,4,2,1,60,0,0
105558,-90.9090909090909,4,2,36,60,0,0
106218,-90.9090909090909,4,2,37,60,0,0
106877,-90.9090909090909,4,2,41,60,0,0
107207,-90.9090909090909,4,2,1,60,0,0
108525,-90.9090909090909,4,2,7,60,0,0
108855,-90.9090909090909,4,2,6,60,0,0
109185,-90.9090909090909,4,2,5,60,0,0
109514,-90.9090909090909,4,2,42,60,0,0
109844,-90.9090909090909,4,2,3,60,0,0
111162,-90.9090909090909,4,2,2,60,0,0
111492,-90.9090909090909,4,2,1,60,0,0
111821,-90.9090909090909,4,2,7,60,0,0
112152,-90.9090909090909,4,2,43,60,0,0
112481,-90.9090909090909,4,2,6,60,0,0
113140,-90.9090909090909,4,2,1,60,0,0
113470,-90.9090909090909,4,2,5,60,0,0
113965,-90.9090909090909,4,2,6,60,0,0
114047,-90.9090909090909,4,2,6,60,0,0
114459,-90.9090909090909,4,2,7,60,0,0
114789,-90.9090909090909,4,2,44,60,0,0
115448,-90.9090909090909,4,2,7,60,0,0
115778,-90.9090909090909,4,2,6,60,0,0
116108,-90.9090909090909,4,2,1,60,0,0
116437,-90.9090909090909,4,2,7,60,0,0
117344,-90.9090909090909,4,2,1,60,0,0
117426,-90.9090909090909,4,2,45,60,0,0
118086,-90.9090909090909,4,2,1,60,0,0
118909,-90.9090909090909,4,2,46,60,0,0
119404,-90.9090909090909,4,2,2,60,0,0
119734,-90.9090909090909,4,2,1,60,0,0
120064,-90.9090909090909,4,2,47,60,0,0
120393,-90.9090909090909,4,2,6,60,0,0
120558,-90.9090909090909,4,2,6,60,0,0
120723,-90.9090909090909,4,2,6,60,0,0
121218,-90.9090909090909,4,2,48,60,0,0
121712,-90.9090909090909,4,2,6,60,0,0
122041,-90.9090909090909,4,2,49,60,0,0
122701,-117.647058823529,4,2,50,60,0,0
123196,-117.647058823529,4,2,1,60,0,0
123689,-117.647058823529,4,2,7,60,0,0
124349,-117.647058823529,4,2,1,60,0,0
124514,-117.647058823529,4,2,6,60,0,0
125174,-83.3333333333333,4,2,6,60,0,0
125338,-90.9090909090909,4,2,51,60,0,0
125668,-90.9090909090909,4,2,1,60,0,0
126327,-90.9090909090909,4,2,7,60,0,0
126657,-90.9090909090909,4,2,2,60,0,0
126822,-90.9090909090909,4,2,1,60,0,0
127316,-90.9090909090909,4,2,5,60,0,0
127481,-90.9090909090909,4,2,1,60,0,0
127646,-90.9090909090909,4,2,6,60,0,0
127811,-90.9090909090909,4,2,1,60,0,0
127976,-100,4,2,52,60,0,0
128058,-100,4,2,1,60,0,0
128635,-111.111111111111,4,2,1,60,0,0
149075,-111.111111111111,4,2,1,60,0,0
150888,-166.666666666666,4,2,1,60,0,0
151218,-111.111111111111,4,2,1,60,0,0
154185,-166.666666666666,4,2,1,60,0,0
154514,-111.111111111111,4,2,1,60,0,0
158141,-166.666666666666,4,2,1,60,0,0
158470,-111.111111111111,4,2,1,60,0,0
160119,-166.666666666666,4,2,1,60,0,0
160613,-111.111111111111,4,2,1,60,0,0
164075,-166.666666666666,4,2,1,60,0,0
164404,-111.111111111111,4,2,1,60,0,0
168690,-166.666666666666,4,2,1,60,0,0
169020,-111.111111111111,4,2,1,60,0,0
172470,329.67032967033,4,2,1,50,1,0
173159,329.67032967033,4,2,1,60,1,0
173305,329.67032967033,4,2,1,50,1,0
174129,329.67032967033,4,2,1,60,1,0
183030,-75.0187546886722,4,2,1,60,0,0
183359,-100,4,2,1,60,0,0
193085,-200,4,2,1,60,0,0
193414,-100,4,2,1,60,0,0
195063,-200,4,2,1,60,0,0
195392,-100,4,2,1,60,0,0
196216,-166.666666666667,4,2,1,60,0,0
196546,-100,4,2,1,60,0,0
201821,-100,4,2,41,60,0,0
202150,-100,4,2,1,60,0,0
203469,-100,4,2,7,60,0,0
203799,-100,4,2,6,60,0,0
204129,-100,4,2,5,60,0,0
204458,-100,4,2,42,60,0,0
204787,-100,4,2,3,60,0,0
206107,-100,4,2,2,60,0,0
206436,-100,4,2,1,60,0,0
206766,-100,4,2,7,60,0,0
207096,-100,4,2,43,60,0,0
207260,-100,4,2,1,60,0,0
207343,-100,4,2,43,60,0,0
207425,-100,4,2,6,60,0,0
208085,-100,4,2,1,60,0,0
208414,-100,4,2,5,60,0,0
208909,-100,4,2,6,60,0,0
209403,-100,4,2,7,60,0,0
209733,-100,4,2,44,60,0,0
210063,-100,4,2,1,60,0,0
210392,-100,4,2,7,60,0,0
210722,-100,4,2,6,60,0,0
211052,-100,4,2,1,60,0,0
211381,-100,4,2,7,60,0,0
211464,-100,4,2,1,60,0,0
211546,-100,4,2,1,60,0,0
211711,-100,4,2,7,60,0,0
211793,-100,4,2,1,60,0,0
211876,-100,4,2,1,60,0,0
212370,-100,4,2,45,60,0,0
213030,-100,4,2,1,60,0,0
213689,-100,4,2,46,60,0,0
213853,-100,4,2,46,60,0,0
214348,-100,4,2,2,60,0,0
214678,-100,4,2,1,60,0,0
215008,-100,4,2,47,60,0,0
215337,-100,4,2,6,60,0,0
215501,-100,4,2,7,60,0,0
215667,-100,4,2,6,60,0,0
216161,-100,4,2,48,60,0,0
216656,-100,4,2,6,60,0,0
216986,-100,4,2,49,60,0,0
217645,-100,4,2,50,60,0,0
218139,-100,4,2,1,60,0,0
218634,-100,4,2,7,60,0,0
219293,-100,4,2,1,60,0,0
219457,-100,4,2,6,60,0,0
220282,-100,4,2,51,60,0,0
220612,-100,4,2,51,60,0,0
220942,-100,4,2,1,60,0,0
221271,-100,4,2,7,60,0,0
221601,-100,4,2,2,60,0,0
221766,-100,4,2,1,60,0,0
222260,-100,4,2,5,60,0,0
222425,-100,4,2,1,60,0,0
222590,-100,4,2,6,60,0,0
222755,-100,4,2,1,60,0,0
222920,-100,4,2,52,60,0,0
223908,-100,4,2,7,60,0,0
224567,-100,4,2,1,60,0,0
224733,-100,4,2,6,60,0,0
224898,-100,4,2,1,60,0,0
225557,-100,4,2,53,60,0,0
225722,-100,4,2,1,60,0,0
225804,-100,4,2,1,60,0,0
226546,-100,4,2,7,60,0,0
226711,-100,4,2,1,60,0,0
226876,-100,4,2,53,60,0,0
227205,-200,4,2,2,60,0,0
227535,-100,4,2,54,60,0,0
227865,-100,4,2,1,60,0,0
228194,-100,4,2,56,60,0,0
228689,-100,4,2,6,60,0,0
233469,-100,4,2,1,60,0,0
238744,-200,4,2,1,60,0,0
244019,-83.3333333333333,4,2,2,60,0,0
244678,-71.4285714285714,4,2,2,60,0,0
247150,-90.9090909090909,4,2,2,60,0,0
247798,329.67032967033,4,2,2,60,1,0
247798,-40,4,2,2,60,0,0

[Colours]
Combo1 : 227,138,140
Combo2 : 158,214,254
Combo3 : 128,168,213
Combo4 : 251,174,186

[HitObjects]
416,57,65,6,0,B|462:60|462:60|393:37,1,118.999996368408,2|2,0:0|0:0,0:0:0:0:
258,100,724,2,0,L|116:114,1,118.999996368408,2|2,0:0|0:0,0:0:0:0:
240,23,1218,6,0,P|265:67|323:38,1,118.999996368408,2|0,0:0|0:0,0:0:0:0:
414,102,1713,2,0,P|458:122|449:190,1,118.999996368408,2|2,0:0|0:0,0:0:0:0:
270,355,2372,6,0,L|262:308,3,29.7499990921021,2|0|0|0,0:0|0:0|0:0|0:0,0:0:0:0:
353,356,2702,6,0,L|423:367,1,59.4999981842042,2|0,0:0|0:0,0:0:0:0:
411,365,3032,1,0,0:0:0:0:
233,297,3196,2,0,L|162:309,1,59.4999981842042,2|0,0:0|0:0,0:0:0:0:
174,306,3526,1,0,0:0:0:0:
311,219,3691,6,0,L|298:153,1,59.4999981842042,2|0,0:0|0:0,0:0:0:0:
299,160,4021,1,0,0:0:0:0:
219,219,4185,2,0,B|142:201|175:231|92:208,1,118.999996368408,2|2,0:0|0:0,0:0:0:0:
262,333,4680,1,0,0:0:0:0:
347,287,4845,6,0,B|424:269|391:299|474:276,1,118.999996368408,2|2,0:0|0:0,0:0:0:0:
479,259,5339,6,0,P|460:231|469:185,1,59.4999981842042,2|0,0:0|0:0,0:0:0:0:
422,168,5669,2,0,P|424:138|441:115,1,59.4999981842042,2|0,0:0|0:0,0:0:0:0:
403,50,5999,2,0,P|425:29|456:21,1,59.4999981842042,2|0,0:0|0:0,0:0:0:0:
352,131,6328,5,2,0:0:0:0:
352,131,6493,2,0,P|295:159|225:172,1,118.999996368408,2|0,0:0|0:0,0:0:0:0:
203,198,6988,2,0,P|180:182|158:140,1,59.4999981842042,2|0,0:0|0:0,0:0:0:0:
104,158,7317,2,0,P|90:131|94:84,1,59.4999981842042,2|0,0:0|0:0,0:0:0:0:
15,73,7647,2,0,P|19:41|37:7,1,59.4999981842042,2|0,0:0|0:0,0:0:0:0:
30,16,7894,1,0,0:0:0:0:
30,16,7977,5,2,0:0:0:0:
175,198,8306,1,0,0:0:0:0:
144,268,8471,2,0,P|110:319|42:309,1,118.999996368408,2|0,0:0|0:0,0:0:0:0:
200,220,8966,5,2,0:0:0:0:
277,166,9130,2,0,P|328:200|318:268,1,118.999996368408,2|2,0:0|0:0,0:0:0:0:
217,358,9625,5,0,0:0:0:0:
289,282,9790,1,2,0:0:0:0:
361,252,9955,1,0,0:0:0:0:
413,253,10119,1,2,0:0:0:0:
445,274,10284,1,2,0:0:0:0:
454,293,10449,6,0,L|446:328,1,29.7499990921021
343,379,10614,6,0,B|420:348|420:348|345:283,1,170,4|2,3:2|1:2,0:0:0:0:
240,233,11108,1,0,3:0:0:0:
348,293,11273,2,0,L|329:402,1,85,2|0,3:2|3:0,0:0:0:0:
333,376,11603,1,2,1:2:0:0:
370,197,11768,6,0,P|351:149|450:105,1,170,4|0,3:2|0:0,0:0:0:0:
333,200,12262,1,2,1:2:0:0:
442,104,12427,2,0,P|370:122|339:41,1,170,0|0,0:0|3:0,0:0:0:0:
442,104,12922,1,2,1:2:0:0:
257,119,13086,6,0,L|188:139,2,42.5,0|0|2,3:0|3:0|3:2,0:0:0:0:
164,213,13416,2,0,L|262:235,1,85,0|0,3:0|1:0,0:0:0:0:
89,195,13746,5,2,3:2:0:0:
178,380,13911,2,0,P|188:339|187:285,1,85,0|0,3:0|3:0,0:0:0:0:
322,203,14240,1,2,1:2:0:0:
336,291,14405,6,0,P|315:343|196:314,1,170,0|2,3:0|3:2,0:0:0:0:
162,199,14900,1,0,1:0:0:0:
243,282,15065,5,0,3:0:0:0:
237,301,15147,1,0,0:0:0:0:
231,319,15229,1,2,3:2:0:0:
351,258,15394,1,0,3:0:0:0:
217,152,15559,2,0,L|124:179,1,85,2|0,1:2|0:0,0:0:0:0:
0,242,15889,6,0,P|69:223|56:301,1,170,4|2,3:2|1:2,0:0:0:0:
97,199,16383,2,0,P|63:157|127:59,1,170,0|0,3:0|3:0,0:0:0:0:
0,215,16878,1,2,1:2:0:0:
162,156,17043,6,0,B|263:137|263:137|225:204,1,170,4|0,3:2|3:0,0:0:0:0:
307,305,17537,2,0,L|396:331,1,85,2|0,1:2|0:0,0:0:0:0:
434,222,17867,6,0,P|362:217|376:301,1,170,2|2,3:2|1:2,0:0:0:0:
434,222,18361,1,0,0:0:0:0:
236,202,18526,5,6,3:2:0:0:
308,281,18691,2,0,B|253:300|253:300|302:309,1,85,0|0,3:0|1:0,0:0:0:0:
143,278,19021,5,2,3:2:0:0:
324,207,19185,2,0,L|219:192,1,85,0|0,3:0|3:0,0:0:0:0:
35,142,19515,5,2,1:2:0:0:
120,248,19680,2,0,P|157:236|128:218,1,85,2|2,3:2|3:2,0:0:0:0:
140,240,20010,6,0,L|155:329,1,85,2|0,3:2|1:0,0:0:0:0:
314,185,20339,1,0,3:0:0:0:
305,275,20504,5,0,1:0:0:0:
305,275,20586,1,0,1:0:0:0:
305,275,20669,2,0,L|314:203,1,42.5,0|0,1:0|1:0,0:0:0:0:
329,160,20834,1,0,1:0:0:0:
329,160,20916,1,0,1:0:0:0:
329,160,20999,2,0,L|338:98,1,42.5,0|0,1:0|1:0,0:0:0:0:
344,27,21163,6,0,B|281:-45|173:-3|232:43|264:27,2,170,4|2|2,3:2|1:2|3:2,2:0:0:0:
423,123,21988,1,0,3:0:0:0:
512,238,22152,5,2,1:2:0:0:
512,238,22317,2,0,B|507:270|464:303|464:303|491:252|475:194,1,170,4|0,3:2|3:0,0:0:0:0:
346,130,22812,2,0,P|336:162|334:234,1,85,2|0,1:2|0:0,0:0:0:0:
270,350,23141,5,2,3:2:0:0:
239,175,23306,1,0,3:0:0:0:
270,350,23471,2,0,P|280:308|280:265,1,85,2|0,1:2|0:0,0:0:0:0:
74,193,23801,5,2,3:2:0:0:
136,233,23966,2,0,P|114:198|73:192,1,85,0|0,3:0|1:0,0:0:0:0:
194,71,24295,5,2,3:2:0:0:
239,175,24460,2,0,P|264:141|254:85,1,85,0|0,3:0|3:0,0:0:0:0:
420,15,24790,5,2,1:2:0:0:
350,150,24955,2,0,P|423:117|431:35,1,170,0|2,3:0|3:2,0:0:0:0:
442,156,25449,6,0,B|422:194|422:194|431:245,1,85,0|0,1:0|3:0,0:0:0:0:
338,135,25779,1,2,3:2:0:0:
400,251,25944,2,0,L|294:270,2,85,0|2|0,3:0|1:2|0:0,0:0:0:0:
283,297,26438,6,0,B|229:295|229:295|182:327|182:327|110:321,1,170,4|2,3:2|1:2,0:0:0:0:
212,362,26933,2,0,P|199:283|233:189,1,170,0|0,3:0|3:0,0:0:0:0:
326,47,27427,5,2,1:2:0:0:
274,133,27592,2,0,P|220:120|191:213,1,170,4|0,3:2|3:0,0:0:0:0:
162,101,28086,2,0,P|173:65|177:12,1,85,2|0,1:2|0:0,0:0:0:0:
177,17,28334,1,0,0:0:0:0:
177,17,28416,1,2,3:2:0:0:
307,121,28581,1,0,3:0:0:0:
229,200,28746,2,0,P|188:186|146:182,1,85,2|0,1:2|0:2,0:0:0:0:
39,360,29075,5,2,3:2:0:0:
121,306,29240,1,0,3:0:0:0:
49,258,29405,1,0,1:0:0:0:
130,339,29570,5,2,3:2:0:0:
199,238,29735,1,0,3:0:0:0:
91,176,29900,1,0,3:0:0:0:
297,282,30065,5,2,1:2:0:0:
220,282,30229,2,0,B|226:293|226:293|306:281,1,85,2|2,3:2|3:2,0:0:0:0:
496,241,30559,6,0,B|429:231|429:231|481:260,2,101.999996887207,2|0|2,3:2|1:0|3:2,0:0:0:0:
394,384,31054,5,0,1:0:0:0:
394,384,31136,2,0,P|409:344|403:296,1,85,0|0,1:0|1:0,0:0:0:0:
395,218,31383,6,0,L|402:190,1,17,0|0,1:0|0:0,0:0:0:0:
384,130,31548,6,0,L|392:102,1,17,0|0,0:0|2:0,0:0:0:0:
361,2,31713,6,1,L|462:16,1,76.5000000000014,0|0,1:0|0:0,0:0:0:0:
384,130,32043,1,2,0:0:0:0:
308,91,32207,2,1,P|345:44|447:55,1,152.999999999998,0|0,0:0|0:0,0:0:0:0:
468,113,32702,1,0,1:0:0:0:
425,289,32867,22,0,L|346:298,1,76.4999976654053,2|0,3:2|2:0,0:0:0:0:
394,212,33196,2,0,L|347:217,2,38.2499988327027,0|0|0,3:0|0:0|1:0,0:0:0:0:
382,384,33526,2,0,P|327:307|246:306,1,152.999995330811,2|0,0:0|3:0,0:0:0:0:
259,147,34021,2,0,L|140:157,1,114.749996498108,0|0,1:0|3:0,0:0:0:0:
85,290,34350,5,2,3:2:0:0:
259,147,34515,1,2,3:2:0:0:
151,236,34680,2,0,L|229:229,1,76.4999976654053,0|2,1:0|0:0,0:0:0:0:
227,229,35339,1,0,1:0:0:0:
97,116,35504,6,0,B|102:153|102:153|79:195,1,76.4999976654053,2|0,0:0|3:0,0:0:0:0:
323,266,35834,2,0,B|320:247|320:247|332:226,2,38.2499988327027,0|0|0,3:0|0:0|1:0,0:0:0:0:
239,304,36163,6,0,L|224:212,1,76.4999976654053,0|0,3:0|3:0,0:0:0:0:
399,352,36493,2,0,L|414:260,1,76.4999976654053,0|0,3:0|1:0,0:0:0:0:
156,339,36823,1,0,3:0:0:0:
315,376,36988,5,2,3:2:0:0:
315,376,37152,1,2,0:0:0:0:
302,236,37317,1,0,1:0:0:0:
302,236,37482,6,0,P|258:227|221:229,1,76.4999976654053,2|0,0:0|0:0,0:0:0:0:
152,273,37811,1,0,0:0:0:0:
232,311,37977,1,0,1:0:0:0:
165,133,38141,6,0,P|209:124|246:126,1,76.4999976654053,2|0,3:2|2:0,0:0:0:0:
315,45,38471,2,0,P|271:36|234:38,1,76.4999976654053,0|0,3:0|1:0,0:0:0:0:
226,228,38801,2,0,L|393:207,1,152.999995330811,2|0,0:0|3:0,0:0:0:0:
239,37,39295,2,0,P|247:85|316:128,1,114.749996498108,0|0,1:0|3:0,2:0:0:0:
487,102,39625,5,2,3:2:0:0:
331,45,39790,1,2,3:2:0:0:
487,102,39955,1,0,1:0:0:0:
392,133,40119,2,0,L|375:220,1,76.4999976654053,2|0,0:0|0:0,0:0:0:0:
470,188,40449,2,0,L|453:275,1,76.4999976654053,0|0,3:0|1:0,0:0:0:0:
341,45,40779,6,0,B|258:49|287:111|190:114,1,152.999995330811,2|0,3:2|3:0,0:0:0:0:
134,82,41273,1,0,1:0:0:0:
45,255,41438,6,0,P|87:229|125:230,1,76.4999976654053,2|0,3:2|3:0,0:0:0:0:
175,283,41768,2,0,P|223:294|249:321,1,76.4999976654053,0|0,3:0|1:0,0:0:0:0:
208,112,42097,1,0,3:0:0:0:
205,92,42179,1,0,0:0:0:0:
203,73,42262,6,0,P|138:54|78:48,1,127.5,4|0,3:2|0:0,0:0:0:0:
7,69,42592,1,0,1:0:0:0:
123,146,42757,2,0,P|77:154|29:177,1,85,2|0,0:0|2:0,0:0:0:0:
4,240,43086,1,0,3:0:0:0:
123,146,43251,5,0,1:0:0:0:
169,366,43416,2,0,L|153:282,1,85,2|0,3:2|0:0,0:0:0:0:
83,339,43746,2,0,L|73:289,2,42.5,2|0|0,3:2|0:0|1:0,0:0:0:0:
195,197,44075,1,2,0:0:0:0:
195,197,44405,5,0,3:0:0:0:
383,294,44570,1,0,1:0:0:0:
255,264,44735,1,0,0:0:0:0:
275,259,44817,1,0,0:0:0:0:
296,255,44900,6,0,P|302:212|287:132,1,85,2|2,3:2|3:2,0:0:0:0:
195,197,45229,1,0,1:0:0:0:
391,153,45394,2,0,P|374:112|321:50,1,85,2|0,0:0|3:0,0:0:0:0:
233,106,45724,1,2,3:2:0:0:
391,153,45889,5,0,1:0:0:0:
195,197,46054,2,0,B|237:209|237:209|256:254,1,85,2|0,3:2|0:0,0:0:0:0:
467,204,46383,2,0,B|497:235|497:235|491:283,1,85,0|0,3:0|1:0,0:0:0:0:
242,329,46713,1,2,3:2:0:0:
262,333,46795,1,0,0:0:0:0:
283,337,46877,1,0,0:0:0:0:
388,238,47043,2,0,L|329:249,1,42.5,0|0,3:0|0:0,0:0:0:0:
483,358,47207,2,0,L|393:375,1,85,2|0,1:2|3:0,2:0:0:0:
399,374,47537,6,0,B|367:279|444:303|403:191,1,170,2|0,3:2|1:0,0:0:0:0:
465,130,48032,2,0,L|362:115,1,85,2|0,0:0|0:0,0:0:0:0:
275,178,48361,1,2,3:2:0:0:
329,243,48526,1,0,1:0:0:0:
159,276,48691,6,0,P|206:269|254:248,1,85,2|0,3:2|0:0,0:0:0:0:
491,230,49021,2,0,P|444:223|396:202,1,85,2|0,3:2|1:0,0:0:0:0:
219,114,49350,2,0,P|252:78|267:32,1,85,2|0,0:0|0:0,0:0:0:0:
407,69,49680,1,0,3:0:0:0:
407,69,49762,1,0,0:0:0:0:
407,69,49845,2,0,P|374:33|359:-13,1,85,2|0,1:2|0:0,0:0:0:0:
264,44,50174,6,0,L|257:154,1,85,2|0,3:2|2:0,0:0:0:0:
254,209,50504,1,2,1:2:0:0:
249,289,50669,2,0,L|243:373,1,85,2|0,0:0|3:0,0:0:0:0:
76,190,50999,5,2,0:0:0:0:
88,272,51163,1,0,1:0:0:0:
347,151,51328,6,0,L|337:265,1,85,2|0,3:2|0:0,0:0:0:0:
93,120,51658,6,0,L|103:234,1,85,0|0,3:0|1:0,0:0:0:0:
429,98,51988,5,0,3:0:0:0:
427,119,52070,1,0,0:0:0:0:
425,140,52152,1,0,1:0:0:0:
169,36,52317,5,0,3:0:0:0:
181,118,52481,1,2,1:2:0:0:
169,36,52647,1,0,3:0:0:0:
303,16,52812,6,0,B|401:4|401:4|357:84,1,170,4|2,3:2|1:2,0:0:0:0:
512,113,53306,2,0,L|219:91,1,255,6|2,3:2|1:2,0:0:0:0:
22,187,53966,6,0,L|208:164,1,170,4|0,3:2|3:0,0:0:0:0:
79,261,54460,1,2,1:2:0:0:
126,378,54625,2,0,B|101:282|101:282|192:303,1,170,0|0,0:0|3:0,0:0:0:0:
352,337,55119,6,0,L|240:359,1,85,2|0,1:2|0:0,0:0:0:0:
268,353,55367,1,0,0:0:0:0:
268,353,55449,5,2,3:2:0:0:
357,248,55614,2,0,P|399:247|430:298,1,85,0|0,3:0|1:0,0:0:0:0:
352,337,55944,5,2,3:2:0:0:
267,224,56108,2,0,P|266:182|317:151,1,85,0|0,3:0|3:0,0:0:0:0:
426,276,56438,5,2,1:2:0:0:
280,366,56603,2,0,P|201:369|185:288,1,170,0|2,3:0|3:2,0:0:0:0:
96,190,57097,2,0,L|14:168,1,85,0|0,1:0|3:0,0:0:0:0:
209,299,57427,5,2,3:2:0:0:
194,223,57592,1,0,3:0:0:0:
67,351,57757,2,0,L|92:255,1,85,2|0,1:2|2:0,0:0:0:0:
288,248,58086,6,0,B|350:266|350:266|401:313|341:371,2,170,4|2|2,3:2|1:2|3:2,0:0:0:0:
342,376,58911,1,0,3:0:0:0:
295,224,59075,1,2,1:2:0:0:
364,145,59240,6,0,P|389:114|437:120,1,85,4|0,3:2|0:0,0:0:0:0:
482,174,59570,1,0,3:0:0:0:
382,107,59735,2,0,P|329:75|229:127,1,170,2|2,1:2|3:2,0:0:0:0:
236,114,60229,1,0,3:0:0:0:
143,217,60394,2,0,L|38:242,1,85,2|0,1:2|0:0,0:0:0:0:
60,236,60641,1,0,0:0:0:0:
60,236,60724,5,6,3:2:0:0:
121,141,60889,2,0,B|124:88|124:88|94:121,1,85,0|0,3:0|1:0,0:0:0:0:
169,287,61218,5,2,3:2:0:0:
23,361,61383,2,0,L|113:350,1,85,0|0,3:0|3:0,0:0:0:0:
243,213,61713,5,2,1:2:0:0:
274,371,61878,2,0,B|294:336|294:336|274:292,1,85,2|2,3:2|3:2,0:0:0:0:
370,223,62207,2,0,L|484:203,1,85,2|0,3:2|1:0,0:0:0:0:
286,116,62537,1,2,3:2:0:0:
493,115,62702,5,2,1:2:0:0:
493,115,62784,2,0,L|387:101,1,85,0|0,1:0|1:0,0:0:0:0:
403,90,63032,1,0,1:0:0:0:
368,81,63114,1,0,1:0:0:0:
326,86,63196,1,0,1:0:0:0:
286,116,63279,1,0,1:0:0:0:
288,160,63361,6,0,L|171:177,1,85,4|0,3:2|3:0,0:0:0:0:
0,72,63691,2,0,B|44:43|44:43|73:58|113:49|113:49|146:93,1,170,2|2,1:2|3:2,0:0:0:0:
62,215,64185,6,0,B|50:175|50:175|70:128,1,85,0|2,3:0|1:2,0:0:0:0:
203,220,64515,2,0,B|246:252|246:335|204:377|150:302|221:281,1,170,4|0,3:2|3:0,0:0:0:0:
300,190,65010,5,2,1:2:0:0:
390,252,65174,1,0,0:0:0:0:
375,180,65339,1,2,3:2:0:0:
303,263,65504,1,0,3:0:0:0:
487,384,65669,6,0,B|496:349|496:349|487:291|487:291|501:246,1,127.5,2|0,1:2|0:0,0:0:0:0:
453,323,65999,6,0,L|361:335,1,85,2|0,3:2|3:0,0:0:0:0:
293,186,66328,1,0,1:0:0:0:
207,170,66493,6,0,L|95:155,1,85,2|0,3:2|3:0,0:0:0:0:
22,257,66823,1,0,3:0:0:0:
136,320,66988,6,0,L|247:309,2,85,2|0|0,1:2|3:0|3:0,0:0:0:0:
97,346,67482,2,0,B|158:335|158:335|206:342|206:342|277:327,1,170,2|0,3:2|3:0,0:0:0:0:
410,241,67977,1,2,3:2:0:0:
434,247,68059,1,0,3:0:0:0:
456,252,68141,1,0,3:0:0:0:
327,204,68306,6,0,B|271:216|271:216|324:225,1,85,2|0,1:2|3:0,0:0:0:0:
512,331,68636,2,0,L|330:309,1,170,4|2,3:2|1:2,0:0:0:0:
190,228,69130,2,0,L|181:170,2,42.5,0|0|2,3:0|0:0|3:2,0:0:0:0:
89,329,69460,2,0,P|104:288|100:239,1,85,0|2,3:0|1:2,0:0:0:0:
276,197,69790,6,0,B|308:188|308:188|340:196|340:196|412:172|394:119,1,170,4|0,3:2|3:0,0:0:0:0:
279,40,70284,2,0,L|137:22,1,127.5,2|0,1:2|0:0,0:0:0:0:
152,23,70614,5,2,3:2:0:0:
247,110,70779,1,0,3:0:0:0:
128,200,70944,2,0,L|33:218,1,85,2|0,1:2|0:0,0:0:0:0:
19,217,71191,1,0,0:0:0:0:
7,224,71273,6,0,P|-10:190|10:134,1,85,2|0,3:2|3:0,0:0:0:0:
102,66,71603,1,0,1:0:0:0:
215,47,71768,6,0,B|270:37|270:37|230:67,1,85,2|0,3:2|3:0,0:0:0:0:
376,117,72097,1,0,3:0:0:0:
203,167,72262,6,0,L|311:154,1,85,2|2,1:2|3:2,0:0:0:0:
316,174,72510,1,0,0:0:0:0:
323,181,72592,1,2,3:2:0:0:
150,291,72757,2,0,P|123:254|148:207,1,85,2|2,3:2|1:2,0:0:0:0:
278,70,73086,6,0,L|372:90,1,85,0|0,0:0|1:0,0:0:0:0:
398,110,73334,1,0,1:0:0:0:
408,119,73416,1,0,1:0:0:0:
417,147,73499,1,0,1:0:0:0:
399,185,73581,1,0,1:0:0:0:
319,262,73746,1,0,0:0:0:0:
274,380,73911,5,4,3:2:0:0:
274,380,74075,1,0,0:0:0:0:
238,232,74240,1,0,1:0:0:0:
205,303,74405,2,0,L|225:133,1,152.999995330811,2|0,0:0|3:0,0:0:0:0:
187,27,74900,1,0,1:0:0:0:
51,167,75065,6,0,P|120:186|142:203,1,76.4999976654053,2|0,0:0|3:0,0:0:0:0:
131,84,75394,2,0,P|148:100|158:119,2,38.2499988327027,0|0|0,3:0|0:0|1:0,0:0:0:0:
110,262,75724,2,0,P|115:208|138:164,2,76.4999976654053,2|0|0,0:0|3:0|3:0,0:0:0:0:
204,178,76218,1,0,1:0:0:0:
26,269,76383,1,0,3:0:0:0:
110,262,76548,6,0,L|294:247,1,152.999995330811,2|0,3:2|1:0,0:0:0:0:
127,174,77043,2,0,L|226:178,1,76.4999976654053,2|0,0:0|0:0,0:0:0:0:
168,343,77372,1,2,3:2:0:0:
127,174,77537,1,0,1:0:0:0:
168,343,77702,6,0,L|267:347,1,76.4999976654053,2|0,0:0|0:0,0:0:0:0:
347,238,78032,1,0,3:0:0:0:
168,343,78196,1,0,1:0:0:0:
359,342,78361,6,0,L|318:315,1,38.2499988327027
267,274,78526,1,0,3:0:0:0:
414,285,78691,1,0,3:0:0:0:
512,223,78856,2,0,L|471:250,1,38.2499988327027,0|0,1:0|0:0,0:0:0:0:
362,384,79021,6,0,P|331:348|331:298,1,76.4999976654053,0|2,3:0|3:2,0:0:0:0:
362,218,79350,1,0,0:0:0:0:
382,142,79515,1,0,1:0:0:0:
439,204,79680,2,0,L|456:302,1,76.4999976654053,2|0,0:0|3:0,0:0:0:0:
299,129,80010,5,0,3:0:0:0:
279,205,80175,1,0,1:0:0:0:
222,143,80339,2,0,L|205:45,1,76.4999976654053,2|0,0:0|3:0,0:0:0:0:
368,255,80669,2,0,L|359:206,2,38.2499988327027,2|0|0,3:2|0:0|1:0,0:0:0:0:
414,144,80999,2,0,B|329:145|360:206|260:205,1,152.999995330811,2|0,0:0|3:0,0:0:0:0:
413,133,81493,2,0,B|328:134|359:195|259:194,1,152.999995330811,0|0,1:0|0:0,0:0:0:0:
235,117,81823,6,0,L|51:100,1,152.999995330811,2|0,3:2|1:0,0:0:0:0:
217,17,82317,2,0,L|129:29,1,76.4999976654053,2|0,0:0|3:0,0:0:0:0:
145,189,82647,1,2,3:2:0:0:
217,17,82812,1,0,1:0:0:0:
145,189,82977,6,0,L|57:201,1,76.4999976654053,2|0,0:0|3:0,0:0:0:0:
61,40,83306,2,0,P|54:55|51:88,2,38.2499988327027,0|0|0,3:0|3:0|1:0,0:0:0:0:
235,157,83636,2,0,P|168:153|132:55,1,152.999995330811,2|0,3:2|3:0,0:0:0:0:
243,147,84130,2,0,P|176:143|140:45,1,152.999995330811,0|0,1:0|0:0,0:0:0:0:
296,2,84460,6,0,L|396:16,1,76.4999976654053,4|0,3:2|0:0,0:0:0:0:
223,65,84790,1,0,1:0:0:0:
424,170,84955,2,0,P|388:105|315:97,1,152.999995330811,2|0,0:0|3:0,0:0:0:0:
193,228,85449,1,0,1:0:0:0:
290,230,85614,6,0,P|261:178|269:136,1,76.4999976654053,2|0,0:0|0:0,0:0:0:0:
222,317,85944,2,0,P|192:314|177:307,2,38.2499988327027,0|0|0,3:0|3:0|1:0,0:0:0:0:
391,111,86273,2,0,P|347:156|341:201,1,76.4999976654053,0|0,0:0|3:0,0:0:0:0:
371,247,86603,1,0,3:0:0:0:
261,162,86768,1,0,1:0:0:0:
451,171,86933,1,0,3:0:0:0:
441,179,87015,1,0,0:0:0:0:
431,187,87097,6,0,L|264:210,1,152.999995330811,2|0,3:2|1:0,0:0:0:0:
198,272,87592,2,0,P|258:291|292:324,1,76.4999976654053,2|0,0:0|0:0,0:0:0:0:
217,125,87922,2,0,L|210:182,2,38.2499988327027,0|0|0,3:0|0:0|1:0,0:0:0:0:
124,324,88251,2,0,L|115:228,1,76.4999976654053,0|2,3:0|3:2,0:0:0:0:
106,142,88581,1,2,3:2:0:0:
124,324,88746,1,0,1:0:0:0:
32,384,88911,2,0,L|39:331,2,38.2499988327027,2|0|0,0:0|0:0|3:0,0:0:0:0:
210,360,89240,1,0,3:0:0:0:
0,211,89405,2,0,P|42:264|70:271,1,76.4999976654053,2|0,1:2|0:0,0:0:0:0:
220,130,89735,6,0,B|136:131|161:192|60:187,1,152.999995330811,4|0,3:2|1:0,0:0:0:0:
217,140,90229,2,0,P|179:147|147:175,1,76.4999976654053,2|0,0:0|0:0,0:0:0:0:
115,27,90559,2,0,L|125:89,2,38.2499988327027,2|0|0,3:2|0:0|1:0,0:0:0:0:
220,219,90889,6,0,L|311:236,1,76.4999976654053,2|0,3:2|0:0,0:0:0:0:
121,64,91218,2,0,L|45:49,1,76.4999976654053,2|0,3:2|1:0,0:0:0:0:
203,297,91548,2,0,L|294:314,1,76.4999976654053,2|0,0:0|3:0,0:0:0:0:
244,114,91878,1,2,3:2:0:0:
99,329,92043,6,0,P|88:274|105:219,1,114.749996498108,0|0,1:0|0:0,0:0:0:0:
105,219,92372,6,0,L|272:203,1,152.999995330811,4|0,3:2|1:0,0:0:0:0:
185,316,92867,2,0,P|219:298|276:283,1,76.4999976654053,2|0,0:0|3:0,0:0:0:0:
178,127,93196,1,2,3:2:0:0:
255,286,93361,1,0,1:0:0:0:
178,127,93526,2,0,P|212:109|269:94,1,76.4999976654053,2|0,0:0|3:0,0:0:0:0:
328,248,93856,6,0,L|351:73,2,152.999995330811,2|2|2,3:2|3:2|3:2,0:0:0:0:
353,217,94680,2,0,L|364:129,1,76.4999976654053,0|0,1:0|3:0,0:0:0:0:
421,9,94927,1,0,3:0:0:0:
421,9,95010,6,0,L|495:-1,1,63.7500024318696,0|2,1:0|0:0,0:0:0:0:
431,83,95339,2,0,L|505:73,1,63.7500024318696,2|2,0:0|0:0,0:0:0:0:
441,157,95669,2,0,L|515:147,2,63.7500024318696,2|2|2,0:0|0:0|0:0,0:0:0:0:
441,157,96328,6,0,P|400:233|299:212,1,170,4|0,3:2|2:0,0:0:0:0:
232,65,96822,1,0,3:0:0:0:
232,65,96904,1,0,3:0:0:0:
232,65,96986,2,0,B|140:57|161:127|62:113,1,170,12|0,3:3|0:3,0:0:0:0:
46,267,97481,6,0,P|71:226|120:202,1,76.4999976654053,4|2,3:2|0:0,0:0:0:0:
250,318,97811,1,0,2:0:0:0:
250,318,97975,1,4,0:0:0:0:
129,290,98140,1,0,1:0:0:0:
85,359,98305,2,0,L|-4:373,2,76.4999976654053,0|0|8,0:0|3:0|3:2,0:0:0:0:
331,327,98800,1,0,2:0:0:0:
174,307,98964,6,0,L|264:320,1,76.4999976654053,0|0,0:0|2:0,0:0:0:0:
115,217,99294,2,0,L|199:183,1,70.7,12|0,0:2|0:0,0:0:0:0:
14,210,99610,5,10,0:2:0:0:
56,117,99775,1,0,0:0:0:0:
199,203,99940,5,12,1:2:0:0:
148,63,100093,1,8,0:0:0:0:
96,301,100284,6,0,P|89:348|78:389,1,85,4|0,3:2|0:0,0:0:0:0:
323,202,100613,2,0,P|330:155|341:114,1,85,10|0,1:2|0:0,0:0:0:0:
147,219,100943,5,10,3:2:0:0:
251,291,101108,1,0,3:0:0:0:
355,363,101273,1,10,1:2:0:0:
163,371,101437,6,0,P|107:379|69:386,1,85,2|12,0:0|3:2,0:0:0:0:
414,251,101767,1,0,0:0:0:0:
414,251,101932,2,0,P|470:243|508:236,1,85,2|10,1:2|0:0,2:0:0:0:
277,83,102262,5,0,3:0:0:0:
158,202,102426,1,2,3:2:0:0:
157,65,102591,5,0,1:0:0:0:
386,99,102756,1,2,3:2:0:0:
478,81,102921,6,0,B|382:101|424:168|309:176,1,170,0|0,0:0|1:0,0:0:0:0:
233,278,103415,2,0,P|301:296|331:314,1,85,10|0,0:0|3:0,0:0:0:0:
434,222,103745,5,2,3:2:0:0:
262,169,103910,1,2,1:2:0:0:
90,116,104075,1,0,3:0:0:0:
126,274,104240,6,0,L|100:50,1,187.000005706787,0|0,0:0|1:0,0:0:0:0:
413,217,104899,2,0,L|387:-7,1,187.000005706787,10|0,3:2|1:0,0:0:0:0:
176,25,105393,1,0,0:0:0:0:
199,28,105475,1,0,0:0:0:0:
224,33,105557,5,14,1:2:0:0:
104,88,105723,1,0,0:0:0:0:
392,32,105888,5,0,1:2:0:0:
510,88,106054,1,0,0:0:0:0:
307,116,106218,5,14,1:2:0:0:
303,153,106300,1,0,1:0:0:0:
300,190,106382,1,0,1:0:0:0:
297,227,106465,1,0,1:0:0:0:
281,310,106547,2,0,L|270:256,1,46.7500014266968,4|4,0:3|0:3,0:0:0:0:
288,293,106712,2,0,L|284:341,1,46.7500014266968,4|4,0:3|0:3,0:0:0:0:
156,296,106877,6,0,L|43:283,1,93.5000028533936,12|0,1:2|0:0,0:0:0:0:
322,185,107207,2,0,B|444:165|444:165|386:225,1,187.000005706787,0|0,1:0|3:0,2:0:0:0:
284,112,107701,5,0,3:0:0:0:
392,218,107866,2,0,P|414:176|386:128,1,93.5000028533936,0|0,1:0|0:0,0:0:0:0:
157,184,108196,6,0,L|-10:211,1,140.25000428009,0|0,3:0|0:0,0:0:0:0:
35,177,108525,2,0,P|3:145|10:98,1,93.5000028533936,14|0,1:2|3:0,0:0:0:0:
156,269,108855,2,0,P|211:202|276:251,1,140.25000428009,10|0,3:2|0:0,0:0:0:0:
281,203,109185,2,0,P|321:221|330:279,1,93.5000028533936,10|0,1:2|3:0,0:0:0:0:
186,344,109514,6,0,B|61:323|136:381|-15:342,1,187.000005706787,4|0,3:2|1:0,0:0:0:0:
180,241,110009,1,8,0:0:0:0:
0,177,110174,2,0,L|149:164,1,140.25000428009,2|0,3:2|0:0,0:0:0:0:
227,145,110503,5,0,1:0:0:0:
285,268,110668,2,0,B|262:363|262:363|357:337,1,187.000005706787,0|0,3:0|0:0,0:0:0:0:
504,212,111163,2,0,L|409:195,1,93.5000028533936,12|0,1:2|2:0,0:0:0:0:
311,191,111492,5,10,3:2:0:0:
407,102,111657,1,0,0:0:0:0:
259,29,111822,2,0,L|134:48,1,93.5000028533936,12|0,1:2|0:0,0:0:0:0:
129,61,112069,1,0,0:0:0:0:
101,80,112152,6,0,L|7:62,1,93.5000028533936,14|0,3:2|0:0,0:0:0:0:
171,167,112481,1,2,1:2:0:0:
103,284,112646,2,0,B|158:204|158:204|126:305,1,187.000005706787,8|2,2:0|3:2,2:0:0:0:
276,373,113141,2,0,B|328:364|328:364|357:370|357:370|425:360,1,140.25000428009,2|0,1:2|0:0,0:0:0:0:
491,332,113470,5,10,3:2:0:0:
410,278,113635,1,8,3:2:0:0:
333,199,113800,5,10,1:2:0:0:
250,269,113965,5,8,0:0:0:0:
128,315,114130,1,2,3:2:0:0:
260,322,114294,5,0,3:0:0:0:
140,273,114459,2,0,P|177:241|109:197,1,140.25000428009,10|0,1:2|0:0,0:0:0:0:
32,248,114789,6,0,P|23:291|0:365,1,93.5000028533936,14|0,3:2|0:0,0:0:0:0:
134,194,115119,2,0,P|124:131|119:52,1,140.25000428009,0|0,1:0|0:0,0:0:0:0:
202,91,115448,6,0,P|248:82|317:79,1,93.5000028533936,10|0,3:2|0:0,0:0:0:0:
512,205,115778,2,0,P|441:194|342:191,1,140.25000428009,8|0,1:2|0:0,0:0:0:0:
298,216,116108,5,12,1:2:0:0:
352,157,116273,1,2,0:0:0:0:
257,184,116437,5,12,1:2:0:0:
313,77,116602,1,2,3:2:0:0:
319,73,116767,1,12,3:2:0:0:
214,176,116932,5,4,3:0:0:0:
243,296,117097,5,0,1:0:0:0:
312,357,117262,5,4,3:0:0:0:
511,291,117426,6,0,B|397:273|397:273|486:328,1,187.000005706787,12|8,3:2|1:2,0:0:0:0:
309,239,117921,1,8,3:2:0:0:
213,327,118086,1,2,3:2:0:0:
115,290,118251,1,0,0:0:0:0:
1,318,118415,5,10,1:2:0:0:
49,384,118580,2,0,P|53:308|150:257,1,187.000005706787,0|0,0:0|3:0,2:0:0:0:
327,147,119075,2,0,P|294:160|183:176,1,140.25000428009,10|0,1:2|0:0,2:0:0:0:
94,155,119404,6,0,P|69:111|95:67,1,93.5000028533936,10|0,3:2|0:0,0:0:0:0:
160,280,119734,2,0,L|138:385,1,93.5000028533936,10|0,1:2|2:0,0:0:0:0:
286,242,120064,2,0,B|380:229|380:229|302:276,1,140.25000428009,12|0,3:2|0:0,0:0:0:0:
416,314,120393,2,0,L|529:340,1,93.5000028533936,10|0,1:2|0:0,0:0:0:0:
286,242,120723,1,2,3:2:0:0:
198,324,120888,1,0,0:0:0:0:
314,371,121053,1,0,1:0:0:0:
399,224,121218,6,0,P|395:106|343:79,1,187.000005706787,12|0,3:2|0:0,0:0:0:0:
344,79,121630,1,0,0:0:0:0:
344,79,121712,1,10,1:2:0:0:
135,0,122042,5,4,3:2:0:0:
56,94,122207,1,0,3:0:0:0:
221,143,122371,5,0,1:0:0:0:
163,18,122536,1,0,3:0:0:0:
39,172,122701,5,12,3:2:0:0:
39,172,122866,2,0,L|113:162,1,72.2500013780594,0|8,0:0|0:0,0:0:0:0:
263,213,123196,2,0,L|282:293,1,72.2500013780594,10|0,1:2|2:0,0:0:0:0:
218,327,123525,1,4,0:3:0:0:
218,327,123690,1,8,3:2:0:0:
342,360,123855,1,0,1:0:0:0:
248,236,124020,5,10,1:2:0:0:
146,278,124185,1,0,3:0:0:0:
237,214,124349,1,8,3:2:0:0:
144,177,124514,1,10,1:2:0:0:
144,177,124597,1,0,2:0:0:0:
144,177,124679,2,0,L|56:203,2,72.2500013780594,0|0|4,3:0|3:0|1:2,0:0:0:0:
322,82,125174,6,0,B|336:81|336:81|360:85|360:85|374:82,1,50.9999984436036,0|0,3:0|0:0,0:0:0:0:
499,70,125338,6,0,B|426:92|426:92|381:82|368:24|421:4,2,187.000005706787,14|12|10,1:2|1:2|1:2,0:0:0:0:
367,180,126163,1,0,3:0:0:0:
502,235,126327,2,0,P|441:272|457:339,1,140.25000428009,12|0,1:2|0:0,0:0:0:0:
435,361,126657,6,0,P|405:325|347:331,1,93.5000028533936,10|8,1:2|0:3,0:0:0:0:
99,179,126987,2,0,L|196:198,1,93.5000028533936,10|8,1:2|0:3,0:0:0:0:
0,322,127316,6,0,P|30:286|88:292,1,93.5000028533936,10|2,1:2|1:2,0:0:0:0:
377,163,127646,2,0,L|284:176,1,93.5000028533936,10|2,1:2|1:2,0:0:0:0:
21,126,127976,6,0,B|90:164|90:164|84:172|84:172|-5:147,1,170,4|2,3:2|1:2,0:0:0:0:
5,150,128635,2,0,P|-3:84|7:60,1,76.4999976654053,2|0,3:2|3:0,0:0:0:0:
199,196,128965,1,2,1:2:0:0:
84,71,129130,2,0,B|70:155|125:134|106:230,1,152.999995330811,4|0,3:2|3:0,0:0:0:0:
108,218,129624,2,0,L|22:236,1,76.4999976654053,2|0,1:2|0:0,0:0:0:0:
167,56,129954,2,0,P|219:51|260:61,1,76.4999976654053,2|0,3:2|3:0,0:0:0:0:
206,272,130284,2,0,L|198:185,1,76.4999976654053,2|0,1:2|0:0,0:0:0:0:
336,94,130613,5,2,3:2:0:0:
367,185,130778,2,0,L|443:175,1,76.4999976654053,0|0,3:0|1:0,0:0:0:0:
154,92,131108,5,2,3:2:0:0:
144,185,131273,2,0,L|69:175,1,76.4999976654053,0|0,3:0|3:0,0:0:0:0:
336,94,131602,5,2,1:2:0:0:
292,197,131767,2,0,L|458:173,1,152.999995330811,0|2,3:0|3:2,0:0:0:0:
154,92,132262,5,0,1:0:0:0:
198,195,132426,1,0,3:0:0:0:
198,195,132509,1,0,0:0:0:0:
198,195,132591,1,2,3:2:0:0:
96,180,132756,2,0,L|108:269,1,76.4999976654053,0|2,3:0|1:2,0:0:0:0:
154,92,133086,2,0,P|135:82|107:82,2,38.2499988327027,0|0|4,2:0|0:0|3:2,0:0:0:0:
154,92,133580,6,0,B|75:85|93:150|0:144,1,152.999995330811,2|2,1:2|3:2,0:0:0:0:
152,176,134075,1,0,3:0:0:0:
46,37,134240,1,2,1:2:0:0:
15,144,134404,2,0,B|94:137|76:202|169:196,1,152.999995330811,4|0,3:2|3:0,0:0:0:0:
153,196,134899,2,0,L|144:272,1,76.4999976654053,2|0,1:2|0:0,0:0:0:0:
241,82,135229,2,0,P|224:35|193:9,1,76.4999976654053,2|0,3:2|3:0,0:0:0:0:
46,202,135558,2,0,L|132:191,1,76.4999976654053,2|0,1:2|0:0,0:0:0:0:
403,211,135888,5,6,3:2:0:0:
319,163,136053,2,0,L|313:73,1,76.4999976654053,0|0,3:0|1:0,0:0:0:0:
109,211,136382,5,2,3:2:0:0:
193,163,136547,2,0,L|198:86,1,76.4999976654053,0|0,3:0|3:0,0:0:0:0:
406,75,136877,6,0,L|401:20,1,38.2499988327027,2|0,1:2|0:0,0:0:0:0:
319,163,137042,2,0,L|313:73,1,76.4999976654053,2|2,3:2|3:2,0:0:0:0:
106,75,137371,6,0,L|111:20,1,38.2499988327027,2|0,3:2|0:0,0:0:0:0:
193,163,137536,2,0,L|198:86,1,76.4999976654053,0|0,1:0|0:0,0:0:0:0:
319,163,137866,5,0,1:0:0:0:
324,200,137948,1,0,1:0:0:0:
330,238,138030,1,0,1:0:0:0:
335,276,138113,1,0,1:0:0:0:
324,303,138196,5,0,1:0:0:0:
326,321,138278,1,0,1:0:0:0:
329,340,138360,1,0,1:0:0:0:
332,359,138443,1,0,1:0:0:0:
324,377,138525,5,4,3:2:0:0:
324,377,138855,6,0,P|292:344|198:345,1,114.749996498108,2|0,1:2|0:0,0:0:0:0:
152,370,139185,2,0,L|142:274,1,76.4999976654053,2|0,3:2|3:0,0:0:0:0:
248,157,139514,1,2,1:2:0:0:
252,246,139679,2,0,P|206:236|163:127,1,152.999995330811,4|0,3:2|3:0,0:0:0:0:
379,185,140174,2,0,L|390:260,1,76.4999976654053,2|0,1:2|0:0,0:0:0:0:
273,74,140503,2,0,P|336:55|372:59,1,76.4999976654053,2|0,3:2|3:0,0:0:0:0:
486,292,140833,2,0,L|474:216,1,76.4999976654053,2|0,1:2|0:0,0:0:0:0:
436,76,141163,5,2,3:2:0:0:
337,136,141327,2,0,P|379:140|423:161,1,76.4999976654053,0|0,3:0|1:0,0:0:0:0:
76,76,141657,5,2,3:2:0:0:
175,136,141822,2,0,P|133:140|89:161,1,76.4999976654053,0|0,3:0|3:0,0:0:0:0:
433,250,142152,5,2,1:2:0:0:
330,220,142316,2,0,P|357:271|350:377,1,152.999995330811,0|2,3:0|3:2,0:0:0:0:
79,250,142811,5,0,1:0:0:0:
182,220,142976,1,0,3:0:0:0:
182,220,143058,1,0,0:0:0:0:
182,220,143141,1,2,3:2:0:0:
153,319,143305,2,0,P|99:338|66:349,1,76.4999976654053,0|2,3:0|1:2,0:0:0:0:
169,130,143635,2,0,L|175:69,2,38.2499988327027,0|0|4,0:0|0:0|3:2,0:0:0:0:
169,130,144130,6,0,B|258:120|224:179|314:170,1,152.999995330811,2|2,1:2|3:2,0:0:0:0:
391,145,144624,1,0,3:0:0:0:
220,234,144789,1,2,1:2:0:0:
310,170,144954,2,0,B|221:160|255:219|165:210,1,152.999995330811,4|0,3:2|3:0,0:0:0:0:
168,210,145448,2,0,P|151:263|157:301,1,76.4999976654053,2|0,1:2|0:0,0:0:0:0:
350,339,145778,2,0,L|337:255,1,76.4999976654053,2|0,3:2|3:0,0:0:0:0:
152,283,146108,2,0,L|68:271,1,76.4999976654053,2|0,1:2|0:0,0:0:0:0:
68,61,146437,5,2,3:2:0:0:
152,187,146602,2,0,P|144:136|135:90,1,76.4999976654053,0|0,3:0|1:0,0:0:0:0:
444,61,146932,5,2,3:2:0:0:
360,187,147097,2,0,P|368:136|377:90,1,76.4999976654053,0|0,3:0|3:0,0:0:0:0:
183,13,147426,6,0,L|133:20,1,38.2499988327027,2|0,1:2|0:0,0:0:0:0:
360,186,147591,2,0,P|365:149|372:111,1,76.4999976654053,2|2,3:2|3:2,0:0:0:0:
329,13,147921,6,0,L|379:20,1,38.2499988327027,2|0,3:2|0:0,0:0:0:0:
152,186,148086,2,0,P|146:149|139:111,1,76.4999976654053,0|2,1:0|3:2,0:0:0:0:
261,122,148415,5,0,1:0:0:0:
256,159,148497,1,0,1:0:0:0:
250,197,148579,1,0,1:0:0:0:
245,235,148662,1,0,1:0:0:0:
256,262,148745,5,0,1:0:0:0:
254,280,148827,1,0,3:0:0:0:
251,299,148909,1,0,3:2:0:0:
248,318,148992,1,0,3:0:0:0:
255,348,149074,5,4,3:2:0:0:
419,137,149404,1,0,1:0:0:0:
393,237,149569,6,0,P|412:178|344:132,1,152.999995330811,2|0,0:0|3:0,0:0:0:0:
242,48,150064,1,0,1:0:0:0:
325,20,150229,6,0,L|412:42,1,76.4999976654053,2|0,0:0|3:0,0:0:0:0:
282,168,150558,2,0,L|299:256,1,76.4999976654053,0|0,3:0|1:0,0:0:0:0:
132,119,150888,2,0,L|20:145,1,101.999996887207,2|0,0:0|3:0,0:0:0:0:
0,261,151382,1,0,1:0:0:0:
100,209,151547,5,0,3:0:0:0:
100,209,151712,2,0,P|147:206|264:217,1,152.999995330811,2|0,3:2|1:0,0:0:0:0:
158,303,152207,2,0,P|120:308|76:321,1,76.4999976654053,2|0,0:0|3:0,0:0:0:0:
206,357,152536,2,0,P|244:362|288:375,1,76.4999976654053,2|0,3:2|1:0,0:0:0:0:
174,223,152866,6,0,P|150:186|202:81,1,152.999995330811,2|0,0:0|3:0,0:0:0:0:
291,38,153360,1,0,1:0:0:0:
330,40,153690,1,0,3:0:0:0:
266,75,153855,1,0,3:0:0:0:
267,0,154020,1,0,1:0:0:0:
467,121,154185,6,0,L|352:135,1,101.999996887207,0|0,3:0|0:0,0:0:0:0:
266,247,154679,1,0,1:0:0:0:
361,272,154844,6,0,L|517:290,1,152.999995330811,2|0,0:0|3:0,0:0:0:0:
512,289,155338,1,0,1:0:0:0:
430,208,155503,6,0,P|405:184|408:123,1,76.4999976654053,2|0,0:0|0:0,0:0:0:0:
336,97,155833,2,0,P|298:101|271:127,1,76.4999976654053,2|0,3:2|1:0,0:0:0:0:
138,240,156163,2,0,P|102:243|55:207,1,76.4999976654053,2|0,0:0|0:0,0:0:0:0:
30,288,156492,2,0,P|-9:250|29:145,1,152.999995330811,0|0,3:0|3:0,0:0:0:0:
12,8,156987,6,0,B|107:30|107:30|37:87,1,152.999995330811,2|0,3:2|1:0,0:0:0:0:
91,151,157481,2,0,L|181:173,1,76.4999976654053,2|0,0:0|3:0,0:0:0:0:
259,51,157811,2,0,L|345:35,1,76.4999976654053,2|0,3:2|1:0,0:0:0:0:
246,194,158141,6,0,L|257:303,1,101.999996887207,2|0,0:0|3:0,0:0:0:0:
437,165,158635,1,0,1:0:0:0:
426,240,158800,2,0,L|437:157,1,76.4999976654053,0|2,3:2|3:2,0:0:0:0:
319,337,159130,5,2,3:2:0:0:
426,240,159294,1,2,1:2:0:0:
468,384,159459,1,2,3:2:0:0:
407,313,159624,5,4,3:2:0:0:
81,215,159954,1,0,1:0:0:0:
133,314,160119,6,0,L|241:302,1,101.999996887207,2|0,0:0|3:0,0:0:0:0:
334,170,160613,1,0,1:0:0:0:
269,100,160778,6,0,P|232:85|191:85,1,76.4999976654053,2|0,0:0|0:0,0:0:0:0:
298,251,161108,2,0,P|310:286|351:317,1,76.4999976654053,2|0,3:2|1:0,0:0:0:0:
419,159,161437,2,0,P|463:90|442:15,1,152.999995330811,2|0,0:0|3:0,0:0:0:0:
334,170,161932,1,0,1:0:0:0:
455,257,162097,5,0,3:0:0:0:
455,257,162262,2,0,P|385:260|300:280,1,152.999995330811,2|0,3:2|1:0,0:0:0:0:
149,211,162756,2,0,P|112:220|73:242,1,76.4999976654053,2|0,0:0|0:0,0:0:0:0:
73,159,163086,2,0,P|36:168|-3:190,1,76.4999976654053,2|0,3:2|1:0,0:0:0:0:
196,120,163415,6,0,B|297:144|249:104|359:126,1,152.999995330811,0|2,3:0|3:2,0:0:0:0:
468,179,163910,1,0,1:0:0:0:
281,45,164075,6,0,L|269:160,1,101.999996887207,0|0,3:0|3:0,0:0:0:0:
154,261,164569,6,0,L|163:353,1,76.4999976654053,2|0,1:2|0:0,0:0:0:0:
161,337,164816,1,0,0:0:0:0:
161,337,164899,1,4,3:2:0:0:
478,256,165229,1,0,1:0:0:0:
393,329,165393,6,0,L|293:312,1,76.4999976654053,2|0,0:0|3:0,0:0:0:0:
256,199,165723,2,0,L|160:177,1,76.4999976654053,2|0,3:2|1:0,0:0:0:0:
152,220,166053,2,0,L|232:208,1,76.4999976654053,2|0,3:2|0:0,0:0:0:0:
359,61,166382,2,0,L|448:41,1,76.4999976654053,2|0,3:2|1:0,0:0:0:0:
480,101,166712,2,0,L|400:85,1,76.4999976654053,2|0,0:0|3:0,0:0:0:0:
164,0,167042,2,0,L|63:24,1,76.4999976654053,2|0,3:2|1:0,0:0:0:0:
205,88,167371,5,0,3:0:0:0:
209,94,167454,1,0,3:0:0:0:
212,100,167536,2,0,P|285:120|285:199,1,152.999995330811,4|0,3:2|1:0,0:0:0:0:
363,384,168031,2,0,L|346:298,1,76.4999976654053,2|0,0:0|3:0,0:0:0:0:
215,262,168360,2,0,L|188:342,1,76.4999976654053,2|0,3:2|1:0,0:0:0:0:
385,222,168690,6,0,P|411:233|500:245,1,101.999996887207,2|2,0:0|3:2,0:0:0:0:
372,104,169185,1,0,1:0:0:0:
162,147,169349,6,0,P|124:167|-1:183,1,152.999995330811,2|2,3:2|3:2,0:0:0:0:
16,184,169762,1,0,0:0:0:0:
16,184,169844,1,0,1:0:0:0:
124,254,170009,1,0,0:0:0:0:
255,78,170174,6,0,P|201:108|227:202,1,152.999995330811,4|0,1:2|0:0,0:0:0:0:
399,255,170833,2,0,P|453:225|427:131,1,152.999995330811,2|8,3:2|0:3,0:0:0:0:
319,217,171327,2,0,B|281:303|357:290|311:397,1,152.999995330811,2|0,0:0|0:0,0:0:0:0:
322,365,171822,2,0,L|428:347,1,76.4999976654053,2|0,0:0|1:0,0:0:0:0:
207,228,172152,1,4,0:3:0:0:
224,303,172316,1,4,0:3:0:0:
149,320,172470,1,0,3:0:0:0:
240,144,172634,6,0,L|137:128,1,85,0|4,3:0|1:2,0:0:0:0:
142,329,172964,1,0,0:0:0:0:
35,277,173159,2,0,P|69:239|125:222,1,75,0|0,3:0|0:0,0:0:0:0:
266,353,173469,5,2,0:0:0:0:
247,266,173634,1,8,3:0:0:0:
171,328,173799,1,2,1:2:0:0:
336,301,173964,1,0,3:0:0:0:
171,328,174129,6,0,L|363:360,1,170,4|2,3:2|1:2,0:0:0:0:
496,158,174788,2,0,P|468:118|425:106,1,85,2|2,3:2|3:2,0:0:0:0:
342,147,175118,2,0,P|331:216|329:290,1,127.5,2|0,1:2|0:0,0:0:0:0:
328,273,175447,6,0,L|160:245,1,170,4|2,3:2|1:2,0:0:0:0:
3,99,176107,2,0,P|51:88|111:111,1,85,2|0,3:2|3:0,0:0:0:0:
79,229,176436,1,2,1:2:0:0:
3,99,176601,2,0,B|85:88|67:157|168:139,1,170,2|0,3:2|0:0,0:0:0:0:
275,113,177096,2,0,P|235:35|162:66,1,170,0|0,1:0|3:0,0:0:0:0:
328,174,177590,2,0,P|358:116|353:75,1,85,2|2,3:2|1:2,0:0:0:0:
187,212,177920,1,0,3:0:0:0:
358,97,178085,6,0,L|459:121,1,85,4|0,3:2|0:0,0:0:0:0:
161,139,178414,2,0,L|78:119,1,85,0|2,1:0|0:0,0:0:0:0:
253,23,178744,5,4,3:2:0:0:
287,165,178909,1,0,0:0:0:0:
321,307,179074,1,2,1:2:0:0:
376,115,179238,1,0,0:0:0:0:
376,115,179321,1,0,0:0:0:0:
376,115,179403,6,0,P|391:58|408:7,1,85,4|0,1:2|0:2,0:0:0:0:
224,259,179733,2,0,P|209:316|192:367,1,85,4|0,1:2|0:2,0:0:0:0:
450,205,180063,1,0,1:0:0:0:
450,205,180227,5,0,1:0:0:0:
409,194,180309,1,0,1:0:0:0:
368,204,180391,1,0,1:0:0:0:
337,232,180475,1,0,1:0:0:0:
305,260,180558,1,0,1:0:0:0:
265,270,180640,1,0,1:0:0:0:
224,259,180722,1,4,3:2:0:0:
414,204,181052,6,0,B|319:210|361:284|241:280,1,170,0|0,1:0|3:0,0:0:0:0:
406,293,181546,1,0,3:0:0:0:
280,189,181711,6,0,B|371:214|315:278|433:299,1,170,0|0,1:0|3:0,0:0:0:0:
268,279,182205,1,0,3:0:0:0:
414,204,182370,6,0,B|319:210|361:284|241:280,1,170,0|0,1:0|3:0,0:0:0:0:
406,293,182864,1,0,3:0:0:0:
280,189,183030,6,0,B|371:214|315:278|433:299,1,170,0|0,1:0|0:0,0:0:0:0:
501,245,183359,6,0,P|503:205|516:150,1,85,0|0,3:0|3:0,0:0:0:0:
512,161,183689,2,0,L|358:180,1,127.5,0|0,1:0|0:0,0:0:0:0:
374,260,184019,6,0,P|376:220|389:165,1,85,0|0,3:0|3:0,0:0:0:0:
385,176,184349,2,0,L|231:195,1,127.5,0|0,1:0|0:0,0:0:0:0:
247,275,184678,6,0,P|249:235|262:180,1,85,0|0,3:0|3:0,0:0:0:0:
145,80,185008,2,0,P|147:120|160:175,1,85,0|0,1:0|3:0,0:0:0:0:
96,324,185337,5,0,3:0:0:0:
116,243,185502,1,0,3:0:0:0:
0,102,185667,5,0,1:0:0:0:
20,183,185832,1,0,0:0:0:0:
116,243,185997,6,0,L|31:267,1,85,0|0,3:0|3:0,0:0:0:0:
142,148,186326,2,0,L|7:186,1,127.5,0|0,1:0|0:0,0:0:0:0:
223,124,186656,6,0,L|142:148,1,85,0|0,3:0|3:0,0:0:0:0:
238,208,186985,2,0,L|103:246,1,127.5,0|0,1:0|0:0,0:0:0:0:
319,184,187315,6,0,L|238:208,1,85,0|0,3:0|3:0,0:0:0:0:
345,89,187644,2,0,L|223:124,1,127.5,0|0,1:0|0:0,0:0:0:0:
427,66,187975,6,0,L|345:89,1,85,0|0,3:0|3:0,0:0:0:0:
442,149,188304,2,0,L|307:187,1,127.5,0|0,1:0|0:0,0:0:0:0:
222,124,188634,6,0,P|212:72|209:24,1,85,0|0,3:0|3:0,0:0:0:0:
290,260,188964,2,0,P|300:312|303:360,1,85,0|0,1:0|0:0,0:0:0:0:
188,226,189293,2,0,P|136:236|88:239,1,85,0|0,3:0|3:0,0:0:0:0:
324,158,189623,2,0,P|376:148|424:145,1,85,0|0,1:0|0:0,0:0:0:0:
379,235,189953,5,0,1:0:0:0:
133,149,190118,1,0,3:0:0:0:
213,315,190282,1,0,1:0:0:0:
299,69,190447,1,0,3:0:0:0:
300,283,190612,5,0,3:0:0:0:
164,236,190777,1,0,1:0:0:0:
211,100,190941,1,4,0:3:0:0:
347,147,191106,1,4,0:3:0:0:
256,192,191271,5,4,3:2:0:0:
256,192,191601,2,0,L|144:208,1,85,0|0,1:0|0:0,0:0:0:0:
211,284,191931,5,0,3:0:0:0:
340,380,192096,1,0,3:0:0:0:
211,284,192260,2,0,L|305:299,1,85,0|0,1:0|0:0,0:0:0:0:
488,119,192590,5,0,3:0:0:0:
372,209,192755,1,0,3:0:0:0:
293,85,192920,1,0,1:0:0:0:
488,119,193085,6,0,L|391:136,1,85,0|0,3:0|3:0,0:0:0:0:
189,195,193579,6,0,L|90:209,1,85,0|0,1:0|0:0,0:0:0:0:
50,23,193909,5,0,3:0:0:0:
168,119,194074,1,0,3:0:0:0:
50,23,194238,2,0,L|158:42,1,85,0|0,1:0|0:0,0:0:0:0:
269,141,194568,5,0,3:0:0:0:
362,243,194733,1,0,3:0:0:0:
236,298,194898,1,0,1:0:0:0:
269,141,195063,6,0,L|361:164,1,85,0|0,3:0|3:0,0:0:0:0:
236,298,195557,6,0,L|357:331,1,85,0|0,1:0|0:0,0:0:0:0:
236,156,195887,5,0,3:0:0:0:
370,198,196052,1,0,3:0:0:0:
468,164,196216,6,0,L|441:172,1,25.4999992218018,0|0,1:0|0:0,0:0:0:0:
475,183,196381,2,0,L|443:194,1,25.4999992218018,0|0,3:0|3:0,0:0:0:0:
370,198,196546,5,0,3:0:0:0:
296,352,196711,1,0,3:0:0:0:
370,198,196876,2,0,P|368:237|390:283,1,85,0|0,1:0|0:0,0:0:0:0:
256,329,197205,5,0,3:0:0:0:
182,178,197370,1,0,3:0:0:0:
256,329,197535,2,0,P|275:291|270:232,1,85,0|0,1:0|0:0,0:0:0:0:
202,77,197865,5,0,3:0:0:0:
60,142,198030,1,0,3:0:0:0:
132,52,198194,5,0,1:0:0:0:
58,102,198359,1,0,0:0:0:0:
150,174,198524,5,0,3:0:0:0:
275,249,198689,1,0,3:0:0:0:
215,147,198854,5,0,1:0:0:0:
285,211,199019,1,0,0:0:0:0:
180,302,199183,6,0,P|143:325|90:328,1,85,4|0,3:2|3:0,0:0:0:0:
293,175,199513,2,0,B|339:168|339:168|376:174|376:174|435:165,1,127.5,0|0,1:0|0:0,0:0:0:0:
435,182,199843,6,0,P|472:205|525:208,1,85,4|0,3:2|3:0,0:0:0:0:
313,66,200173,2,0,B|272:60|272:60|231:68|231:68|172:59,1,127.5,0|0,1:0|0:0,0:0:0:0:
155,92,200502,5,4,3:2:0:0:
57,134,200667,1,0,3:0:0:0:
5,41,200832,1,4,1:2:0:0:
212,196,201079,5,0,1:0:0:0:
222,212,201161,1,4,1:2:0:0:
14,262,201326,5,0,1:0:0:0:
28,278,201409,1,0,1:0:0:0:
68,263,201491,1,4,1:2:0:0:
110,270,201574,1,0,1:0:0:0:
142,299,201656,1,0,1:0:0:0:
153,332,201738,1,0,1:0:0:0:
135,361,201821,2,0,L|45:384,1,85,12|0,1:2|0:0,0:0:0:0:
87,175,202150,6,0,L|109:66,1,85,0|0,1:0|0:0,0:0:0:0:
103,91,202398,1,0,3:0:0:0:
103,91,202480,1,0,3:0:0:0:
189,239,202645,1,0,3:0:0:0:
185,21,202810,1,0,1:0:0:0:
276,191,202975,2,0,L|288:132,1,42.5
284,149,203139,2,0,L|388:133,1,85,0|0,3:0|3:0,0:0:0:0:
164,340,203469,2,0,P|134:305|82:294,1,85,14|0,1:2|0:0,0:0:0:0:
276,191,203799,2,0,P|267:145|227:110,1,85,10|0,3:2|0:0,0:0:0:0:
453,298,204129,2,0,P|468:254|451:203,1,85,10|0,1:2|0:0,0:0:0:0:
489,136,204376,1,0,0:0:0:0:
489,136,204458,6,0,L|371:149,1,85,4|0,3:2|0:0,0:0:0:0:
224,274,204788,2,0,P|283:286|312:328,1,85,0|8,1:0|0:0,0:0:0:0:
401,235,205118,2,0,P|446:274|450:325,1,85,2|0,3:2|0:0,0:0:0:0:
452,296,205365,1,0,0:0:0:0:
452,296,205447,1,0,1:0:0:0:
312,212,205612,1,0,3:0:0:0:
299,302,205777,5,2,3:2:0:0:
401,235,205942,1,0,0:0:0:0:
224,193,206107,1,12,1:2:0:0:
326,126,206272,1,0,0:0:0:0:
326,126,206354,1,0,0:0:0:0:
326,126,206436,1,10,3:2:0:0:
312,212,206601,5,0,0:0:0:0:
292,44,206766,1,12,1:2:0:0:
413,120,206931,1,0,0:0:0:0:
110,138,207096,6,0,P|163:140|238:203,1,127.5,14|0,3:2|0:0,0:0:0:0:
223,180,207425,2,0,L|239:82,1,85,2|8,1:2|0:0,0:0:0:0:
237,96,207672,1,0,0:0:0:0:
237,96,207755,1,10,3:2:0:0:
138,233,207920,1,2,3:2:0:0:
29,114,208085,2,0,P|18:74|22:17,1,85,2|0,1:2|0:0,0:0:0:0:
261,14,208414,5,10,3:2:0:0:
103,64,208579,1,8,3:2:0:0:
334,89,208744,1,10,1:2:0:0:
190,96,208909,2,0,L|180:42,2,42.5,8|0|2,0:0|0:0|3:2,0:0:0:0:
141,162,209238,1,0,3:0:0:0:
203,222,209403,1,10,1:2:0:0:
151,286,209568,1,0,0:0:0:0:
272,341,209733,6,0,L|78:302,2,170,14|0|10,3:2|1:0|3:2,0:0:0:0:
41,365,210557,1,0,0:0:0:0:
198,304,210722,1,8,1:2:0:0:
133,210,210887,1,0,0:0:0:0:
133,210,210969,1,0,0:0:0:0:
133,210,211052,6,0,P|120:162|131:126,1,85,12|2,1:2|0:0,0:0:0:0:
379,210,211381,2,0,P|392:162|381:126,1,85,12|2,1:2|3:2,0:0:0:0:
253,31,211711,5,12,3:2:0:0:
234,205,211876,1,4,3:0:0:0:
259,353,212041,5,0,1:0:0:0:
278,179,212206,1,4,3:0:0:0:
298,10,212370,6,0,B|313:41|313:41|328:206,2,170,12|8|2,3:2|1:2|3:2,0:0:0:0:
229,229,213194,2,0,L|233:177,2,42.5,0|0|10,0:0|0:0|1:2,0:0:0:0:
218,58,213524,2,0,P|163:68|108:47,1,85,0|12,0:0|3:2,0:0:0:0:
135,61,213854,1,0,3:0:0:0:
409,118,214019,1,10,1:2:0:0:
321,143,214183,2,0,P|322:96|336:59,1,85,0|10,3:0|3:2,0:0:0:0:
384,242,214513,1,0,3:0:0:0:
335,60,214678,2,0,L|474:44,1,127.5,10|0,1:2|0:0,0:0:0:0:
461,45,215008,6,0,B|364:43|400:109|308:103,1,170,12|10,3:2|1:2,0:0:0:0:
224,79,215502,1,8,0:0:0:0:
177,224,215667,2,0,L|162:133,1,85,2|8,3:2|3:2,0:0:0:0:
144,22,215997,1,0,1:0:0:0:
24,165,216161,6,0,B|120:163|84:229|176:223,1,170,12|0,3:2|0:0,0:0:0:0:
383,264,216656,2,0,L|282:289,1,85,10|0,1:2|0:0,0:0:0:0:
300,284,216903,1,0,3:0:0:0:
300,284,216986,1,4,3:2:0:0:
449,316,217150,1,0,3:0:0:0:
403,186,217315,1,0,1:0:0:0:
209,251,217480,1,0,3:0:0:0:
78,188,217645,5,12,3:2:0:0:
107,341,217810,2,0,B|131:252|76:268|111:142,1,170,0|10,0:0|1:2,0:0:0:0:
103,173,218469,1,4,0:3:0:0:
208,124,218634,2,0,L|190:26,1,85,8|0,3:2|1:0,0:0:0:0:
193,173,218964,6,0,L|210:-6,1,170,10|8,1:2|3:2,0:0:0:0:
209,3,219458,1,10,1:2:0:0:
109,77,219623,5,0,3:0:0:0:
312,47,219788,1,0,3:0:0:0:
312,47,220118,5,0,3:0:0:0:
387,89,220282,2,0,P|411:130|417:171,1,85,14|8,1:2|3:2,0:0:0:0:
347,310,220612,2,0,P|323:269|317:228,1,85
317,232,220859,1,0,0:0:0:0:
317,232,220942,1,10,1:2:0:0:
420,251,221107,1,0,3:0:0:0:
247,112,221271,1,12,1:2:0:0:
224,237,221436,2,0,L|233:179,1,42.5,0|0,3:0|3:0,0:0:0:0:
387,89,221601,5,10,1:2:0:0:
387,89,221766,1,8,0:3:0:0:
163,116,221931,2,0,P|245:111|268:118,1,85,10|8,1:2|0:3,0:0:0:0:
246,111,222178,1,0,0:0:0:0:
246,111,222260,1,10,1:2:0:0:
208,336,222425,1,2,1:2:0:0:
38,164,222590,6,0,P|103:191|127:232,1,85,10|2,1:2|1:2,0:0:0:0:
127,277,222920,1,12,1:2:0:0:
127,277,223249,6,0,P|137:210|151:176,1,85,10|8,1:2|0:0,0:0:0:0:
196,106,223497,1,0,0:0:0:0:
196,106,223579,2,0,L|82:117,1,85,8|0,3:2|3:0,0:0:0:0:
17,129,223909,5,10,1:2:0:0:
237,194,224074,1,0,3:0:0:0:
131,26,224238,5,12,2:0:0:0:
111,114,224403,1,0,0:0:0:0:
131,26,224568,6,0,L|146:225,2,170,8|4|0,1:2|3:2|1:2,0:0:0:0:
59,254,225392,1,0,3:0:0:0:
62,238,225475,1,0,0:0:0:0:
63,227,225557,5,12,3:2:0:0:
52,143,225722,1,8,3:2:0:0:
291,193,225887,5,8,1:2:0:0:
280,109,226051,1,0,3:0:0:0:
177,210,226216,5,8,3:2:0:0:
166,126,226381,1,0,3:2:0:0:
405,176,226546,5,8,1:2:0:0:
394,92,226711,1,0,3:0:0:0:
444,302,226876,5,6,1:2:0:0:
434,279,226958,1,0,1:0:0:0:
419,260,227040,1,0,1:0:0:0:
400,245,227123,1,0,1:0:0:0:
377,236,227205,1,8,1:2:0:0:
352,234,227288,1,0,1:0:0:0:
328,238,227370,2,0,L|290:246,1,21.25
262,312,227535,5,4,1:2:0:0:
236,278,227617,1,4,0:3:0:0:
228,237,227699,1,4,0:3:0:0:
241,197,227782,1,4,0:3:0:0:
271,167,227865,1,4,3:3:0:0:
300,137,227947,1,0,3:0:0:0:
313,97,228030,1,0,3:0:0:0:
305,55,228112,1,0,3:0:0:0:
280,22,228194,1,4,1:2:0:0:
166,44,228359,6,0,L|74:65,1,85,0|0,3:0|3:0,0:0:0:0:
195,208,228689,1,2,1:2:0:0:
255,128,228854,2,0,L|374:153,2,85,0|0|0,3:0|3:0|1:0,0:0:0:0:
415,196,229348,6,0,B|319:174|319:174|316:177|316:177|354:267,1,170,0|0,1:0|3:0,0:0:0:0:
198,323,229843,2,0,L|83:338,1,85,0|0,1:0|3:0,0:0:0:0:
96,322,230090,1,0,0:0:0:0:
84,326,230172,2,0,L|-17:341,1,85,0|0,1:0|3:0,0:0:0:0:
166,210,230502,5,0,3:0:0:0:
279,278,230667,1,0,1:0:0:0:
255,210,230832,1,4,3:2:0:0:
222,332,230997,1,0,3:0:0:0:
373,225,231161,5,0,1:0:0:0:
373,225,231326,2,0,L|363:133,1,85,0|0,1:0|3:0,0:0:0:0:
446,207,231656,1,0,3:0:0:0:
476,216,231738,1,0,0:0:0:0:
507,228,231821,1,0,1:0:0:0:
373,145,231986,1,0,1:0:0:0:
498,25,232150,6,0,B|396:19|445:74|337:63,1,170,2|0,1:2|1:0,0:0:0:0:
270,42,232645,1,0,3:0:0:0:
199,167,232810,1,0,1:0:0:0:
160,158,232892,1,0,1:0:0:0:
120,151,232975,1,0,1:0:0:0:
87,144,233057,1,0,1:0:0:0:
59,162,233139,5,4,0:3:0:0:
36,156,233222,1,4,0:3:0:0:
21,151,233304,1,4,0:3:0:0:
11,148,233387,1,4,0:3:0:0:
4,144,233469,6,0,P|18:234|8:312,1,170,4|2,3:2|0:0,0:0:0:0:
165,229,233964,2,0,P|191:203|333:225,1,170,0|0,1:0|3:0,0:0:0:0:
460,347,234458,1,2,1:2:0:0:
331,339,234623,5,0,3:0:0:0:
318,357,234953,5,2,3:2:0:0:
232,329,235118,1,0,0:0:0:0:
131,369,235282,1,4,0:3:0:0:
0,326,235447,1,4,1:2:0:0:
0,326,235777,1,2,1:2:0:0:
188,217,236107,6,0,P|231:213|287:197,1,85,4|0,3:2|0:0,0:0:0:0:
197,134,236436,1,0,0:0:0:0:
225,293,236601,6,0,P|233:204|186:123,1,170,4|0,1:2|3:0,0:0:0:0:
373,20,237096,6,0,P|348:52|353:117,1,85,4|0,1:2|0:0,0:0:0:0:
344,95,237425,1,2,0:0:0:0:
423,86,237590,6,0,P|344:34|256:56,1,170,4|0,3:2|3:0,0:0:0:0:
134,84,238085,5,0,1:2:0:0:
209,141,238249,1,0,1:0:0:0:
338,240,238414,5,8,0:3:0:0:
212,298,238579,1,2,1:2:0:0:
326,158,238744,5,4,3:2:0:0:
347,119,238909,1,2,0:0:0:0:
402,149,239074,1,2,0:0:0:0:
468,113,239238,1,2,3:2:0:0:
488,149,239403,1,4,3:2:0:0:
421,184,239568,1,0,1:0:0:0:
386,13,239733,5,0,1:0:0:0:
386,13,239898,2,0,L|251:29,1,127.5,4|2,3:2|3:2,0:0:0:0:
91,82,240557,5,0,1:0:0:0:
66,163,240722,1,2,0:0:0:0:
113,101,240887,1,2,3:2:0:0:
15,65,241052,1,4,1:2:0:0:
19,71,241216,1,2,1:2:0:0:
155,174,241381,6,0,P|195:168|256:165,1,85,2|2,3:2|3:2,0:0:0:0:
482,263,241876,2,0,P|442:257|381:254,1,85,2|2,0:0|3:2,0:0:0:0:
303,208,242370,5,2,1:2:0:0:
197,256,242535,1,2,3:2:0:0:
231,298,242700,1,2,0:0:0:0:
286,163,242865,1,2,3:2:0:0:
199,167,243030,5,2,0:0:0:0:
187,174,243194,1,2,3:2:0:0:
78,170,243359,5,4,0:0:0:0:
113,184,243524,1,2,0:0:0:0:
174,263,243689,5,0,3:0:0:0:
174,263,243771,1,0,3:0:0:0:
174,263,243854,1,0,3:0:0:0:
174,263,243936,1,0,3:0:0:0:
174,263,244019,6,0,B|226:256|226:256|281:289,1,101.999996887207,4|2,3:2|0:0,0:0:0:0:
346,260,244348,2,0,B|397:255|397:255|445:286,1,101.999996887207,2|2,0:2|3:2,0:0:0:0:
268,295,244678,5,0,0:0:0:0:
506,225,244843,1,0,1:0:0:0:
484,302,245008,2,0,B|376:284|357:353|245:316,1,237.999992736817,4|2,3:2|0:0,0:0:0:0:
9,214,245502,6,0,B|73:128|73:128|77:143|77:143|13:260,1,237.999992736817,2|0,1:2|1:0,0:0:0:0:
85,287,245997,1,2,0:0:0:0:
178,114,246161,1,2,1:2:0:0:
73,128,246326,5,2,3:2:0:0:
102,150,246491,1,2,0:0:0:0:
169,244,246656,5,4,3:2:0:0:
283,190,246821,1,2,3:2:0:0:
485,295,246986,5,2,3:2:0:0:
377,224,247150,2,0,P|359:186|386:129,1,93.5000028533936,2|2,3:2|1:2,0:0:0:0:
382,145,247398,1,0,1:0:0:0:
382,145,247480,2,0,L|445:160,1,46.7500014266968,2|0,1:2|1:0,0:0:0:0:
503,209,247645,5,4,1:2:0:0:
395,357,247798,2,0,B|382:318|382:318|407:323|407:323|415:350|424:379,1,106.25,2|0,1:2|0:0,0:0:0:0:
