osu file format v14

[General]
AudioFilename: Hana.mp3
AudioLeadIn: 0
PreviewTime: 53575
Countdown: 0
SampleSet: Soft
StackLeniency: 0.7
Mode: 0
LetterboxInBreaks: 0
EpilepsyWarning: 1
WidescreenStoryboard: 1

[Editor]
Bookmarks: 148,10697,21246,31796,43664,54213,64763,75312,85862,95093
DistanceSpacing: 0.9
BeatDivisor: 4
GridSize: 4
TimelineZoom: 0.9999999

[Metadata]
Title:Kuukirikigaku Shoujo to Shounen no Uta
TitleUnicode:空気力学少女と少年の詩
Artist:Hana
ArtistUnicode:はな
Creator:Lafayla
Version:Normal
Source:素晴らしき日々~不連続存在~
Tags:japanese video game aerodynamics girls and boys poem song hypercyte hinsvar laurier jonathanlfj subahibi subarashiki hibi ~furenzoku sonzai~ diskontinuierliches dasein tsukasa kagami wakatsuki shimai sisters vn visual novel eroge Wonderful Everyday Down the Rabbit-Hole rock jrock 松本文紀 Fuminori Matsumoto Discontinuous Existence すかぢ szak SCA-ji KeroQ うさ Usa
BeatmapID:2913882
BeatmapSetID:1410968

[Difficulty]
HPDrainRate:4
CircleSize:3
OverallDifficulty:4
ApproachRate:5.3
SliderMultiplier:1.1
SliderTickRate:1

[Events]
//Background and Video events
0,0,"kagome minakami_yuki school_uniform subarashiki_hibi wakatsuki_kagami wakatsuki_tsukasa.jpg",0,0
Video,-98,"Hana.avi"
//Break Periods
//Storyboard Layer 0 (Background)
//Storyboard Layer 1 (Fail)
//Storyboard Layer 2 (Pass)
//Storyboard Layer 3 (Foreground)
//Storyboard Layer 4 (Overlay)
//Storyboard Sound Samples

[TimingPoints]
148,329.67032967033,4,2,1,50,1,0
148,-100,4,2,1,50,0,0
10697,-100,4,2,1,65,0,0
21246,-100,4,2,1,40,0,0
31796,-100,4,2,1,50,0,0
42345,-100,4,2,1,52,0,0
42675,-100,4,2,1,54,0,0
43005,-100,4,2,1,56,0,0
43334,-100,4,2,1,58,0,0
43664,-100,4,2,1,55,0,0
46301,-100,4,2,1,60,0,0
47950,-100,4,2,1,65,0,0
51576,-100,4,2,1,65,0,0
53018,-100,4,2,1,60,0,0
53513,-100,4,2,1,75,0,0
54213,329.67032967033,4,2,1,50,1,0
54213,-100,4,2,1,75,0,1
70038,-100,4,2,1,75,0,1
71356,-100,4,2,1,75,0,1
72675,-100,4,2,1,75,0,1
74323,-100,4,2,1,75,0,1
74653,-100,4,2,1,75,0,1
75311,-100,4,2,1,70,0,0
80587,-100,4,2,1,75,0,0
85862,-100,4,2,1,70,0,0
91137,-100,4,2,1,80,0,0
91301,-100,4,2,1,80,0,0
91961,-100,4,2,1,80,0,0
92126,-100,4,2,1,80,0,0
92620,-100,4,2,1,80,0,0
93115,-100,4,2,1,80,0,0
93444,-100,4,2,1,80,0,0

[Colours]
Combo1 : 251,26,228
Combo2 : 53,159,223
Combo3 : 243,33,33
Combo4 : 86,224,52

[HitObjects]
132,146,148,6,0,L|248:141,2,110,2|0|0,0:0|0:0|0:0,0:0:0:0:
38,164,1137,1,0,0:0:0:0:
38,164,1301,2,0,P|4:237|56:315,1,165,2|0,0:0|0:0,0:0:0:0:
129,352,2126,2,0,P|176:324|230:322,1,110,2|0,0:0|0:0,0:0:0:0:
330,347,2785,5,2,0:0:0:0:
330,347,2950,2,0,L|343:229,1,110,2|0,0:0|0:0,0:0:0:0:
381,208,3444,1,0,0:0:0:0:
475,170,3774,1,2,0:0:0:0:
475,170,3939,2,0,L|462:52,1,110,2|0,0:0|0:0,0:0:0:0:
366,36,4598,2,0,P|325:40|285:51,2,82.5,2|2|2,0:0|0:0|0:0,0:0:0:0:
354,134,5422,6,0,P|364:185|349:243,2,110,2|0|2,0:0|0:0|0:0,0:0:0:0:
259,148,6411,1,0,0:0:0:0:
259,148,6576,2,0,B|153:152|198:101|86:114,1,165,2|0,0:0|0:0,0:0:0:0:
12,156,7400,2,0,P|14:210|34:273,1,110,2|0,0:0|0:0,0:0:0:0:
125,289,8060,6,0,P|172:257|228:258,1,110,2|0,0:0|0:0,0:0:0:0:
266,281,8554,2,0,P|310:312|364:313,1,110,2|0,0:0|0:0,0:0:0:0:
412,299,9049,1,2,0:0:0:0:
412,299,9213,1,0,0:0:0:0:
482,229,9543,2,0,L|461:120,1,110,2|0,0:0|0:0,0:0:0:0:
426,94,10038,1,2,0:0:0:0:
426,94,10202,1,2,0:0:0:0:
307,183,10697,6,0,P|259:207|201:192,1,110,6|8,3:2|0:0,0:0:0:0:
137,123,11356,2,0,L|128:66,1,55,0|0,3:0|3:0,0:0:0:0:
158,30,11686,1,8,0:0:0:0:
158,30,11851,2,0,P|206:6|264:21,1,110,2|0,0:0|3:0,0:0:0:0:
303,38,12345,1,8,0:0:0:0:
401,52,12675,2,0,L|455:39,2,55,2|0|8,3:2|3:0|0:0,0:0:0:0:
401,151,13334,6,0,P|404:205|437:248,1,110,2|8,3:2|0:0,0:0:0:0:
466,288,13829,2,0,P|376:273|317:332,1,165,2|8,0:0|0:0,0:0:0:0:
292,355,14488,2,0,L|163:341,1,110,2|0,0:0|3:0,0:0:0:0:
133,334,14983,1,8,0:0:0:0:
82,249,15312,1,2,3:2:0:0:
169,201,15642,1,8,0:0:0:0:
120,114,15972,6,0,P|103:60|113:6,2,110,2|8|2,3:2|0:0|3:2,0:0:0:0:
221,101,16961,1,8,0:0:0:0:
221,101,17126,2,0,B|322:84|299:147|400:131,1,165,2|8,0:0|0:0,0:0:0:0:
473,163,17950,2,0,P|478:194|479:230,1,55,2|0,3:2|3:0,0:0:0:0:
480,267,18279,1,8,0:0:0:0:
407,334,18609,6,0,P|332:335|302:290,1,110,2|8,3:2|0:0,0:0:0:0:
261,321,19104,2,0,P|222:256|246:208,1,110,2|0,0:0|3:0,0:0:0:0:
262,190,19598,1,8,0:0:0:0:
262,190,19763,2,0,P|267:136|231:96,1,110,2|0,0:0|3:0,0:0:0:0:
183,85,20257,1,8,0:0:0:0:
92,124,20587,2,0,L|38:112,2,55,8|0|0,0:0|1:0|1:0,0:0:0:0:
127,216,21246,6,0,P|137:272|104:326,1,110,6|0,3:2|1:0,0:0:0:0:
75,350,21741,2,0,L|239:361,1,165,2|0,0:0|1:0,0:0:0:0:
289,361,22400,1,2,3:2:0:0:
377,315,22730,2,0,L|386:260,1,55,2|0,3:2|1:0,0:0:0:0:
433,244,23060,2,0,L|453:122,1,110,2|0,0:0|3:0,0:0:0:0:
465,88,23554,1,0,1:0:0:0:
376,49,23884,6,0,P|321:44|278:79,1,110,2|0,3:2|1:0,0:0:0:0:
237,102,24378,2,0,P|194:69|140:74,2,110,2|2|2,0:0|0:0|0:0,0:0:0:0:
220,199,25367,2,0,P|143:218|87:163,1,165,2|0,3:2|3:0,0:0:0:0:
5,217,26191,5,0,1:0:0:0:
5,217,26356,2,0,L|23:349,1,110,2|0,0:0|3:0,0:0:0:0:
66,356,26851,1,0,1:0:0:0:
66,356,27016,2,0,B|161:379|131:317|237:346,1,165,2|0,0:0|1:0,0:0:0:0:
268,368,27675,1,2,3:2:0:0:
355,321,28005,2,0,L|409:327,2,55,2|0|2,3:2|1:0|0:0,0:0:0:0:
366,222,28664,2,0,P|345:164|289:147,1,110,2|0,3:2|0:0,0:0:0:0:
255,160,29158,6,0,P|204:165|146:144,1,110,2|0,3:2|1:0,0:0:0:0:
108,117,29653,2,0,P|57:112|0:132,2,110,2|0|0,0:0|3:0|3:0,0:0:0:0:
171,40,30642,2,0,L|224:31,1,55,2|0,3:2|1:0,0:0:0:0:
271,51,30972,2,0,L|388:32,1,110,2|0,3:2|3:0,0:0:0:0:
428,25,31466,1,0,1:0:0:0:
504,88,31796,6,0,P|505:142|464:181,1,110,6|8,3:2|0:0,0:0:0:0:
423,202,32290,2,0,P|384:239|386:292,1,110,2|0,0:0|3:0,0:0:0:0:
408,343,32785,1,8,0:0:0:0:
408,343,32950,2,0,P|354:329|298:329,1,110,2|2,3:2|3:2,0:0:0:0:
256,239,33609,2,0,P|202:253|153:281,1,110,2|0,0:0|3:0,0:0:0:0:
121,317,34104,1,8,0:0:0:0:
25,291,34433,6,0,L|7:182,1,110,2|8,3:2|0:0,0:0:0:0:
4,132,34928,1,2,0:0:0:0:
39,39,35257,1,2,3:2:0:0:
137,32,35587,2,0,P|188:49|216:104,1,110,2|2,3:2|3:2,0:0:0:0:
215,147,36082,1,8,0:0:0:0:
215,147,36246,2,0,P|256:111|317:114,1,110,2|2,3:2|0:0,0:0:0:0:
350,138,36741,1,8,0:0:0:0:
351,237,37071,6,0,L|362:346,1,110,2|8,3:2|0:0,0:0:0:0:
398,380,37565,1,2,0:0:0:0:
485,334,37895,1,0,3:0:0:0:
487,235,38224,2,0,P|489:180|497:125,2,110,2|2|2,3:2|3:2|0:0,0:0:0:0:
388,224,39213,2,0,P|390:169|398:114,1,110,2|0,3:2|0:0,0:0:0:0:
412,66,39708,5,2,3:2:0:0:
322,24,40038,1,8,0:0:0:0:
322,24,40202,2,0,P|268:15|218:37,1,110,2|2,0:0|3:2,0:0:0:0:
133,89,40862,2,0,L|23:75,2,110,2|0|2,0:0|3:0|0:0,0:0:0:0:
175,178,41851,2,0,L|298:193,1,110,2|0,3:2|1:0,0:0:0:0:
332,204,42345,5,8,3:0:0:0:
421,161,42675,1,8,3:0:0:0:
488,233,43005,1,8,3:0:0:0:
444,321,43334,1,8,3:0:0:0:
345,308,43664,6,0,P|262:308|173:340,1,165,6|8,3:2|3:0,0:0:0:0:
144,362,44323,2,0,P|80:350|37:305,1,110,2|8,0:0|3:0,0:0:0:0:
21,278,44818,1,2,0:0:0:0:
76,196,45148,2,0,L|196:184,1,110,2|0,0:0|3:0,0:0:0:0:
231,167,45642,1,8,3:0:0:0:
315,219,45972,1,2,3:2:0:0:
411,199,46301,6,0,L|423:319,2,110,6|8|0,3:2|3:0|3:0,0:0:0:0:
467,117,47290,1,0,1:0:0:0:
405,39,47620,1,4,0:0:0:0:
308,62,47950,2,0,P|253:66|199:55,2,110,0|0|0,1:0|3:0|1:0,0:0:0:0:
309,111,48774,6,0,L|286:290,1,165,2|0,0:0|1:0,0:0:0:0:
222,348,49598,2,0,P|172:370|118:364,1,110,2|0,3:2|1:0,0:0:0:0:
78,334,50093,2,0,B|55:244|131:267|90:160,1,165,2|0,0:0|1:0,0:0:0:0:
36,96,50917,1,0,3:0:0:0:
109,29,51246,1,0,1:0:0:0:
203,58,51576,6,0,L|323:46,2,110,2|0|0,3:2|1:0|3:0,0:0:0:0:
183,158,52565,1,0,1:0:0:0:
183,158,52730,2,0,P|217:237|298:229,1,165,2|0,0:0|3:0,0:0:0:0:
360,171,53554,1,0,1:0:0:0:
320,80,53884,1,0,1:0:0:0:
410,39,54213,5,6,3:2:0:0:
490,96,54543,2,0,L|478:216,1,110,10|0,0:0|3:0,0:0:0:0:
472,254,55038,1,0,3:0:0:0:
472,254,55202,2,0,P|425:280|371:273,1,110,8|0,0:0|3:0,0:0:0:0:
298,206,55862,2,0,P|244:198|197:225,2,110,8|2|8,0:0|3:2|0:0,0:0:0:0:
264,299,56851,5,0,3:0:0:0:
176,345,57180,1,8,0:0:0:0:
106,274,57510,2,0,P|95:229|81:163,1,110,2|8,3:2|0:0,0:0:0:0:
53,125,58005,2,0,B|150:139|114:71|231:88,1,165,2|8,0:0|0:0,0:0:0:0:
301,53,58829,2,0,L|310:-1,2,55,0|0|8,3:0|3:0|0:0,0:0:0:0:
324,149,59488,6,0,P|320:202|280:238,1,110,6|8,3:2|0:0,0:0:0:0:
232,251,59983,2,0,P|215:302|239:350,1,110,2|0,0:0|3:0,0:0:0:0:
282,375,60477,1,8,0:0:0:0:
380,363,60807,1,0,3:0:0:0:
436,283,61137,1,8,0:0:0:0:
436,283,61301,2,0,L|446:173,1,110,2|2,0:0|3:2,0:0:0:0:
450,123,61796,1,8,0:0:0:0:
384,48,62126,6,0,P|332:26|266:49,2,110,2|8|2,3:2|0:0|3:2,0:0:0:0:
324,127,63115,2,0,P|271:138|221:116,1,110,8|8,0:0|0:0,0:0:0:0:
156,41,63774,1,4,1:2:0:0:
60,13,64104,1,8,0:0:0:0:
2,93,64433,1,8,0:0:0:0:
91,136,64763,6,0,P|130:209|86:293,1,165,6|0,3:2|0:0,0:0:0:0:
70,317,65422,1,2,3:2:0:0:
156,376,65752,1,8,0:0:0:0:
156,376,65917,2,0,L|276:364,1,110,2|0,0:0|3:0,0:0:0:0:
314,362,66411,1,8,0:0:0:0:
412,370,66741,1,2,3:2:0:0:
473,291,67071,6,0,B|505:209|431:220|460:132,1,165,8|0,0:0|3:0,0:0:0:0:
486,92,67730,1,8,0:0:0:0:
418,19,68060,2,0,L|298:7,1,110,2|8,3:2|0:0,0:0:0:0:
259,14,68554,2,0,P|207:72|240:142,1,165,2|8,0:0|0:0,0:0:0:0:
332,177,69378,1,2,3:2:0:0:
374,266,69708,1,8,0:0:0:0:
320,349,70038,6,0,L|209:343,1,110,6|2,3:2|0:0,0:0:0:0:
193,296,70532,2,0,L|5:286,1,165,8|2,0:0|0:0,0:0:0:0:
13,189,71356,2,0,P|35:139|88:124,1,110,2|0,0:0|3:0,0:0:0:0:
151,50,72016,2,0,P|205:44|244:83,1,110,10|0,0:0|3:0,0:0:0:0:
262,131,72510,1,2,3:2:0:0:
262,131,72675,5,2,3:2:0:0:
220,221,73005,2,0,L|232:341,1,110,8|0,0:0|3:0,0:0:0:0:
268,371,73499,1,0,3:0:0:0:
268,371,73664,2,0,P|324:382|388:359,1,110,8|0,0:0|1:0,0:0:0:0:
451,305,74323,1,8,0:0:0:0:
397,221,74653,2,0,L|403:166,1,55,0|0,1:0|1:0,0:0:0:0:
445,138,74983,2,0,L|451:83,1,55,0|0,1:0|1:0,0:0:0:0:
452,33,75312,6,0,P|403:9|349:16,1,110,6|8,3:2|0:0,0:0:0:0:
310,44,75807,1,2,3:2:0:0:
310,44,75972,1,8,0:0:0:0:
237,110,76301,2,0,L|127:101,1,110,2|2,3:2|0:0,0:0:0:0:
129,55,76796,1,0,3:0:0:0:
129,55,76961,2,0,L|20:63,1,110,8|8,0:0|0:0,0:0:0:0:
1,160,77620,6,0,P|5:213|30:290,1,110,2|2,0:0|3:2,0:0:0:0:
93,333,78279,2,0,P|147:331|189:297,1,110,8|0,0:0|3:0,0:0:0:0:
220,258,78774,2,0,P|274:259|316:293,1,110,8|8,0:0|0:0,0:0:0:0:
348,330,79268,1,2,3:2:0:0:
447,326,79598,2,0,L|451:381,2,55,8|2|0,0:0|0:0|1:0,0:0:0:0:
489,236,80257,1,8,0:0:0:0:
468,139,80587,6,0,P|426:107|363:105,1,110,6|0,3:2|3:0,0:0:0:0:
342,61,81082,2,0,P|290:78|257:121,1,110,8|0,0:0|3:0,0:0:0:0:
240,167,81576,1,6,3:2:0:0:
163,224,81906,1,0,3:0:0:0:
163,224,82071,2,0,L|49:230,1,110,8|0,3:0|3:0,0:0:0:0:
17,195,82565,1,6,3:2:0:0:
37,97,82895,1,8,0:0:0:0:
126,54,83224,6,0,P|175:58|215:108,1,110,6|0,3:2|3:0,0:0:0:0:
244,140,83719,2,0,P|278:98|331:92,1,110,8|0,0:0|3:0,0:0:0:0:
378,107,84213,1,6,3:2:0:0:
455,178,84543,1,2,3:2:0:0:
455,178,84708,2,0,L|446:292,1,110,8|0,3:0|3:0,0:0:0:0:
443,337,85202,1,8,0:0:0:0:
352,377,85532,1,0,1:0:0:0:
269,321,85862,6,0,L|260:211,1,110,6|0,3:2|0:0,0:0:0:0:
248,168,86356,1,2,3:2:0:0:
248,168,86521,1,0,3:0:0:0:
172,104,86851,2,0,P|122:81|72:101,1,110,8|0,0:0|0:0,0:0:0:0:
26,115,87345,2,0,P|75:136|93:186,1,110,2|0,3:2|3:0,0:0:0:0:
81,234,87840,1,2,0:0:0:0:
138,314,88169,1,8,0:0:0:0:
222,262,88499,6,0,P|275:252|321:279,1,110,6|0,3:2|0:0,0:0:0:0:
357,313,88994,2,0,P|410:322|456:295,1,110,2|0,3:2|3:0,0:0:0:0:
496,264,89488,1,8,0:0:0:0:
496,264,89653,2,0,L|510:373,2,110,2|8|2,3:2|0:0|3:2,0:0:0:0:
505,215,90477,1,2,0:0:0:0:
450,131,90807,1,8,3:0:0:0:
352,148,91137,6,0,P|297:140|244:127,1,110,0|0,1:0|3:0,0:0:0:0:
195,117,91631,1,2,3:2:0:0:
107,158,91961,1,0,1:0:0:0:
107,158,92126,2,0,P|70:207|88:271,1,110,2|2,3:2|3:2,0:0:0:0:
48,294,92620,2,0,P|72:350|136:366,1,110,0|0,1:0|1:0,0:0:0:0:
163,372,93115,1,2,3:2:0:0:
250,326,93444,1,8,0:0:0:0:
220,231,93774,6,0,L|228:121,1,110,2|8,3:2|3:0,0:0:0:0:
244,74,94268,2,0,P|300:44|353:53,1,110,8|0,3:0|1:0,0:0:0:0:
390,80,94763,1,8,0:0:0:0:
390,80,94928,1,8,0:0:0:0:
