osu file format v14

[General]
AudioFilename: audio.mp3
AudioLeadIn: 0
PreviewTime: 106136
Countdown: 0
SampleSet: Soft
StackLeniency: 0.5
Mode: 0
LetterboxInBreaks: 0
WidescreenStoryboard: 0

[Editor]
Bookmarks: 127977,238746
DistanceSpacing: 0.3
BeatDivisor: 4
GridSize: 4
TimelineZoom: 2

[Metadata]
Title:Kuukirikigaku Shoujo to Shounen no Uta
TitleUnicode:空気力学少女と少年の詩
Artist:Hana
ArtistUnicode:はな
Creator:Bellicose
Version:Tsui no Sora
Source:素晴らしき日々~不連続存在~
Tags:rock jrock eroge すかぢ japanese szak SCA-ji Subarashiki Hibi ~Furenzoku Sonzai~ KeroQ うさ Utaite Usa Wonderful Everyday Discontinuous Existence Diskontinuierliches Dasein Fuminori Matsumoto 松本文紀 metrowing SubaHibi visual novel opening full version minakami yuki 水上由岐 高島ざくろ Takashima Zakuro Aerodynamics Girls and Boys Poem necho reincarnation [kamiya] rage quit gust
BeatmapID:2205432
BeatmapSetID:1055510

[Difficulty]
HPDrainRate:6
CircleSize:4.2
OverallDifficulty:8.8
ApproachRate:9.4
SliderMultiplier:1.6
SliderTickRate:1

[Events]
//Background and Video events
0,0,"bg.jpg",0,0
//Break Periods
2,184878,189413
//Storyboard Layer 0 (Background)
//Storyboard Layer 1 (Fail)
//Storyboard Layer 2 (Pass)
//Storyboard Layer 3 (Foreground)
//Storyboard Layer 4 (Overlay)
//Storyboard Sound Samples

[TimingPoints]
65,329.67032967033,4,2,1,50,1,0
10614,-90.9090909090909,4,2,1,70,0,0
31713,-125,4,2,1,55,0,0
42262,-111.111111111111,4,2,1,57,0,0
49021,-100,4,2,1,57,0,0
49350,-90.9090909090909,4,2,1,57,0,0
49680,-83.3333333333333,4,2,1,57,0,0
50174,-111.111111111111,4,2,1,57,0,0
51658,-71.4285714285714,4,2,1,60,0,0
52812,-90.9090909090909,4,2,1,70,0,0
73911,-100,4,2,1,57,0,0
91218,-90.9090909090909,4,2,1,57,0,0
91548,-83.3333333333333,4,2,1,57,0,0
91878,-76.9230769230769,4,2,1,57,0,0
92372,-100,4,2,1,57,0,0
93856,-90.9090909090909,4,2,1,57,0,0
94185,-83.3333333333333,4,2,1,57,0,0
94515,-76.9230769230769,4,2,1,57,0,0
94845,-100,4,2,1,50,0,0
95999,-76.9230769230769,4,2,1,55,0,0
96328,300,4,2,1,60,1,0
96328,-111.111111111111,4,2,1,50,0,0
96822,329.67032967033,4,2,1,60,1,0
98293,329.67032967033,4,2,1,60,1,0
99446,329.67032967033,4,2,1,60,1,0
100093,329.67032967033,4,2,1,60,1,0
100284,329.67032967033,4,2,1,60,1,0
100284,-100,4,2,1,60,0,0
104240,-83.3333333333333,4,2,1,65,0,0
105558,-83.3333333333333,4,2,1,70,0,0
106547,-66.6666666666667,4,2,1,70,0,0
106877,-76.9230769230769,4,2,1,75,0,1
107207,-66.6666666666667,4,2,1,75,0,1
107537,-76.9230769230769,4,2,1,75,0,1
117344,-76.9230769230769,4,2,1,75,0,0
117426,-76.9230769230769,4,2,1,75,0,1
122701,-76.9230769230769,4,2,1,70,0,1
125339,-100,4,2,1,75,0,1
125669,-66.6666666666667,4,2,1,75,0,1
125999,-76.9230769230769,4,2,1,75,0,1
127976,-90.9090909090909,4,2,1,70,0,0
149075,-100,4,2,1,57,0,0
166383,-90.9090909090909,4,2,1,57,0,0
166713,-83.3333333333333,4,2,1,57,0,0
167043,-76.9230769230769,4,2,1,57,0,0
167537,-100,4,2,1,57,0,0
169021,-90.9090909090909,4,2,1,57,0,0
169350,-83.3333333333333,4,2,1,57,0,0
169680,-76.9230769230769,4,2,1,57,0,0
170174,-100,4,2,1,60,0,0
172470,329.67032967033,4,2,1,50,1,0
173159,329.67032967033,4,2,1,60,1,0
173305,329.67032967033,4,2,1,50,1,0
173459,329.67032967033,4,2,1,50,1,0
174129,329.67032967033,4,2,1,60,1,0
174129,-83.3333333333333,4,2,1,60,0,0
174788,-100,4,2,1,60,0,0
175447,-83.3333333333333,4,2,1,60,0,0
176107,-100,4,2,1,60,0,0
176766,-83.3333333333333,4,2,1,60,0,0
177425,-100,4,2,1,60,0,0
178085,-83.3333333333333,4,2,1,65,0,0
179403,-83.3333333333333,4,2,1,70,0,0
180392,-66.6666666666667,4,2,1,70,0,0
180722,-76.9230769230769,4,2,1,75,0,0
181052,-66.6666666666667,4,2,1,75,0,0
189953,-76.9230769230769,4,2,1,70,0,0
201491,-66.6666666666667,4,2,1,70,0,0
201821,-76.9230769230769,4,2,1,75,0,1
202150,-66.6666666666667,4,2,1,75,0,1
202480,-76.9230769230769,4,2,1,75,0,1
212288,-76.9230769230769,4,2,1,75,0,0
212370,-76.9230769230769,4,2,1,75,0,1
222920,-100,4,2,1,75,0,1
223249,-76.9230769230769,4,2,1,75,0,1
226876,-76.9230769230769,4,2,1,75,0,0
228194,-76.9230769230769,4,2,1,75,0,1
233469,-76.9230769230769,4,2,1,70,0,0
234458,-66.6666666666667,4,2,1,70,0,0
234953,-76.9230769230769,4,2,1,70,0,0
236106,-71.4285714285714,4,2,1,75,0,0
237095,-62.5,4,2,1,75,0,0
237590,-71.4285714285714,4,2,1,75,0,0
238744,-76.9230769230769,4,2,1,75,0,0
241381,-66.6666666666667,4,2,1,75,0,0
241711,-76.9230769230769,4,2,1,75,0,0
244019,-66.6666666666667,4,2,1,80,0,1
247798,329.67032967033,4,2,1,60,1,0
247798,-66.6666666666667,4,2,1,80,0,0

[Colours]
Combo1 : 227,138,140
Combo2 : 158,214,254
Combo3 : 128,168,213
Combo4 : 251,174,186

[HitObjects]
123,220,65,6,0,L|225:204,1,80,2|0,0:0|0:0,0:0:0:0:
230,221,394,2,0,L|151:234,1,80,2|0,0:0|0:0,0:0:0:0:
110,303,724,1,0,0:0:0:0:
110,303,889,1,0,0:0:0:0:
261,348,1054,1,2,0:0:0:0:
315,289,1218,6,0,B|441:278|441:278|481:314,1,160,2|2,0:0|0:0,0:0:0:0:
493,376,1713,1,2,0:0:0:0:
454,128,2043,2,0,L|461:48,2,80,0|0|2,0:0|0:0|0:0,0:0:0:0:
449,207,2537,1,0,0:0:0:0:
290,118,2702,5,2,0:0:0:0:
293,254,2867,1,2,0:0:0:0:
370,121,3032,1,2,0:0:0:0:
216,235,3196,2,0,B|110:207|110:207|157:239,1,160,2|0,0:0|0:0,0:0:0:0:
291,278,3691,1,2,0:0:0:0:
290,197,3856,2,0,L|289:104,1,80,2|2,0:0|0:0,0:0:0:0:
314,85,4185,6,0,L|315:178,2,80,2|0|0,0:0|0:0|0:0,0:0:0:0:
286,9,4680,1,0,0:0:0:0:
225,61,4845,2,0,B|180:33|180:33|58:65,1,160,2|0,0:0|0:0,0:0:0:0:
240,208,5339,6,0,L|142:184,1,80,2|0,0:0|0:0,0:0:0:0:
217,176,5669,2,0,L|315:200,1,80,2|0,0:0|0:0,0:0:0:0:
372,215,5999,1,0,0:0:0:0:
372,215,6163,1,0,0:0:0:0:
229,303,6328,1,2,0:0:0:0:
159,264,6493,6,0,B|54:297|54:297|19:257,1,160,2|2,0:0|0:0,0:0:0:0:
87,304,6988,2,0,L|98:401,1,80,2|0,0:0|0:0,0:0:0:0:
163,236,7317,1,0,0:0:0:0:
163,236,7482,1,0,0:0:0:0:
108,177,7647,2,0,L|17:160,1,80,2|0,0:0|0:0,0:0:0:0:
238,92,7977,5,2,0:0:0:0:
246,226,8141,1,2,0:0:0:0:
126,152,8306,1,2,0:0:0:0:
274,206,8471,2,0,L|433:187,1,160,2|0,0:0|0:0,0:0:0:0:
503,147,8966,1,2,0:0:0:0:
453,84,9130,2,0,L|468:-9,1,80,2|0,0:0|0:0,0:0:0:0:
372,134,9460,6,0,P|326:123|275:211,1,160,2|0,0:0|0:0,0:0:0:0:
296,283,9955,1,0,0:0:0:0:
375,287,10119,2,0,L|481:270,2,80,2|0|0,0:0|0:0|0:0,0:0:0:0:
226,329,10614,6,0,P|164:307|73:366,1,176.000005371094,4|8,3:0|0:0,0:0:0:0:
212,234,11108,1,2,0:0:0:0:
50,193,11273,2,0,L|138:185,1,88.000002685547,2|0,3:2|3:0,0:0:0:0:
337,200,11603,2,0,P|293:189|262:147,1,88.000002685547,10|2,0:0|3:2,0:0:0:0:
262,69,11933,5,4,0:0:0:0:
212,234,12097,1,0,3:0:0:0:
340,118,12262,2,0,L|443:125,1,88.000002685547,14|0,0:0|0:0,0:0:0:0:
156,109,12592,5,4,3:2:0:0:
337,200,12757,1,0,3:0:0:0:
134,298,12922,2,0,L|31:291,1,88.000002685547,10|0,0:0|0:0,0:0:0:0:
252,203,13251,5,2,3:2:0:0:
199,377,13416,1,2,0:0:0:0:
112,210,13581,1,8,0:0:0:0:
293,333,13746,2,0,P|339:337|397:313,2,88.000002685547,2|2|0,0:0|3:2|3:0,0:0:0:0:
140,224,14240,1,10,0:0:0:0:
395,136,14405,6,0,P|368:136|363:273,1,176.000005371094,6|0,3:2|3:0,0:0:0:0:
468,361,14900,2,0,L|450:275,1,88.000002685547,10|2,0:0|0:0,0:0:0:0:
320,347,15229,1,0,3:0:0:0:
467,244,15394,1,0,3:0:0:0:
241,257,15559,2,0,B|157:224|157:224|212:225,1,132.00000402832,10|0,0:0|0:0,0:0:0:0:
215,207,15889,6,0,P|243:137|308:214,1,176.000005371094,4|8,3:0|0:0,0:0:0:0:
138,142,16383,1,2,0:0:0:0:
335,256,16548,2,0,L|440:233,1,88.000002685547,2|0,3:2|3:0,0:0:0:0:
504,64,16878,1,10,0:0:0:0:
442,127,17043,6,0,B|381:113|381:113|347:75|347:75|264:63,1,176.000005371094,2|0,3:2|3:0,0:0:0:0:
166,211,17537,2,0,L|186:335,1,88.000002685547,10|2,0:0|0:0,0:0:0:0:
299,155,17867,1,0,3:0:0:0:
97,128,18032,1,0,3:0:0:0:
266,254,18196,2,0,L|356:232,1,88.000002685547,10|0,0:0|0:0,0:0:0:0:
119,367,18526,5,2,3:2:0:0:
206,362,18691,2,0,L|116:340,1,88.000002685547,2|8,0:0|0:0,0:0:0:0:
438,228,19021,5,2,0:0:0:0:
351,233,19185,2,0,L|441:255,1,88.000002685547,2|0,3:2|3:0,0:0:0:0:
90,101,19515,5,14,0:0:0:0:
177,96,19680,2,0,L|87:74,1,88.000002685547,2|4,0:0|3:2,0:0:0:0:
256,16,20010,5,2,3:2:0:0:
180,207,20174,2,0,B|253:191|253:191|270:165|270:165|343:150,1,176.000005371094,12|8,0:0|0:0,0:0:0:0:
382,144,20586,1,8,0:0:0:0:
382,144,20669,2,8,L|382:64,1,44.0000013427735
478,271,20834,1,8,0:0:0:0:
443,263,20916,1,8,0:0:0:0:
408,256,20999,1,8,0:0:0:0:
373,249,21081,1,8,0:0:0:0:
338,242,21163,6,0,P|286:310|352:368,1,176.000005371094,4|8,3:0|0:0,0:0:0:0:
274,178,21658,1,2,0:0:0:0:
106,316,21823,2,0,L|193:322,1,88.000002685547,2|0,3:2|3:0,0:0:0:0:
36,259,22152,1,14,0:0:0:0:
118,228,22317,6,0,P|162:188|98:105,1,176.000005371094,2|0,3:2|3:0,0:0:0:0:
267,108,22812,2,0,L|369:104,1,88.000002685547,10|2,0:0|0:0,0:0:0:0:
187,160,23141,1,0,3:0:0:0:
362,218,23306,1,0,3:0:0:0:
182,66,23471,2,0,P|130:81|97:131,1,88.000002685547,10|0,0:0|0:0,0:0:0:0:
267,108,23801,5,2,3:2:0:0:
455,61,23966,1,2,0:0:0:0:
268,12,24130,1,8,0:0:0:0:
428,158,24295,2,0,P|447:214|440:269,2,88.000002685547,2|2|0,0:0|3:2|3:0,0:0:0:0:
298,34,24790,1,10,0:2:0:0:
235,267,24955,6,0,P|327:196|375:240,1,176.000005371094,2|0,3:2|3:0,0:0:0:0:
228,358,25449,2,0,L|137:343,1,88.000002685547,10|2,0:0|0:0,0:0:0:0:
311,323,25779,1,0,3:0:0:0:
115,363,25944,1,0,3:0:0:0:
253,165,26108,2,0,P|263:251|219:268,1,132.00000402832,10|0,0:0|0:0,0:0:0:0:
208,259,26438,6,0,B|89:234|89:234|39:275,1,176.000005371094,4|8,3:0|0:0,0:0:0:0:
165,177,26933,1,2,0:0:0:0:
283,354,27097,2,0,L|390:328,1,88.000002685547,4|0,3:2|3:0,0:0:0:0:
208,259,27427,1,10,0:0:0:0:
295,266,27592,6,0,P|350:220|438:288,1,176.000005371094,2|0,3:2|3:0,0:0:0:0:
253,180,28086,2,0,L|249:63,1,88.000002685547,14|2,0:0|0:0,0:0:0:0:
208,259,28416,1,0,3:0:0:0:
384,168,28581,1,0,3:0:0:0:
157,185,28746,2,0,L|70:172,1,88.000002685547,14|0,0:0|0:0,0:0:0:0:
402,87,29075,5,2,3:2:0:0:
314,76,29240,2,0,L|401:63,1,88.000002685547,2|8,0:0|0:0,0:0:0:0:
69,196,29570,5,2,0:0:0:0:
157,185,29735,2,0,L|70:172,1,88.000002685547,2|0,3:2|3:0,0:0:0:0:
439,298,30065,5,10,0:0:0:0:
351,287,30230,2,0,L|438:274,1,88.000002685547,2|0,0:0|3:0,0:0:0:0:
301,384,30559,5,2,3:2:0:0:
303,168,30724,2,0,B|257:208|257:208|252:259|252:259|200:304,1,176.000005371094,14|8,0:0|0:0,0:0:0:0:
168,304,31136,1,8,0:0:0:0:
133,305,31218,1,8,0:0:0:0:
97,307,31301,1,8,0:0:0:0:
62,308,31383,1,8,0:0:0:0:
441,342,31713,5,4,3:0:0:0:
461,61,32043,1,10,0:0:0:0:
461,61,32207,2,0,L|485:217,1,128,2|0,0:0|0:0,0:0:0:0:
464,263,32702,1,10,0:0:0:0:
401,218,32867,2,0,L|323:212,1,64,2|2,3:2|0:1,0:0:0:0:
225,196,33196,5,2,0:0:0:0:
341,183,33361,1,10,0:0:0:0:
215,229,33526,2,0,L|190:89,1,128,2|0,0:0|3:0,0:0:0:0:
117,292,34021,1,8,0:0:0:0:
192,306,34185,1,2,0:0:0:0:
29,341,34350,6,0,L|41:268,1,64,2|0,3:2|3:0,0:0:0:0:
58,138,34680,1,10,0:0:0:0:
117,186,34845,2,0,L|208:187,1,64,2|2,0:0|0:1,0:0:0:0:
241,139,35174,2,0,L|229:66,1,64,2|8,0:0|0:0,0:0:0:0:
302,185,35504,2,0,L|288:252,1,64,2|2,0:0|0:1,0:0:0:0:
273,327,35834,5,0,3:0:0:0:
411,254,35999,1,8,0:0:0:0:
204,274,36163,2,0,L|115:269,1,64,0|2,3:0|0:1,0:0:0:0:
371,340,36493,1,0,3:0:0:0:
390,163,36658,2,0,L|387:78,1,64,10|2,0:0|0:0,0:0:0:0:
288,247,36988,5,2,3:2:0:0:
489,267,37152,1,2,3:2:0:0:
273,327,37317,5,10,0:0:0:0:
385,226,37482,2,0,L|390:162,2,64,2|2|0,0:0|0:1|0:0,0:0:0:0:
352,24,37977,1,8,0:0:0:0:
298,78,38141,2,0,P|230:69|173:122,1,128,2|2,3:2|0:0,0:0:0:0:
144,168,38636,1,10,0:0:0:0:
258,353,38801,2,0,L|169:345,1,64,2|2,0:0|0:1,0:0:0:0:
117,338,39130,1,2,3:2:0:0:
329,306,39295,1,8,0:0:0:0:
34,374,39625,5,2,3:2:0:0:
166,271,39790,1,0,3:0:0:0:
0,256,39955,1,10,0:0:0:0:
62,212,40119,2,0,L|50:123,1,64,2|2,0:0|0:1,0:0:0:0:
166,271,40449,2,0,L|157:334,1,64,2|8,3:2|0:0,0:0:0:0:
275,218,40779,6,0,P|272:173|183:132,1,128,2|2,3:2|3:2,0:0:0:0:
138,160,41273,1,10,0:0:0:0:
258,312,41438,2,0,L|400:290,1,128,2|0,3:2|3:0,0:0:0:0:
475,122,41933,1,8,0:0:0:0:
450,332,42097,1,0,3:0:0:0:
259,230,42262,5,6,3:2:0:0:
458,256,42427,1,2,0:0:0:0:
186,275,42592,5,10,0:0:0:0:
180,187,42757,2,0,L|190:115,2,71.9999978027344,2|0|0,0:0|3:0|3:0,0:0:0:0:
161,34,43251,1,10,0:0:0:0:
74,42,43416,2,0,L|-6:39,1,71.9999978027344,2|2,3:2|0:1,0:0:0:0:
106,121,43746,5,2,3:2:0:0:
241,79,43911,1,10,0:0:0:0:
27,122,44075,2,0,B|0:156|0:156|23:274,1,143.999995605469,2|0,0:0|3:0,0:0:0:0:
147,350,44570,1,8,0:0:0:0:
61,336,44735,1,2,0:0:0:0:
227,307,44900,6,0,L|307:318,1,71.9999978027344,2|0,3:2|0:0,0:0:0:0:
106,214,45229,1,10,0:0:0:0:
186,182,45394,2,0,L|188:110,1,71.9999978027344,2|0,0:0|3:0,0:0:0:0:
331,235,45724,2,0,L|260:226,1,71.9999978027344,2|8,3:2|0:0,0:0:0:0:
268,75,46054,2,0,B|323:60|323:60|354:72|354:72|414:58,1,143.999995605469,2|2,3:2|3:2,0:0:0:0:
478,107,46548,1,10,0:0:0:0:
427,280,46713,2,0,L|390:127,1,143.999995605469,2|0,3:2|3:0,0:0:0:0:
256,257,47207,2,0,P|292:236|331:240,1,71.9999978027344,10|0,0:0|3:0,0:0:0:0:
227,342,47537,5,2,3:2:0:0:
47,303,47702,1,2,3:2:0:0:
164,280,47867,2,0,L|169:190,1,71.9999978027344,8|2,0:0|0:0,0:0:0:0:
233,151,48196,5,0,3:0:0:0:
86,116,48361,1,0,3:0:0:0:
255,230,48526,1,8,0:0:0:0:
203,28,48691,6,0,P|167:67|167:104,1,71.9999978027344,2|2,3:2|0:1,0:0:0:0:
422,62,49021,6,0,P|433:113|414:149,1,80,2|8,3:2|0:0,0:0:0:0:
123,192,49350,6,0,P|94:155|86:100,1,88.000002685547,2|2,0:0|0:1,0:0:0:0:
400,258,49680,6,0,P|443:240|481:188,1,95.9999970703126,2|8,3:2|0:0,0:0:0:0:
200,126,50174,5,2,3:2:0:0:
394,170,50339,1,2,3:2:0:0:
264,204,50504,2,0,L|266:294,1,71.9999978027344,10|2,0:0|0:0,0:0:0:0:
339,86,50834,5,0,3:0:0:0:
166,215,50999,1,0,3:0:0:0:
400,258,51163,1,8,0:0:0:0:
199,55,51328,6,0,P|158:86|140:132,1,71.9999978027344,2|2,3:2|0:1,0:0:0:0:
140,350,51658,6,0,L|21:338,2,111.999996582031,2|8|2,3:2|0:0|3:2,0:0:0:0:
389,350,52152,5,8,0:0:0:0:
121,267,52317,1,0,3:0:0:0:
396,213,52482,5,8,0:0:0:0:
94,274,52647,1,0,3:0:0:0:
304,326,52812,6,0,P|359:272|457:298,1,176.000005371094,4|8,3:0|0:0,0:0:0:0:
302,203,53306,1,2,0:0:0:0:
491,178,53471,2,0,L|390:151,1,88.000002685547,2|0,3:2|3:0,0:0:0:0:
207,150,53801,2,0,P|266:119|278:81,1,88.000002685547,10|2,0:0|3:2,0:0:0:0:
304,19,54130,5,4,0:0:0:0:
405,155,54295,1,0,3:0:0:0:
199,67,54460,2,0,L|97:53,1,88.000002685547,14|0,0:0|0:0,0:0:0:0:
357,87,54790,5,4,3:2:0:0:
177,169,54955,1,0,3:0:0:0:
362,279,55119,2,0,L|464:265,1,88.000002685547,10|0,0:0|0:0,0:0:0:0:
261,362,55449,5,2,3:2:0:0:
326,198,55614,1,2,0:0:0:0:
403,365,55779,1,8,0:0:0:0:
198,280,55944,2,0,P|150:287|110:309,2,88.000002685547,2|6|0,0:0|3:2|3:0,0:0:0:0:
375,334,56438,1,10,0:0:0:0:
327,127,56603,6,0,P|241:135|179:61,1,176.000005371094,2|0,3:2|3:0,0:0:0:0:
45,179,57097,2,0,L|153:182,1,88.000002685547,10|2,0:0|0:0,0:0:0:0:
284,244,57427,1,0,3:0:0:0:
197,101,57592,1,0,3:0:0:0:
127,307,57757,2,0,B|33:299|33:299|94:331,1,132.00000402832,10|0,0:0|0:0,0:0:0:0:
103,329,58086,6,0,P|179:291|212:368,1,176.000005371094,4|8,3:0|0:0,0:0:0:0:
361,270,58581,1,2,0:0:0:0:
146,197,58746,2,0,L|160:89,1,88.000002685547,2|0,3:2|3:0,0:0:0:0:
273,276,59075,1,10,0:0:0:0:
310,196,59240,6,0,L|291:20,1,176.000005371094,2|0,3:2|3:0,0:0:0:0:
124,126,59735,2,0,L|28:117,1,88.000002685547,10|2,0:0|0:0,0:0:0:0:
219,91,60065,1,0,3:0:0:0:
90,19,60229,1,0,3:0:0:0:
161,230,60394,2,0,L|257:221,1,88.000002685547,10|0,0:0|0:0,0:0:0:0:
19,349,60724,5,2,3:2:0:0:
105,332,60889,2,0,L|9:323,1,88.000002685547,2|8,3:2|0:0,0:0:0:0:
334,238,61218,5,2,0:0:0:0:
248,221,61383,2,0,L|344:212,1,88.000002685547,2|0,3:2|3:0,0:0:0:0:
6,97,61713,5,14,0:0:0:0:
92,80,61878,2,0,L|-4:71,1,88.000002685547,2|4,0:0|3:2,0:0:0:0:
143,0,62207,5,2,3:2:0:0:
86,202,62372,2,0,B|178:183|140:127|239:107,1,176.000005371094,14|8,0:0|0:0,0:0:0:0:
274,107,62784,1,8,0:0:0:0:
274,107,62867,2,8,P|292:132|305:155,1,44.0000013427735
232,323,63032,1,8,0:0:0:0:
262,297,63114,1,8,0:0:0:0:
277,261,63196,1,8,0:0:0:0:
269,221,63279,1,8,0:0:0:0:
239,196,63361,6,0,P|306:256|387:231,1,176.000005371094,4|8,3:0|0:0,0:0:0:0:
331,370,63856,1,2,0:0:0:0:
172,259,64021,2,0,L|64:269,1,88.000002685547,2|0,3:2|3:0,0:0:0:0:
302,122,64350,1,10,0:0:0:0:
216,141,64515,6,0,B|149:125|149:125|122:90|122:90|57:75,1,176.000005371094,2|0,3:2|3:0,0:0:0:0:
172,266,65010,2,0,L|286:230,1,88.000002685547,14|2,0:0|0:0,0:0:0:0:
64,174,65339,1,4,3:2:0:0:
160,344,65504,1,0,3:0:0:0:
216,141,65669,2,0,L|206:37,1,88.000002685547,10|0,0:0|0:0,0:0:0:0:
144,196,65999,5,2,3:2:0:0:
318,120,66163,1,2,0:0:0:0:
136,81,66328,1,8,0:0:0:0:
300,230,66493,2,0,P|343:244|395:236,2,88.000002685547,2|2|0,0:0|3:2|3:0,0:0:0:0:
158,110,66988,1,10,0:0:0:0:
409,43,67152,6,0,P|339:75|351:163,1,176.000005371094,2|0,3:2|3:0,0:0:0:0:
477,232,67647,2,0,L|498:131,1,88.000002685547,10|2,0:0|0:0,0:0:0:0:
384,239,67977,1,0,3:0:0:0:
512,320,68141,1,0,3:0:0:0:
414,108,68306,2,0,B|352:83|352:83|276:106,1,132.00000402832,10|0,0:0|0:0,0:0:0:0:
301,125,68636,6,0,P|304:205|204:249,1,176.000005371094,4|8,3:0|0:0,0:0:0:0:
395,238,69130,1,2,0:0:0:0:
221,165,69295,2,0,L|120:180,1,88.000002685547,2|0,3:2|3:0,0:0:0:0:
21,350,69625,1,10,0:0:0:0:
92,298,69790,6,0,B|163:309|163:309|178:335|178:335|262:348,1,176.000005371094,2|0,3:2|3:0,0:0:0:0:
180,179,70284,2,0,L|79:194,1,88.000002685547,10|2,0:0|0:0,0:0:0:0:
253,243,70614,1,0,3:0:0:0:
172,88,70779,1,0,3:0:0:0:
92,298,70944,2,0,L|121:398,1,88.000002685547,10|0,0:0|0:0,0:0:0:0:
269,152,71273,5,2,3:2:0:0:
180,179,71438,2,0,P|132:182|85:167,1,88.000002685547,2|8,3:2|0:0,0:0:0:0:
253,243,71768,5,2,0:0:0:0:
342,216,71933,2,0,P|390:213|437:228,1,88.000002685547,2|0,3:2|3:0,0:0:0:0:
198,90,72262,5,14,0:0:0:0:
326,307,72427,2,0,P|304:350|268:383,1,88.000002685547,2|4,0:0|3:2,0:0:0:0:
342,216,72757,5,2,3:2:0:0:
157,267,72922,2,0,P|104:282|-8:207,1,176.000005371094,14|8,0:0|0:0,0:0:0:0:
6,192,73334,1,8,0:0:0:0:
10,157,73416,1,8,0:0:0:0:
14,121,73499,1,8,0:0:0:0:
18,86,73581,1,8,0:0:0:0:
191,350,73911,5,4,3:2:0:0:
427,305,74240,1,10,0:0:0:0:
357,345,74405,2,0,P|308:359|245:340,2,80,2|0|0,0:0|3:0|3:0,0:0:0:0:
430,216,74900,1,10,0:0:0:0:
358,251,75065,2,0,P|353:200|378:153,1,80,2|0,0:0|3:0,0:0:0:0:
499,174,75394,5,2,0:0:0:0:
345,152,75559,1,10,0:0:0:0:
427,305,75724,2,0,P|473:289|515:293,1,80,2|0,0:0|3:0,0:0:0:0:
358,251,76054,1,0,3:0:0:0:
299,384,76218,2,0,L|277:283,1,80,8|2,0:0|0:0,0:0:0:0:
199,151,76548,6,0,P|162:188|58:204,2,160,2|10|0,3:2|0:0|3:0,0:0:0:0:
215,72,77372,1,2,3:2:0:0:
143,36,77537,2,0,L|33:43,1,80,8|2,0:0|0:0,0:0:0:0:
199,151,77867,5,0,3:0:0:0:
276,131,78032,1,2,3:2:0:0:
138,209,78196,2,0,L|28:202,1,80,8|0,0:0|0:0,0:0:0:0:
219,231,78526,5,0,3:0:0:0:
121,123,78691,1,0,3:0:0:0:
162,322,78856,2,0,L|272:315,1,80,10|2,0:0|0:0,0:0:0:0:
5,286,79185,6,0,L|31:114,2,160,0|10|0,3:0|0:0|3:0,0:0:0:0:
32,361,80010,1,0,3:0:0:0:
110,349,80174,2,0,L|198:344,1,80,8|2,0:0|0:0,0:0:0:0:
242,200,80504,5,0,3:0:0:0:
163,182,80669,1,2,3:2:0:0:
189,344,80834,2,0,L|183:242,1,80,10|2,0:0|0:0,0:0:0:0:
221,118,81163,5,0,3:0:0:0:
320,217,81328,1,2,3:2:0:0:
104,242,81493,2,0,L|20:234,1,80,8|0,0:0|0:0,0:0:0:0:
242,200,81823,6,0,P|162:182|137:110,2,160,2|10|0,3:2|0:0|3:0,0:0:0:0:
319,179,82647,1,2,3:2:0:0:
373,349,82812,1,8,0:0:0:0:
407,276,82977,6,0,P|487:294|512:366,1,160,2|2,0:0|3:2,0:0:0:0:
323,283,83471,1,10,0:0:0:0:
291,356,83636,2,0,L|131:345,1,160,2|0,3:2|3:0,0:0:0:0:
36,177,84130,1,8,0:0:0:0:
54,367,84295,1,0,3:0:0:0:
286,172,84460,6,0,L|126:183,1,160,4|10,3:0|0:0,0:0:0:0:
258,263,84955,2,0,P|253:335|229:369,2,80,2|0|0,0:0|3:0|3:0,0:0:0:0:
221,126,85449,1,10,0:0:0:0:
286,172,85614,2,0,P|331:193|376:187,1,80,2|0,0:0|3:0,0:0:0:0:
507,150,85944,5,2,3:2:0:0:
386,216,86108,1,10,0:0:0:0:
363,31,86273,2,0,L|346:111,1,80,2|0,0:0|3:0,0:0:0:0:
255,250,86603,1,0,3:0:0:0:
149,31,86768,2,0,L|166:111,1,80,8|2,0:0|0:0,0:0:0:0:
386,216,87097,6,0,P|355:165|251:173,2,160,2|10|0,3:2|0:0|3:0,0:0:0:0:
387,296,87922,1,2,3:2:0:0:
326,347,88086,2,0,L|235:347,1,80,8|2,0:0|0:0,0:0:0:0:
386,216,88416,5,0,3:0:0:0:
456,254,88581,1,2,3:2:0:0:
311,266,88746,2,0,P|297:217|312:166,1,80,10|2,0:0|0:0,0:0:0:0:
387,296,89075,5,0,3:0:0:0:
221,239,89240,1,0,3:0:0:0:
407,141,89405,2,0,L|488:152,1,80,10|0,0:0|3:0,0:0:0:0:
293,29,89735,6,0,P|208:17|140:60,2,160,2|10|0,3:2|0:0|3:0,0:0:0:0:
356,77,90559,1,2,3:2:0:0:
265,248,90724,1,8,0:0:0:0:
342,229,90889,6,0,P|353:277|347:323,1,80,2|2,3:2|0:1,0:0:0:0:
129,191,91218,6,0,P|95:227|76:277,1,88.000002685547,2|8,3:2|0:0,0:0:0:0:
364,115,91548,6,0,P|409:144|430:189,1,95.9999970703126,2|0,0:0|3:0,0:0:0:0:
168,46,91878,6,0,P|114:48|69:80,1,103.999995239258,2|8,3:2|0:0,0:0:0:0:
12,159,92207,1,2,0:0:0:0:
303,189,92372,6,0,B|224:203|245:133|157:144,1,160,2|10,3:2|0:0,0:0:0:0:
173,222,92867,1,2,0:0:0:0:
292,110,93032,2,0,L|286:23,2,80,0|2|8,3:0|3:2|0:0,0:0:0:0:
368,134,93526,6,0,P|432:95|442:64,1,80,2|0,0:0|3:0,0:0:0:0:
176,98,93856,6,0,P|140:32|147:-4,1,88.000002685547,2|8,3:2|0:0,0:0:0:0:
372,248,94185,6,0,P|407:313|399:353,1,95.9999970703126,2|0,3:2|0:0,0:0:0:0:
126,201,94515,6,0,P|61:240|49:280,1,103.999995239258,2|8,3:2|0:0,0:0:0:0:
227,314,94845,1,0,3:0:0:0:
227,314,94927,1,0,3:0:0:0:
227,314,95010,6,0,L|237:271,1,40,8|0,0:0|3:0,0:0:0:0:
287,213,95174,1,2,0:0:0:0:
262,136,95339,1,2,0:0:0:0:
307,70,95504,1,2,0:0:0:0:
356,149,95669,2,0,B|417:154|417:154|442:123,1,80,2|2,0:0|0:0,0:0:0:0:
188,41,95999,6,0,P|135:42|72:130,1,155.999992858887,2|0,0:0|0:0,0:0:0:0:
74,152,96328,6,0,B|126:159|126:159|156:190|156:190|210:196,1,143.999995605469,6|0,3:2|0:0,0:0:0:0:
298,193,96822,1,0,3:0:0:0:
190,170,96986,6,0,L|182:291,1,120,2|0,3:2|0:0,0:0:0:0:
144,304,97316,1,8,0:1:0:0:
247,347,97481,6,0,P|280:333|325:340,1,80,2|2,3:2|0:1,0:0:0:0:
475,342,97810,1,2,0:0:0:0:
444,276,97975,2,0,L|454:174,1,80,2|8,0:1|0:0,0:0:0:0:
400,335,98293,1,8,0:3:0:0:
400,335,98457,1,0,3:0:0:0:
242,232,98622,2,0,P|290:245|328:237,1,80,2|2,0:0|0:0,0:0:0:0:
389,210,98953,5,4,3:0:0:0:
420,145,99117,1,0,3:0:0:0:
400,75,99282,1,8,0:3:0:0:
337,39,99445,1,0,3:0:0:0:
212,158,99610,5,2,0:1:0:0:
138,129,99775,1,0,3:0:0:0:
62,154,99940,1,10,0:0:0:0:
28,225,100093,1,0,3:0:0:0:
251,228,100284,6,0,P|248:295|169:353,2,160,4|10|2,0:0|0:0|3:2,0:0:0:0:
212,158,101108,1,0,3:0:0:0:
89,259,101273,2,0,P|144:266|194:243,1,80,10|2,0:0|0:0,0:0:0:0:
432,138,101603,6,0,P|359:115|294:163,2,160,0|10|2,3:0|0:0|3:2,0:0:0:0:
473,206,102427,1,0,3:0:0:0:
363,277,102592,2,0,L|375:185,1,80,10|2,0:0|0:0,0:0:0:0:
438,345,102922,5,0,3:0:0:0:
257,273,103086,1,0,3:0:0:0:
473,206,103251,2,0,L|464:94,1,80,8|0,0:0|0:0,0:0:0:0:
457,46,103581,1,0,3:0:0:0:
249,192,103746,5,2,3:2:0:0:
176,157,103911,2,0,L|92:172,1,80,10|2,0:0|0:0,0:0:0:0:
315,35,104240,6,0,B|357:67|357:67|326:215,1,191.999994140625,0|10,3:0|0:0,0:0:0:0:
306,297,104735,1,0,0:0:0:0:
160,328,104900,5,2,3:2:0:0:
328,203,105065,1,0,3:0:0:0:
95,165,105229,2,0,L|-10:176,1,95.9999970703126,10|2,0:0|0:0,0:0:0:0:
311,82,105559,5,12,0:0:0:0:
160,328,105724,1,0,3:0:0:0:
429,220,105889,5,12,0:0:0:0:
95,165,106054,1,0,3:0:0:0:
358,378,106218,5,8,0:0:0:0:
409,363,106301,1,8,0:0:0:0:
443,323,106383,1,8,0:0:0:0:
448,270,106466,1,8,0:0:0:0:
429,220,106547,2,8,L|343:221,1,60.0000022888184,8|8,0:3|0:3,0:3:0:0:
163,327,106712,2,4,L|222:329,1,60.0000022888184,8|8,0:1|0:1,0:3:0:0:
309,357,106877,6,0,B|304:282|304:282|297:276|297:276|292:204,1,155.999992858887,6|0,3:2|0:0,0:0:0:0:
316,121,107207,6,0,P|403:113|337:214,1,240.000009155274,10|0,0:0|3:0,0:0:0:0:
226,143,107702,1,0,3:0:0:0:
408,24,107867,2,0,L|559:56,1,103.999995239258,8|0,0:0|0:0,0:0:0:0:
368,219,108196,5,0,3:0:0:0:
264,20,108361,1,0,3:0:0:0:
133,271,108526,2,0,L|163:390,1,103.999995239258,10|0,0:0|0:0,0:0:0:0:
340,110,108856,2,0,P|389:136|451:123,1,103.999995239258,2|0,3:2|3:0,0:0:0:0:
181,174,109185,2,0,P|108:162|59:100,1,155.999992858887,10|0,0:0|0:0,0:0:0:0:
54,64,109515,5,4,3:0:0:0:
256,97,109680,1,0,3:0:0:0:
103,306,109845,2,0,L|-11:293,1,103.999995239258,8|2,0:0|0:0,0:0:0:0:
291,200,110174,6,0,P|269:239|287:327,1,103.999995239258,2|0,3:2|3:0,0:0:0:0:
470,342,110504,2,0,P|492:303|474:215,1,103.999995239258,10|2,0:0|0:0,0:0:0:0:
243,73,110834,5,2,3:3:0:0:
463,156,110999,1,0,3:0:0:0:
171,166,111163,5,8,0:0:0:0:
487,155,111328,1,2,0:0:0:0:
193,303,111493,6,0,P|129:294|86:229,1,103.999995239258,0|0,3:0|3:0,0:0:0:0:
386,73,111823,2,0,P|415:134|392:219,1,155.999992858887,8|0,0:0|0:0,0:0:0:0:
373,241,112152,5,2,3:2:0:0:
486,80,112317,1,0,3:0:0:0:
231,129,112482,2,0,L|104:117,1,103.999995239258,10|2,0:0|0:0,0:0:0:0:
373,241,112812,5,0,3:0:0:0:
293,73,112977,1,0,3:0:0:0:
363,336,113141,2,0,L|504:322,1,103.999995239258,10|0,0:0|0:0,0:0:0:0:
180,259,113471,6,0,P|117:261|62:214,1,103.999995239258,0|0,3:0|3:0,0:0:0:0:
302,204,113801,1,10,0:0:0:0:
197,45,113966,2,0,P|139:67|141:173,1,155.999992858887,2|0,0:0|0:0,0:0:0:0:
141,183,114295,1,2,3:2:0:0:
318,20,114460,2,0,L|429:43,1,103.999995239258,10|0,0:0|0:0,0:0:0:0:
264,329,114790,6,0,P|223:240|226:207,1,103.999995239258,2|0,3:2|3:0,0:0:0:0:
495,266,115119,2,0,P|486:168|466:141,1,103.999995239258,10|0,0:0|0:0,0:0:0:0:
327,125,115449,1,2,3:2:0:0:
495,266,115614,1,0,3:0:0:0:
255,361,115779,2,0,L|147:353,1,103.999995239258,10|0,0:0|0:0,0:0:0:0:
0,89,116108,5,12,0:0:0:0:
47,344,116273,1,0,3:0:0:0:
197,64,116438,5,12,0:0:0:0:
151,353,116603,1,0,3:0:0:0:
402,248,116768,5,0,3:0:0:0:
114,202,116933,1,8,0:0:0:0:
315,149,117097,5,8,0:3:0:0:
200,292,117262,1,8,0:1:0:0:
361,24,117427,6,0,P|479:56|512:152,2,207.999990478516,6|8|2,3:2|0:0|3:2,0:0:0:0:
215,89,118251,1,0,3:0:0:0:
386,271,118416,2,0,L|519:267,1,103.999995239258,10|2,0:0|0:0,0:0:0:0:
389,142,118746,5,0,3:0:0:0:
301,342,118911,1,0,3:0:0:0:
121,140,119075,2,0,L|144:22,1,103.999995239258,10|0,0:0|3:0,0:0:0:0:
302,250,119405,2,0,P|298:181|257:139,1,103.999995239258,2|0,0:0|3:0,0:0:0:0:
20,334,119735,2,0,P|94:386|185:367,1,155.999992858887,10|0,0:0|0:0,0:0:0:0:
189,360,120065,6,0,B|176:276|176:276|192:242|192:242|177:146,2,207.999990478516,4|10|2,3:0|0:0|3:2,0:0:0:0:
353,268,120889,1,0,3:0:0:0:
103,227,121054,2,0,L|-8:229,2,103.999995239258,10|2|0,0:0|3:2|0:0,0:0:0:0:
268,300,121548,1,0,3:0:0:0:
310,103,121713,2,0,L|299:-8,1,103.999995239258,8|0,0:0|0:0,0:0:0:0:
421,130,122043,5,2,3:2:0:0:
310,103,122207,5,0,3:0:0:0:
187,127,122372,5,10,0:0:0:0:
101,232,122537,5,2,3:2:0:0:
97,377,122702,6,0,B|199:367|199:367|206:359|206:359|308:350,1,207.999990478516,4|2,3:0|0:0,0:0:0:0:
404,345,123196,2,0,L|420:236,1,103.999995239258,8|2,0:0|0:1,0:0:0:0:
238,257,123526,2,0,L|222:148,1,103.999995239258,0|2,3:0|0:0,0:0:0:0:
326,274,123856,1,10,0:0:0:0:
451,137,124021,6,0,L|435:28,2,103.999995239258,0|8|2,3:0|0:0|0:0,0:0:0:0:
466,239,124515,1,8,0:1:0:0:
301,179,124680,5,10,0:0:0:0:
481,237,124845,1,8,0:3:0:0:
273,269,125010,5,2,0:0:0:0:
497,235,125174,1,10,0:0:0:0:
272,58,125339,6,0,P|208:71|176:117,1,120,6|0,3:2|0:0,0:0:0:0:
205,200,125669,6,0,B|44:166|44:166|112:218,1,240.000009155274,10|0,0:0|3:0,0:0:0:0:
301,188,126163,1,0,3:0:0:0:
115,369,126328,2,0,L|1:344,1,103.999995239258,8|0,0:0|0:0,0:0:0:0:
451,236,126658,5,12,0:0:0:0:
216,361,126823,1,0,3:0:0:0:
356,73,126988,5,12,0:0:0:0:
232,333,127152,1,0,3:0:0:0:
55,40,127317,5,12,0:0:0:0:
90,297,127482,1,0,3:0:0:0:
284,26,127647,5,12,0:0:0:0:
248,309,127812,1,0,3:0:0:0:
137,130,127977,6,0,P|52:129|-3:220,1,176.000005371094,4|8,3:0|0:0,0:0:0:0:
140,232,128471,1,2,0:0:0:0:
98,33,128636,2,0,L|-1:24,1,88.000002685547,2|0,3:2|3:0,0:0:0:0:
215,99,128966,2,0,P|283:89|322:111,1,88.000002685547,10|2,0:0|3:2,0:0:0:0:
373,142,129295,5,4,0:0:0:0:
276,4,129460,1,0,3:0:0:0:
260,178,129625,2,0,L|278:283,1,88.000002685547,14|0,0:0|0:0,0:0:0:0:
299,95,129955,5,4,3:2:0:0:
136,211,130119,1,0,3:0:0:0:
361,238,130284,2,0,L|455:218,1,88.000002685547,10|0,0:0|0:0,0:0:0:0:
260,178,130614,5,2,3:2:0:0:
381,316,130779,1,2,0:0:0:0:
199,285,130944,1,8,0:0:0:0:
447,219,131108,2,0,P|505:264|513:299,2,88.000002685547,2|2|0,0:0|3:2|3:0,0:0:0:0:
233,270,131602,1,10,0:0:0:0:
353,50,131768,6,0,P|279:83|176:54,1,176.000005371094,2|0,3:2|3:0,0:0:0:0:
80,186,132262,2,0,P|123:188|165:208,1,88.000002685547,10|2,0:0|0:0,0:0:0:0:
14,262,132592,1,0,3:0:0:0:
89,87,132757,1,0,3:0:0:0:
214,284,132922,2,0,P|245:240|235:153,1,132.00000402832,10|0,0:0|0:0,0:0:0:0:
221,144,133251,6,0,B|156:149|156:149|121:174|121:174|50:180,1,176.000005371094,4|8,3:0|0:0,0:0:0:0:
187,272,133746,1,2,0:0:0:0:
295,88,133911,2,0,L|281:-6,1,88.000002685547,2|0,3:2|3:0,0:0:0:0:
408,227,134240,1,10,0:0:0:0:
345,164,134404,6,0,P|456:155|495:229,1,176.000005371094,2|0,3:2|3:0,0:0:0:0:
351,289,134899,2,0,L|256:276,1,88.000002685547,10|2,0:0|0:0,0:0:0:0:
411,351,135229,1,0,3:0:0:0:
324,187,135394,1,0,3:0:0:0:
218,367,135559,2,0,L|120:352,1,88.000002685547,10|0,0:0|0:0,0:0:0:0:
128,117,135889,5,2,3:2:0:0:
41,102,136054,2,0,L|127:88,1,88.000002685547,2|8,3:2|0:0,0:0:0:0:
300,219,136383,5,2,0:0:0:0:
387,204,136548,2,0,L|300:190,1,88.000002685547,2|0,3:2|3:0,0:0:0:0:
131,353,136878,5,14,0:0:0:0:
44,338,137043,2,0,L|130:324,1,88.000002685547,2|4,0:0|3:2,0:0:0:0:
282,380,137371,5,2,3:2:0:0:
148,218,137537,2,0,B|207:231|207:231|230:278|230:278|324:297,1,176.000005371094,14|8,0:0|0:0,0:0:0:0:
335,296,137949,1,8,0:0:0:0:
335,296,138032,2,8,L|352:236,1,44.0000013427735
481,114,138196,1,8,0:0:0:0:
446,104,138279,1,8,0:0:0:0:
411,96,138361,1,8,0:0:0:0:
377,88,138444,1,8,0:0:0:0:
342,79,138526,6,0,P|295:90|321:213,1,176.000005371094,4|12,3:0|0:0,0:0:0:0:
188,100,139021,1,2,0:0:0:0:
373,230,139185,2,0,L|467:217,1,88.000002685547,2|0,3:2|3:0,0:0:0:0:
269,288,139515,2,0,P|223:275|172:279,1,88.000002685547,10|2,0:0|3:2,0:0:0:0:
103,315,139845,5,4,0:0:0:0:
256,371,140010,1,0,3:0:0:0:
282,205,140174,2,0,L|279:88,1,88.000002685547,14|0,0:0|0:0,0:0:0:0:
382,341,140504,5,4,3:2:0:0:
183,276,140669,1,0,3:0:0:0:
381,207,140833,2,0,L|481:215,1,88.000002685547,10|0,0:0|0:0,0:0:0:0:
331,275,141163,5,2,3:2:0:0:
185,151,141328,1,2,0:0:0:0:
374,124,141493,1,8,0:0:0:0:
188,271,141658,2,0,P|120:291|82:282,2,88.000002685547,2|2|0,0:0|3:2|3:0,0:0:0:0:
353,146,142152,1,14,0:0:0:0:
110,57,142317,6,0,P|150:94|121:216,1,176.000005371094,2|0,3:2|3:0,0:0:0:0:
265,138,142812,2,0,L|373:147,1,88.000002685547,10|2,0:0|0:0,0:0:0:0:
223,53,143141,1,0,3:0:0:0:
264,234,143306,1,0,3:0:0:0:
77,137,143470,2,0,B|-13:163|-13:163|43:191,1,132.00000402832,10|0,0:0|0:0,0:0:0:0:
50,199,143801,6,0,P|105:237|27:307,1,176.000005371094,4|8,3:0|0:0,0:0:0:0:
187,205,144295,1,2,0:0:0:0:
278,378,144460,2,0,L|190:382,1,88.000002685547,2|0,3:2|3:0,0:0:0:0:
395,295,144790,1,10,0:0:0:0:
332,232,144955,6,0,B|244:226|264:304|162:287,1,176.000005371094,2|0,3:2|3:0,0:0:0:0:
263,139,145448,2,0,L|246:36,1,88.000002685547,10|2,0:0|0:0,0:0:0:0:
362,143,145779,1,0,3:0:0:0:
187,205,145944,1,0,3:0:0:0:
395,295,146108,2,0,L|496:277,1,88.000002685547,10|0,0:0|0:0,0:0:0:0:
263,139,146438,5,2,3:2:0:0:
352,166,146603,2,0,P|400:169|447:154,1,88.000002685547,2|8,3:2|0:0,0:0:0:0:
279,230,146933,5,2,0:0:0:0:
190,203,147098,2,0,P|142:200|95:215,1,88.000002685547,2|0,3:2|3:0,0:0:0:0:
334,77,147427,5,14,0:0:0:0:
206,294,147592,2,0,P|228:337|264:370,1,88.000002685547,2|4,0:0|3:2,0:0:0:0:
190,203,147922,5,2,3:2:0:0:
407,336,148086,2,0,P|473:313|492:190,1,176.000005371094,14|8,0:0|0:0,0:0:0:0:
497,183,148499,1,8,0:0:0:0:
491,148,148581,1,8,0:0:0:0:
481,114,148663,1,8,0:0:0:0:
472,79,148746,1,8,0:0:0:0:
412,240,148911,1,8,0:0:0:0:
256,316,149075,5,4,3:0:0:0:
64,226,149405,1,10,0:0:0:0:
142,212,149570,2,0,P|183:221|233:264,2,80,2|0|0,0:0|3:0|3:0,0:0:0:0:
15,290,150065,1,10,0:0:0:0:
94,299,150229,2,0,L|102:388,1,80,2|0,0:0|3:0,0:0:0:0:
214,241,150559,5,2,0:0:0:0:
118,127,150724,1,10,0:0:0:0:
15,290,150889,2,0,L|27:191,1,80,2|0,0:0|3:0,0:0:0:0:
178,312,151218,1,0,3:0:0:0:
213,152,151383,2,0,L|201:53,1,80,8|2,0:0|0:0,0:0:0:0:
24,210,151713,6,0,P|111:245|188:213,2,160,2|10|0,3:2|0:0|3:0,0:0:0:0:
28,130,152537,1,2,3:2:0:0:
79,68,152702,2,0,L|172:74,1,80,8|2,0:0|0:0,0:0:0:0:
242,181,153032,5,0,3:0:0:0:
234,101,153196,1,2,3:2:0:0:
170,226,153361,2,0,L|196:339,1,80,8|0,0:0|0:0,0:0:0:0:
305,239,153691,5,0,3:0:0:0:
162,147,153856,1,0,3:0:0:0:
371,99,154021,2,0,L|482:103,1,80,10|2,0:0|0:0,0:0:0:0:
305,239,154350,6,0,P|241:218|146:264,2,160,0|10|0,3:0|0:0|3:0,0:0:0:0:
356,300,155174,1,0,3:0:0:0:
402,364,155339,2,0,L|497:354,1,80,8|2,0:0|0:0,0:0:0:0:
384,225,155669,5,0,3:0:0:0:
305,239,155834,1,2,3:2:0:0:
453,173,155999,2,0,L|430:70,1,80,10|2,0:0|0:0,0:0:0:0:
328,160,156328,5,0,3:0:0:0:
459,256,156493,1,2,3:2:0:0:
263,310,156658,2,0,L|162:296,1,80,8|0,0:0|0:0,0:0:0:0:
83,143,156988,6,0,P|184:139|229:82,2,160,2|10|0,3:2|0:0|3:0,0:0:0:0:
16,98,157812,1,2,3:2:0:0:
191,231,157977,1,8,0:0:0:0:
125,276,158141,6,0,P|58:271|6:353,1,160,2|2,0:0|3:2,0:0:0:0:
200,310,158636,1,10,0:0:0:0:
239,379,158801,2,0,L|398:359,1,160,2|0,3:2|3:0,0:0:0:0:
465,191,159295,1,8,0:0:0:0:
477,370,159460,1,0,3:0:0:0:
232,207,159625,6,0,L|391:227,1,160,4|10,3:0|0:0,0:0:0:0:
266,288,160119,2,0,B|255:325|255:325|270:364,2,80,2|0|0,0:0|3:0|3:0,0:0:0:0:
303,169,160614,1,10,0:0:0:0:
232,207,160779,2,0,P|190:211|148:198,1,80,2|0,0:0|3:0,0:0:0:0:
19,107,161108,5,2,3:2:0:0:
123,222,161273,1,10,0:0:0:0:
227,50,161438,2,0,L|327:61,1,80,2|0,0:0|3:0,0:0:0:0:
115,121,161768,1,0,3:0:0:0:
311,198,161933,2,0,L|211:209,1,80,8|2,0:0|0:0,0:0:0:0:
386,46,162262,6,0,P|427:64|454:177,2,160,2|10|0,3:2|0:0|3:0,0:0:0:0:
306,58,163086,1,2,3:2:0:0:
284,135,163251,2,0,L|183:128,1,80,8|2,0:0|0:0,0:0:0:0:
361,117,163581,5,0,3:0:0:0:
306,58,163746,1,2,3:2:0:0:
343,200,163911,2,0,L|444:193,1,80,10|2,0:0|0:0,0:0:0:0:
262,213,164240,5,0,3:0:0:0:
361,117,164405,1,0,3:0:0:0:
164,53,164570,2,0,P|115:55|63:90,1,80,10|0,0:0|3:0,0:0:0:0:
167,296,164900,6,0,L|140:117,2,160,2|10|0,3:2|0:0|3:0,0:0:0:0:
109,351,165724,1,2,3:2:0:0:
0,179,165889,1,8,0:0:0:0:
143,137,166054,6,0,P|103:127|63:132,1,80,2|2,0:0|0:1,0:0:0:0:
251,291,166383,6,0,P|211:301|164:294,1,88.000002685547,2|8,3:2|0:0,0:0:0:0:
306,99,166713,6,0,P|256:72|202:68,1,95.9999970703126,2|0,0:0|3:0,0:0:0:0:
415,251,167043,6,0,P|375:312|322:335,1,103.999995239258,2|8,0:0|0:0,0:0:0:0:
251,291,167372,1,2,0:0:0:0:
447,128,167537,6,0,B|364:125|388:195|298:190,1,160,2|10,3:2|0:0,0:0:0:0:
316,110,168032,1,2,0:0:0:0:
433,288,168196,2,0,L|440:208,2,80,0|2|8,3:0|3:2|0:0,0:0:0:0:
375,344,168691,6,0,P|320:348|279:325,1,80,2|0,0:0|3:0,0:0:0:0:
60,283,169021,6,0,P|120:287|169:261,1,88.000002685547,2|8,2:0|0:0,0:0:0:0:
366,211,169350,6,0,P|398:169|400:111,1,95.9999970703126,2|0,3:2|0:0,0:0:0:0:
93,139,169680,6,0,P|90:76|120:27,1,103.999995239258,2|8,0:0|0:0,0:0:0:0:
190,105,170010,1,0,3:0:0:0:
175,259,170174,6,0,B|98:275|111:208|24:220,1,160,6|0,3:2|0:0,0:0:0:0:
45,297,170668,1,8,0:3:0:0:
228,335,170834,2,0,P|263:270|233:187,1,160,2|8,3:2|0:1,0:0:0:0:
159,175,171328,1,2,3:2:0:0:
404,115,171493,5,2,0:1:0:0:
392,124,171823,2,0,L|282:107,1,80,2|8,0:0|0:0,0:0:0:0:
236,134,172152,5,8,0:3:0:0:
252,55,172317,1,0,3:0:0:0:
375,206,172470,5,8,0:3:0:0:
359,285,172635,1,2,0:0:0:0:
137,226,172799,6,0,L|246:216,1,80,4|0,3:0|3:0,0:0:0:0:
296,212,173159,1,2,3:2:0:0:
108,146,173305,5,0,3:0:0:0:
51,202,173459,2,0,P|48:251|76:295,1,80,2|0,0:1|3:0,0:0:0:0:
216,218,173788,5,8,0:0:0:0:
167,85,173953,1,0,3:0:0:0:
210,341,174130,6,0,L|408:318,2,191.999994140625,4|10|2,3:2|0:0|3:2,0:0:0:0:
132,320,174953,1,0,3:0:0:0:
351,221,175118,2,0,P|358:139|326:96,1,120,10|0,0:0|0:0,0:0:0:0:
293,123,175447,6,0,B|218:115|218:115|195:87|195:87|114:78,2,191.999994140625,2|10|2,3:2|0:0|3:2,0:0:0:0:
372,111,176272,1,0,3:0:0:0:
273,33,176435,1,10,0:0:0:0:
430,176,176602,1,2,0:0:0:0:
231,300,176766,6,0,P|157:311|55:252,2,191.999994140625,0|8|0,3:0|0:0|3:0,0:0:0:0:
370,369,177590,1,2,3:2:0:0:
312,173,177755,1,10,0:0:0:0:
451,242,177920,1,2,0:0:0:0:
160,215,178085,6,0,B|179:70,1,143.999995605469,2|0,3:2|0:0,0:0:0:0:
183,29,178414,2,0,P|128:13|69:38,1,95.9999970703126,10|0,0:0|0:0,0:0:0:0:
3,153,178744,1,2,3:2:0:0:
232,243,178909,1,0,3:0:0:0:
16,360,179074,2,0,L|24:264,1,95.9999970703126,10|2,0:0|0:0,0:0:0:0:
237,112,179403,5,12,0:0:0:0:
292,362,179568,1,0,3:0:0:0:
25,265,179733,5,12,0:0:0:0:
337,237,179898,1,0,3:0:0:0:
32,161,180063,5,0,3:0:0:0:
32,108,180145,1,0,3:0:0:0:
59,63,180228,1,8,0:0:0:0:
107,40,180310,1,8,0:0:0:0:
159,38,180392,2,0,L|238:57,1,60.0000022888184,8|8,0:3|0:3,0:0:0:0:
337,237,180557,2,8,L|258:218,1,60.0000022888184,8|8,0:1|0:1,0:1:0:0:
171,159,180722,6,0,B|245:144|245:144|255:132|255:132|344:117,1,155.999992858887,6|0,3:2|0:0,0:0:0:0:
396,104,181052,1,10,0:0:0:0:
256,192,181134,12,2,184678,0:3:0:0:
291,73,189953,6,0,L|401:66,1,103.999995239258,12|0,0:0|3:0,0:0:0:0:
163,280,190282,2,0,L|53:273,1,103.999995239258,12|0,0:0|3:0,0:0:0:0:
341,243,190612,5,0,3:0:0:0:
130,117,190777,1,8,0:0:0:0:
259,292,190942,5,8,0:3:0:0:
345,146,191106,1,8,0:1:0:0:
157,28,191271,6,0,P|62:53|45:151,2,207.999990478516,4|12|0,3:2|0:0|3:0,0:0:0:0:
246,82,192095,1,0,3:0:0:0:
193,239,192260,2,0,L|90:243,1,103.999995239258,12|0,0:0|0:0,0:0:0:0:
268,184,192590,6,0,P|287:237|250:312,1,103.999995239258,0|0,3:0|3:0,0:0:0:0:
185,135,192920,1,8,0:0:0:0:
400,198,193084,1,0,3:0:0:0:
400,198,193414,1,0,3:0:0:0:
496,104,193579,1,12,0:0:0:0:
453,290,193744,1,0,3:0:0:0:
298,101,193909,6,0,B|216:121|216:121|202:156|202:156|107:183,2,207.999990478516,4|12|0,3:2|0:0|3:0,0:0:0:0:
399,79,194733,1,0,3:0:0:0:
214,22,194898,1,8,0:0:0:0:
291,200,195063,2,0,L|417:192,1,103.999995239258,0|4,3:0|0:0,0:0:0:0:
488,148,195392,5,0,3:0:0:0:
349,341,195557,2,0,P|444:347|478:247,1,207.999990478516,12|0,0:0|3:0,0:0:0:0:
394,193,196052,1,0,3:0:0:0:
249,373,196216,2,0,L|135:368,2,103.999995239258,8|0|2,0:0|3:0|0:0,0:0:0:0:
349,341,196711,5,0,3:0:0:0:
250,183,196876,2,0,B|201:222|201:222|50:193,1,207.999990478516,10|0,0:0|3:0,0:0:0:0:
11,101,197370,1,0,3:0:0:0:
28,307,197535,2,0,L|147:299,1,103.999995239258,12|0,0:0|0:0,0:0:0:0:
250,183,197865,5,4,3:2:0:0:
146,197,198030,1,0,3:0:0:0:
341,336,198194,2,0,P|353:281|326:227,1,103.999995239258,12|0,0:0|0:0,0:0:0:0:
131,300,198524,5,0,3:0:0:0:
222,349,198689,1,0,3:0:0:0:
263,157,198854,2,0,L|260:35,1,103.999995239258,8|0,0:0|0:0,0:0:0:0:
335,238,199183,5,4,3:2:0:0:
435,211,199348,1,0,3:0:0:0:
263,157,199513,2,0,L|139:176,1,103.999995239258,8|0,0:0|0:0,0:0:0:0:
312,342,199843,5,0,3:0:0:0:
435,211,200008,1,0,3:0:0:0:
160,172,200172,2,0,L|36:191,1,103.999995239258,8|0,0:0|0:0,0:0:0:0:
201,276,200502,6,0,B|250:264|250:264|250:257|250:257|305:245,2,103.999995239258,0|0|10,3:0|3:0|0:0,0:0:0:0:
104,317,200997,1,0,3:0:0:0:
104,317,201079,1,8,0:0:0:0:
104,317,201161,1,2,3:2:0:0:
285,151,201326,5,8,0:0:0:0:
285,151,201409,1,8,0:0:0:0:
285,151,201491,2,8,L|187:133,1,60.0000022888184,8|8,0:3|0:3,0:3:0:0:
7,198,201656,2,8,L|66:208,1,60.0000022888184,8|8,0:1|0:1,0:1:0:0:
151,260,201821,6,0,B|148:183|148:183|142:181|142:181|137:71,1,155.999992858887,6|0,3:2|0:0,0:0:0:0:
130,33,202150,6,0,B|89:-11|7:-6|-12:58|-12:58|11:88|55:81,1,240.000009155274,10|0,0:0|3:0,0:0:0:0:
235,23,202645,1,0,3:0:0:0:
151,260,202810,2,0,L|5:243,1,103.999995239258,8|0,0:0|0:0,0:0:0:0:
364,166,203139,5,0,3:0:0:0:
138,108,203304,1,0,3:0:0:0:
301,352,203469,2,0,L|447:335,1,103.999995239258,10|0,0:0|0:0,0:0:0:0:
151,260,203799,2,0,P|91:256|53:227,1,103.999995239258,2|0,3:2|3:0,0:0:0:0:
342,180,204128,2,0,P|391:224|516:191,1,155.999992858887,10|0,0:0|0:0,0:0:0:0:
510,198,204458,5,4,3:0:0:0:
404,339,204623,1,0,3:0:0:0:
439,102,204788,2,0,L|456:-5,1,103.999995239258,10|0,0:0|0:0,0:0:0:0:
274,255,205118,6,0,P|207:268|159:248,1,103.999995239258,2|0,3:2|3:0,0:0:0:0:
112,77,205447,2,0,P|179:64|227:84,1,103.999995239258,10|2,0:0|0:0,0:0:0:0:
394,280,205777,5,2,3:3:0:0:
337,62,205942,1,0,3:0:0:0:
274,326,206106,5,8,0:0:0:0:
342,37,206271,1,2,0:0:0:0:
485,352,206436,6,0,P|508:293|494:224,1,103.999995239258,0|0,3:0|3:0,0:0:0:0:
175,182,206766,2,0,P|142:237|175:328,1,155.999992858887,8|0,0:0|0:0,0:0:0:0:
200,346,207095,5,2,3:2:0:0:
307,214,207260,1,0,3:0:0:0:
102,86,207425,2,0,L|-23:109,1,103.999995239258,10|2,0:0|0:0,0:0:0:0:
232,254,207755,5,0,3:0:0:0:
51,219,207920,1,0,3:0:0:0:
323,126,208085,2,0,P|380:162|397:234,1,103.999995239258,10|0,0:0|0:0,0:0:0:0:
199,36,208414,6,0,P|129:37|89:66,1,103.999995239258,2|0,3:2|3:0,0:0:0:0:
323,126,208744,1,10,0:0:0:0:
96,261,208909,2,0,P|127:133|172:127,1,155.999992858887,2|0,0:0|0:0,0:0:0:0:
172,128,209238,1,2,3:2:0:0:
257,349,209403,2,0,L|144:341,1,103.999995239258,10|0,0:0|0:0,0:0:0:0:
498,191,209733,6,0,P|488:140|456:101,1,103.999995239258,2|0,3:2|3:0,0:0:0:0:
268,248,210063,2,0,P|251:199|260:149,1,103.999995239258,10|0,0:0|0:0,0:0:0:0:
324,27,210392,1,2,3:2:0:0:
498,191,210557,1,0,3:0:0:0:
268,248,210722,2,0,L|146:235,1,103.999995239258,10|0,0:0|0:0,0:0:0:0:
481,344,211052,5,12,0:0:0:0:
259,149,211216,1,0,3:0:0:0:
502,99,211381,5,12,0:0:0:0:
164,236,211546,1,0,3:0:0:0:
425,245,211711,5,0,3:0:0:0:
229,130,211876,1,8,0:0:0:0:
413,110,212041,5,8,0:3:0:0:
311,288,212205,1,8,0:1:0:0:
150,25,212370,6,0,P|56:30|0:145,2,207.999990478516,6|8|2,3:2|0:0|3:2,0:0:0:0:
295,98,213194,1,0,3:0:0:0:
103,269,213359,2,0,L|-3:253,1,103.999995239258,10|2,0:0|0:0,0:0:0:0:
125,142,213689,5,0,3:0:0:0:
216,329,213854,1,0,3:0:0:0:
386,134,214019,2,0,L|378:10,1,103.999995239258,10|0,0:0|3:0,0:0:0:0:
215,233,214348,2,0,P|222:165|269:127,1,103.999995239258,2|0,0:0|3:0,0:0:0:0:
502,304,214678,2,0,P|463:365|361:371,1,155.999992858887,10|0,0:0|0:0,0:0:0:0:
343,363,215008,6,0,B|369:255|293:264|330:157,2,207.999990478516,4|10|2,3:0|0:0|3:2,0:0:0:0:
189,272,215832,1,0,3:0:0:0:
409,209,215997,2,0,L|536:205,2,103.999995239258,10|2|0,0:0|3:2|0:0,0:0:0:0:
261,314,216491,1,0,3:0:0:0:
163,106,216656,2,0,L|181:-7,1,103.999995239258,8|0,0:0|0:0,0:0:0:0:
55,138,216986,5,2,3:2:0:0:
163,106,217150,5,0,3:0:0:0:
288,126,217315,5,10,0:0:0:0:
377,228,217480,5,2,3:2:0:0:
387,373,217645,6,0,B|284:366|284:366|277:358|277:358|175:353,1,207.999990478516,4|2,3:0|0:0,0:0:0:0:
80,369,218140,2,0,P|56:312|67:255,1,103.999995239258,8|2,0:0|0:1,0:0:0:0:
266,242,218469,2,0,P|258:180|220:136,1,103.999995239258,0|2,3:0|0:0,0:0:0:0:
166,276,218799,1,8,0:0:0:0:
36,114,218964,6,0,L|58:1,2,103.999995239258,0|8|2,3:0|0:0|0:0,0:0:0:0:
94,200,219458,1,8,0:1:0:0:
234,147,219623,5,10,0:0:0:0:
172,62,219788,1,8,0:3:0:0:
219,278,219953,2,0,B|266:246|266:246|378:261,1,155.999992858887,2|0,0:0|0:0,0:0:0:0:
408,269,220282,5,6,3:2:0:0:
290,341,220447,1,8,0:0:0:0:
390,167,220612,2,0,L|373:52,2,103.999995239258,0|0|8,3:0|0:0|0:0,0:0:0:0:
408,269,221106,5,2,3:2:0:0:
205,221,221271,1,2,0:0:0:0:
305,247,221436,1,2,3:2:0:0:
305,247,221519,1,8,0:0:0:0:
305,247,221601,5,8,0:0:0:0:
269,149,221766,1,8,0:0:0:0:
165,136,221931,1,2,0:1:0:0:
105,220,222095,1,8,0:0:0:0:
105,220,222178,1,8,0:0:0:0:
105,220,222260,5,8,0:0:0:0:
181,149,222425,1,8,0:3:0:0:
160,47,222590,1,2,3:2:0:0:
58,24,222755,1,10,0:0:0:0:
20,259,222920,6,0,B|36:222|52:203|52:203|73:218|115:221,1,120,4|0,3:0|0:0,0:0:0:0:
145,233,223249,6,0,P|192:279|100:334,1,207.999990478516,10|4,0:0|3:2,0:0:0:0:
261,221,223744,1,8,0:0:0:0:
342,384,223909,2,0,L|369:268,1,103.999995239258,14|2,0:0|0:0,0:0:0:0:
494,90,224238,5,0,3:0:0:0:
489,220,224403,1,0,3:0:0:0:
244,101,224568,2,0,L|123:80,1,103.999995239258,10|0,0:0|0:0,0:0:0:0:
307,199,224898,2,0,P|351:152|335:42,1,155.999992858887,2|0,3:2|0:0,0:0:0:0:
324,30,225227,1,10,0:0:0:0:
408,243,225392,1,2,0:0:0:0:
92,305,225557,5,12,0:0:0:0:
273,215,225722,1,0,3:0:0:0:
75,81,225887,5,12,0:0:0:0:
189,330,226052,1,0,3:0:0:0:
235,15,226216,5,12,0:0:0:0:
295,325,226381,1,0,3:0:0:0:
431,21,226546,5,12,0:0:0:0:
395,362,226711,1,0,3:0:0:0:
114,200,226876,5,8,0:0:0:0:
96,180,226958,1,0,3:0:0:0:
87,156,227040,1,0,3:0:0:0:
87,130,227123,1,0,3:0:0:0:
96,106,227205,1,8,0:0:0:0:
113,87,227288,1,0,3:0:0:0:
137,76,227370,1,0,3:0:0:0:
162,73,227452,1,8,0:0:0:0:
187,81,227535,5,8,0:3:0:0:
224,116,227617,1,8,0:3:0:0:
273,133,227700,1,8,0:3:0:0:
323,122,227782,1,8,0:3:0:0:
364,89,227865,5,8,0:1:0:0:
436,83,227947,1,8,0:1:0:0:
495,125,228030,1,8,0:1:0:0:
501,197,228112,1,8,0:1:0:0:
456,254,228194,6,0,P|400:256|359:228,1,103.999995239258,6|0,3:2|0:0,0:0:0:0:
323,122,228524,1,10,0:0:0:0:
282,313,228689,6,0,P|248:266|246:217,1,103.999995239258,2|2,3:2|0:0,0:0:0:0:
331,82,229019,1,2,0:0:0:0:
131,236,229183,6,0,P|146:160|172:135,1,103.999995239258,2|8,0:0|0:0,0:0:0:0:
354,231,229513,5,2,0:0:0:0:
493,226,229678,1,2,3:2:0:0:
335,207,229843,1,8,0:0:0:0:
512,250,230008,1,2,0:0:0:0:
217,330,230172,5,2,3:2:0:0:
167,146,230337,1,2,0:0:0:0:
106,344,230502,1,2,0:0:0:0:
177,111,230667,1,10,0:0:0:0:
311,298,230832,6,0,P|370:295|413:264,1,103.999995239258,2|0,0:0|3:0,0:0:0:0:
462,183,231161,1,8,0:0:0:0:
194,240,231326,2,0,P|133:230|96:165,1,103.999995239258,2|0,0:0|3:0,0:0:0:0:
74,112,231656,1,0,3:0:0:0:
328,166,231821,2,0,P|379:140|404:88,1,103.999995239258,2|8,0:0|0:0,0:0:0:0:
190,103,232150,5,2,0:0:0:0:
319,59,232315,1,0,3:0:0:0:
323,284,232480,5,8,0:0:0:0:
194,240,232645,1,2,0:0:0:0:
474,176,232810,6,8,L|484:246,1,51.999997619629
265,171,232975,2,8,L|272:119,1,51.999997619629
407,295,233139,1,8,0:3:0:0:
365,290,233222,1,8,0:3:0:0:
323,284,233304,1,8,0:1:0:0:
281,279,233387,1,8,0:1:0:0:
239,274,233469,6,0,L|423:249,1,155.999992858887,6|0,3:2|0:0,0:0:0:0:
435,249,233799,1,2,0:1:0:0:
191,83,233964,2,0,P|126:99|156:215,1,207.999990478516,10|0,0:0|3:0,0:0:0:0:
252,346,234458,6,0,P|177:313|42:310,1,180.000006866455,10|0,0:0|0:0,0:0:0:0:
33,318,234788,1,2,0:1:0:0:
285,159,234953,2,0,B|258:210|298:254|298:254|366:256|386:194,1,207.999990478516,2|0,3:2|3:0,0:0:0:0:
282,38,235447,6,0,P|221:51|170:112,1,103.999995239258,10|0,0:0|3:0,0:0:0:0:
505,211,235777,2,0,P|498:160|469:118,1,103.999995239258,10|0,0:0|0:0,0:0:0:0:
218,265,236106,6,0,B|88:277|146:179|13:186,1,223.999993164063,6|0,3:2|0:0,0:0:0:0:
288,339,236601,2,0,P|315:273|301:218,2,111.999996582031,10|2|0,0:0|0:1|3:0,0:0:0:0:
153,64,237095,6,0,P|261:40|353:116,1,192,10|0,0:0|0:0,0:0:0:0:
360,117,237425,1,2,0:1:0:0:
85,280,237590,2,0,P|70:184|93:141,2,111.999996582031,2|2|0,3:2|0:1|3:0,0:0:0:0:
398,334,238085,6,0,P|457:342|514:313,1,111.999996582031,10|8,0:0|0:0,0:0:0:0:
268,232,238414,2,0,P|212:239|152:211,1,111.999996582031,2|8,3:2|0:0,0:0:0:0:
430,170,238744,5,6,3:2:0:0:
299,328,238909,1,2,0:0:0:0:
430,160,239073,5,2,0:0:0:0:
168,193,239238,1,2,3:2:0:0:
430,150,239403,6,0,L|483:149,1,51.999997619629,6|0,0:2|0:0,0:0:0:0:
226,59,239568,2,0,L|162:61,1,51.999997619629,6|0,3:2|0:0,0:0:0:0:
430,140,239733,6,0,L|483:139,1,51.999997619629,14|0,0:0|0:0,0:0:0:0:
356,34,239898,2,0,B|326:99|326:99|331:110|331:110|290:196,1,155.999992858887,2|0,3:2|0:0,0:0:0:0:
282,217,240227,5,2,3:2:0:0:
57,177,240392,1,2,0:0:0:0:
263,259,240557,1,10,0:0:0:0:
152,84,240722,5,2,0:0:0:0:
74,298,240887,1,2,3:2:0:0:
299,175,241052,2,0,L|413:177,1,103.999995239258,12|2,0:0|0:0,0:0:0:0:
156,300,241381,6,0,B|110:245|110:245|128:164|128:164|133:162|133:162|157:60,1,240.000009155274,6|0,3:2|0:0,0:0:0:0:
300,296,241876,2,0,L|411:290,1,103.999995239258,2|0,3:2|0:0,0:0:0:0:
90,229,242205,5,2,3:2:0:0:
299,175,242370,1,10,0:0:0:0:
102,51,242535,2,0,L|-25:80,1,103.999995239258,2|0,3:2|0:0,0:0:0:0:
197,203,242865,5,10,0:0:0:0:
410,150,243030,1,2,0:0:0:0:
147,123,243194,1,2,3:2:0:0:
342,283,243359,1,10,0:0:0:0:
384,230,243442,1,8,0:0:0:0:
446,228,243524,1,10,0:0:0:0:
488,265,243606,1,8,0:0:0:0:
488,317,243689,5,8,0:1:0:0:
476,327,243771,1,8,0:1:0:0:
461,332,243854,1,8,0:1:0:0:
445,332,243936,1,8,0:1:0:0:
430,325,244019,6,0,L|322:312,1,60.0000022888184,6|0,0:2|0:0,0:0:0:0:
292,348,244183,2,0,L|184:335,1,60.0000022888184,2|0,0:0|0:0,0:0:0:0:
155,375,244348,2,0,L|47:362,1,60.0000022888184,2|0,3:2|0:0,0:0:0:0:
265,241,244513,2,0,P|278:178|234:131,1,120.000004577637,2|0,3:2|0:0,0:0:0:0:
95,367,244843,6,0,L|80:299,1,60.0000022888184,10|0,0:0|0:0,0:0:0:0:
128,237,245008,2,0,L|143:169,1,60.0000022888184,6|0,0:2|0:0,0:0:0:0:
82,118,245172,2,0,L|67:50,1,60.0000022888184,2|0,3:2|0:0,0:0:0:0:
19,218,245337,1,0,0:0:0:0:
140,178,245502,6,0,L|208:171,1,60.0000022888184,10|0,0:0|0:0,0:0:0:0:
277,138,245667,2,0,L|345:131,1,60.0000022888184,6|0,0:2|0:0,0:0:0:0:
415,100,245832,2,0,L|483:93,1,60.0000022888184,10|0,0:0|0:0,0:0:0:0:
475,262,245997,6,0,L|407:255,1,60.0000022888184,10|0,0:0|0:0,0:0:0:0:
338,222,246161,2,0,L|270:215,1,60.0000022888184,10|0,0:0|0:0,0:0:0:0:
200,184,246326,2,0,B|108:172|108:172|131:206,1,120.000004577637,8|2,0:1|0:0,0:0:0:0:
411,315,246656,6,0,L|415:245,1,60.0000022888184,6|0,3:2|0:0,0:0:0:0:
128,373,246821,2,0,L|124:313,1,60.0000022888184,10|0,0:3|0:0,0:0:0:0:
326,367,246986,1,8,0:1:0:0:
341,113,247150,2,0,L|337:43,1,60.0000022888184,2|0,3:2|0:0,0:0:0:0:
174,161,247315,5,10,0:0:0:0:
126,153,247398,1,8,0:0:0:0:
79,163,247480,1,10,0:0:0:0:
46,198,247563,1,8,0:0:0:0:
34,244,247645,1,10,0:0:0:0:
346,205,247798,1,10,0:0:0:0:
