osu file format v14

[General]
AudioFilename: audio.mp3
AudioLeadIn: 0
PreviewTime: 76666
Countdown: 0
SampleSet: Soft
StackLeniency: 0.7
Mode: 0
LetterboxInBreaks: 0
WidescreenStoryboard: 1

[Editor]
Bookmarks: 15555,39259,62963,77778
DistanceSpacing: 1.1
BeatDivisor: 4
GridSize: 16
TimelineZoom: 1

[Metadata]
Title:Ever After School (Short Ver.)
TitleUnicode:Ever After School (Short Ver.)
Artist:Hana
ArtistUnicode:はな
Creator:ImpurePug
Version:Normal
Source:放課後シンデレラ ミニファンディスク ~あなたと帰る最後の下校道~
Tags:koldnoodl Houkago Cinderella Mini Fandisk ~Anata to Kaeru Saigo no Gekoudou~ eroge visual novel HOOKSOFT SONO MAKERS jpop japanese
BeatmapID:3618915
BeatmapSetID:1767291

[Difficulty]
HPDrainRate:3
CircleSize:3
OverallDifficulty:3
ApproachRate:5
SliderMultiplier:1.8
SliderTickRate:1

[Events]
//Background and Video events
0,0,"title_ani_bg2.jpg",0,0
//Break Periods
//Storyboard Layer 0 (Background)
//Storyboard Layer 1 (Fail)
//Storyboard Layer 2 (Pass)
//Storyboard Layer 3 (Foreground)
//Storyboard Layer 4 (Overlay)
//Storyboard Sound Samples

[TimingPoints]
741,740.740740740741,4,2,1,30,1,0
18518,-95.2380952380952,4,2,1,30,0,0
20000,-100,4,2,1,30,0,0
24444,-95.2380952380952,4,2,1,30,0,0
28889,-100,4,2,1,30,0,0
62963,-100,4,2,1,45,0,0
63703,-100,4,2,1,40,0,0
64074,-100,4,2,1,50,0,0
64815,-100,4,2,1,40,0,0
67037,-100,4,2,1,45,0,0
69629,-100,4,2,1,50,0,0
71111,-100,4,2,1,45,0,0
74815,-100,4,2,2,55,0,0
76666,-100,4,2,2,60,0,0
77778,-100,4,2,2,70,0,0
100000,-100,4,2,2,50,0,0
100741,-100,4,2,2,40,0,0
101481,-100,4,2,2,30,0,0

[Colours]
Combo1 : 123,118,218
Combo2 : 239,156,226
Combo3 : 198,134,240

[HitObjects]
51,243,741,5,8,0:0:0:0:
164,103,1481,2,0,L|153:12,2,90,0|0|8,3:0|0:0|0:0,0:0:0:0:
230,163,2592,2,0,P|302:172|373:101,1,180
375,78,3518,1,2,0:0:0:0:
504,283,4444,2,0,L|400:271,1,90,0|0,3:0|0:0,0:0:0:0:
336,317,5185,5,8,0:0:0:0:
185,218,5926,1,0,3:0:0:0:
350,147,6666,2,0,P|363:80|327:-2,1,135,8|0,0:0|0:0,0:0:0:0:
320,15,7407,6,0,L|255:7,1,45,0|2,3:0|0:0,0:0:0:0:
167,90,8148,2,0,L|17:108,1,135,8|0,0:0|0:0,0:0:0:0:
42,126,8889,6,0,P|31:160|49:225,1,90,0|0,3:0|0:0,0:0:0:0:
4,292,9629,1,8,0:0:0:0:
157,378,10370,1,8,3:2:0:0:
4,292,11111,1,8,0:0:0:0:
157,378,11852,1,8,3:2:0:0:
412,37,15555,5,4,0:0:0:0:
498,194,16296,1,0,0:0:0:0:
488,283,16666,1,8,0:0:0:0:
405,318,17037,1,0,0:0:0:0:
345,175,17778,1,0,0:0:0:0:
427,139,18148,1,8,0:0:0:0:
498,193,18518,2,0,P|489:282|401:317,2,188.999994232178,2|0|2,0:0|0:0|0:0,0:0:0:0:
412,37,20741,1,0,0:0:0:0:
316,189,21481,5,0,0:0:0:0:
200,50,22222,1,0,0:0:0:0:
111,60,22592,1,8,0:0:0:0:
76,141,22963,1,0,0:0:0:0:
219,203,23704,1,0,0:0:0:0:
255,121,24074,1,8,0:0:0:0:
201,50,24444,2,0,P|111:59|76:142,1,188.999994232178,2|0,0:0|0:0,0:0:0:0:
75,231,25555,1,2,0:0:0:0:
262,357,27407,5,4,0:0:0:0:
229,166,28148,1,0,0:0:0:0:
283,94,28518,1,0,0:0:0:0:
369,118,28889,2,0,P|439:108|481:6,2,180,0|2|0,0:0|0:0|0:0,0:0:0:0:
256,258,31111,5,0,0:0:0:0:
180,208,31481,1,0,0:0:0:0:
139,288,31852,2,0,P|69:278|27:176,2,180,8|2|8,0:0|0:0|0:0,0:0:0:0:
302,364,34074,5,2,0:0:0:0:
340,282,34444,1,0,0:0:0:0:
277,205,34815,2,0,L|268:88,1,90,2|0,0:3|0:0,0:0:0:0:
368,128,35555,2,0,P|426:103|453:21,1,135,8|0,0:0|0:0,0:0:0:0:
433,31,36296,2,0,L|338:16,1,90,8|0,0:0|0:0,0:0:0:0:
163,98,37407,1,0,0:0:0:0:
94,169,37778,2,0,B|122:267|50:241|87:346,2,180,8|0|4,0:0|0:0|0:0,0:0:0:0:
239,24,40000,5,0,0:0:0:0:
235,122,40370,1,0,0:0:0:0:
316,173,40741,2,0,P|380:154|411:102,1,90,0|8,0:0|0:0,0:0:0:0:
492,120,41481,2,0,P|477:184|507:237,1,90
468,300,42222,2,0,P|395:257|287:287,2,180,8|2|2,0:0|0:0|0:0,0:0:0:0:
279,361,44444,2,0,L|178:343,1,90
91,352,45185,6,0,P|72:310|123:223,1,135,8|0,0:0|0:0,0:0:0:0:
126,240,45926,1,2,0:3:0:0:
219,271,46296,1,2,0:0:0:0:
292,204,46666,6,0,P|311:162|260:75,1,135
256,76,47407,1,2,0:3:0:0:
163,107,47777,1,8,0:0:0:0:
80,52,48148,6,0,B|53:32|53:32|-9:85|37:169,1,180,0|2,0:0|0:0,0:0:0:0:
213,248,49629,1,0,0:0:0:0:
307,219,50000,2,0,L|296:118,2,90,0|2|0,0:0|0:0|0:0,0:0:0:0:
213,248,51111,6,0,P|154:291|41:236,1,180,4|2,0:0|0:0,0:0:0:0:
55,162,52222,1,0,0:0:0:0:
139,110,52592,2,0,P|184:128|218:180,2,90,8|0|0,0:0|0:0|0:0,0:0:0:0:
127,208,53703,1,0,0:0:0:0:
213,256,54074,6,0,P|272:299|385:244,1,180,2|0,0:0|0:0,0:0:0:0:
371,170,55185,1,2,0:0:0:0:
287,118,55555,2,0,P|242:136|208:188,1,90,8|2,0:0|0:3,0:0:0:0:
174,257,56296,2,0,P|212:286|274:290,1,90
350,276,57037,2,0,P|356:228|328:172,2,90,2|8|0,0:0|0:0|0:0,0:0:0:0:
482,129,58518,6,0,P|405:75|310:106,1,180
236,64,59629,1,0,0:0:0:0:
232,85,59815,2,0,L|250:232,1,135
155,185,60741,1,0,0:0:0:0:
83,253,61111,2,0,P|20:251|-18:267,1,90,0|2,0:0|0:0,0:0:0:0:
313,21,62963,6,0,B|424:6|372:68|488:59,1,180,0|0,1:0|0:0,0:0:0:0:
395,106,64074,2,0,P|361:158|385:289,1,180,0|8,1:0|0:0,0:0:0:0:
441,343,65185,2,0,L|496:335,2,45,0|0|0,3:0|0:0|0:0,0:0:0:0:
373,271,65926,6,0,B|319:254|285:292|285:292|237:301|209:263,1,180,0|2,1:0|0:0,0:0:0:0:
134,201,67037,1,0,1:0:0:0:
150,186,67222,2,0,L|159:43,1,135,0|8,0:0|0:0,0:0:0:0:
69,7,68148,6,0,P|31:6|47:40,1,90,0|0,3:0|0:0,0:0:0:0:
70,137,68889,1,0,1:0:0:0:
6,213,69259,2,0,P|45:237|108:238,1,90,0|2,0:0|0:0,0:0:0:0:
150,318,70000,2,0,B|279:295|279:295|284:268|307:247,1,180,0|8,1:0|0:0,0:0:0:0:
375,318,71111,6,0,L|434:328,2,45,0|0|0,3:0|0:0|0:0,0:0:0:0:
301,252,71852,2,0,B|328:219|383:211|425:235|425:235|398:188,1,180,4|2,1:2|0:0,0:0:0:0:
463,118,72963,2,0,L|437:37,1,45,0|0,1:0|0:0,0:0:0:0:
310,21,73703,1,8,0:0:0:0:
243,94,74074,2,0,L|147:65,1,90,2|2,3:3|1:2,0:0:0:0:
61,96,74815,6,0,P|24:146|49:263,1,180,4|0,1:2|1:0,0:0:0:0:
134,293,75926,1,8,0:0:0:0:
174,265,76111,2,0,B|263:261|219:298|305:298,1,135,0|8,0:0|0:3,0:0:0:0:
364,221,77037,1,12,1:0:0:0:
439,287,77407,2,0,P|442:311|450:355,1,45,0|2,1:0|0:0,0:0:0:0:
426,343,77778,6,0,L|329:332,2,90,4|0|8,1:0|0:0|0:1,0:0:0:0:
511,221,79074,2,0,P|518:164|481:108,1,90,0|10,1:2|0:0,0:0:0:0:
490,118,79629,1,0,1:0:0:0:
424,43,80000,2,0,L|315:28,1,90,8|2,0:1|0:0,0:0:0:0:
279,113,80741,6,0,B|216:121|212:85|145:96,1,135,0|0,1:0|0:0,0:0:0:0:
129,110,81481,2,0,P|106:64|112:10,1,90,8|0,0:0|0:0,0:0:0:0:
93,8,82037,1,0,1:0:0:0:
16,70,82407,1,8,0:1:0:0:
19,92,82592,1,0,1:0:0:0:
55,184,82963,2,0,L|41:288,1,90,8|2,0:1|0:0,0:0:0:0:
116,339,83703,6,0,P|179:358|237:327,1,135,0|0,1:0|0:0,0:0:0:0:
250,310,84444,2,0,L|233:181,1,90,8|2,0:1|0:0,0:0:0:0:
218,209,85000,2,0,P|159:218|185:172,1,135,0|0,1:0|1:0,0:0:0:0:
201,76,85926,2,0,P|245:89|290:146,1,90,8|8,0:1|0:3,0:0:0:0:
299,115,86481,1,2,0:0:0:0:
321,112,86666,6,0,L|435:102,1,90,4|2,1:2|0:3,0:0:0:0:
495,156,87407,2,0,P|494:215|464:259,1,90,10|2,0:1|0:3,0:0:0:0:
387,277,88148,1,0,1:2:0:0:
371,293,88333,2,0,P|359:346|389:408,1,90,8|0,0:1|1:0,0:0:0:0:
347,369,88889,2,0,L|219:359,1,90,12|0,0:1|1:3,0:0:0:0:
169,315,89629,6,0,B|106:298|106:298|61:323|61:323|-7:306,1,180,4|8,1:2|0:1,0:0:0:0:
73,178,90926,2,0,P|44:116|77:28,1,135,0|0,1:0|1:0,0:0:0:0:
148,13,91852,2,0,L|258:23,1,90,8|2,0:1|0:0,0:0:0:0:
300,97,92592,6,0,P|353:103|412:61,1,90,0|2,1:0|0:0,0:0:0:0:
404,76,93148,2,0,P|429:79|477:89,1,45,0|8,0:0|0:1,0:0:0:0:
470,76,93518,2,0,L|489:197,1,90,2|0,0:0|1:0,0:0:0:0:
402,289,94444,1,0,1:0:0:0:
309,252,94815,2,0,B|278:183|278:183|299:115,1,135,8|0,0:1|0:0,0:0:0:0:
278,111,95555,6,0,L|181:123,1,90,4|2,1:2|0:0,0:0:0:0:
160,217,96296,2,0,B|69:230|69:230|29:194,1,135,8|0,0:1|1:0,0:0:0:0:
25,215,97037,2,0,P|53:251|50:318,1,90,4|0,0:3|1:0,0:0:0:0:
135,355,97778,2,0,B|219:330|192:378|269:357,1,135,8|0,0:1|3:0,0:0:0:0:
283,343,98518,6,0,L|304:128,1,180,2|0,1:2|0:0,0:0:0:0:
451,34,100000,1,0,1:0:0:0:
490,228,100741,1,2,0:0:0:0:
301,163,101481,1,4,0:0:0:0:
