osu file format v14

[General]
AudioFilename: Poem.mp3
AudioLeadIn: 2003
PreviewTime: 53515
Countdown: 0
SampleSet: Soft
StackLeniency: 0.7
Mode: 0
LetterboxInBreaks: 0
WidescreenStoryboard: 1

[Editor]
Bookmarks: 36219
DistanceSpacing: 0.9
BeatDivisor: 2
GridSize: 16
TimelineZoom: 2

[Metadata]
Title:Aerodynamics Girls and Boys Poem
TitleUnicode:Aerodynamics Girls and Boys Poem
Artist:Hana
ArtistUnicode:Hana
Creator:Quilt
Version:Easy
Source:Subarashiki Hibi
Tags:KEROQ Kukirikigaku Shoujo to Shounen no Uta
BeatmapID:1022137
BeatmapSetID:426898

[Difficulty]
HPDrainRate:3
CircleSize:3
OverallDifficulty:3
ApproachRate:3
SliderMultiplier:0.899999999999999
SliderTickRate:2

[Events]
//Background and Video events
0,0,"hibi.jpg",0,0
Video,-220,"OP.avi"
//Break Periods
//Storyboard Layer 0 (Background)
//Storyboard Layer 1 (Fail)
//Storyboard Layer 2 (Pass)
//Storyboard Layer 3 (Foreground)
//Storyboard Sound Samples

[TimingPoints]
121,329.67032967033,4,2,2,50,1,0
10670,-100,4,2,1,50,0,0
42648,-100,4,2,2,50,0,0
43625,329.67032967033,4,2,1,50,1,0
46262,-100,4,2,2,50,0,0
47581,-100,4,2,1,50,0,0

[Colours]
Combo1 : 255,172,89
Combo2 : 70,255,255
Combo3 : 153,153,253

[HitObjects]
313,271,121,6,0,P|359:194|377:106,1,180,0|2,0:0|0:0,0:0:0:0:
231,36,1439,2,0,P|184:112|166:200,1,180,0|2,0:0|0:0,0:0:0:0:
185,361,2758,5,0,0:0:0:0:
26,326,3417,1,2,0:0:0:0:
141,212,4077,1,0,0:0:0:0:
181,367,4736,6,0,P|278:372|370:362,2,180,2|0|2,0:0|0:0|0:0,0:0:0:0:
134,211,6714,2,0,P|157:124|148:35,1,180,0|2,0:0|0:0,0:0:0:0:
3,108,8033,5,0,0:0:0:0:
3,108,8692,1,2,0:0:0:0:
92,243,9351,1,0,0:0:0:0:
92,243,10011,1,2,0:0:0:0:
119,85,10670,6,0,P|209:72|297:91,1,180,4|8,0:0|0:0,0:0:0:0:
436,170,11989,2,0,P|449:258|430:346,1,180,0|8,0:0|0:0,0:0:0:0:
318,229,13307,6,0,P|279:205|235:197,1,89.9999999999999,0|8,0:0|0:0,0:0:0:0:
157,173,13967,2,0,P|105:110|151:33,2,180,0|0|8,0:0|0:0|0:0,0:0:0:0:
313,213,15945,6,0,B|330:141|281:106|281:106|332:71,2,180,0|8|0,0:0|0:0|0:0,0:0:0:0:
261,275,17593,2,0,P|215:281|168:270,1,89.9999999999999,8|0,0:0|0:0,0:0:0:0:
95,248,18252,1,8,0:0:0:0:
146,186,18582,6,0,P|167:98|151:10,1,180,0|8,0:0|0:0,0:0:0:0:
33,121,19901,2,0,P|12:208|28:296,1,180,0|8,0:0|0:0,0:0:0:0:
188,315,21219,6,0,P|275:299|362:320,2,180,4|0|0,0:0|0:0|0:0,0:0:0:0:
188,315,23197,1,8,0:0:0:0:
311,210,23857,6,0,P|397:231|485:215,1,180
503,136,24846,1,8,0:0:0:0:
471,61,25175,2,0,P|437:89|423:133,2,89.9999999999999,0|8|0,0:0|0:0|0:0,0:0:0:0:
330,140,26494,6,0,P|212:123|130:149,1,180,8|0,0:0|0:0,0:0:0:0:
79,167,27483,1,8,0:0:0:0:
142,216,27813,2,0,P|229:234|317:218,2,180,0|8|0,0:0|0:0|0:0,0:0:0:0:
200,64,29791,5,8,0:0:0:0:
51,127,30450,2,0,P|26:212|46:303,1,180
190,229,31769,2,0,P|215:144|195:53,2,180,4|8|0,0:0|0:0|0:0,0:0:0:0:
145,296,33417,5,8,0:0:0:0:
225,306,33747,2,0,P|314:302|404:313,1,180
476,276,34736,1,8,0:0:0:0:
408,231,35066,6,0,B|443:183|504:200|504:200|446:112,2,180
355,292,36714,1,8,0:0:0:0:
316,220,37044,6,0,P|229:197|143:221,1,180
88,278,38033,1,8,0:0:0:0:
66,200,38362,2,0,L|29:96,1,89.9999999999999,0|8,0:0|0:0,0:0:0:0:
109,79,39022,2,0,L|146:183,1,89.9999999999999,0|8,0:0|0:0,0:0:0:0:
192,225,39681,6,0,P|283:252|370:235,3,180,0|8|0|8,0:0|0:0|0:0|0:0,0:0:0:0:
489,133,42318,5,8,0:0:0:0:
448,63,42648,1,2,0:0:0:0:
410,134,42978,2,0,P|378:102|368:59,1,89.9999999999999,0|2,0:0|0:0,0:0:0:0:
448,63,43625,1,4,0:0:0:0:
359,198,44284,6,0,P|275:167|186:179,1,180,8|0,0:0|0:0,0:0:0:0:
34,236,45603,1,2,0:0:0:0:
180,169,46262,6,0,P|203:130|214:86,1,89.9999999999999,2|0,0:0|0:0,0:0:0:0:
133,88,46921,2,0,P|110:126|99:170,1,89.9999999999999,2|0,0:0|0:0,0:0:0:0:
136,242,47581,6,0,P|220:272|311:297,1,180,4|0,0:0|0:0,0:0:0:0:
348,226,48570,1,8,0:0:0:0:
400,287,48899,2,0,P|423:249|426:202,1,89.9999999999999,0|8,0:0|0:0,0:0:0:0:
367,148,49559,2,0,P|326:128|288:104,1,89.9999999999999,0|8,0:0|0:0,0:0:0:0:
351,53,50218,6,0,P|435:91|511:141,1,180,0|8,0:0|0:0,0:0:0:0:
369,222,51537,2,0,P|285:184|209:134,1,180,0|8,0:0|0:0,0:0:0:0:
83,36,52855,5,4,0:0:0:0:
83,36,53185,1,4,0:0:0:0:
159,63,53515,2,0,P|179:159|71:175,1,180,0|4,0:0|0:0,0:0:0:0:
47,153,54504,1,8,0:0:0:0:
43,233,54833,6,0,P|125:273|206:238,1,180
267,193,55822,2,0,L|327:259,2,89.9999999999999,8|0|8,0:0|0:0|0:0,0:0:0:0:
318,130,56811,6,0,L|379:197,1,89.9999999999999,0|8,0:0|0:0,0:0:0:0:
432,258,57471,2,0,P|479:268|521:260,1,89.9999999999999,0|8,0:0|0:0,0:0:0:0:
478,190,58130,5,0,0:0:0:0:
397,180,58460,1,8,0:0:0:0:
352,247,58789,2,0,P|263:232|173:226,1,180,0|4,0:0|0:0,0:0:0:0:
156,146,59778,5,8,0:0:0:0:
98,203,60108,2,0,P|81:299|84:396,2,180,0|8|0,0:0|0:0|0:0,0:0:0:0:
139,46,62086,5,8,0:0:0:0:
213,189,62745,1,0,0:0:0:0:
331,78,63405,2,0,P|375:72|420:76,2,89.9999999999999,4|8|0,0:0|0:0|0:0,0:0:0:0:
253,102,64394,1,8,0:0:0:0:
308,160,64723,6,0,P|333:244|306:329,1,180,4|8,0:0|0:0,0:0:0:0:
173,235,66042,2,0,P|147:150|174:65,2,180,0|8|0,0:0|0:0|0:0,0:0:0:0:
219,301,67690,5,8,0:0:0:0:
263,233,68020,2,0,L|484:218,1,180
428,59,69339,1,4,0:0:0:0:
295,151,69998,6,0,L|115:163,1,180,4|8,0:0|0:0,0:0:0:0:
245,259,71317,1,0,0:0:0:0:
88,299,71976,1,8,0:0:0:0:
245,259,72635,6,0,P|261:214|261:164,1,89.9999999999999,4|8,0:0|0:0,0:0:0:0:
293,96,73295,2,0,P|333:74|387:80,1,89.9999999999999,0|8,0:0|0:0,0:0:0:0:
357,153,73954,2,0,P|276:177|207:111,1,180
256,192,75273,12,0,79888,0:0:0:0:
409,231,80548,6,0,P|341:236|274:230,1,135,4|8,0:0|0:0,0:0:0:0:
154,211,81537,1,8,0:0:0:0:
142,90,82031,1,0,0:0:0:0:
260,118,82526,1,8,0:0:0:0:
109,175,83185,6,0,P|96:241|103:308,2,135,4|8|0,0:0|0:0|0:0,0:0:0:0:
153,62,84668,1,8,0:0:0:0:
223,161,85163,2,0,P|268:166|312:163,1,89.9999999999999
389,188,85822,6,0,P|409:233|407:275,1,89.9999999999999,4|8,0:0|0:0,0:0:0:0:
348,330,86482,2,0,P|328:285|329:242,1,89.9999999999999,0|8,0:0|0:0,0:0:0:0:
312,165,87141,2,0,P|227:136|139:151,2,180,0|8|4,0:0|0:0|0:0,0:0:0:0:
268,321,89119,6,0,P|353:350|441:335,2,180,0|8|0,0:0|0:0|0:0,0:0:0:0:
180,184,91097,2,0,P|201:146|203:91,1,89.9999999999999,4|8,0:0|0:0,0:0:0:0:
149,40,91756,1,0,0:0:0:0:
122,116,92086,2,0,L|17:85,1,89.9999999999999,8|0,0:0|0:0,0:0:0:0:
21,170,92745,6,0,L|126:201,1,89.9999999999999,8|0,0:0|0:0,0:0:0:0:
114,276,93405,1,8,0:0:0:0:
185,238,93734,2,0,B|206:173|163:133|163:133|269:118,1,180
308,114,94723,6,0,L|366:109,1,45,8|8,0:0|0:0,0:0:0:0:
