osu file format v14

[General]
AudioFilename: audio.mp3
AudioLeadIn: 0
PreviewTime: 85251
Countdown: 0
SampleSet: Soft
StackLeniency: 0.7
Mode: 3
LetterboxInBreaks: 0
SpecialStyle: 0
WidescreenStoryboard: 0

[Editor]
DistanceSpacing: 1
BeatDivisor: 4
GridSize: 8
TimelineZoom: 2.4

[Metadata]
Title:The Final Stand
TitleUnicode:The Final Stand
Artist:HanStone
ArtistUnicode:HanStone
Creator:Cryolien
Version:Glas Ghaibhleann
Source:Mabinogi
Tags:
BeatmapID:1838487
BeatmapSetID:879109

[Difficulty]
HPDrainRate:7
CircleSize:7
OverallDifficulty:7
ApproachRate:5
SliderMultiplier:1.4
SliderTickRate:1

[Events]
//Background and Video events
0,0,"glas.png",0,0
//Break Periods
//Storyboard Layer 0 (Background)
//Storyboard Layer 1 (Fail)
//Storyboard Layer 2 (Pass)
//Storyboard Layer 3 (Foreground)
//Storyboard Sound Samples

[TimingPoints]
0,250,4,2,0,11,1,0
500,250,4,2,0,11,1,0

[HitObjects]
109,192,0,5,0,0:0:0:0:
256,192,0,1,0,0:0:0:0:
402,192,0,1,0,0:0:0:0:
109,192,250,5,0,0:0:0:0:
402,192,250,1,0,0:0:0:0:
256,192,250,1,0,0:0:0:0:
109,192,500,128,0,4250:0:0:0:0:
402,192,500,128,0,4250:0:0:0:0:
182,192,500,128,0,2500:0:0:0:0:
329,192,500,128,0,2500:0:0:0:0:
36,192,500,1,0,0:0:0:0:
475,192,500,1,0,0:0:0:0:
475,192,1500,1,0,0:0:0:0:
256,192,1500,1,0,0:0:0:0:
36,192,2000,1,0,0:0:0:0:
256,192,2000,1,0,0:0:0:0:
475,192,2500,128,0,4250:0:0:0:0:
36,192,2500,1,0,0:0:0:0:
182,192,3000,1,0,0:0:0:0:
329,192,3000,1,0,0:0:0:0:
329,192,3375,1,0,0:0:0:0:
256,192,3500,1,0,0:0:0:0:
182,192,3625,1,0,0:0:0:0:
329,192,3750,1,0,0:0:0:0:
182,192,3875,1,0,0:0:0:0:
36,192,3875,128,0,4500:0:0:0:0:
256,192,4000,1,0,0:0:0:0:
329,192,4125,1,0,0:0:0:0:
256,192,4250,1,0,0:0:0:0:
182,192,4375,1,0,0:0:0:0:
329,192,4500,1,0,0:0:0:0:
475,192,4500,1,0,0:0:0:0:
109,192,4500,128,0,4625:0:0:0:0:
182,192,4625,128,0,4750:0:0:0:0:
256,192,4750,128,0,4875:0:0:0:0:
36,192,4750,1,0,0:0:0:0:
109,192,4750,1,0,0:0:0:0:
475,192,4750,1,0,0:0:0:0:
329,192,4875,128,0,5000:0:0:0:0:
402,192,5000,128,0,5125:0:0:0:0:
182,192,5000,1,0,0:0:0:0:
109,192,5000,1,0,0:0:0:0:
256,192,5125,128,0,5250:0:0:0:0:
182,192,5250,128,0,5375:0:0:0:0:
329,192,5250,1,0,0:0:0:0:
402,192,5250,1,0,0:0:0:0:
36,192,5250,1,0,0:0:0:0:
109,192,5375,128,0,5500:0:0:0:0:
475,192,5500,128,0,5625:0:0:0:0:
182,192,5500,1,0,0:0:0:0:
329,192,5500,1,0,0:0:0:0:
402,192,5625,128,0,5750:0:0:0:0:
329,192,5750,128,0,5875:0:0:0:0:
36,192,5750,1,0,0:0:0:0:
109,192,5750,1,0,0:0:0:0:
182,192,5750,1,0,0:0:0:0:
256,192,5875,128,0,6000:0:0:0:0:
182,192,6000,128,0,6125:0:0:0:0:
475,192,6000,1,0,0:0:0:0:
329,192,6000,1,0,0:0:0:0:
109,192,6125,128,0,6250:0:0:0:0:
36,192,6250,128,0,6375:0:0:0:0:
256,192,6250,1,0,0:0:0:0:
402,192,6250,1,0,0:0:0:0:
475,192,6250,1,0,0:0:0:0:
329,192,6375,128,0,6500:0:0:0:0:
182,192,6500,128,0,6625:0:0:0:0:
36,192,6500,1,0,0:0:0:0:
256,192,6500,1,0,0:0:0:0:
109,192,6625,128,0,6750:0:0:0:0:
36,192,6750,128,0,6875:0:0:0:0:
256,192,6750,1,0,0:0:0:0:
329,192,6750,1,0,0:0:0:0:
475,192,6750,1,0,0:0:0:0:
182,192,6875,128,0,7000:0:0:0:0:
256,192,7000,128,0,7125:0:0:0:0:
402,192,7000,1,0,0:0:0:0:
329,192,7000,1,0,0:0:0:0:
109,192,7125,128,0,7250:0:0:0:0:
182,192,7250,128,0,7375:0:0:0:0:
329,192,7250,1,0,0:0:0:0:
402,192,7250,1,0,0:0:0:0:
475,192,7250,1,0,0:0:0:0:
36,192,7375,128,0,7500:0:0:0:0:
109,192,7500,128,0,7625:0:0:0:0:
256,192,7500,1,0,0:0:0:0:
329,192,7500,1,0,0:0:0:0:
182,192,7625,128,0,7750:0:0:0:0:
36,192,7750,128,0,7875:0:0:0:0:
475,192,7750,1,0,0:0:0:0:
256,192,7750,1,0,0:0:0:0:
402,192,7750,1,0,0:0:0:0:
182,192,7875,128,0,8000:0:0:0:0:
109,192,8000,128,0,8125:0:0:0:0:
329,192,8000,1,0,0:0:0:0:
402,192,8000,1,0,0:0:0:0:
256,192,8125,128,0,8250:0:0:0:0:
182,192,8250,128,0,8375:0:0:0:0:
475,192,8250,1,0,0:0:0:0:
402,192,8250,1,0,0:0:0:0:
329,192,8250,1,0,0:0:0:0:
36,192,8375,128,0,8500:0:0:0:0:
256,192,8375,1,0,0:0:0:0:
402,192,8375,1,0,0:0:0:0:
109,192,8500,128,0,8625:0:0:0:0:
329,192,8500,1,0,0:0:0:0:
475,192,8500,1,0,0:0:0:0:
182,192,8625,128,0,8750:0:0:0:0:
256,192,8750,128,0,8875:0:0:0:0:
402,192,8750,1,0,0:0:0:0:
109,192,8750,1,0,0:0:0:0:
36,192,8750,1,0,0:0:0:0:
329,192,8875,128,0,9000:0:0:0:0:
402,192,9000,128,0,9125:0:0:0:0:
256,192,9000,1,0,0:0:0:0:
182,192,9000,1,0,0:0:0:0:
475,192,9125,128,0,9250:0:0:0:0:
402,192,9250,128,0,9375:0:0:0:0:
36,192,9250,1,0,0:0:0:0:
109,192,9250,1,0,0:0:0:0:
256,192,9250,1,0,0:0:0:0:
329,192,9375,128,0,9500:0:0:0:0:
475,192,9500,128,0,9625:0:0:0:0:
182,192,9500,1,0,0:0:0:0:
36,192,9500,1,0,0:0:0:0:
329,192,9625,128,0,9750:0:0:0:0:
182,192,9750,128,0,9875:0:0:0:0:
109,192,9750,1,0,0:0:0:0:
256,192,9750,1,0,0:0:0:0:
402,192,9750,1,0,0:0:0:0:
36,192,9875,128,0,10000:0:0:0:0:
402,192,10000,128,0,10125:0:0:0:0:
109,192,10000,1,0,0:0:0:0:
182,192,10000,1,0,0:0:0:0:
329,192,10125,128,0,10250:0:0:0:0:
256,192,10250,128,0,10375:0:0:0:0:
475,192,10250,1,0,0:0:0:0:
109,192,10250,1,0,0:0:0:0:
402,192,10250,1,0,0:0:0:0:
182,192,10375,128,0,10500:0:0:0:0:
402,192,10500,128,0,10625:0:0:0:0:
36,192,10500,1,0,0:0:0:0:
256,192,10500,1,0,0:0:0:0:
475,192,10625,128,0,10750:0:0:0:0:
109,192,10625,1,0,0:0:0:0:
329,192,10750,128,0,10875:0:0:0:0:
36,192,10750,1,0,0:0:0:0:
182,192,10750,1,0,0:0:0:0:
256,192,10750,1,0,0:0:0:0:
402,192,10875,128,0,11000:0:0:0:0:
256,192,11000,128,0,11125:0:0:0:0:
36,192,11000,1,0,0:0:0:0:
109,192,11000,1,0,0:0:0:0:
402,192,11125,128,0,11250:0:0:0:0:
182,192,11125,1,0,0:0:0:0:
329,192,11250,128,0,11375:0:0:0:0:
36,192,11250,1,0,0:0:0:0:
109,192,11250,1,0,0:0:0:0:
475,192,11250,1,0,0:0:0:0:
256,192,11375,128,0,11500:0:0:0:0:
182,192,11500,128,0,11625:0:0:0:0:
402,192,11500,1,0,0:0:0:0:
329,192,11500,1,0,0:0:0:0:
109,192,11625,128,0,11750:0:0:0:0:
36,192,11750,128,0,11875:0:0:0:0:
182,192,11750,1,0,0:0:0:0:
402,192,11750,1,0,0:0:0:0:
475,192,11750,1,0,0:0:0:0:
256,192,11875,128,0,12000:0:0:0:0:
182,192,12000,128,0,12125:0:0:0:0:
109,192,12000,1,0,0:0:0:0:
402,192,12000,1,0,0:0:0:0:
36,192,12125,128,0,12250:0:0:0:0:
329,192,12125,1,0,0:0:0:0:
402,192,12125,1,0,0:0:0:0:
475,192,12125,1,0,0:0:0:0:
109,192,12250,128,0,12375:0:0:0:0:
329,192,12250,1,0,0:0:0:0:
256,192,12250,1,0,0:0:0:0:
182,192,12250,1,0,0:0:0:0:
36,192,12375,128,0,12500:0:0:0:0:
256,192,12375,1,0,0:0:0:0:
402,192,12375,1,0,0:0:0:0:
475,192,12375,1,0,0:0:0:0:
109,192,12500,128,0,12625:0:0:0:0:
329,192,12500,1,0,0:0:0:0:
402,192,12500,1,0,0:0:0:0:
475,192,12500,1,0,0:0:0:0:
182,192,12625,128,0,12750:0:0:0:0:
256,192,12750,128,0,12875:0:0:0:0:
36,192,12750,1,0,0:0:0:0:
109,192,12750,1,0,0:0:0:0:
475,192,12750,1,0,0:0:0:0:
182,192,12875,128,0,13000:0:0:0:0:
256,192,13000,128,0,13125:0:0:0:0:
109,192,13000,1,0,0:0:0:0:
402,192,13000,1,0,0:0:0:0:
329,192,13125,128,0,13250:0:0:0:0:
402,192,13250,128,0,13375:0:0:0:0:
36,192,13250,1,0,0:0:0:0:
109,192,13250,1,0,0:0:0:0:
182,192,13250,1,0,0:0:0:0:
256,192,13375,128,0,13500:0:0:0:0:
475,192,13500,128,0,13625:0:0:0:0:
109,192,13500,1,0,0:0:0:0:
329,192,13500,1,0,0:0:0:0:
402,192,13625,128,0,13750:0:0:0:0:
329,192,13750,128,0,13875:0:0:0:0:
36,192,13750,1,0,0:0:0:0:
109,192,13750,1,0,0:0:0:0:
475,192,13750,1,0,0:0:0:0:
256,192,13875,128,0,14000:0:0:0:0:
329,192,14000,128,0,14125:0:0:0:0:
182,192,14000,1,0,0:0:0:0:
475,192,14000,1,0,0:0:0:0:
256,192,14125,128,0,14250:0:0:0:0:
182,192,14250,128,0,14375:0:0:0:0:
402,192,14250,1,0,0:0:0:0:
329,192,14250,1,0,0:0:0:0:
36,192,14250,1,0,0:0:0:0:
109,192,14375,128,0,14500:0:0:0:0:
36,192,14500,128,0,14625:0:0:0:0:
256,192,14500,1,0,0:0:0:0:
475,192,14500,1,0,0:0:0:0:
109,192,14625,128,0,14750:0:0:0:0:
182,192,14750,128,0,14875:0:0:0:0:
329,192,14750,1,0,0:0:0:0:
402,192,14750,1,0,0:0:0:0:
475,192,14750,1,0,0:0:0:0:
36,192,14875,128,0,15000:0:0:0:0:
182,192,15000,128,0,15125:0:0:0:0:
256,192,15000,1,0,0:0:0:0:
402,192,15000,1,0,0:0:0:0:
109,192,15125,128,0,15250:0:0:0:0:
256,192,15250,128,0,15375:0:0:0:0:
329,192,15250,1,0,0:0:0:0:
402,192,15250,1,0,0:0:0:0:
475,192,15250,1,0,0:0:0:0:
36,192,15375,128,0,15500:0:0:0:0:
182,192,15500,128,0,15625:0:0:0:0:
475,192,15500,1,0,0:0:0:0:
329,192,15500,1,0,0:0:0:0:
109,192,15625,128,0,15750:0:0:0:0:
402,192,15625,1,0,0:0:0:0:
256,192,15625,1,0,0:0:0:0:
182,192,15750,128,0,15875:0:0:0:0:
329,192,15750,1,0,0:0:0:0:
475,192,15750,1,0,0:0:0:0:
402,192,15750,1,0,0:0:0:0:
36,192,15875,128,0,16000:0:0:0:0:
182,192,16000,128,0,16125:0:0:0:0:
256,192,16000,1,0,0:0:0:0:
329,192,16000,1,0,0:0:0:0:
109,192,16125,128,0,16250:0:0:0:0:
256,192,16250,128,0,16375:0:0:0:0:
402,192,16250,1,0,0:0:0:0:
475,192,16250,1,0,0:0:0:0:
36,192,16250,1,0,0:0:0:0:
182,192,16375,128,0,16500:0:0:0:0:
36,192,16500,128,0,16625:0:0:0:0:
256,192,16500,1,0,0:0:0:0:
329,192,16500,1,0,0:0:0:0:
109,192,16625,128,0,16750:0:0:0:0:
182,192,16750,128,0,16875:0:0:0:0:
475,192,16750,1,0,0:0:0:0:
402,192,16750,1,0,0:0:0:0:
329,192,16750,1,0,0:0:0:0:
256,192,16875,128,0,17000:0:0:0:0:
329,192,17000,128,0,17125:0:0:0:0:
36,192,17000,1,0,0:0:0:0:
109,192,17000,1,0,0:0:0:0:
402,192,17125,128,0,17250:0:0:0:0:
475,192,17250,128,0,17375:0:0:0:0:
109,192,17250,1,0,0:0:0:0:
182,192,17250,1,0,0:0:0:0:
256,192,17250,1,0,0:0:0:0:
329,192,17375,128,0,17500:0:0:0:0:
402,192,17500,128,0,17625:0:0:0:0:
36,192,17500,1,0,0:0:0:0:
475,192,17500,1,0,0:0:0:0:
329,192,17625,128,0,17750:0:0:0:0:
256,192,17750,128,0,17875:0:0:0:0:
109,192,17750,1,0,0:0:0:0:
402,192,17750,1,0,0:0:0:0:
475,192,17750,1,0,0:0:0:0:
182,192,17875,128,0,18000:0:0:0:0:
329,192,18000,128,0,18125:0:0:0:0:
36,192,18000,1,0,0:0:0:0:
402,192,18000,1,0,0:0:0:0:
256,192,18125,128,0,18250:0:0:0:0:
182,192,18250,128,0,18375:0:0:0:0:
329,192,18250,1,0,0:0:0:0:
475,192,18250,1,0,0:0:0:0:
36,192,18250,1,0,0:0:0:0:
109,192,18375,128,0,18500:0:0:0:0:
329,192,18500,128,0,18625:0:0:0:0:
182,192,18500,1,0,0:0:0:0:
256,192,18500,1,0,0:0:0:0:
36,192,18500,1,0,0:0:0:0:
402,192,18500,1,0,0:0:0:0:
475,192,18625,128,0,18750:0:0:0:0:
182,192,18625,1,0,0:0:0:0:
329,192,18750,128,0,18875:0:0:0:0:
36,192,18750,1,0,0:0:0:0:
109,192,18750,1,0,0:0:0:0:
256,192,18750,1,0,0:0:0:0:
402,192,18875,128,0,19000:0:0:0:0:
182,192,18875,1,0,0:0:0:0:
475,192,18875,1,0,0:0:0:0:
256,192,19000,128,0,19125:0:0:0:0:
36,192,19000,1,0,0:0:0:0:
109,192,19000,1,0,0:0:0:0:
329,192,19125,128,0,19250:0:0:0:0:
182,192,19250,128,0,19375:0:0:0:0:
475,192,19250,1,0,0:0:0:0:
402,192,19250,1,0,0:0:0:0:
36,192,19250,1,0,0:0:0:0:
109,192,19250,1,0,0:0:0:0:
256,192,19375,128,0,19500:0:0:0:0:
109,192,19500,128,0,19625:0:0:0:0:
402,192,19500,1,0,0:0:0:0:
475,192,19500,1,0,0:0:0:0:
329,192,19500,1,0,0:0:0:0:
182,192,19625,128,0,19750:0:0:0:0:
36,192,19750,128,0,19875:0:0:0:0:
256,192,19750,1,0,0:0:0:0:
329,192,19750,1,0,0:0:0:0:
402,192,19750,1,0,0:0:0:0:
182,192,19875,128,0,20000:0:0:0:0:
109,192,20000,128,0,20125:0:0:0:0:
402,192,20000,1,0,0:0:0:0:
475,192,20000,1,0,0:0:0:0:
36,192,20000,1,0,0:0:0:0:
256,192,20125,128,0,20250:0:0:0:0:
182,192,20125,1,0,0:0:0:0:
329,192,20125,1,0,0:0:0:0:
36,192,20250,128,0,20375:0:0:0:0:
475,192,20250,1,0,0:0:0:0:
402,192,20250,1,0,0:0:0:0:
329,192,20250,1,0,0:0:0:0:
109,192,20375,128,0,20500:0:0:0:0:
182,192,20375,1,0,0:0:0:0:
256,192,20375,1,0,0:0:0:0:
475,192,20375,1,0,0:0:0:0:
36,192,20500,1,0,0:0:0:0:
182,192,20500,1,0,0:0:0:0:
329,192,20500,1,0,0:0:0:0:
402,192,20500,128,0,20750:0:0:0:0:
475,192,20750,1,0,0:0:0:0:
329,192,20750,1,0,0:0:0:0:
182,192,20750,1,0,0:0:0:0:
256,192,20750,128,0,21000:0:0:0:0:
182,192,21000,1,0,0:0:0:0:
329,192,21000,1,0,0:0:0:0:
109,192,21000,128,0,21250:0:0:0:0:
256,192,21250,1,0,0:0:0:0:
475,192,21250,1,0,0:0:0:0:
36,192,21250,1,0,0:0:0:0:
402,192,21250,128,0,21500:0:0:0:0:
329,192,21500,1,0,0:0:0:0:
256,192,21500,1,0,0:0:0:0:
182,192,21500,128,0,21750:0:0:0:0:
36,192,21750,1,0,0:0:0:0:
109,192,21750,1,0,0:0:0:0:
475,192,21750,1,0,0:0:0:0:
402,192,21750,128,0,22000:0:0:0:0:
329,192,22000,1,0,0:0:0:0:
475,192,22000,1,0,0:0:0:0:
256,192,22000,128,0,22500:0:0:0:0:
182,192,22125,1,0,0:0:0:0:
109,192,22125,1,0,0:0:0:0:
36,192,22125,1,0,0:0:0:0:
329,192,22250,1,0,0:0:0:0:
402,192,22250,1,0,0:0:0:0:
475,192,22250,1,0,0:0:0:0:
402,192,22500,1,0,0:0:0:0:
475,192,22500,1,0,0:0:0:0:
36,192,22500,128,0,23875:0:0:0:0:
109,192,22500,1,0,0:0:0:0:
256,192,22625,1,0,0:0:0:0:
182,192,22625,1,0,0:0:0:0:
109,192,22750,1,0,0:0:0:0:
329,192,22750,1,0,0:0:0:0:
182,192,22875,1,0,0:0:0:0:
256,192,22875,1,0,0:0:0:0:
475,192,22875,1,0,0:0:0:0:
402,192,23000,1,0,0:0:0:0:
329,192,23000,1,0,0:0:0:0:
256,192,23125,1,0,0:0:0:0:
182,192,23125,1,0,0:0:0:0:
182,192,23250,1,0,0:0:0:0:
109,192,23250,1,0,0:0:0:0:
402,192,23250,1,0,0:0:0:0:
475,192,23250,1,0,0:0:0:0:
329,192,23375,1,0,0:0:0:0:
256,192,23375,1,0,0:0:0:0:
182,192,23500,1,0,0:0:0:0:
109,192,23500,1,0,0:0:0:0:
402,192,23625,1,0,0:0:0:0:
329,192,23625,1,0,0:0:0:0:
475,192,23625,1,0,0:0:0:0:
109,192,23750,1,0,0:0:0:0:
182,192,23750,1,0,0:0:0:0:
256,192,23750,1,0,0:0:0:0:
329,192,23750,1,0,0:0:0:0:
475,192,23875,128,0,24500:0:0:0:0:
36,192,24000,1,0,0:0:0:0:
182,192,24000,1,0,0:0:0:0:
329,192,24000,1,0,0:0:0:0:
402,192,24000,1,0,0:0:0:0:
256,192,24125,1,0,0:0:0:0:
109,192,24125,1,0,0:0:0:0:
182,192,24125,1,0,0:0:0:0:
329,192,24125,1,0,0:0:0:0:
36,192,24250,1,0,0:0:0:0:
402,192,24250,1,0,0:0:0:0:
109,192,24250,1,0,0:0:0:0:
329,192,24375,1,0,0:0:0:0:
182,192,24375,1,0,0:0:0:0:
36,192,24500,1,0,0:0:0:0:
109,192,24500,1,0,0:0:0:0:
256,192,24500,1,0,0:0:0:0:
402,192,24500,128,0,25500:0:0:0:0:
182,192,24750,1,0,0:0:0:0:
256,192,24750,1,0,0:0:0:0:
475,192,24750,1,0,0:0:0:0:
36,192,24875,1,0,0:0:0:0:
256,192,24875,1,0,0:0:0:0:
109,192,25000,1,0,0:0:0:0:
329,192,25000,1,0,0:0:0:0:
182,192,25000,1,0,0:0:0:0:
182,192,25250,1,0,0:0:0:0:
256,192,25250,1,0,0:0:0:0:
329,192,25250,1,0,0:0:0:0:
109,192,25500,128,0,26000:0:0:0:0:
36,192,25500,1,0,0:0:0:0:
329,192,25500,1,0,0:0:0:0:
475,192,25500,1,0,0:0:0:0:
182,192,25750,1,0,0:0:0:0:
256,192,25750,1,0,0:0:0:0:
402,192,25750,1,0,0:0:0:0:
36,192,25875,1,0,0:0:0:0:
329,192,25875,1,0,0:0:0:0:
475,192,26000,128,0,26500:0:0:0:0:
256,192,26000,1,0,0:0:0:0:
402,192,26000,1,0,0:0:0:0:
182,192,26000,1,0,0:0:0:0:
36,192,26250,1,0,0:0:0:0:
402,192,26250,1,0,0:0:0:0:
109,192,26250,1,0,0:0:0:0:
109,192,26500,128,0,26875:0:0:0:0:
182,192,26500,1,0,0:0:0:0:
256,192,26500,1,0,0:0:0:0:
329,192,26500,1,0,0:0:0:0:
36,192,26750,1,0,0:0:0:0:
402,192,26750,1,0,0:0:0:0:
475,192,26750,1,0,0:0:0:0:
402,192,26875,128,0,27250:0:0:0:0:
182,192,26875,1,0,0:0:0:0:
256,192,26875,1,0,0:0:0:0:
329,192,26875,1,0,0:0:0:0:
109,192,27000,1,0,0:0:0:0:
475,192,27000,1,0,0:0:0:0:
329,192,27250,128,0,27500:0:0:0:0:
36,192,27250,1,0,0:0:0:0:
182,192,27250,1,0,0:0:0:0:
475,192,27250,1,0,0:0:0:0:
109,192,27500,1,0,0:0:0:0:
256,192,27500,128,0,27875:0:0:0:0:
182,192,27500,1,0,0:0:0:0:
475,192,27500,1,0,0:0:0:0:
36,192,27750,1,0,0:0:0:0:
109,192,27750,1,0,0:0:0:0:
402,192,27750,1,0,0:0:0:0:
182,192,27875,128,0,28250:0:0:0:0:
36,192,28000,1,0,0:0:0:0:
256,192,28000,1,0,0:0:0:0:
329,192,28000,1,0,0:0:0:0:
36,192,28250,128,0,28500:0:0:0:0:
256,192,28250,1,0,0:0:0:0:
402,192,28250,1,0,0:0:0:0:
475,192,28250,1,0,0:0:0:0:
182,192,28375,1,0,0:0:0:0:
329,192,28375,1,0,0:0:0:0:
109,192,28500,128,0,29437:0:0:0:0:
256,192,28500,1,0,0:0:0:0:
329,192,28500,1,0,0:0:0:0:
475,192,28500,1,0,0:0:0:0:
36,192,28750,1,0,0:0:0:0:
182,192,28750,1,0,0:0:0:0:
329,192,28750,1,0,0:0:0:0:
256,192,28875,1,0,0:0:0:0:
402,192,28875,1,0,0:0:0:0:
182,192,29000,1,0,0:0:0:0:
475,192,29000,1,0,0:0:0:0:
329,192,29250,1,0,0:0:0:0:
402,192,29250,1,0,0:0:0:0:
475,192,29250,1,0,0:0:0:0:
109,192,29500,128,0,29750:0:0:0:0:
329,192,29500,1,0,0:0:0:0:
256,192,29500,1,0,0:0:0:0:
36,192,29500,1,0,0:0:0:0:
182,192,29750,128,0,30000:0:0:0:0:
256,192,29750,1,0,0:0:0:0:
402,192,29750,1,0,0:0:0:0:
475,192,29750,1,0,0:0:0:0:
36,192,29875,1,0,0:0:0:0:
109,192,29875,1,0,0:0:0:0:
402,192,30000,128,0,30250:0:0:0:0:
329,192,30000,1,0,0:0:0:0:
256,192,30000,1,0,0:0:0:0:
475,192,30000,1,0,0:0:0:0:
329,192,30250,128,0,30500:0:0:0:0:
36,192,30250,1,0,0:0:0:0:
182,192,30250,1,0,0:0:0:0:
475,192,30250,1,0,0:0:0:0:
182,192,30500,128,0,32500:0:0:0:0:
109,192,30500,1,0,0:0:0:0:
256,192,30500,1,0,0:0:0:0:
402,192,30500,1,0,0:0:0:0:
36,192,30625,1,0,0:0:0:0:
329,192,30625,1,0,0:0:0:0:
109,192,30750,1,0,0:0:0:0:
256,192,30750,1,0,0:0:0:0:
475,192,30750,1,0,0:0:0:0:
402,192,30875,1,0,0:0:0:0:
256,192,31000,1,0,0:0:0:0:
36,192,31000,1,0,0:0:0:0:
329,192,31125,1,0,0:0:0:0:
475,192,31125,1,0,0:0:0:0:
402,192,31250,1,0,0:0:0:0:
109,192,31250,1,0,0:0:0:0:
36,192,31250,1,0,0:0:0:0:
256,192,31375,1,0,0:0:0:0:
329,192,31375,1,0,0:0:0:0:
36,192,31500,1,0,0:0:0:0:
402,192,31500,1,0,0:0:0:0:
109,192,31750,1,0,0:0:0:0:
329,192,31750,1,0,0:0:0:0:
475,192,31750,1,0,0:0:0:0:
256,192,31875,1,0,0:0:0:0:
402,192,32000,1,0,0:0:0:0:
475,192,32000,1,0,0:0:0:0:
109,192,32125,1,0,0:0:0:0:
36,192,32125,1,0,0:0:0:0:
402,192,32250,1,0,0:0:0:0:
475,192,32250,1,0,0:0:0:0:
109,192,32375,1,0,0:0:0:0:
36,192,32375,1,0,0:0:0:0:
402,192,32500,128,0,33500:0:0:0:0:
475,192,32500,1,0,0:0:0:0:
256,192,32500,1,0,0:0:0:0:
329,192,32500,1,0,0:0:0:0:
36,192,32750,1,0,0:0:0:0:
182,192,32750,1,0,0:0:0:0:
329,192,32750,1,0,0:0:0:0:
109,192,32875,1,0,0:0:0:0:
475,192,32875,1,0,0:0:0:0:
182,192,33000,1,0,0:0:0:0:
256,192,33000,1,0,0:0:0:0:
36,192,33000,1,0,0:0:0:0:
182,192,33250,1,0,0:0:0:0:
329,192,33250,1,0,0:0:0:0:
475,192,33250,1,0,0:0:0:0:
109,192,33500,128,0,34000:0:0:0:0:
36,192,33500,1,0,0:0:0:0:
256,192,33500,1,0,0:0:0:0:
475,192,33500,1,0,0:0:0:0:
182,192,33750,1,0,0:0:0:0:
256,192,33750,1,0,0:0:0:0:
402,192,33750,1,0,0:0:0:0:
329,192,33875,1,0,0:0:0:0:
36,192,33875,1,0,0:0:0:0:
475,192,34000,128,0,34500:0:0:0:0:
182,192,34000,1,0,0:0:0:0:
402,192,34000,1,0,0:0:0:0:
36,192,34250,1,0,0:0:0:0:
109,192,34250,1,0,0:0:0:0:
402,192,34250,1,0,0:0:0:0:
182,192,34500,128,0,34875:0:0:0:0:
256,192,34500,1,0,0:0:0:0:
329,192,34500,1,0,0:0:0:0:
402,192,34500,1,0,0:0:0:0:
36,192,34750,1,0,0:0:0:0:
109,192,34750,1,0,0:0:0:0:
256,192,34750,1,0,0:0:0:0:
402,192,34875,128,0,35250:0:0:0:0:
329,192,34875,1,0,0:0:0:0:
475,192,34875,1,0,0:0:0:0:
36,192,35000,1,0,0:0:0:0:
182,192,35000,1,0,0:0:0:0:
256,192,35000,1,0,0:0:0:0:
329,192,35250,128,0,35500:0:0:0:0:
109,192,35250,1,0,0:0:0:0:
475,192,35250,1,0,0:0:0:0:
182,192,35250,1,0,0:0:0:0:
182,192,35500,128,0,35875:0:0:0:0:
36,192,35500,1,0,0:0:0:0:
402,192,35500,1,0,0:0:0:0:
475,192,35500,1,0,0:0:0:0:
109,192,35750,1,0,0:0:0:0:
256,192,35750,1,0,0:0:0:0:
329,192,35750,1,0,0:0:0:0:
36,192,35875,128,0,36250:0:0:0:0:
402,192,35875,1,0,0:0:0:0:
475,192,35875,1,0,0:0:0:0:
109,192,36000,1,0,0:0:0:0:
182,192,36000,1,0,0:0:0:0:
329,192,36000,1,0,0:0:0:0:
402,192,36250,128,0,36500:0:0:0:0:
109,192,36250,1,0,0:0:0:0:
256,192,36250,1,0,0:0:0:0:
475,192,36250,1,0,0:0:0:0:
182,192,36375,1,0,0:0:0:0:
329,192,36500,128,0,36625:0:0:0:0:
109,192,36500,1,0,0:0:0:0:
36,192,36500,1,0,0:0:0:0:
256,192,36500,1,0,0:0:0:0:
402,192,36625,128,0,36750:0:0:0:0:
475,192,36750,128,0,36875:0:0:0:0:
109,192,36750,1,0,0:0:0:0:
182,192,36750,1,0,0:0:0:0:
329,192,36750,1,0,0:0:0:0:
402,192,36875,128,0,37750:0:0:0:0:
36,192,36875,1,0,0:0:0:0:
256,192,36875,1,0,0:0:0:0:
109,192,37000,1,0,0:0:0:0:
329,192,37000,1,0,0:0:0:0:
475,192,37000,1,0,0:0:0:0:
182,192,37250,1,0,0:0:0:0:
256,192,37250,1,0,0:0:0:0:
36,192,37250,1,0,0:0:0:0:
182,192,37500,1,0,0:0:0:0:
109,192,37500,1,0,0:0:0:0:
475,192,37500,1,0,0:0:0:0:
109,192,37750,128,0,38000:0:0:0:0:
36,192,37750,1,0,0:0:0:0:
329,192,37750,1,0,0:0:0:0:
256,192,37750,1,0,0:0:0:0:
475,192,37875,1,0,0:0:0:0:
182,192,37875,1,0,0:0:0:0:
256,192,38000,128,0,38250:0:0:0:0:
36,192,38000,1,0,0:0:0:0:
329,192,38000,1,0,0:0:0:0:
402,192,38000,1,0,0:0:0:0:
182,192,38250,128,0,38500:0:0:0:0:
329,192,38250,1,0,0:0:0:0:
402,192,38250,1,0,0:0:0:0:
109,192,38250,1,0,0:0:0:0:
36,192,38500,128,0,40250:0:0:0:0:
109,192,38500,1,0,0:0:0:0:
256,192,38500,1,0,0:0:0:0:
475,192,38500,1,0,0:0:0:0:
402,192,38625,1,0,0:0:0:0:
329,192,38625,1,0,0:0:0:0:
109,192,38750,1,0,0:0:0:0:
256,192,38750,1,0,0:0:0:0:
182,192,38750,1,0,0:0:0:0:
182,192,39000,1,0,0:0:0:0:
402,192,39000,1,0,0:0:0:0:
475,192,39000,1,0,0:0:0:0:
256,192,39250,1,0,0:0:0:0:
329,192,39250,1,0,0:0:0:0:
109,192,39250,1,0,0:0:0:0:
475,192,39375,1,0,0:0:0:0:
402,192,39375,1,0,0:0:0:0:
329,192,39500,1,0,0:0:0:0:
256,192,39500,1,0,0:0:0:0:
109,192,39625,1,0,0:0:0:0:
402,192,39625,1,0,0:0:0:0:
182,192,39750,1,0,0:0:0:0:
329,192,39750,1,0,0:0:0:0:
475,192,39750,1,0,0:0:0:0:
109,192,39875,1,0,0:0:0:0:
256,192,39875,1,0,0:0:0:0:
182,192,40000,1,0,0:0:0:0:
329,192,40000,1,0,0:0:0:0:
256,192,40125,1,0,0:0:0:0:
475,192,40125,1,0,0:0:0:0:
182,192,40250,1,0,0:0:0:0:
402,192,40250,1,0,0:0:0:0:
109,192,40375,1,0,0:0:0:0:
329,192,40375,1,0,0:0:0:0:
36,192,40500,1,0,0:0:0:0:
182,192,40500,1,0,0:0:0:0:
256,192,40500,1,0,0:0:0:0:
402,192,40500,1,0,0:0:0:0:
475,192,40500,1,0,0:0:0:0:
36,192,40750,1,0,0:0:0:0:
182,192,40750,1,0,0:0:0:0:
329,192,40750,1,0,0:0:0:0:
475,192,40875,128,0,40937:0:0:0:0:
109,192,40875,1,0,0:0:0:0:
402,192,40937,128,0,41000:0:0:0:0:
182,192,41000,128,0,42000:0:0:0:0:
36,192,41000,1,0,0:0:0:0:
256,192,41000,1,0,0:0:0:0:
329,192,41000,1,0,0:0:0:0:
109,192,41250,1,0,0:0:0:0:
402,192,41250,1,0,0:0:0:0:
475,192,41250,1,0,0:0:0:0:
36,192,41500,1,0,0:0:0:0:
329,192,41500,1,0,0:0:0:0:
475,192,41500,1,0,0:0:0:0:
402,192,41625,1,0,0:0:0:0:
109,192,41750,1,0,0:0:0:0:
256,192,41750,1,0,0:0:0:0:
475,192,41750,1,0,0:0:0:0:
329,192,41875,1,0,0:0:0:0:
256,192,42000,128,0,42250:0:0:0:0:
36,192,42000,1,0,0:0:0:0:
402,192,42000,1,0,0:0:0:0:
475,192,42000,1,0,0:0:0:0:
109,192,42125,1,0,0:0:0:0:
329,192,42250,128,0,42500:0:0:0:0:
182,192,42250,1,0,0:0:0:0:
36,192,42250,1,0,0:0:0:0:
402,192,42250,1,0,0:0:0:0:
475,192,42500,128,0,42750:0:0:0:0:
109,192,42500,1,0,0:0:0:0:
182,192,42500,1,0,0:0:0:0:
256,192,42500,1,0,0:0:0:0:
256,192,42750,1,0,0:0:0:0:
329,192,42750,1,0,0:0:0:0:
36,192,42750,1,0,0:0:0:0:
402,192,42875,128,0,43250:0:0:0:0:
36,192,42875,1,0,0:0:0:0:
109,192,42875,1,0,0:0:0:0:
182,192,42875,1,0,0:0:0:0:
256,192,43000,1,0,0:0:0:0:
329,192,43000,1,0,0:0:0:0:
475,192,43000,1,0,0:0:0:0:
36,192,43125,1,0,0:0:0:0:
329,192,43250,128,0,43500:0:0:0:0:
109,192,43250,1,0,0:0:0:0:
182,192,43250,1,0,0:0:0:0:
256,192,43250,1,0,0:0:0:0:
182,192,43500,128,0,44000:0:0:0:0:
256,192,43500,1,0,0:0:0:0:
402,192,43500,1,0,0:0:0:0:
475,192,43500,1,0,0:0:0:0:
36,192,43750,1,0,0:0:0:0:
109,192,43750,1,0,0:0:0:0:
329,192,43750,1,0,0:0:0:0:
256,192,43875,1,0,0:0:0:0:
475,192,43875,1,0,0:0:0:0:
109,192,44000,1,0,0:0:0:0:
329,192,44000,1,0,0:0:0:0:
402,192,44000,1,0,0:0:0:0:
475,192,44250,128,0,44500:0:0:0:0:
36,192,44250,1,0,0:0:0:0:
182,192,44250,1,0,0:0:0:0:
329,192,44250,1,0,0:0:0:0:
402,192,44500,128,0,44875:0:0:0:0:
36,192,44500,1,0,0:0:0:0:
182,192,44500,1,0,0:0:0:0:
256,192,44500,1,0,0:0:0:0:
109,192,44750,1,0,0:0:0:0:
475,192,44750,1,0,0:0:0:0:
36,192,44750,1,0,0:0:0:0:
329,192,44875,128,0,45000:0:0:0:0:
182,192,44875,1,0,0:0:0:0:
256,192,45000,128,0,45125:0:0:0:0:
36,192,45000,1,0,0:0:0:0:
475,192,45000,1,0,0:0:0:0:
109,192,45000,1,0,0:0:0:0:
182,192,45125,128,0,45250:0:0:0:0:
402,192,45125,1,0,0:0:0:0:
109,192,45250,128,0,45375:0:0:0:0:
256,192,45250,1,0,0:0:0:0:
329,192,45250,1,0,0:0:0:0:
475,192,45250,1,0,0:0:0:0:
36,192,45375,128,0,45500:0:0:0:0:
475,192,45500,128,0,45625:0:0:0:0:
109,192,45500,1,0,0:0:0:0:
182,192,45500,1,0,0:0:0:0:
256,192,45500,1,0,0:0:0:0:
329,192,45625,128,0,45750:0:0:0:0:
182,192,45750,128,0,45875:0:0:0:0:
36,192,45750,1,0,0:0:0:0:
109,192,45750,1,0,0:0:0:0:
475,192,45750,1,0,0:0:0:0:
329,192,45875,128,0,46000:0:0:0:0:
402,192,45875,1,0,0:0:0:0:
256,192,46000,128,0,46125:0:0:0:0:
36,192,46000,1,0,0:0:0:0:
109,192,46000,1,0,0:0:0:0:
182,192,46000,1,0,0:0:0:0:
329,192,46125,128,0,46250:0:0:0:0:
475,192,46125,1,0,0:0:0:0:
402,192,46250,128,0,46375:0:0:0:0:
36,192,46250,1,0,0:0:0:0:
109,192,46250,1,0,0:0:0:0:
256,192,46250,1,0,0:0:0:0:
182,192,46375,128,0,46500:0:0:0:0:
329,192,46375,1,0,0:0:0:0:
475,192,46375,1,0,0:0:0:0:
256,192,46500,128,0,47000:0:0:0:0:
36,192,46500,1,0,0:0:0:0:
109,192,46500,1,0,0:0:0:0:
402,192,46500,1,0,0:0:0:0:
109,192,46750,1,0,0:0:0:0:
402,192,46750,1,0,0:0:0:0:
182,192,46750,1,0,0:0:0:0:
329,192,46875,1,0,0:0:0:0:
475,192,46875,1,0,0:0:0:0:
182,192,47000,128,0,47125:0:0:0:0:
36,192,47000,1,0,0:0:0:0:
402,192,47000,1,0,0:0:0:0:
109,192,47000,1,0,0:0:0:0:
329,192,47125,128,0,47250:0:0:0:0:
182,192,47250,128,0,47500:0:0:0:0:
109,192,47250,1,0,0:0:0:0:
256,192,47250,1,0,0:0:0:0:
402,192,47250,1,0,0:0:0:0:
109,192,47500,128,0,47625:0:0:0:0:
36,192,47500,1,0,0:0:0:0:
329,192,47500,1,0,0:0:0:0:
475,192,47500,1,0,0:0:0:0:
256,192,47625,128,0,47750:0:0:0:0:
182,192,47750,128,0,47875:0:0:0:0:
475,192,47750,1,0,0:0:0:0:
402,192,47750,1,0,0:0:0:0:
36,192,47750,1,0,0:0:0:0:
109,192,47875,128,0,48500:0:0:0:0:
329,192,47875,1,0,0:0:0:0:
182,192,48000,1,0,0:0:0:0:
256,192,48000,1,0,0:0:0:0:
329,192,48125,1,0,0:0:0:0:
402,192,48125,1,0,0:0:0:0:
256,192,48250,1,0,0:0:0:0:
182,192,48250,1,0,0:0:0:0:
329,192,48375,1,0,0:0:0:0:
402,192,48375,1,0,0:0:0:0:
475,192,48500,128,0,49000:0:0:0:0:
36,192,48500,1,0,0:0:0:0:
182,192,48500,1,0,0:0:0:0:
256,192,48500,1,0,0:0:0:0:
109,192,48750,1,0,0:0:0:0:
182,192,48750,1,0,0:0:0:0:
329,192,48750,1,0,0:0:0:0:
402,192,49000,128,0,49500:0:0:0:0:
36,192,49000,1,0,0:0:0:0:
329,192,49000,1,0,0:0:0:0:
109,192,49000,1,0,0:0:0:0:
182,192,49250,1,0,0:0:0:0:
256,192,49250,1,0,0:0:0:0:
475,192,49250,1,0,0:0:0:0:
329,192,49500,128,0,50000:0:0:0:0:
36,192,49500,1,0,0:0:0:0:
109,192,49500,1,0,0:0:0:0:
256,192,49500,1,0,0:0:0:0:
182,192,49750,1,0,0:0:0:0:
402,192,49750,1,0,0:0:0:0:
475,192,49750,1,0,0:0:0:0:
256,192,50000,128,0,50500:0:0:0:0:
36,192,50000,1,0,0:0:0:0:
109,192,50000,1,0,0:0:0:0:
402,192,50000,1,0,0:0:0:0:
182,192,50250,1,0,0:0:0:0:
329,192,50250,1,0,0:0:0:0:
475,192,50250,1,0,0:0:0:0:
109,192,50500,128,0,50750:0:0:0:0:
36,192,50500,1,0,0:0:0:0:
182,192,50500,1,0,0:0:0:0:
402,192,50500,1,0,0:0:0:0:
182,192,50750,1,0,0:0:0:0:
256,192,50750,1,0,0:0:0:0:
329,192,50750,1,0,0:0:0:0:
109,192,50875,128,0,51250:0:0:0:0:
475,192,50875,1,0,0:0:0:0:
402,192,50875,1,0,0:0:0:0:
182,192,51000,1,0,0:0:0:0:
329,192,51000,1,0,0:0:0:0:
36,192,51000,1,0,0:0:0:0:
256,192,51125,1,0,0:0:0:0:
402,192,51125,1,0,0:0:0:0:
36,192,51250,128,0,51500:0:0:0:0:
475,192,51250,1,0,0:0:0:0:
329,192,51250,1,0,0:0:0:0:
182,192,51250,1,0,0:0:0:0:
329,192,51500,128,0,51750:0:0:0:0:
109,192,51500,1,0,0:0:0:0:
182,192,51500,1,0,0:0:0:0:
402,192,51500,1,0,0:0:0:0:
36,192,51750,1,0,0:0:0:0:
182,192,51750,1,0,0:0:0:0:
402,192,51750,1,0,0:0:0:0:
109,192,51875,1,0,0:0:0:0:
256,192,51875,1,0,0:0:0:0:
182,192,52000,128,0,52250:0:0:0:0:
475,192,52000,1,0,0:0:0:0:
329,192,52000,1,0,0:0:0:0:
36,192,52000,1,0,0:0:0:0:
109,192,52250,128,0,52500:0:0:0:0:
256,192,52250,1,0,0:0:0:0:
329,192,52250,1,0,0:0:0:0:
402,192,52250,1,0,0:0:0:0:
36,192,52500,128,0,54500:0:0:0:0:
256,192,52500,1,0,0:0:0:0:
475,192,52500,1,0,0:0:0:0:
402,192,52500,1,0,0:0:0:0:
109,192,52750,1,0,0:0:0:0:
182,192,52750,1,0,0:0:0:0:
402,192,52750,1,0,0:0:0:0:
256,192,52875,1,0,0:0:0:0:
329,192,52875,1,0,0:0:0:0:
109,192,53000,1,0,0:0:0:0:
182,192,53000,1,0,0:0:0:0:
475,192,53000,1,0,0:0:0:0:
256,192,53250,1,0,0:0:0:0:
182,192,53250,1,0,0:0:0:0:
402,192,53250,1,0,0:0:0:0:
109,192,53500,1,0,0:0:0:0:
182,192,53500,1,0,0:0:0:0:
329,192,53500,1,0,0:0:0:0:
256,192,53750,1,0,0:0:0:0:
329,192,53750,1,0,0:0:0:0:
475,192,53750,1,0,0:0:0:0:
109,192,54000,1,0,0:0:0:0:
182,192,54000,1,0,0:0:0:0:
329,192,54000,1,0,0:0:0:0:
256,192,54125,1,0,0:0:0:0:
475,192,54125,1,0,0:0:0:0:
402,192,54250,1,0,0:0:0:0:
329,192,54250,1,0,0:0:0:0:
109,192,54250,1,0,0:0:0:0:
256,192,54500,128,0,56500:0:0:0:0:
109,192,54500,1,0,0:0:0:0:
182,192,54500,1,0,0:0:0:0:
329,192,54500,1,0,0:0:0:0:
475,192,54500,1,0,0:0:0:0:
402,192,54625,1,0,0:0:0:0:
36,192,54625,1,0,0:0:0:0:
182,192,54625,1,0,0:0:0:0:
109,192,54750,1,0,0:0:0:0:
329,192,54750,1,0,0:0:0:0:
402,192,54750,1,0,0:0:0:0:
475,192,54750,1,0,0:0:0:0:
182,192,54875,1,0,0:0:0:0:
329,192,54875,1,0,0:0:0:0:
36,192,55000,1,0,0:0:0:0:
402,192,55000,1,0,0:0:0:0:
109,192,55125,1,0,0:0:0:0:
329,192,55125,1,0,0:0:0:0:
475,192,55125,1,0,0:0:0:0:
402,192,55250,1,0,0:0:0:0:
182,192,55250,1,0,0:0:0:0:
36,192,55250,1,0,0:0:0:0:
109,192,55375,1,0,0:0:0:0:
329,192,55375,1,0,0:0:0:0:
182,192,55500,1,0,0:0:0:0:
402,192,55500,1,0,0:0:0:0:
475,192,55625,1,0,0:0:0:0:
329,192,55625,1,0,0:0:0:0:
402,192,55750,1,0,0:0:0:0:
182,192,55750,1,0,0:0:0:0:
36,192,55750,1,0,0:0:0:0:
109,192,55750,1,0,0:0:0:0:
329,192,55875,1,0,0:0:0:0:
475,192,55875,1,0,0:0:0:0:
182,192,56000,1,0,0:0:0:0:
36,192,56000,1,0,0:0:0:0:
109,192,56000,1,0,0:0:0:0:
329,192,56125,1,0,0:0:0:0:
402,192,56125,1,0,0:0:0:0:
36,192,56250,1,0,0:0:0:0:
109,192,56250,1,0,0:0:0:0:
475,192,56250,1,0,0:0:0:0:
402,192,56375,1,0,0:0:0:0:
182,192,56375,1,0,0:0:0:0:
329,192,56500,128,0,58250:0:0:0:0:
36,192,56500,128,0,58500:0:0:0:0:
109,192,56500,1,0,0:0:0:0:
475,192,56500,1,0,0:0:0:0:
182,192,56750,1,0,0:0:0:0:
256,192,56750,1,0,0:0:0:0:
402,192,56750,1,0,0:0:0:0:
109,192,57000,1,0,0:0:0:0:
256,192,57000,1,0,0:0:0:0:
475,192,57000,1,0,0:0:0:0:
402,192,57125,1,0,0:0:0:0:
182,192,57250,1,0,0:0:0:0:
256,192,57250,1,0,0:0:0:0:
475,192,57250,1,0,0:0:0:0:
109,192,57500,1,0,0:0:0:0:
182,192,57500,1,0,0:0:0:0:
402,192,57500,1,0,0:0:0:0:
256,192,57750,1,0,0:0:0:0:
402,192,57750,1,0,0:0:0:0:
475,192,57750,1,0,0:0:0:0:
109,192,57875,1,0,0:0:0:0:
182,192,58000,1,0,0:0:0:0:
256,192,58000,1,0,0:0:0:0:
475,192,58000,1,0,0:0:0:0:
402,192,58250,128,0,58500:0:0:0:0:
109,192,58250,1,0,0:0:0:0:
182,192,58250,1,0,0:0:0:0:
475,192,58250,1,0,0:0:0:0:
256,192,58375,1,0,0:0:0:0:
475,192,58500,128,0,59500:0:0:0:0:
329,192,58500,128,0,60500:0:0:0:0:
109,192,58500,1,0,0:0:0:0:
182,192,58500,1,0,0:0:0:0:
256,192,58500,1,0,0:0:0:0:
36,192,58750,1,0,0:0:0:0:
109,192,58750,1,0,0:0:0:0:
402,192,58750,1,0,0:0:0:0:
36,192,59000,1,0,0:0:0:0:
182,192,59000,1,0,0:0:0:0:
256,192,59000,1,0,0:0:0:0:
402,192,59125,1,0,0:0:0:0:
109,192,59250,1,0,0:0:0:0:
182,192,59250,1,0,0:0:0:0:
256,192,59250,1,0,0:0:0:0:
182,192,59500,128,0,59750:0:0:0:0:
36,192,59500,1,0,0:0:0:0:
109,192,59500,1,0,0:0:0:0:
402,192,59500,1,0,0:0:0:0:
402,192,59750,128,0,60000:0:0:0:0:
109,192,59750,1,0,0:0:0:0:
256,192,59750,1,0,0:0:0:0:
475,192,59750,1,0,0:0:0:0:
36,192,59875,1,0,0:0:0:0:
256,192,60000,128,0,60250:0:0:0:0:
109,192,60000,1,0,0:0:0:0:
182,192,60000,1,0,0:0:0:0:
402,192,60125,1,0,0:0:0:0:
182,192,60250,128,0,60375:0:0:0:0:
36,192,60250,1,0,0:0:0:0:
475,192,60250,1,0,0:0:0:0:
402,192,60250,1,0,0:0:0:0:
109,192,60375,128,0,60500:0:0:0:0:
36,192,60500,128,0,61000:0:0:0:0:
256,192,60500,128,0,62500:0:0:0:0:
182,192,60500,1,0,0:0:0:0:
402,192,60500,1,0,0:0:0:0:
475,192,60500,1,0,0:0:0:0:
109,192,60750,1,0,0:0:0:0:
182,192,60750,1,0,0:0:0:0:
329,192,60750,1,0,0:0:0:0:
109,192,61000,128,0,61500:0:0:0:0:
475,192,61000,1,0,0:0:0:0:
329,192,61000,1,0,0:0:0:0:
402,192,61125,1,0,0:0:0:0:
182,192,61250,1,0,0:0:0:0:
36,192,61250,1,0,0:0:0:0:
475,192,61250,1,0,0:0:0:0:
182,192,61500,128,0,62000:0:0:0:0:
329,192,61500,1,0,0:0:0:0:
36,192,61500,1,0,0:0:0:0:
402,192,61500,1,0,0:0:0:0:
475,192,61750,1,0,0:0:0:0:
402,192,61750,1,0,0:0:0:0:
36,192,61750,1,0,0:0:0:0:
109,192,61875,1,0,0:0:0:0:
36,192,62000,128,0,62250:0:0:0:0:
329,192,62000,1,0,0:0:0:0:
475,192,62000,1,0,0:0:0:0:
402,192,62000,1,0,0:0:0:0:
329,192,62250,128,0,62500:0:0:0:0:
109,192,62250,1,0,0:0:0:0:
182,192,62250,1,0,0:0:0:0:
402,192,62250,1,0,0:0:0:0:
182,192,62500,128,0,63250:0:0:0:0:
109,192,62500,128,0,64500:0:0:0:0:
36,192,62500,1,0,0:0:0:0:
402,192,62500,1,0,0:0:0:0:
475,192,62500,1,0,0:0:0:0:
256,192,62750,1,0,0:0:0:0:
329,192,62750,1,0,0:0:0:0:
475,192,62750,1,0,0:0:0:0:
36,192,63000,1,0,0:0:0:0:
402,192,63000,1,0,0:0:0:0:
329,192,63000,1,0,0:0:0:0:
475,192,63125,1,0,0:0:0:0:
36,192,63250,128,0,63375:0:0:0:0:
402,192,63250,1,0,0:0:0:0:
256,192,63250,1,0,0:0:0:0:
329,192,63250,1,0,0:0:0:0:
182,192,63375,128,0,63500:0:0:0:0:
36,192,63500,128,0,63750:0:0:0:0:
256,192,63500,1,0,0:0:0:0:
402,192,63500,1,0,0:0:0:0:
475,192,63500,1,0,0:0:0:0:
402,192,63750,128,0,63812:0:0:0:0:
182,192,63750,1,0,0:0:0:0:
256,192,63750,1,0,0:0:0:0:
475,192,63750,1,0,0:0:0:0:
329,192,63812,128,0,63875:0:0:0:0:
402,192,63875,128,0,64000:0:0:0:0:
329,192,64000,128,0,64125:0:0:0:0:
36,192,64000,1,0,0:0:0:0:
182,192,64000,1,0,0:0:0:0:
256,192,64125,128,0,64250:0:0:0:0:
402,192,64125,1,0,0:0:0:0:
475,192,64125,1,0,0:0:0:0:
182,192,64250,128,0,64375:0:0:0:0:
329,192,64250,1,0,0:0:0:0:
36,192,64250,1,0,0:0:0:0:
256,192,64375,128,0,64500:0:0:0:0:
402,192,64375,1,0,0:0:0:0:
475,192,64375,1,0,0:0:0:0:
182,192,64500,128,0,64625:0:0:0:0:
36,192,64500,128,0,66500:0:0:0:0:
329,192,64500,1,0,0:0:0:0:
402,192,64625,128,0,64875:0:0:0:0:
182,192,64750,1,0,0:0:0:0:
256,192,64750,1,0,0:0:0:0:
329,192,64750,1,0,0:0:0:0:
109,192,64875,128,0,65000:0:0:0:0:
402,192,65000,128,0,65250:0:0:0:0:
475,192,65000,1,0,0:0:0:0:
329,192,65000,1,0,0:0:0:0:
256,192,65000,1,0,0:0:0:0:
182,192,65125,1,0,0:0:0:0:
256,192,65250,128,0,65375:0:0:0:0:
182,192,65250,1,0,0:0:0:0:
329,192,65250,1,0,0:0:0:0:
109,192,65250,1,0,0:0:0:0:
475,192,65375,128,0,65500:0:0:0:0:
109,192,65500,1,0,0:0:0:0:
182,192,65500,1,0,0:0:0:0:
402,192,65500,1,0,0:0:0:0:
329,192,65562,128,0,65750:0:0:0:0:
256,192,65750,128,0,66000:0:0:0:0:
475,192,65750,1,0,0:0:0:0:
402,192,65750,1,0,0:0:0:0:
182,192,65750,1,0,0:0:0:0:
329,192,65875,1,0,0:0:0:0:
182,192,66000,128,0,66125:0:0:0:0:
475,192,66000,1,0,0:0:0:0:
109,192,66000,1,0,0:0:0:0:
402,192,66000,1,0,0:0:0:0:
329,192,66125,128,0,66250:0:0:0:0:
256,192,66125,1,0,0:0:0:0:
182,192,66250,128,0,66500:0:0:0:0:
109,192,66250,1,0,0:0:0:0:
402,192,66250,1,0,0:0:0:0:
475,192,66250,1,0,0:0:0:0:
256,192,66500,128,0,66625:0:0:0:0:
402,192,66500,128,0,68500:0:0:0:0:
109,192,66500,1,0,0:0:0:0:
329,192,66500,1,0,0:0:0:0:
475,192,66500,1,0,0:0:0:0:
182,192,66625,128,0,66750:0:0:0:0:
36,192,66750,128,0,66875:0:0:0:0:
109,192,66750,1,0,0:0:0:0:
256,192,66750,1,0,0:0:0:0:
329,192,66750,1,0,0:0:0:0:
182,192,66875,128,0,67000:0:0:0:0:
109,192,67000,128,0,67125:0:0:0:0:
329,192,67000,1,0,0:0:0:0:
36,192,67000,1,0,0:0:0:0:
475,192,67000,1,0,0:0:0:0:
256,192,67125,128,0,67250:0:0:0:0:
182,192,67125,1,0,0:0:0:0:
36,192,67250,128,0,67375:0:0:0:0:
329,192,67250,1,0,0:0:0:0:
475,192,67250,1,0,0:0:0:0:
109,192,67250,1,0,0:0:0:0:
182,192,67375,128,0,67500:0:0:0:0:
36,192,67500,128,0,67625:0:0:0:0:
256,192,67500,1,0,0:0:0:0:
329,192,67500,1,0,0:0:0:0:
475,192,67500,1,0,0:0:0:0:
109,192,67625,128,0,67750:0:0:0:0:
182,192,67750,128,0,67875:0:0:0:0:
36,192,67750,1,0,0:0:0:0:
329,192,67750,1,0,0:0:0:0:
475,192,67750,1,0,0:0:0:0:
256,192,67875,128,0,68000:0:0:0:0:
109,192,67875,1,0,0:0:0:0:
182,192,68000,128,0,68125:0:0:0:0:
329,192,68000,1,0,0:0:0:0:
475,192,68000,1,0,0:0:0:0:
36,192,68000,1,0,0:0:0:0:
109,192,68125,128,0,68250:0:0:0:0:
256,192,68125,1,0,0:0:0:0:
36,192,68250,128,0,68375:0:0:0:0:
182,192,68250,1,0,0:0:0:0:
329,192,68250,1,0,0:0:0:0:
475,192,68250,1,0,0:0:0:0:
36,192,68500,128,0,68750:0:0:0:0:
109,192,68500,1,0,0:0:0:0:
182,192,68500,1,0,0:0:0:0:
256,192,68500,1,0,0:0:0:0:
475,192,68500,128,0,70500:0:0:0:0:
256,192,68750,1,0,0:0:0:0:
402,192,68750,1,0,0:0:0:0:
329,192,68750,1,0,0:0:0:0:
109,192,68750,128,0,68875:0:0:0:0:
182,192,68875,128,0,69000:0:0:0:0:
256,192,69000,128,0,69125:0:0:0:0:
36,192,69000,1,0,0:0:0:0:
329,192,69000,1,0,0:0:0:0:
182,192,69125,128,0,69250:0:0:0:0:
402,192,69125,1,0,0:0:0:0:
109,192,69250,128,0,69375:0:0:0:0:
256,192,69250,1,0,0:0:0:0:
36,192,69250,1,0,0:0:0:0:
329,192,69250,1,0,0:0:0:0:
182,192,69375,128,0,69500:0:0:0:0:
256,192,69500,128,0,69625:0:0:0:0:
109,192,69500,1,0,0:0:0:0:
402,192,69500,1,0,0:0:0:0:
36,192,69500,1,0,0:0:0:0:
329,192,69625,128,0,69750:0:0:0:0:
256,192,69750,128,0,69875:0:0:0:0:
36,192,69750,1,0,0:0:0:0:
182,192,69750,1,0,0:0:0:0:
329,192,69875,128,0,70000:0:0:0:0:
109,192,69875,1,0,0:0:0:0:
402,192,70000,128,0,70125:0:0:0:0:
36,192,70000,1,0,0:0:0:0:
256,192,70000,1,0,0:0:0:0:
329,192,70125,128,0,70250:0:0:0:0:
256,192,70250,128,0,70375:0:0:0:0:
36,192,70250,1,0,0:0:0:0:
109,192,70250,1,0,0:0:0:0:
402,192,70250,1,0,0:0:0:0:
182,192,70375,128,0,70500:0:0:0:0:
36,192,70500,128,0,72500:0:0:0:0:
109,192,70500,1,0,0:0:0:0:
402,192,70500,1,0,0:0:0:0:
109,192,70750,128,0,70875:0:0:0:0:
329,192,70750,1,0,0:0:0:0:
256,192,70750,1,0,0:0:0:0:
475,192,70750,1,0,0:0:0:0:
182,192,70875,128,0,71000:0:0:0:0:
256,192,71000,128,0,71125:0:0:0:0:
329,192,71000,1,0,0:0:0:0:
109,192,71000,1,0,0:0:0:0:
402,192,71125,128,0,71250:0:0:0:0:
329,192,71250,128,0,71375:0:0:0:0:
109,192,71250,1,0,0:0:0:0:
182,192,71250,1,0,0:0:0:0:
475,192,71250,1,0,0:0:0:0:
256,192,71375,128,0,71500:0:0:0:0:
329,192,71500,128,0,71625:0:0:0:0:
402,192,71500,1,0,0:0:0:0:
256,192,71625,128,0,71750:0:0:0:0:
109,192,71625,1,0,0:0:0:0:
402,192,71625,1,0,0:0:0:0:
182,192,71750,128,0,71875:0:0:0:0:
475,192,71750,1,0,0:0:0:0:
329,192,71750,1,0,0:0:0:0:
109,192,71750,1,0,0:0:0:0:
256,192,71875,128,0,72000:0:0:0:0:
109,192,72000,128,0,72125:0:0:0:0:
329,192,72000,1,0,0:0:0:0:
402,192,72000,1,0,0:0:0:0:
475,192,72000,1,0,0:0:0:0:
182,192,72125,128,0,72250:0:0:0:0:
329,192,72125,1,0,0:0:0:0:
402,192,72125,1,0,0:0:0:0:
475,192,72125,1,0,0:0:0:0:
256,192,72250,128,0,72375:0:0:0:0:
475,192,72250,1,0,0:0:0:0:
402,192,72250,1,0,0:0:0:0:
329,192,72250,1,0,0:0:0:0:
182,192,72375,128,0,72500:0:0:0:0:
329,192,72375,1,0,0:0:0:0:
402,192,72375,1,0,0:0:0:0:
475,192,72375,1,0,0:0:0:0:
329,192,72500,1,0,0:0:0:0:
402,192,72500,1,0,0:0:0:0:
109,192,72500,1,0,0:0:0:0:
256,192,72625,128,0,72750:0:0:0:0:
36,192,72750,1,0,0:0:0:0:
182,192,72750,1,0,0:0:0:0:
475,192,72750,1,0,0:0:0:0:
256,192,73000,128,0,73125:0:0:0:0:
475,192,73000,1,0,0:0:0:0:
329,192,73000,1,0,0:0:0:0:
109,192,73000,1,0,0:0:0:0:
182,192,73125,128,0,73250:0:0:0:0:
109,192,73250,128,0,73375:0:0:0:0:
329,192,73250,1,0,0:0:0:0:
256,192,73250,1,0,0:0:0:0:
402,192,73250,1,0,0:0:0:0:
36,192,73375,128,0,73500:0:0:0:0:
329,192,73500,128,0,73625:0:0:0:0:
109,192,73500,1,0,0:0:0:0:
182,192,73500,1,0,0:0:0:0:
475,192,73500,1,0,0:0:0:0:
256,192,73625,128,0,73750:0:0:0:0:
182,192,73750,128,0,73875:0:0:0:0:
402,192,73750,1,0,0:0:0:0:
329,192,73750,1,0,0:0:0:0:
36,192,73750,1,0,0:0:0:0:
109,192,73875,128,0,74000:0:0:0:0:
475,192,73875,1,0,0:0:0:0:
402,192,74000,128,0,74125:0:0:0:0:
36,192,74000,1,0,0:0:0:0:
182,192,74000,1,0,0:0:0:0:
329,192,74125,128,0,74250:0:0:0:0:
256,192,74250,128,0,74375:0:0:0:0:
109,192,74250,1,0,0:0:0:0:
402,192,74250,1,0,0:0:0:0:
475,192,74250,1,0,0:0:0:0:
182,192,74375,128,0,74500:0:0:0:0:
402,192,74500,128,0,74625:0:0:0:0:
36,192,74500,1,0,0:0:0:0:
256,192,74500,1,0,0:0:0:0:
329,192,74500,1,0,0:0:0:0:
475,192,74750,128,0,74875:0:0:0:0:
109,192,74750,1,0,0:0:0:0:
182,192,74750,1,0,0:0:0:0:
329,192,74750,1,0,0:0:0:0:
256,192,75000,128,0,75125:0:0:0:0:
36,192,75000,1,0,0:0:0:0:
402,192,75000,1,0,0:0:0:0:
475,192,75000,1,0,0:0:0:0:
182,192,75125,128,0,75250:0:0:0:0:
109,192,75125,1,0,0:0:0:0:
329,192,75250,128,0,75375:0:0:0:0:
256,192,75250,1,0,0:0:0:0:
475,192,75250,1,0,0:0:0:0:
402,192,75250,1,0,0:0:0:0:
402,192,75500,128,0,75625:0:0:0:0:
36,192,75500,1,0,0:0:0:0:
109,192,75500,1,0,0:0:0:0:
182,192,75500,1,0,0:0:0:0:
329,192,75625,128,0,75687:0:0:0:0:
256,192,75687,128,0,75750:0:0:0:0:
402,192,75750,128,0,75875:0:0:0:0:
109,192,75750,1,0,0:0:0:0:
182,192,75750,1,0,0:0:0:0:
475,192,75750,1,0,0:0:0:0:
329,192,75875,128,0,76000:0:0:0:0:
256,192,76000,128,0,76125:0:0:0:0:
36,192,76000,1,0,0:0:0:0:
402,192,76000,1,0,0:0:0:0:
109,192,76000,1,0,0:0:0:0:
182,192,76125,128,0,76250:0:0:0:0:
109,192,76250,128,0,76375:0:0:0:0:
256,192,76250,1,0,0:0:0:0:
402,192,76250,1,0,0:0:0:0:
475,192,76250,1,0,0:0:0:0:
36,192,76375,128,0,76500:0:0:0:0:
182,192,76500,128,0,76625:0:0:0:0:
109,192,76500,1,0,0:0:0:0:
256,192,76500,1,0,0:0:0:0:
475,192,76500,1,0,0:0:0:0:
329,192,76625,128,0,76750:0:0:0:0:
256,192,76750,128,0,76875:0:0:0:0:
36,192,76750,1,0,0:0:0:0:
109,192,76750,1,0,0:0:0:0:
402,192,76750,1,0,0:0:0:0:
182,192,76875,128,0,77000:0:0:0:0:
402,192,77000,128,0,77125:0:0:0:0:
109,192,77000,1,0,0:0:0:0:
256,192,77000,1,0,0:0:0:0:
475,192,77000,1,0,0:0:0:0:
329,192,77125,128,0,77250:0:0:0:0:
36,192,77125,1,0,0:0:0:0:
256,192,77250,128,0,77375:0:0:0:0:
402,192,77250,1,0,0:0:0:0:
109,192,77250,1,0,0:0:0:0:
475,192,77250,1,0,0:0:0:0:
182,192,77375,128,0,77500:0:0:0:0:
109,192,77500,128,0,77625:0:0:0:0:
256,192,77500,1,0,0:0:0:0:
329,192,77500,1,0,0:0:0:0:
475,192,77500,1,0,0:0:0:0:
36,192,77625,128,0,77750:0:0:0:0:
109,192,77750,128,0,77875:0:0:0:0:
475,192,77750,1,0,0:0:0:0:
402,192,77750,1,0,0:0:0:0:
256,192,77750,1,0,0:0:0:0:
182,192,77875,128,0,78000:0:0:0:0:
36,192,77875,1,0,0:0:0:0:
109,192,78000,128,0,78125:0:0:0:0:
402,192,78000,1,0,0:0:0:0:
475,192,78000,1,0,0:0:0:0:
329,192,78000,1,0,0:0:0:0:
36,192,78125,128,0,78250:0:0:0:0:
182,192,78250,128,0,78375:0:0:0:0:
256,192,78250,1,0,0:0:0:0:
329,192,78250,1,0,0:0:0:0:
402,192,78250,1,0,0:0:0:0:
109,192,78375,128,0,78500:0:0:0:0:
475,192,78375,1,0,0:0:0:0:
329,192,78375,1,0,0:0:0:0:
36,192,78500,128,0,79125:0:0:0:0:
182,192,78500,1,0,0:0:0:0:
256,192,78500,1,0,0:0:0:0:
402,192,78500,1,0,0:0:0:0:
182,192,78750,1,0,0:0:0:0:
329,192,78750,1,0,0:0:0:0:
475,192,78750,1,0,0:0:0:0:
109,192,79000,1,0,0:0:0:0:
256,192,79000,1,0,0:0:0:0:
402,192,79000,1,0,0:0:0:0:
182,192,79125,128,0,79250:0:0:0:0:
329,192,79125,1,0,0:0:0:0:
109,192,79250,128,0,79500:0:0:0:0:
256,192,79250,1,0,0:0:0:0:
402,192,79250,1,0,0:0:0:0:
475,192,79250,1,0,0:0:0:0:
36,192,79500,128,0,80500:0:0:0:0:
182,192,79500,1,0,0:0:0:0:
329,192,79500,1,0,0:0:0:0:
256,192,79500,1,0,0:0:0:0:
109,192,79750,1,0,0:0:0:0:
329,192,79750,1,0,0:0:0:0:
475,192,79750,1,0,0:0:0:0:
109,192,80000,1,0,0:0:0:0:
182,192,80000,1,0,0:0:0:0:
402,192,80000,1,0,0:0:0:0:
475,192,80000,1,0,0:0:0:0:
256,192,80125,1,0,0:0:0:0:
329,192,80125,1,0,0:0:0:0:
182,192,80250,1,0,0:0:0:0:
109,192,80250,1,0,0:0:0:0:
402,192,80375,1,0,0:0:0:0:
475,192,80375,1,0,0:0:0:0:
109,192,80500,128,0,80750:0:0:0:0:
182,192,80500,1,0,0:0:0:0:
256,192,80500,1,0,0:0:0:0:
329,192,80500,1,0,0:0:0:0:
329,192,80750,1,0,0:0:0:0:
402,192,80750,1,0,0:0:0:0:
475,192,80750,1,0,0:0:0:0:
36,192,80875,128,0,81125:0:0:0:0:
109,192,81000,1,0,0:0:0:0:
329,192,81000,1,0,0:0:0:0:
182,192,81125,128,0,81250:0:0:0:0:
402,192,81125,1,0,0:0:0:0:
109,192,81250,128,0,81375:0:0:0:0:
256,192,81250,1,0,0:0:0:0:
329,192,81250,1,0,0:0:0:0:
475,192,81250,1,0,0:0:0:0:
36,192,81375,128,0,81500:0:0:0:0:
329,192,81500,128,0,81625:0:0:0:0:
109,192,81500,1,0,0:0:0:0:
182,192,81500,1,0,0:0:0:0:
475,192,81500,1,0,0:0:0:0:
256,192,81625,128,0,81750:0:0:0:0:
182,192,81750,128,0,81875:0:0:0:0:
402,192,81750,1,0,0:0:0:0:
329,192,81750,1,0,0:0:0:0:
36,192,81750,1,0,0:0:0:0:
109,192,81875,128,0,82000:0:0:0:0:
256,192,81875,1,0,0:0:0:0:
329,192,82000,128,0,82125:0:0:0:0:
36,192,82000,1,0,0:0:0:0:
475,192,82000,1,0,0:0:0:0:
256,192,82125,128,0,82250:0:0:0:0:
182,192,82250,128,0,82375:0:0:0:0:
329,192,82250,1,0,0:0:0:0:
402,192,82250,1,0,0:0:0:0:
36,192,82250,1,0,0:0:0:0:
109,192,82375,128,0,82500:0:0:0:0:
402,192,82500,128,0,82625:0:0:0:0:
182,192,82500,1,0,0:0:0:0:
256,192,82500,1,0,0:0:0:0:
475,192,82500,1,0,0:0:0:0:
329,192,82625,128,0,82750:0:0:0:0:
256,192,82750,128,0,82875:0:0:0:0:
36,192,82750,1,0,0:0:0:0:
109,192,82750,1,0,0:0:0:0:
475,192,82750,1,0,0:0:0:0:
182,192,82875,128,0,83000:0:0:0:0:
402,192,83000,128,0,83125:0:0:0:0:
109,192,83000,1,0,0:0:0:0:
256,192,83000,1,0,0:0:0:0:
329,192,83125,128,0,83250:0:0:0:0:
36,192,83125,1,0,0:0:0:0:
182,192,83250,128,0,83375:0:0:0:0:
475,192,83250,1,0,0:0:0:0:
402,192,83250,1,0,0:0:0:0:
109,192,83250,1,0,0:0:0:0:
256,192,83375,128,0,83500:0:0:0:0:
402,192,83500,128,0,83625:0:0:0:0:
36,192,83500,1,0,0:0:0:0:
329,192,83500,1,0,0:0:0:0:
475,192,83500,1,0,0:0:0:0:
182,192,83625,128,0,83750:0:0:0:0:
109,192,83750,1,0,0:0:0:0:
256,192,83750,1,0,0:0:0:0:
329,192,83750,1,0,0:0:0:0:
402,192,83875,128,0,84000:0:0:0:0:
182,192,83875,1,0,0:0:0:0:
329,192,84000,128,0,84125:0:0:0:0:
36,192,84000,1,0,0:0:0:0:
475,192,84000,1,0,0:0:0:0:
109,192,84000,1,0,0:0:0:0:
182,192,84125,128,0,84250:0:0:0:0:
256,192,84250,128,0,84375:0:0:0:0:
109,192,84250,1,0,0:0:0:0:
402,192,84250,1,0,0:0:0:0:
475,192,84250,1,0,0:0:0:0:
329,192,84375,128,0,84500:0:0:0:0:
402,192,84500,128,0,84625:0:0:0:0:
36,192,84500,1,0,0:0:0:0:
182,192,84500,1,0,0:0:0:0:
256,192,84500,1,0,0:0:0:0:
109,192,84625,128,0,84750:0:0:0:0:
256,192,84750,128,0,84875:0:0:0:0:
182,192,84750,1,0,0:0:0:0:
36,192,84750,1,0,0:0:0:0:
475,192,84750,1,0,0:0:0:0:
329,192,84875,128,0,85000:0:0:0:0:
402,192,85000,128,0,85125:0:0:0:0:
109,192,85000,1,0,0:0:0:0:
182,192,85000,1,0,0:0:0:0:
329,192,85125,128,0,85250:0:0:0:0:
36,192,85125,1,0,0:0:0:0:
256,192,85125,1,0,0:0:0:0:
475,192,85250,128,0,85750:0:0:0:0:
109,192,85250,1,0,0:0:0:0:
182,192,85250,1,0,0:0:0:0:
402,192,85250,1,0,0:0:0:0:
109,192,85500,1,0,0:0:0:0:
329,192,85500,1,0,0:0:0:0:
402,192,85500,1,0,0:0:0:0:
256,192,85750,128,0,86000:0:0:0:0:
36,192,85750,1,0,0:0:0:0:
109,192,85750,1,0,0:0:0:0:
329,192,85750,1,0,0:0:0:0:
402,192,85875,1,0,0:0:0:0:
329,192,86000,128,0,86125:0:0:0:0:
36,192,86000,1,0,0:0:0:0:
182,192,86000,1,0,0:0:0:0:
475,192,86000,1,0,0:0:0:0:
402,192,86125,128,0,86250:0:0:0:0:
475,192,86250,128,0,86500:0:0:0:0:
109,192,86250,1,0,0:0:0:0:
182,192,86250,1,0,0:0:0:0:
256,192,86250,1,0,0:0:0:0:
402,192,86500,128,0,87500:0:0:0:0:
36,192,86500,1,0,0:0:0:0:
109,192,86500,1,0,0:0:0:0:
182,192,86500,1,0,0:0:0:0:
256,192,86625,1,0,0:0:0:0:
329,192,86625,1,0,0:0:0:0:
475,192,86625,1,0,0:0:0:0:
182,192,86750,1,0,0:0:0:0:
109,192,86750,1,0,0:0:0:0:
36,192,86750,1,0,0:0:0:0:
182,192,87000,1,0,0:0:0:0:
256,192,87000,1,0,0:0:0:0:
329,192,87000,1,0,0:0:0:0:
109,192,87125,1,0,0:0:0:0:
36,192,87125,1,0,0:0:0:0:
475,192,87125,1,0,0:0:0:0:
329,192,87250,1,0,0:0:0:0:
256,192,87250,1,0,0:0:0:0:
182,192,87250,1,0,0:0:0:0:
36,192,87375,1,0,0:0:0:0:
475,192,87375,1,0,0:0:0:0:
109,192,87500,128,0,88000:0:0:0:0:
182,192,87500,1,0,0:0:0:0:
256,192,87500,1,0,0:0:0:0:
329,192,87500,1,0,0:0:0:0:
402,192,87625,1,0,0:0:0:0:
475,192,87625,1,0,0:0:0:0:
36,192,87625,1,0,0:0:0:0:
182,192,87750,1,0,0:0:0:0:
329,192,87750,1,0,0:0:0:0:
256,192,87750,1,0,0:0:0:0:
402,192,87875,1,0,0:0:0:0:
36,192,87875,1,0,0:0:0:0:
475,192,88000,128,0,88500:0:0:0:0:
182,192,88000,1,0,0:0:0:0:
329,192,88000,1,0,0:0:0:0:
36,192,88125,1,0,0:0:0:0:
256,192,88125,1,0,0:0:0:0:
109,192,88125,1,0,0:0:0:0:
182,192,88250,1,0,0:0:0:0:
329,192,88250,1,0,0:0:0:0:
402,192,88250,1,0,0:0:0:0:
36,192,88375,1,0,0:0:0:0:
256,192,88375,1,0,0:0:0:0:
109,192,88375,1,0,0:0:0:0:
329,192,88500,128,0,89250:0:0:0:0:
182,192,88500,1,0,0:0:0:0:
402,192,88500,1,0,0:0:0:0:
256,192,88625,1,0,0:0:0:0:
36,192,88750,1,0,0:0:0:0:
109,192,88750,1,0,0:0:0:0:
475,192,88750,1,0,0:0:0:0:
402,192,88875,1,0,0:0:0:0:
182,192,89000,1,0,0:0:0:0:
256,192,89000,1,0,0:0:0:0:
109,192,89000,1,0,0:0:0:0:
36,192,89125,1,0,0:0:0:0:
402,192,89125,1,0,0:0:0:0:
109,192,89250,1,0,0:0:0:0:
182,192,89250,1,0,0:0:0:0:
475,192,89250,1,0,0:0:0:0:
402,192,89375,1,0,0:0:0:0:
109,192,89500,128,0,90000:0:0:0:0:
182,192,89500,1,0,0:0:0:0:
36,192,89500,1,0,0:0:0:0:
329,192,89500,1,0,0:0:0:0:
475,192,89625,1,0,0:0:0:0:
182,192,89750,1,0,0:0:0:0:
256,192,89750,1,0,0:0:0:0:
402,192,89750,1,0,0:0:0:0:
36,192,89875,1,0,0:0:0:0:
475,192,90000,128,0,90500:0:0:0:0:
256,192,90000,1,0,0:0:0:0:
329,192,90000,1,0,0:0:0:0:
402,192,90000,1,0,0:0:0:0:
182,192,90125,1,0,0:0:0:0:
109,192,90125,1,0,0:0:0:0:
402,192,90250,1,0,0:0:0:0:
329,192,90250,1,0,0:0:0:0:
36,192,90250,1,0,0:0:0:0:
182,192,90375,1,0,0:0:0:0:
329,192,90500,128,0,91250:0:0:0:0:
36,192,90500,1,0,0:0:0:0:
109,192,90500,1,0,0:0:0:0:
256,192,90500,1,0,0:0:0:0:
402,192,90625,1,0,0:0:0:0:
109,192,90750,1,0,0:0:0:0:
182,192,90750,1,0,0:0:0:0:
475,192,90750,1,0,0:0:0:0:
36,192,90875,1,0,0:0:0:0:
109,192,91000,1,0,0:0:0:0:
256,192,91000,1,0,0:0:0:0:
402,192,91000,1,0,0:0:0:0:
182,192,91125,1,0,0:0:0:0:
36,192,91125,1,0,0:0:0:0:
402,192,91250,1,0,0:0:0:0:
475,192,91250,1,0,0:0:0:0:
109,192,91250,1,0,0:0:0:0:
256,192,91375,1,0,0:0:0:0:
109,192,91500,128,0,92000:0:0:0:0:
36,192,91500,1,0,0:0:0:0:
182,192,91500,1,0,0:0:0:0:
475,192,91500,1,0,0:0:0:0:
402,192,91625,1,0,0:0:0:0:
256,192,91750,1,0,0:0:0:0:
36,192,91750,1,0,0:0:0:0:
475,192,91750,1,0,0:0:0:0:
329,192,91875,1,0,0:0:0:0:
475,192,92000,128,0,92500:0:0:0:0:
402,192,92000,1,0,0:0:0:0:
182,192,92000,1,0,0:0:0:0:
36,192,92000,1,0,0:0:0:0:
256,192,92125,1,0,0:0:0:0:
329,192,92125,1,0,0:0:0:0:
109,192,92250,1,0,0:0:0:0:
182,192,92250,1,0,0:0:0:0:
402,192,92250,1,0,0:0:0:0:
329,192,92375,1,0,0:0:0:0:
36,192,92500,1,0,0:0:0:0:
109,192,92500,1,0,0:0:0:0:
402,192,92500,1,0,0:0:0:0:
256,192,92500,128,0,93250:0:0:0:0:
182,192,92625,1,0,0:0:0:0:
109,192,92750,1,0,0:0:0:0:
329,192,92750,1,0,0:0:0:0:
475,192,92750,1,0,0:0:0:0:
402,192,92875,1,0,0:0:0:0:
36,192,93000,1,0,0:0:0:0:
182,192,93000,1,0,0:0:0:0:
329,192,93000,1,0,0:0:0:0:
109,192,93125,1,0,0:0:0:0:
475,192,93125,1,0,0:0:0:0:
402,192,93250,1,0,0:0:0:0:
329,192,93250,1,0,0:0:0:0:
182,192,93250,1,0,0:0:0:0:
109,192,93375,1,0,0:0:0:0:
36,192,93500,128,0,94000:0:0:0:0:
256,192,93500,1,0,0:0:0:0:
329,192,93500,1,0,0:0:0:0:
475,192,93500,1,0,0:0:0:0:
402,192,93625,1,0,0:0:0:0:
109,192,93750,1,0,0:0:0:0:
182,192,93750,1,0,0:0:0:0:
256,192,93750,1,0,0:0:0:0:
475,192,93875,1,0,0:0:0:0:
329,192,94000,128,0,94500:0:0:0:0:
182,192,94000,1,0,0:0:0:0:
402,192,94000,1,0,0:0:0:0:
109,192,94000,1,0,0:0:0:0:
256,192,94125,1,0,0:0:0:0:
36,192,94125,1,0,0:0:0:0:
402,192,94250,1,0,0:0:0:0:
182,192,94250,1,0,0:0:0:0:
475,192,94250,1,0,0:0:0:0:
256,192,94375,1,0,0:0:0:0:
182,192,94500,128,0,95000:0:0:0:0:
109,192,94500,1,0,0:0:0:0:
475,192,94500,1,0,0:0:0:0:
36,192,94500,1,0,0:0:0:0:
402,192,94625,1,0,0:0:0:0:
475,192,94750,1,0,0:0:0:0:
329,192,94750,1,0,0:0:0:0:
256,192,94750,1,0,0:0:0:0:
36,192,94875,1,0,0:0:0:0:
109,192,95000,128,0,95500:0:0:0:0:
329,192,95000,1,0,0:0:0:0:
402,192,95000,1,0,0:0:0:0:
475,192,95000,1,0,0:0:0:0:
256,192,95125,1,0,0:0:0:0:
36,192,95250,1,0,0:0:0:0:
182,192,95250,1,0,0:0:0:0:
475,192,95250,1,0,0:0:0:0:
329,192,95375,1,0,0:0:0:0:
182,192,95500,128,0,96000:0:0:0:0:
256,192,95500,1,0,0:0:0:0:
402,192,95500,1,0,0:0:0:0:
475,192,95500,1,0,0:0:0:0:
36,192,95625,1,0,0:0:0:0:
109,192,95750,1,0,0:0:0:0:
256,192,95750,1,0,0:0:0:0:
329,192,95750,1,0,0:0:0:0:
402,192,95875,1,0,0:0:0:0:
475,192,96000,128,0,96500:0:0:0:0:
36,192,96000,1,0,0:0:0:0:
109,192,96000,1,0,0:0:0:0:
329,192,96000,1,0,0:0:0:0:
256,192,96125,1,0,0:0:0:0:
402,192,96125,1,0,0:0:0:0:
109,192,96250,1,0,0:0:0:0:
182,192,96250,1,0,0:0:0:0:
36,192,96250,1,0,0:0:0:0:
256,192,96375,1,0,0:0:0:0:
402,192,96375,1,0,0:0:0:0:
329,192,96500,128,0,97250:0:0:0:0:
182,192,96500,1,0,0:0:0:0:
109,192,96500,1,0,0:0:0:0:
36,192,96500,1,0,0:0:0:0:
256,192,96750,1,0,0:0:0:0:
402,192,96750,1,0,0:0:0:0:
475,192,96750,1,0,0:0:0:0:
109,192,96875,1,0,0:0:0:0:
36,192,97000,1,0,0:0:0:0:
182,192,97000,1,0,0:0:0:0:
475,192,97000,1,0,0:0:0:0:
402,192,97125,1,0,0:0:0:0:
109,192,97250,1,0,0:0:0:0:
256,192,97250,1,0,0:0:0:0:
36,192,97250,1,0,0:0:0:0:
402,192,97375,1,0,0:0:0:0:
182,192,97500,128,0,98000:0:0:0:0:
256,192,97500,1,0,0:0:0:0:
329,192,97500,1,0,0:0:0:0:
109,192,97500,1,0,0:0:0:0:
475,192,97625,1,0,0:0:0:0:
402,192,97750,1,0,0:0:0:0:
329,192,97750,1,0,0:0:0:0:
36,192,97750,1,0,0:0:0:0:
256,192,97875,1,0,0:0:0:0:
475,192,98000,128,0,98500:0:0:0:0:
109,192,98000,1,0,0:0:0:0:
36,192,98000,1,0,0:0:0:0:
256,192,98125,1,0,0:0:0:0:
402,192,98125,1,0,0:0:0:0:
329,192,98250,1,0,0:0:0:0:
182,192,98250,1,0,0:0:0:0:
36,192,98250,1,0,0:0:0:0:
109,192,98375,1,0,0:0:0:0:
329,192,98500,128,0,99250:0:0:0:0:
256,192,98500,1,0,0:0:0:0:
402,192,98500,1,0,0:0:0:0:
36,192,98500,1,0,0:0:0:0:
182,192,98625,1,0,0:0:0:0:
475,192,98750,1,0,0:0:0:0:
36,192,98750,1,0,0:0:0:0:
109,192,98750,1,0,0:0:0:0:
256,192,98875,1,0,0:0:0:0:
109,192,99000,1,0,0:0:0:0:
402,192,99000,1,0,0:0:0:0:
182,192,99000,1,0,0:0:0:0:
475,192,99125,1,0,0:0:0:0:
36,192,99125,1,0,0:0:0:0:
182,192,99250,1,0,0:0:0:0:
256,192,99250,1,0,0:0:0:0:
402,192,99250,1,0,0:0:0:0:
475,192,99375,1,0,0:0:0:0:
182,192,99500,128,0,100000:0:0:0:0:
36,192,99500,1,0,0:0:0:0:
109,192,99500,1,0,0:0:0:0:
329,192,99500,1,0,0:0:0:0:
402,192,99625,1,0,0:0:0:0:
256,192,99750,1,0,0:0:0:0:
329,192,99750,1,0,0:0:0:0:
475,192,99750,1,0,0:0:0:0:
109,192,99875,1,0,0:0:0:0:
475,192,100000,128,0,100500:0:0:0:0:
36,192,100000,1,0,0:0:0:0:
256,192,100000,1,0,0:0:0:0:
402,192,100000,1,0,0:0:0:0:
109,192,100125,1,0,0:0:0:0:
329,192,100125,1,0,0:0:0:0:
182,192,100250,1,0,0:0:0:0:
256,192,100250,1,0,0:0:0:0:
402,192,100250,1,0,0:0:0:0:
329,192,100375,1,0,0:0:0:0:
256,192,100500,128,0,101000:0:0:0:0:
36,192,100500,1,0,0:0:0:0:
109,192,100500,1,0,0:0:0:0:
182,192,100500,1,0,0:0:0:0:
182,192,100750,1,0,0:0:0:0:
329,192,100750,1,0,0:0:0:0:
475,192,100750,1,0,0:0:0:0:
36,192,100750,1,0,0:0:0:0:
402,192,100875,1,0,0:0:0:0:
36,192,101000,128,0,101500:0:0:0:0:
109,192,101000,1,0,0:0:0:0:
182,192,101000,1,0,0:0:0:0:
329,192,101000,1,0,0:0:0:0:
256,192,101125,1,0,0:0:0:0:
109,192,101250,1,0,0:0:0:0:
329,192,101250,1,0,0:0:0:0:
475,192,101250,1,0,0:0:0:0:
402,192,101250,1,0,0:0:0:0:
256,192,101375,1,0,0:0:0:0:
182,192,101500,128,0,102000:0:0:0:0:
109,192,101500,1,0,0:0:0:0:
475,192,101500,1,0,0:0:0:0:
402,192,101500,1,0,0:0:0:0:
329,192,101625,1,0,0:0:0:0:
36,192,101750,1,0,0:0:0:0:
109,192,101750,1,0,0:0:0:0:
402,192,101750,1,0,0:0:0:0:
475,192,101750,1,0,0:0:0:0:
256,192,101875,1,0,0:0:0:0:
329,192,102000,128,0,102500:0:0:0:0:
36,192,102000,1,0,0:0:0:0:
109,192,102000,1,0,0:0:0:0:
402,192,102000,1,0,0:0:0:0:
475,192,102125,1,0,0:0:0:0:
109,192,102250,1,0,0:0:0:0:
182,192,102250,1,0,0:0:0:0:
256,192,102250,1,0,0:0:0:0:
402,192,102250,1,0,0:0:0:0:
36,192,102375,1,0,0:0:0:0:
475,192,102500,128,0,103500:0:0:0:0:
109,192,102500,1,0,0:0:0:0:
182,192,102500,1,0,0:0:0:0:
402,192,102500,1,0,0:0:0:0:
329,192,102625,1,0,0:0:0:0:
256,192,102750,1,0,0:0:0:0:
402,192,102750,1,0,0:0:0:0:
182,192,102750,1,0,0:0:0:0:
36,192,102875,1,0,0:0:0:0:
109,192,103000,1,0,0:0:0:0:
182,192,103000,1,0,0:0:0:0:
402,192,103000,1,0,0:0:0:0:
256,192,103125,1,0,0:0:0:0:
402,192,103250,1,0,0:0:0:0:
329,192,103250,1,0,0:0:0:0:
36,192,103250,1,0,0:0:0:0:
256,192,103500,128,0,104000:0:0:0:0:
36,192,103500,1,0,0:0:0:0:
109,192,103500,1,0,0:0:0:0:
182,192,103500,1,0,0:0:0:0:
402,192,103500,1,0,0:0:0:0:
329,192,103625,1,0,0:0:0:0:
475,192,103625,1,0,0:0:0:0:
402,192,103750,1,0,0:0:0:0:
182,192,103750,1,0,0:0:0:0:
36,192,103750,1,0,0:0:0:0:
475,192,104000,128,0,104500:0:0:0:0:
36,192,104000,1,0,0:0:0:0:
329,192,104000,1,0,0:0:0:0:
109,192,104000,1,0,0:0:0:0:
182,192,104125,1,0,0:0:0:0:
256,192,104250,1,0,0:0:0:0:
329,192,104250,1,0,0:0:0:0:
36,192,104250,1,0,0:0:0:0:
109,192,104375,1,0,0:0:0:0:
402,192,104375,1,0,0:0:0:0:
329,192,104500,128,0,105250:0:0:0:0:
256,192,104500,1,0,0:0:0:0:
182,192,104500,1,0,0:0:0:0:
36,192,104500,1,0,0:0:0:0:
402,192,104625,1,0,0:0:0:0:
109,192,104750,1,0,0:0:0:0:
182,192,104750,1,0,0:0:0:0:
475,192,104750,1,0,0:0:0:0:
256,192,104875,1,0,0:0:0:0:
36,192,105000,1,0,0:0:0:0:
182,192,105000,1,0,0:0:0:0:
402,192,105000,1,0,0:0:0:0:
109,192,105125,1,0,0:0:0:0:
182,192,105250,1,0,0:0:0:0:
475,192,105250,1,0,0:0:0:0:
256,192,105250,1,0,0:0:0:0:
329,192,105375,1,0,0:0:0:0:
256,192,105500,128,0,106000:0:0:0:0:
36,192,105500,1,0,0:0:0:0:
109,192,105500,1,0,0:0:0:0:
402,192,105500,1,0,0:0:0:0:
329,192,105625,1,0,0:0:0:0:
109,192,105750,1,0,0:0:0:0:
182,192,105750,1,0,0:0:0:0:
475,192,105750,1,0,0:0:0:0:
36,192,105875,1,0,0:0:0:0:
475,192,106000,128,0,106500:0:0:0:0:
402,192,106000,1,0,0:0:0:0:
329,192,106000,1,0,0:0:0:0:
182,192,106000,1,0,0:0:0:0:
109,192,106125,1,0,0:0:0:0:
256,192,106125,1,0,0:0:0:0:
182,192,106250,1,0,0:0:0:0:
329,192,106250,1,0,0:0:0:0:
402,192,106250,1,0,0:0:0:0:
256,192,106375,1,0,0:0:0:0:
329,192,106500,128,0,107250:0:0:0:0:
36,192,106500,1,0,0:0:0:0:
182,192,106500,1,0,0:0:0:0:
109,192,106500,1,0,0:0:0:0:
402,192,106625,1,0,0:0:0:0:
256,192,106750,1,0,0:0:0:0:
182,192,106750,1,0,0:0:0:0:
475,192,106750,1,0,0:0:0:0:
109,192,106875,1,0,0:0:0:0:
36,192,107000,1,0,0:0:0:0:
402,192,107000,1,0,0:0:0:0:
475,192,107000,1,0,0:0:0:0:
182,192,107125,1,0,0:0:0:0:
36,192,107250,1,0,0:0:0:0:
256,192,107250,1,0,0:0:0:0:
475,192,107250,1,0,0:0:0:0:
182,192,107375,1,0,0:0:0:0:
256,192,107500,128,0,108000:0:0:0:0:
109,192,107500,1,0,0:0:0:0:
329,192,107500,1,0,0:0:0:0:
402,192,107500,1,0,0:0:0:0:
475,192,107625,1,0,0:0:0:0:
36,192,107750,1,0,0:0:0:0:
182,192,107750,1,0,0:0:0:0:
329,192,107750,1,0,0:0:0:0:
109,192,107875,1,0,0:0:0:0:
475,192,108000,128,0,108500:0:0:0:0:
402,192,108000,1,0,0:0:0:0:
329,192,108000,1,0,0:0:0:0:
182,192,108000,1,0,0:0:0:0:
36,192,108125,1,0,0:0:0:0:
256,192,108125,1,0,0:0:0:0:
109,192,108250,1,0,0:0:0:0:
182,192,108250,1,0,0:0:0:0:
402,192,108250,1,0,0:0:0:0:
329,192,108375,1,0,0:0:0:0:
182,192,108500,128,0,109250:0:0:0:0:
36,192,108500,1,0,0:0:0:0:
256,192,108500,1,0,0:0:0:0:
402,192,108500,1,0,0:0:0:0:
475,192,108625,1,0,0:0:0:0:
109,192,108750,1,0,0:0:0:0:
329,192,108750,1,0,0:0:0:0:
402,192,108750,1,0,0:0:0:0:
256,192,108875,1,0,0:0:0:0:
36,192,109000,1,0,0:0:0:0:
475,192,109000,1,0,0:0:0:0:
109,192,109000,1,0,0:0:0:0:
256,192,109125,1,0,0:0:0:0:
109,192,109250,1,0,0:0:0:0:
329,192,109250,1,0,0:0:0:0:
402,192,109250,1,0,0:0:0:0:
475,192,109375,1,0,0:0:0:0:
109,192,109500,128,0,110000:0:0:0:0:
182,192,109500,1,0,0:0:0:0:
256,192,109500,1,0,0:0:0:0:
36,192,109500,1,0,0:0:0:0:
402,192,109625,1,0,0:0:0:0:
329,192,109750,1,0,0:0:0:0:
256,192,109750,1,0,0:0:0:0:
475,192,109750,1,0,0:0:0:0:
182,192,109875,1,0,0:0:0:0:
402,192,110000,128,0,110500:0:0:0:0:
36,192,110000,1,0,0:0:0:0:
475,192,110000,1,0,0:0:0:0:
329,192,110000,1,0,0:0:0:0:
256,192,110125,1,0,0:0:0:0:
109,192,110250,1,0,0:0:0:0:
182,192,110250,1,0,0:0:0:0:
329,192,110250,1,0,0:0:0:0:
36,192,110375,1,0,0:0:0:0:
329,192,110500,128,0,111000:0:0:0:0:
256,192,110500,1,0,0:0:0:0:
475,192,110500,1,0,0:0:0:0:
182,192,110500,1,0,0:0:0:0:
36,192,110625,1,0,0:0:0:0:
109,192,110750,1,0,0:0:0:0:
256,192,110750,1,0,0:0:0:0:
402,192,110750,1,0,0:0:0:0:
475,192,110875,1,0,0:0:0:0:
109,192,111000,128,0,111500:0:0:0:0:
36,192,111000,1,0,0:0:0:0:
182,192,111000,1,0,0:0:0:0:
402,192,111000,1,0,0:0:0:0:
256,192,111125,1,0,0:0:0:0:
329,192,111250,1,0,0:0:0:0:
402,192,111250,1,0,0:0:0:0:
182,192,111250,1,0,0:0:0:0:
475,192,111375,1,0,0:0:0:0:
182,192,111500,128,0,112000:0:0:0:0:
36,192,111500,1,0,0:0:0:0:
256,192,111500,1,0,0:0:0:0:
329,192,111500,1,0,0:0:0:0:
109,192,111625,1,0,0:0:0:0:
402,192,111750,1,0,0:0:0:0:
256,192,111750,1,0,0:0:0:0:
475,192,111750,1,0,0:0:0:0:
329,192,111875,1,0,0:0:0:0:
475,192,112000,128,0,112500:0:0:0:0:
36,192,112000,1,0,0:0:0:0:
109,192,112000,1,0,0:0:0:0:
402,192,112000,1,0,0:0:0:0:
256,192,112125,1,0,0:0:0:0:
109,192,112250,1,0,0:0:0:0:
182,192,112250,1,0,0:0:0:0:
329,192,112250,1,0,0:0:0:0:
36,192,112375,1,0,0:0:0:0:
402,192,112375,1,0,0:0:0:0:
329,192,112500,128,0,113250:0:0:0:0:
109,192,112500,1,0,0:0:0:0:
256,192,112500,1,0,0:0:0:0:
182,192,112500,1,0,0:0:0:0:
36,192,112750,1,0,0:0:0:0:
109,192,112750,1,0,0:0:0:0:
475,192,112750,1,0,0:0:0:0:
402,192,112875,1,0,0:0:0:0:
182,192,113000,1,0,0:0:0:0:
256,192,113000,1,0,0:0:0:0:
475,192,113000,1,0,0:0:0:0:
109,192,113125,1,0,0:0:0:0:
402,192,113250,1,0,0:0:0:0:
36,192,113250,1,0,0:0:0:0:
256,192,113250,1,0,0:0:0:0:
109,192,113375,1,0,0:0:0:0:
182,192,113500,128,0,114000:0:0:0:0:
256,192,113500,1,0,0:0:0:0:
329,192,113500,1,0,0:0:0:0:
475,192,113500,1,0,0:0:0:0:
402,192,113625,1,0,0:0:0:0:
36,192,113750,1,0,0:0:0:0:
109,192,113750,1,0,0:0:0:0:
329,192,113750,1,0,0:0:0:0:
402,192,113875,1,0,0:0:0:0:
475,192,114000,128,0,114500:0:0:0:0:
109,192,114000,1,0,0:0:0:0:
256,192,114000,1,0,0:0:0:0:
36,192,114000,1,0,0:0:0:0:
329,192,114125,1,0,0:0:0:0:
182,192,114125,1,0,0:0:0:0:
36,192,114250,1,0,0:0:0:0:
402,192,114250,1,0,0:0:0:0:
256,192,114250,1,0,0:0:0:0:
109,192,114375,1,0,0:0:0:0:
329,192,114500,128,0,115250:0:0:0:0:
182,192,114500,1,0,0:0:0:0:
256,192,114500,1,0,0:0:0:0:
36,192,114500,1,0,0:0:0:0:
109,192,114625,1,0,0:0:0:0:
475,192,114750,1,0,0:0:0:0:
402,192,114750,1,0,0:0:0:0:
182,192,114750,1,0,0:0:0:0:
256,192,114875,1,0,0:0:0:0:
36,192,115000,1,0,0:0:0:0:
109,192,115000,1,0,0:0:0:0:
475,192,115000,1,0,0:0:0:0:
402,192,115125,1,0,0:0:0:0:
256,192,115125,1,0,0:0:0:0:
36,192,115250,1,0,0:0:0:0:
475,192,115250,1,0,0:0:0:0:
182,192,115250,1,0,0:0:0:0:
329,192,115375,1,0,0:0:0:0:
182,192,115500,128,0,116000:0:0:0:0:
256,192,115500,1,0,0:0:0:0:
402,192,115500,1,0,0:0:0:0:
109,192,115500,1,0,0:0:0:0:
329,192,115625,1,0,0:0:0:0:
475,192,115625,1,0,0:0:0:0:
256,192,115750,1,0,0:0:0:0:
109,192,115750,1,0,0:0:0:0:
36,192,115750,1,0,0:0:0:0:
402,192,115875,1,0,0:0:0:0:
475,192,116000,128,0,116500:0:0:0:0:
109,192,116000,1,0,0:0:0:0:
256,192,116000,1,0,0:0:0:0:
36,192,116000,1,0,0:0:0:0:
329,192,116125,1,0,0:0:0:0:
36,192,116250,1,0,0:0:0:0:
402,192,116250,1,0,0:0:0:0:
256,192,116250,1,0,0:0:0:0:
182,192,116375,1,0,0:0:0:0:
256,192,116500,128,0,117000:0:0:0:0:
109,192,116500,1,0,0:0:0:0:
329,192,116500,1,0,0:0:0:0:
402,192,116500,1,0,0:0:0:0:
182,192,116625,1,0,0:0:0:0:
475,192,116750,1,0,0:0:0:0:
402,192,116750,1,0,0:0:0:0:
36,192,116750,1,0,0:0:0:0:
329,192,116875,1,0,0:0:0:0:
36,192,117000,128,0,117500:0:0:0:0:
109,192,117000,1,0,0:0:0:0:
182,192,117000,1,0,0:0:0:0:
475,192,117000,1,0,0:0:0:0:
256,192,117125,1,0,0:0:0:0:
402,192,117250,1,0,0:0:0:0:
475,192,117250,1,0,0:0:0:0:
329,192,117250,1,0,0:0:0:0:
109,192,117375,1,0,0:0:0:0:
256,192,117500,128,0,118000:0:0:0:0:
475,192,117500,1,0,0:0:0:0:
182,192,117500,1,0,0:0:0:0:
329,192,117500,1,0,0:0:0:0:
402,192,117625,1,0,0:0:0:0:
36,192,117750,1,0,0:0:0:0:
109,192,117750,1,0,0:0:0:0:
329,192,117750,1,0,0:0:0:0:
182,192,117875,1,0,0:0:0:0:
402,192,118000,128,0,118500:0:0:0:0:
109,192,118000,1,0,0:0:0:0:
329,192,118000,1,0,0:0:0:0:
475,192,118000,1,0,0:0:0:0:
256,192,118125,1,0,0:0:0:0:
329,192,118250,1,0,0:0:0:0:
36,192,118250,1,0,0:0:0:0:
109,192,118250,1,0,0:0:0:0:
256,192,118375,1,0,0:0:0:0:
475,192,118500,128,0,120500:0:0:0:0:
36,192,118500,1,0,0:0:0:0:
182,192,118500,1,0,0:0:0:0:
329,192,118500,1,0,0:0:0:0:
36,192,118750,1,0,0:0:0:0:
109,192,118750,1,0,0:0:0:0:
402,192,118750,1,0,0:0:0:0:
109,192,119000,1,0,0:0:0:0:
256,192,119000,1,0,0:0:0:0:
402,192,119000,1,0,0:0:0:0:
36,192,119250,1,0,0:0:0:0:
109,192,119250,1,0,0:0:0:0:
329,192,119250,1,0,0:0:0:0:
402,192,119500,1,0,0:0:0:0:
329,192,119500,1,0,0:0:0:0:
256,192,119500,1,0,0:0:0:0:
182,192,119750,1,0,0:0:0:0:
329,192,119750,1,0,0:0:0:0:
36,192,119750,1,0,0:0:0:0:
36,192,119875,5,0,0:0:0:0:
109,192,119875,1,0,0:0:0:0:
256,192,119875,1,0,0:0:0:0:
402,192,119875,1,0,0:0:0:0:
402,192,120000,1,0,0:0:0:0:
329,192,120000,1,0,0:0:0:0:
182,192,120000,1,0,0:0:0:0:
109,192,120000,1,0,0:0:0:0:
36,192,120125,1,0,0:0:0:0:
256,192,120125,1,0,0:0:0:0:
402,192,120250,1,0,0:0:0:0:
329,192,120250,1,0,0:0:0:0:
109,192,120250,1,0,0:0:0:0:
182,192,120375,1,0,0:0:0:0:
256,192,120375,1,0,0:0:0:0:
329,192,120500,1,0,0:0:0:0:
109,192,120500,1,0,0:0:0:0:
36,192,120500,128,0,121750:0:0:0:0:
402,192,120500,1,0,0:0:0:0:
182,192,120625,128,0,121250:0:0:0:0:
256,192,120750,128,0,121000:0:0:0:0:
329,192,120875,128,0,121500:0:0:0:0:
109,192,121000,128,0,122125:0:0:0:0:
256,192,121125,128,0,122000:0:0:0:0:
402,192,121250,128,0,121875:0:0:0:0:
182,192,121375,128,0,121625:0:0:0:0:
475,192,121500,128,0,125625:0:0:0:0:
329,192,121625,128,0,123625:0:0:0:0:
182,192,121750,128,0,122375:0:0:0:0:
36,192,121875,128,0,122625:0:0:0:0:
402,192,122000,128,0,123750:0:0:0:0:
256,192,122125,128,0,122250:0:0:0:0:
109,192,122250,128,0,122500:0:0:0:0:
256,192,122375,128,0,123000:0:0:0:0:
182,192,122500,128,0,122750:0:0:0:0:
109,192,122625,128,0,122875:0:0:0:0:
36,192,122750,128,0,123125:0:0:0:0:
182,192,122875,128,0,123375:0:0:0:0:
109,192,123000,128,0,123250:0:0:0:0:
256,192,123125,128,0,123500:0:0:0:0:
36,192,123250,128,0,123375:0:0:0:0:
109,192,123375,128,0,123500:0:0:0:0:
182,192,123500,128,0,123625:0:0:0:0:
36,192,123500,128,0,124375:0:0:0:0:
256,192,123625,128,0,123750:0:0:0:0:
109,192,123625,128,0,124250:0:0:0:0:
329,192,123750,128,0,123875:0:0:0:0:
182,192,123750,128,0,124000:0:0:0:0:
256,192,123875,128,0,124125:0:0:0:0:
402,192,123875,128,0,125250:0:0:0:0:
329,192,124000,128,0,125125:0:0:0:0:
182,192,124125,128,0,124625:0:0:0:0:
256,192,124250,128,0,124750:0:0:0:0:
109,192,124375,128,0,124500:0:0:0:0:
36,192,124500,128,0,127375:0:0:0:0:
109,192,124625,128,0,127500:0:0:0:0:
182,192,124750,128,0,124875:0:0:0:0:
256,192,124875,128,0,125000:0:0:0:0:
182,192,125000,128,0,126250:0:0:0:0:
256,192,125125,128,0,126125:0:0:0:0:
329,192,125250,128,0,125375:0:0:0:0:
402,192,125375,128,0,125500:0:0:0:0:
329,192,125500,128,0,125750:0:0:0:0:
402,192,125625,128,0,125875:0:0:0:0:
475,192,125750,128,0,126500:0:0:0:0:
329,192,125875,128,0,126000:0:0:0:0:
402,192,126000,128,0,126750:0:0:0:0:
329,192,126125,128,0,126375:0:0:0:0:
256,192,126250,128,0,127000:0:0:0:0:
182,192,126375,128,0,127375:0:0:0:0:
329,192,126500,128,0,126625:0:0:0:0:
475,192,126625,128,0,129375:0:0:0:0:
329,192,126750,128,0,126875:0:0:0:0:
402,192,126875,128,0,128125:0:0:0:0:
329,192,127000,128,0,127375:0:0:0:0:
256,192,127375,128,0,127625:0:0:0:0:
36,192,127500,128,0,127875:0:0:0:0:
182,192,127500,128,0,128125:0:0:0:0:
329,192,127500,128,0,128000:0:0:0:0:
109,192,127625,128,0,127750:0:0:0:0:
256,192,127750,128,0,128250:0:0:0:0:
109,192,127875,128,0,128000:0:0:0:0:
36,192,128000,128,0,128625:0:0:0:0:
329,192,128125,128,0,128250:0:0:0:0:
109,192,128125,128,0,128375:0:0:0:0:
182,192,128250,128,0,128875:0:0:0:0:
402,192,128250,128,0,130000:0:0:0:0:
256,192,128375,128,0,129000:0:0:0:0:
329,192,128375,128,0,128500:0:0:0:0:
109,192,128500,128,0,128750:0:0:0:0:
36,192,128750,128,0,129875:0:0:0:0:
109,192,128875,128,0,130500:0:0:0:0:
182,192,129000,128,0,129750:0:0:0:0:
256,192,129125,128,0,129250:0:0:0:0:
329,192,129250,128,0,129500:0:0:0:0:
256,192,129375,128,0,129625:0:0:0:0:
475,192,129500,128,0,133250:0:0:0:0:
329,192,129625,128,0,130125:0:0:0:0:
256,192,129750,128,0,130250:0:0:0:0:
182,192,129875,128,0,130375:0:0:0:0:
36,192,130000,128,0,130625:0:0:0:0:
402,192,130125,128,0,131750:0:0:0:0:
329,192,130250,128,0,131500:0:0:0:0:
256,192,130375,128,0,130750:0:0:0:0:
182,192,130500,128,0,131000:0:0:0:0:
109,192,130625,128,0,130875:0:0:0:0:
36,192,130750,128,0,131125:0:0:0:0:
256,192,130875,128,0,131625:0:0:0:0:
109,192,131000,128,0,131250:0:0:0:0:
182,192,131125,128,0,131375:0:0:0:0:
36,192,131250,128,0,131375:0:0:0:0:
109,192,131375,128,0,131500:0:0:0:0:
182,192,131500,128,0,131625:0:0:0:0:
36,192,131500,128,0,132000:0:0:0:0:
329,192,131625,128,0,131750:0:0:0:0:
109,192,131625,128,0,132125:0:0:0:0:
256,192,131750,128,0,131875:0:0:0:0:
182,192,131750,128,0,132250:0:0:0:0:
329,192,131875,128,0,132875:0:0:0:0:
402,192,131875,128,0,133000:0:0:0:0:
256,192,132000,128,0,132375:0:0:0:0:
36,192,132125,128,0,132375:0:0:0:0:
109,192,132250,128,0,132500:0:0:0:0:
182,192,132375,128,0,132625:0:0:0:0:
256,192,132500,128,0,132750:0:0:0:0:
36,192,132500,128,0,134000:0:0:0:0:
109,192,132625,128,0,133875:0:0:0:0:
182,192,132750,128,0,133750:0:0:0:0:
256,192,132875,128,0,133625:0:0:0:0:
329,192,133000,128,0,133125:0:0:0:0:
402,192,133125,128,0,133375:0:0:0:0:
329,192,133250,128,0,133500:0:0:0:0:
475,192,133375,128,0,134375:0:0:0:0:
402,192,133500,128,0,134500:0:0:0:0:
329,192,133625,128,0,134625:0:0:0:0:
256,192,133750,128,0,134750:0:0:0:0:
182,192,133875,128,0,134250:0:0:0:0:
109,192,134000,128,0,134125:0:0:0:0:
36,192,134125,128,0,135875:0:0:0:0:
109,192,134250,128,0,135750:0:0:0:0:
182,192,134375,128,0,135250:0:0:0:0:
475,192,134500,128,0,136500:0:0:0:0:
402,192,134625,128,0,134875:0:0:0:0:
329,192,134750,128,0,135000:0:0:0:0:
256,192,134875,128,0,135125:0:0:0:0:
402,192,135000,128,0,136500:0:0:0:0:
329,192,135125,128,0,135375:0:0:0:0:
256,192,135250,128,0,135500:0:0:0:0:
182,192,135375,128,0,135625:0:0:0:0:
329,192,135500,128,0,136250:0:0:0:0:
256,192,135625,128,0,136500:0:0:0:0:
182,192,135750,128,0,136125:0:0:0:0:
109,192,135875,128,0,136000:0:0:0:0:
36,192,136000,128,0,136500:0:0:0:0:
109,192,136125,128,0,136500:0:0:0:0:
182,192,136250,128,0,136375:0:0:0:0:
329,192,136375,128,0,136500:0:0:0:0:
182,192,136500,1,0,0:0:0:0:
36,192,136625,1,0,0:0:0:0:
109,192,136625,1,0,0:0:0:0:
329,192,136625,1,0,0:0:0:0:
182,192,136750,1,0,0:0:0:0:
256,192,136750,1,0,0:0:0:0:
475,192,136750,1,0,0:0:0:0:
402,192,136750,1,0,0:0:0:0:
36,192,136875,1,0,0:0:0:0:
109,192,136875,1,0,0:0:0:0:
329,192,136875,1,0,0:0:0:0:
475,192,136875,1,0,0:0:0:0:
109,192,137000,1,0,0:0:0:0:
256,192,137000,1,0,0:0:0:0:
329,192,137000,1,0,0:0:0:0:
402,192,137000,1,0,0:0:0:0:
36,192,137125,1,0,0:0:0:0:
182,192,137125,1,0,0:0:0:0:
329,192,137125,1,0,0:0:0:0:
475,192,137125,1,0,0:0:0:0:
475,192,137250,1,0,0:0:0:0:
402,192,137250,1,0,0:0:0:0:
182,192,137250,1,0,0:0:0:0:
36,192,137250,1,0,0:0:0:0:
329,192,137375,1,0,0:0:0:0:
256,192,137375,1,0,0:0:0:0:
109,192,137375,1,0,0:0:0:0:
182,192,137500,1,0,0:0:0:0:
402,192,137500,1,0,0:0:0:0:
475,192,137500,1,0,0:0:0:0:
36,192,137500,128,0,138000:0:0:0:0:
109,192,137625,1,0,0:0:0:0:
329,192,137625,1,0,0:0:0:0:
256,192,137750,1,0,0:0:0:0:
182,192,137750,1,0,0:0:0:0:
475,192,137875,1,0,0:0:0:0:
402,192,137875,1,0,0:0:0:0:
329,192,138000,1,0,0:0:0:0:
256,192,138000,1,0,0:0:0:0:
475,192,138000,128,0,138500:0:0:0:0:
182,192,138000,1,0,0:0:0:0:
109,192,138000,1,0,0:0:0:0:
256,192,138125,1,0,0:0:0:0:
182,192,138125,1,0,0:0:0:0:
109,192,138125,1,0,0:0:0:0:
329,192,138125,1,0,0:0:0:0:
182,192,138250,1,0,0:0:0:0:
36,192,138250,1,0,0:0:0:0:
109,192,138250,1,0,0:0:0:0:
109,192,138375,1,0,0:0:0:0:
182,192,138375,1,0,0:0:0:0:
36,192,138375,1,0,0:0:0:0:
329,192,138500,128,0,139250:0:0:0:0:
402,192,138500,128,0,139500:0:0:0:0:
256,192,138500,1,0,0:0:0:0:
182,192,138500,1,0,0:0:0:0:
36,192,138500,1,0,0:0:0:0:
182,192,138750,1,0,0:0:0:0:
475,192,138750,1,0,0:0:0:0:
109,192,138750,1,0,0:0:0:0:
256,192,138875,1,0,0:0:0:0:
36,192,139000,1,0,0:0:0:0:
109,192,139000,1,0,0:0:0:0:
475,192,139000,1,0,0:0:0:0:
36,192,139125,1,0,0:0:0:0:
256,192,139250,1,0,0:0:0:0:
182,192,139250,1,0,0:0:0:0:
109,192,139250,1,0,0:0:0:0:
475,192,139375,1,0,0:0:0:0:
182,192,139500,128,0,140000:0:0:0:0:
36,192,139500,1,0,0:0:0:0:
256,192,139500,1,0,0:0:0:0:
329,192,139500,1,0,0:0:0:0:
109,192,139500,128,0,140500:0:0:0:0:
402,192,139625,1,0,0:0:0:0:
475,192,139750,1,0,0:0:0:0:
329,192,139750,1,0,0:0:0:0:
36,192,139750,1,0,0:0:0:0:
256,192,139875,1,0,0:0:0:0:
475,192,140000,128,0,140500:0:0:0:0:
256,192,140000,1,0,0:0:0:0:
329,192,140000,1,0,0:0:0:0:
402,192,140000,1,0,0:0:0:0:
36,192,140125,1,0,0:0:0:0:
402,192,140250,1,0,0:0:0:0:
329,192,140250,1,0,0:0:0:0:
182,192,140250,1,0,0:0:0:0:
36,192,140375,1,0,0:0:0:0:
256,192,140500,128,0,141250:0:0:0:0:
329,192,140500,128,0,141500:0:0:0:0:
36,192,140500,1,0,0:0:0:0:
182,192,140500,1,0,0:0:0:0:
402,192,140500,1,0,0:0:0:0:
475,192,140625,1,0,0:0:0:0:
109,192,140750,1,0,0:0:0:0:
182,192,140750,1,0,0:0:0:0:
402,192,140750,1,0,0:0:0:0:
182,192,140875,1,0,0:0:0:0:
402,192,141000,1,0,0:0:0:0:
109,192,141000,1,0,0:0:0:0:
36,192,141000,1,0,0:0:0:0:
475,192,141125,1,0,0:0:0:0:
36,192,141250,1,0,0:0:0:0:
109,192,141250,1,0,0:0:0:0:
182,192,141250,1,0,0:0:0:0:
402,192,141375,1,0,0:0:0:0:
182,192,141500,128,0,142500:0:0:0:0:
109,192,141500,128,0,142000:0:0:0:0:
256,192,141500,1,0,0:0:0:0:
402,192,141500,1,0,0:0:0:0:
475,192,141500,1,0,0:0:0:0:
329,192,141625,1,0,0:0:0:0:
402,192,141750,1,0,0:0:0:0:
329,192,141750,1,0,0:0:0:0:
36,192,141750,1,0,0:0:0:0:
402,192,141875,1,0,0:0:0:0:
475,192,142000,128,0,142500:0:0:0:0:
256,192,142000,1,0,0:0:0:0:
329,192,142000,1,0,0:0:0:0:
36,192,142000,1,0,0:0:0:0:
256,192,142125,1,0,0:0:0:0:
402,192,142250,1,0,0:0:0:0:
329,192,142250,1,0,0:0:0:0:
109,192,142250,1,0,0:0:0:0:
36,192,142375,1,0,0:0:0:0:
329,192,142500,128,0,143500:0:0:0:0:
36,192,142500,1,0,0:0:0:0:
109,192,142500,1,0,0:0:0:0:
402,192,142500,1,0,0:0:0:0:
256,192,142500,128,0,143250:0:0:0:0:
109,192,142750,1,0,0:0:0:0:
182,192,142750,1,0,0:0:0:0:
475,192,142750,1,0,0:0:0:0:
402,192,142875,1,0,0:0:0:0:
36,192,143000,1,0,0:0:0:0:
182,192,143000,1,0,0:0:0:0:
402,192,143000,1,0,0:0:0:0:
182,192,143125,1,0,0:0:0:0:
475,192,143250,1,0,0:0:0:0:
402,192,143250,1,0,0:0:0:0:
109,192,143250,1,0,0:0:0:0:
475,192,143375,1,0,0:0:0:0:
36,192,143500,128,0,144000:0:0:0:0:
182,192,143500,128,0,144000:0:0:0:0:
109,192,143500,1,0,0:0:0:0:
256,192,143500,1,0,0:0:0:0:
402,192,143500,1,0,0:0:0:0:
329,192,143625,1,0,0:0:0:0:
109,192,143750,1,0,0:0:0:0:
329,192,143750,1,0,0:0:0:0:
475,192,143750,1,0,0:0:0:0:
256,192,143875,1,0,0:0:0:0:
109,192,144000,128,0,144500:0:0:0:0:
402,192,144000,128,0,144500:0:0:0:0:
256,192,144000,1,0,0:0:0:0:
329,192,144000,1,0,0:0:0:0:
475,192,144000,1,0,0:0:0:0:
182,192,144125,1,0,0:0:0:0:
36,192,144250,1,0,0:0:0:0:
182,192,144250,1,0,0:0:0:0:
475,192,144250,1,0,0:0:0:0:
329,192,144500,128,0,145000:0:0:0:0:
182,192,144500,128,0,145500:0:0:0:0:
36,192,144500,1,0,0:0:0:0:
256,192,144500,1,0,0:0:0:0:
475,192,144500,1,0,0:0:0:0:
109,192,144750,1,0,0:0:0:0:
256,192,144750,1,0,0:0:0:0:
475,192,144750,1,0,0:0:0:0:
36,192,145000,128,0,145500:0:0:0:0:
402,192,145000,1,0,0:0:0:0:
109,192,145000,1,0,0:0:0:0:
475,192,145000,1,0,0:0:0:0:
329,192,145125,1,0,0:0:0:0:
109,192,145250,1,0,0:0:0:0:
256,192,145250,1,0,0:0:0:0:
402,192,145250,1,0,0:0:0:0:
109,192,145500,128,0,146000:0:0:0:0:
256,192,145500,1,0,0:0:0:0:
402,192,145500,1,0,0:0:0:0:
475,192,145500,1,0,0:0:0:0:
329,192,145750,1,0,0:0:0:0:
256,192,145750,1,0,0:0:0:0:
36,192,145750,1,0,0:0:0:0:
475,192,146000,128,0,146500:0:0:0:0:
402,192,146000,1,0,0:0:0:0:
256,192,146000,128,0,146500:0:0:0:0:
329,192,146000,1,0,0:0:0:0:
109,192,146125,1,0,0:0:0:0:
36,192,146125,1,0,0:0:0:0:
329,192,146250,1,0,0:0:0:0:
402,192,146250,1,0,0:0:0:0:
109,192,146375,1,0,0:0:0:0:
36,192,146375,1,0,0:0:0:0:
329,192,146500,128,0,147250:0:0:0:0:
402,192,146500,1,0,0:0:0:0:
36,192,146500,1,0,0:0:0:0:
182,192,146500,128,0,147500:0:0:0:0:
256,192,146750,1,0,0:0:0:0:
109,192,146750,1,0,0:0:0:0:
475,192,146750,1,0,0:0:0:0:
402,192,146875,1,0,0:0:0:0:
402,192,147000,1,0,0:0:0:0:
36,192,147000,1,0,0:0:0:0:
475,192,147000,1,0,0:0:0:0:
109,192,147125,1,0,0:0:0:0:
109,192,147250,1,0,0:0:0:0:
256,192,147250,1,0,0:0:0:0:
402,192,147250,1,0,0:0:0:0:
329,192,147375,1,0,0:0:0:0:
109,192,147500,128,0,148000:0:0:0:0:
256,192,147500,128,0,148000:0:0:0:0:
36,192,147500,1,0,0:0:0:0:
329,192,147500,1,0,0:0:0:0:
475,192,147500,1,0,0:0:0:0:
402,192,147625,1,0,0:0:0:0:
182,192,147750,1,0,0:0:0:0:
475,192,147750,1,0,0:0:0:0:
329,192,147750,1,0,0:0:0:0:
36,192,147875,1,0,0:0:0:0:
475,192,148000,128,0,148500:0:0:0:0:
402,192,148000,128,0,148500:0:0:0:0:
329,192,148000,1,0,0:0:0:0:
182,192,148000,1,0,0:0:0:0:
36,192,148000,1,0,0:0:0:0:
256,192,148125,1,0,0:0:0:0:
109,192,148250,1,0,0:0:0:0:
182,192,148250,1,0,0:0:0:0:
329,192,148250,1,0,0:0:0:0:
36,192,148375,1,0,0:0:0:0:
329,192,148500,128,0,149250:0:0:0:0:
36,192,148500,128,0,149500:0:0:0:0:
109,192,148500,1,0,0:0:0:0:
182,192,148500,1,0,0:0:0:0:
256,192,148500,1,0,0:0:0:0:
182,192,148625,1,0,0:0:0:0:
475,192,148750,1,0,0:0:0:0:
402,192,148750,1,0,0:0:0:0:
109,192,148750,1,0,0:0:0:0:
256,192,148875,1,0,0:0:0:0:
182,192,149000,1,0,0:0:0:0:
256,192,149000,1,0,0:0:0:0:
402,192,149000,1,0,0:0:0:0:
109,192,149125,1,0,0:0:0:0:
475,192,149250,1,0,0:0:0:0:
402,192,149250,1,0,0:0:0:0:
109,192,149250,1,0,0:0:0:0:
256,192,149375,1,0,0:0:0:0:
109,192,149500,128,0,150000:0:0:0:0:
182,192,149500,128,0,150000:0:0:0:0:
329,192,149500,1,0,0:0:0:0:
402,192,149500,1,0,0:0:0:0:
475,192,149500,1,0,0:0:0:0:
402,192,149625,1,0,0:0:0:0:
256,192,149750,1,0,0:0:0:0:
36,192,149750,1,0,0:0:0:0:
329,192,149750,1,0,0:0:0:0:
475,192,149875,1,0,0:0:0:0:
329,192,150000,128,0,150500:0:0:0:0:
402,192,150000,128,0,150500:0:0:0:0:
256,192,150000,1,0,0:0:0:0:
36,192,150000,1,0,0:0:0:0:
475,192,150000,1,0,0:0:0:0:
182,192,150125,1,0,0:0:0:0:
36,192,150250,1,0,0:0:0:0:
109,192,150250,1,0,0:0:0:0:
182,192,150250,1,0,0:0:0:0:
475,192,150375,1,0,0:0:0:0:
256,192,150500,128,0,151500:0:0:0:0:
182,192,150500,128,0,151000:0:0:0:0:
475,192,150500,1,0,0:0:0:0:
109,192,150500,1,0,0:0:0:0:
36,192,150500,1,0,0:0:0:0:
329,192,150625,1,0,0:0:0:0:
329,192,150750,1,0,0:0:0:0:
402,192,150750,1,0,0:0:0:0:
475,192,150750,1,0,0:0:0:0:
109,192,150875,1,0,0:0:0:0:
36,192,151000,128,0,151500:0:0:0:0:
109,192,151000,1,0,0:0:0:0:
329,192,151000,1,0,0:0:0:0:
475,192,151000,1,0,0:0:0:0:
329,192,151125,1,0,0:0:0:0:
475,192,151250,1,0,0:0:0:0:
402,192,151250,1,0,0:0:0:0:
182,192,151250,1,0,0:0:0:0:
109,192,151375,1,0,0:0:0:0:
182,192,151500,128,0,152000:0:0:0:0:
109,192,151500,128,0,151750:0:0:0:0:
329,192,151500,1,0,0:0:0:0:
402,192,151500,1,0,0:0:0:0:
475,192,151500,1,0,0:0:0:0:
402,192,151625,1,0,0:0:0:0:
256,192,151750,128,0,152000:0:0:0:0:
36,192,151750,1,0,0:0:0:0:
329,192,151750,1,0,0:0:0:0:
475,192,151750,1,0,0:0:0:0:
402,192,151875,1,0,0:0:0:0:
329,192,152000,128,0,152250:0:0:0:0:
109,192,152000,128,0,152500:0:0:0:0:
475,192,152000,1,0,0:0:0:0:
402,192,152062,1,0,0:0:0:0:
256,192,152125,1,0,0:0:0:0:
182,192,152187,1,0,0:0:0:0:
402,192,152250,128,0,152500:0:0:0:0:
36,192,152250,1,0,0:0:0:0:
182,192,152312,1,0,0:0:0:0:
256,192,152375,1,0,0:0:0:0:
329,192,152437,1,0,0:0:0:0:
475,192,152500,128,0,153500:0:0:0:0:
36,192,152500,128,0,153500:0:0:0:0:
182,192,152500,1,0,0:0:0:0:
256,192,152500,1,0,0:0:0:0:
329,192,152625,1,0,0:0:0:0:
402,192,152625,1,0,0:0:0:0:
109,192,152625,1,0,0:0:0:0:
182,192,152750,1,0,0:0:0:0:
256,192,152750,1,0,0:0:0:0:
402,192,152750,1,0,0:0:0:0:
109,192,153000,1,0,0:0:0:0:
256,192,153000,1,0,0:0:0:0:
329,192,153125,1,0,0:0:0:0:
402,192,153125,1,0,0:0:0:0:
182,192,153250,1,0,0:0:0:0:
109,192,153250,1,0,0:0:0:0:
402,192,153250,1,0,0:0:0:0:
329,192,153375,1,0,0:0:0:0:
256,192,153375,1,0,0:0:0:0:
402,192,153500,128,0,154000:0:0:0:0:
109,192,153500,128,0,154000:0:0:0:0:
182,192,153500,1,0,0:0:0:0:
256,192,153500,1,0,0:0:0:0:
329,192,153625,1,0,0:0:0:0:
475,192,153625,1,0,0:0:0:0:
36,192,153625,1,0,0:0:0:0:
182,192,153750,1,0,0:0:0:0:
256,192,153750,1,0,0:0:0:0:
475,192,153750,1,0,0:0:0:0:
36,192,153875,1,0,0:0:0:0:
182,192,153875,1,0,0:0:0:0:
329,192,154000,128,0,154500:0:0:0:0:
475,192,154000,128,0,154500:0:0:0:0:
256,192,154000,1,0,0:0:0:0:
36,192,154000,1,0,0:0:0:0:
109,192,154125,1,0,0:0:0:0:
402,192,154125,1,0,0:0:0:0:
182,192,154250,1,0,0:0:0:0:
256,192,154250,1,0,0:0:0:0:
36,192,154250,1,0,0:0:0:0:
256,192,154500,128,0,155250:0:0:0:0:
109,192,154500,128,0,155500:0:0:0:0:
402,192,154500,1,0,0:0:0:0:
182,192,154500,1,0,0:0:0:0:
36,192,154500,1,0,0:0:0:0:
329,192,154625,1,0,0:0:0:0:
475,192,154750,1,0,0:0:0:0:
402,192,154750,1,0,0:0:0:0:
182,192,154750,1,0,0:0:0:0:
182,192,154875,1,0,0:0:0:0:
329,192,155000,1,0,0:0:0:0:
36,192,155000,1,0,0:0:0:0:
475,192,155000,1,0,0:0:0:0:
402,192,155125,1,0,0:0:0:0:
182,192,155250,1,0,0:0:0:0:
329,192,155250,1,0,0:0:0:0:
402,192,155250,1,0,0:0:0:0:
256,192,155375,1,0,0:0:0:0:
36,192,155500,128,0,156500:0:0:0:0:
182,192,155500,128,0,156000:0:0:0:0:
256,192,155500,1,0,0:0:0:0:
329,192,155500,1,0,0:0:0:0:
475,192,155500,1,0,0:0:0:0:
402,192,155625,1,0,0:0:0:0:
109,192,155750,1,0,0:0:0:0:
329,192,155750,1,0,0:0:0:0:
402,192,155750,1,0,0:0:0:0:
256,192,155875,1,0,0:0:0:0:
475,192,156000,128,0,156500:0:0:0:0:
109,192,156000,1,0,0:0:0:0:
256,192,156000,1,0,0:0:0:0:
402,192,156000,1,0,0:0:0:0:
109,192,156125,1,0,0:0:0:0:
256,192,156250,1,0,0:0:0:0:
329,192,156250,1,0,0:0:0:0:
182,192,156250,1,0,0:0:0:0:
402,192,156375,1,0,0:0:0:0:
329,192,156500,128,0,157250:0:0:0:0:
402,192,156500,128,0,157500:0:0:0:0:
109,192,156500,1,0,0:0:0:0:
182,192,156500,1,0,0:0:0:0:
256,192,156500,1,0,0:0:0:0:
475,192,156625,1,0,0:0:0:0:
36,192,156750,1,0,0:0:0:0:
109,192,156750,1,0,0:0:0:0:
182,192,156750,1,0,0:0:0:0:
256,192,156875,1,0,0:0:0:0:
182,192,157000,1,0,0:0:0:0:
475,192,157000,1,0,0:0:0:0:
256,192,157000,1,0,0:0:0:0:
109,192,157125,1,0,0:0:0:0:
36,192,157250,1,0,0:0:0:0:
182,192,157250,1,0,0:0:0:0:
475,192,157250,1,0,0:0:0:0:
182,192,157375,1,0,0:0:0:0:
256,192,157500,128,0,158000:0:0:0:0:
109,192,157500,128,0,158000:0:0:0:0:
36,192,157500,1,0,0:0:0:0:
329,192,157500,1,0,0:0:0:0:
475,192,157500,1,0,0:0:0:0:
402,192,157625,1,0,0:0:0:0:
182,192,157750,1,0,0:0:0:0:
402,192,157750,1,0,0:0:0:0:
36,192,157750,1,0,0:0:0:0:
329,192,157875,1,0,0:0:0:0:
402,192,158000,128,0,158500:0:0:0:0:
475,192,158000,128,0,158500:0:0:0:0:
36,192,158000,1,0,0:0:0:0:
182,192,158000,1,0,0:0:0:0:
329,192,158000,1,0,0:0:0:0:
182,192,158125,1,0,0:0:0:0:
36,192,158125,1,0,0:0:0:0:
36,192,158250,1,0,0:0:0:0:
182,192,158250,1,0,0:0:0:0:
182,192,158375,1,0,0:0:0:0:
36,192,158375,1,0,0:0:0:0:
182,192,158500,128,0,159500:0:0:0:0:
256,192,158500,128,0,159250:0:0:0:0:
36,192,158500,1,0,0:0:0:0:
329,192,158500,1,0,0:0:0:0:
109,192,158500,1,0,0:0:0:0:
402,192,158625,1,0,0:0:0:0:
109,192,158750,1,0,0:0:0:0:
329,192,158750,1,0,0:0:0:0:
475,192,158750,1,0,0:0:0:0:
36,192,158875,1,0,0:0:0:0:
402,192,159000,1,0,0:0:0:0:
329,192,159000,1,0,0:0:0:0:
36,192,159000,1,0,0:0:0:0:
329,192,159125,1,0,0:0:0:0:
109,192,159250,1,0,0:0:0:0:
402,192,159250,1,0,0:0:0:0:
475,192,159250,1,0,0:0:0:0:
256,192,159375,1,0,0:0:0:0:
109,192,159500,128,0,160000:0:0:0:0:
329,192,159500,128,0,160000:0:0:0:0:
36,192,159500,1,0,0:0:0:0:
256,192,159500,1,0,0:0:0:0:
475,192,159500,1,0,0:0:0:0:
402,192,159625,1,0,0:0:0:0:
182,192,159750,1,0,0:0:0:0:
256,192,159750,1,0,0:0:0:0:
402,192,159750,1,0,0:0:0:0:
36,192,159875,1,0,0:0:0:0:
36,192,160000,128,0,160500:0:0:0:0:
402,192,160000,128,0,160500:0:0:0:0:
182,192,160000,1,0,0:0:0:0:
256,192,160000,1,0,0:0:0:0:
475,192,160000,1,0,0:0:0:0:
109,192,160125,1,0,0:0:0:0:
109,192,160250,1,0,0:0:0:0:
182,192,160250,1,0,0:0:0:0:
329,192,160250,1,0,0:0:0:0:
256,192,160375,1,0,0:0:0:0:
109,192,160500,128,0,161500:0:0:0:0:
329,192,160500,128,0,161000:0:0:0:0:
256,192,160500,1,0,0:0:0:0:
475,192,160500,1,0,0:0:0:0:
182,192,160500,1,0,0:0:0:0:
36,192,160750,1,0,0:0:0:0:
182,192,160750,1,0,0:0:0:0:
475,192,160750,1,0,0:0:0:0:
36,192,161000,128,0,161500:0:0:0:0:
182,192,161000,1,0,0:0:0:0:
402,192,161000,1,0,0:0:0:0:
256,192,161000,1,0,0:0:0:0:
329,192,161250,1,0,0:0:0:0:
402,192,161250,1,0,0:0:0:0:
475,192,161250,1,0,0:0:0:0:
256,192,161500,128,0,162000:0:0:0:0:
182,192,161500,1,0,0:0:0:0:
329,192,161500,1,0,0:0:0:0:
475,192,161500,1,0,0:0:0:0:
402,192,161625,1,0,0:0:0:0:
109,192,161625,1,0,0:0:0:0:
36,192,161750,1,0,0:0:0:0:
182,192,161750,1,0,0:0:0:0:
329,192,161750,1,0,0:0:0:0:
475,192,162000,128,0,162500:0:0:0:0:
36,192,162000,128,0,162500:0:0:0:0:
109,192,162000,1,0,0:0:0:0:
182,192,162000,1,0,0:0:0:0:
402,192,162000,1,0,0:0:0:0:
182,192,162125,1,0,0:0:0:0:
256,192,162125,1,0,0:0:0:0:
329,192,162125,1,0,0:0:0:0:
402,192,162125,1,0,0:0:0:0:
109,192,162250,1,0,0:0:0:0:
256,192,162250,1,0,0:0:0:0:
402,192,162250,1,0,0:0:0:0:
329,192,162500,128,0,163250:0:0:0:0:
109,192,162500,128,0,163500:0:0:0:0:
182,192,162500,1,0,0:0:0:0:
256,192,162500,1,0,0:0:0:0:
402,192,162500,1,0,0:0:0:0:
256,192,162625,1,0,0:0:0:0:
36,192,162750,1,0,0:0:0:0:
182,192,162750,1,0,0:0:0:0:
475,192,162750,1,0,0:0:0:0:
182,192,162875,1,0,0:0:0:0:
402,192,163000,1,0,0:0:0:0:
256,192,163000,1,0,0:0:0:0:
36,192,163000,1,0,0:0:0:0:
36,192,163125,1,0,0:0:0:0:
182,192,163250,1,0,0:0:0:0:
402,192,163250,1,0,0:0:0:0:
475,192,163250,1,0,0:0:0:0:
402,192,163375,1,0,0:0:0:0:
182,192,163500,128,0,164000:0:0:0:0:
256,192,163500,128,0,164000:0:0:0:0:
36,192,163500,1,0,0:0:0:0:
329,192,163500,1,0,0:0:0:0:
475,192,163500,1,0,0:0:0:0:
475,192,163625,1,0,0:0:0:0:
402,192,163750,1,0,0:0:0:0:
329,192,163750,1,0,0:0:0:0:
109,192,163750,1,0,0:0:0:0:
36,192,163875,1,0,0:0:0:0:
475,192,164000,128,0,164500:0:0:0:0:
402,192,164000,128,0,164500:0:0:0:0:
36,192,164000,1,0,0:0:0:0:
109,192,164000,1,0,0:0:0:0:
329,192,164000,1,0,0:0:0:0:
256,192,164125,1,0,0:0:0:0:
36,192,164250,1,0,0:0:0:0:
182,192,164250,1,0,0:0:0:0:
329,192,164250,1,0,0:0:0:0:
109,192,164375,1,0,0:0:0:0:
329,192,164500,128,0,165250:0:0:0:0:
109,192,164500,128,0,165000:0:0:0:0:
256,192,164500,1,0,0:0:0:0:
182,192,164500,1,0,0:0:0:0:
36,192,164500,1,0,0:0:0:0:
256,192,164625,1,0,0:0:0:0:
475,192,164750,1,0,0:0:0:0:
402,192,164750,1,0,0:0:0:0:
182,192,164750,1,0,0:0:0:0:
182,192,164875,1,0,0:0:0:0:
402,192,165000,128,0,165500:0:0:0:0:
36,192,165000,1,0,0:0:0:0:
256,192,165000,1,0,0:0:0:0:
475,192,165000,1,0,0:0:0:0:
36,192,165125,1,0,0:0:0:0:
109,192,165250,1,0,0:0:0:0:
182,192,165250,1,0,0:0:0:0:
475,192,165250,1,0,0:0:0:0:
329,192,165375,1,0,0:0:0:0:
36,192,165500,128,0,166000:0:0:0:0:
182,192,165500,128,0,166000:0:0:0:0:
109,192,165500,1,0,0:0:0:0:
256,192,165500,1,0,0:0:0:0:
329,192,165500,1,0,0:0:0:0:
475,192,165625,1,0,0:0:0:0:
475,192,165750,1,0,0:0:0:0:
402,192,165750,1,0,0:0:0:0:
329,192,165750,1,0,0:0:0:0:
256,192,165875,1,0,0:0:0:0:
475,192,166000,128,0,166500:0:0:0:0:
109,192,166000,128,0,166500:0:0:0:0:
256,192,166000,1,0,0:0:0:0:
329,192,166000,1,0,0:0:0:0:
402,192,166000,1,0,0:0:0:0:
329,192,166125,1,0,0:0:0:0:
36,192,166250,1,0,0:0:0:0:
182,192,166250,1,0,0:0:0:0:
402,192,166250,1,0,0:0:0:0:
256,192,166375,1,0,0:0:0:0:
256,192,166500,128,0,167000:0:0:0:0:
402,192,166500,128,0,167500:0:0:0:0:
329,192,166500,1,0,0:0:0:0:
182,192,166500,1,0,0:0:0:0:
36,192,166500,1,0,0:0:0:0:
36,192,166625,1,0,0:0:0:0:
109,192,166750,1,0,0:0:0:0:
182,192,166750,1,0,0:0:0:0:
475,192,166750,1,0,0:0:0:0:
329,192,166875,1,0,0:0:0:0:
109,192,167000,128,0,167500:0:0:0:0:
36,192,167000,1,0,0:0:0:0:
182,192,167000,1,0,0:0:0:0:
475,192,167000,1,0,0:0:0:0:
475,192,167125,1,0,0:0:0:0:
329,192,167250,1,0,0:0:0:0:
256,192,167250,1,0,0:0:0:0:
182,192,167250,1,0,0:0:0:0:
329,192,167375,1,0,0:0:0:0:
256,192,167500,128,0,168000:0:0:0:0:
36,192,167500,1,0,0:0:0:0:
182,192,167500,1,0,0:0:0:0:
475,192,167500,1,0,0:0:0:0:
402,192,167625,1,0,0:0:0:0:
109,192,167750,1,0,0:0:0:0:
329,192,167750,1,0,0:0:0:0:
36,192,167750,1,0,0:0:0:0:
475,192,167875,1,0,0:0:0:0:
402,192,168000,128,0,168500:0:0:0:0:
329,192,168000,128,0,168375:0:0:0:0:
36,192,168000,1,0,0:0:0:0:
182,192,168000,1,0,0:0:0:0:
109,192,168125,1,0,0:0:0:0:
256,192,168125,1,0,0:0:0:0:
475,192,168250,1,0,0:0:0:0:
36,192,168250,1,0,0:0:0:0:
256,192,168375,128,0,168500:0:0:0:0:
182,192,168375,1,0,0:0:0:0:
109,192,168375,1,0,0:0:0:0:
475,192,168500,128,0,169500:0:0:0:0:
36,192,168500,128,0,169500:0:0:0:0:
109,192,168500,1,0,0:0:0:0:
329,192,168500,1,0,0:0:0:0:
256,192,168625,1,0,0:0:0:0:
402,192,168625,1,0,0:0:0:0:
182,192,168750,1,0,0:0:0:0:
329,192,168750,1,0,0:0:0:0:
256,192,168875,1,0,0:0:0:0:
402,192,168875,128,0,169250:0:0:0:0:
109,192,168875,1,0,0:0:0:0:
182,192,169000,1,0,0:0:0:0:
329,192,169000,1,0,0:0:0:0:
256,192,169250,1,0,0:0:0:0:
329,192,169250,128,0,169500:0:0:0:0:
182,192,169250,1,0,0:0:0:0:
109,192,169500,1,0,0:0:0:0:
256,192,169500,1,0,0:0:0:0:
402,192,169500,1,0,0:0:0:0:
182,192,169500,128,0,170000:0:0:0:0:
36,192,169750,1,0,0:0:0:0:
109,192,169750,1,0,0:0:0:0:
256,192,169750,1,0,0:0:0:0:
329,192,169750,1,0,0:0:0:0:
475,192,170000,128,0,170500:0:0:0:0:
109,192,170000,128,0,170500:0:0:0:0:
402,192,170000,1,0,0:0:0:0:
329,192,170000,1,0,0:0:0:0:
256,192,170000,1,0,0:0:0:0:
36,192,170000,1,0,0:0:0:0:
36,192,170250,1,0,0:0:0:0:
182,192,170250,1,0,0:0:0:0:
329,192,170250,1,0,0:0:0:0:
402,192,170250,1,0,0:0:0:0:
329,192,170500,128,0,171250:0:0:0:0:
256,192,170500,128,0,171500:0:0:0:0:
36,192,170500,1,0,0:0:0:0:
182,192,170500,1,0,0:0:0:0:
402,192,170500,1,0,0:0:0:0:
109,192,170625,1,0,0:0:0:0:
36,192,170750,1,0,0:0:0:0:
182,192,170750,1,0,0:0:0:0:
475,192,170750,1,0,0:0:0:0:
402,192,170875,1,0,0:0:0:0:
109,192,171000,1,0,0:0:0:0:
182,192,171000,1,0,0:0:0:0:
475,192,171000,1,0,0:0:0:0:
36,192,171125,1,0,0:0:0:0:
109,192,171250,1,0,0:0:0:0:
182,192,171250,1,0,0:0:0:0:
402,192,171250,1,0,0:0:0:0:
475,192,171375,1,0,0:0:0:0:
109,192,171500,128,0,172000:0:0:0:0:
36,192,171500,128,0,172500:0:0:0:0:
182,192,171500,1,0,0:0:0:0:
329,192,171500,1,0,0:0:0:0:
402,192,171500,1,0,0:0:0:0:
256,192,171625,1,0,0:0:0:0:
182,192,171750,1,0,0:0:0:0:
329,192,171750,1,0,0:0:0:0:
475,192,171750,1,0,0:0:0:0:
402,192,171875,1,0,0:0:0:0:
475,192,172000,128,0,172500:0:0:0:0:
402,192,172000,1,0,0:0:0:0:
329,192,172000,1,0,0:0:0:0:
256,192,172000,1,0,0:0:0:0:
182,192,172125,1,0,0:0:0:0:
109,192,172250,1,0,0:0:0:0:
402,192,172250,1,0,0:0:0:0:
329,192,172250,1,0,0:0:0:0:
256,192,172375,1,0,0:0:0:0:
256,192,172500,128,0,173500:0:0:0:0:
329,192,172500,128,0,173250:0:0:0:0:
109,192,172500,1,0,0:0:0:0:
182,192,172500,1,0,0:0:0:0:
402,192,172500,1,0,0:0:0:0:
109,192,172625,1,0,0:0:0:0:
36,192,172750,1,0,0:0:0:0:
182,192,172750,1,0,0:0:0:0:
475,192,172750,1,0,0:0:0:0:
182,192,172875,1,0,0:0:0:0:
36,192,173000,1,0,0:0:0:0:
109,192,173000,1,0,0:0:0:0:
402,192,173000,1,0,0:0:0:0:
475,192,173125,1,0,0:0:0:0:
182,192,173250,1,0,0:0:0:0:
402,192,173250,1,0,0:0:0:0:
475,192,173250,1,0,0:0:0:0:
36,192,173375,1,0,0:0:0:0:
109,192,173500,128,0,174000:0:0:0:0:
182,192,173500,128,0,174000:0:0:0:0:
36,192,173500,1,0,0:0:0:0:
402,192,173500,1,0,0:0:0:0:
475,192,173500,1,0,0:0:0:0:
329,192,173625,1,0,0:0:0:0:
256,192,173750,1,0,0:0:0:0:
329,192,173750,1,0,0:0:0:0:
475,192,173750,1,0,0:0:0:0:
402,192,173875,1,0,0:0:0:0:
475,192,174000,128,0,174500:0:0:0:0:
329,192,174000,128,0,174500:0:0:0:0:
402,192,174000,1,0,0:0:0:0:
256,192,174000,1,0,0:0:0:0:
36,192,174000,1,0,0:0:0:0:
109,192,174125,1,0,0:0:0:0:
182,192,174250,1,0,0:0:0:0:
256,192,174250,1,0,0:0:0:0:
36,192,174250,1,0,0:0:0:0:
109,192,174375,1,0,0:0:0:0:
36,192,174500,128,0,175250:0:0:0:0:
256,192,174500,128,0,175500:0:0:0:0:
402,192,174500,1,0,0:0:0:0:
182,192,174500,1,0,0:0:0:0:
109,192,174500,1,0,0:0:0:0:
182,192,174625,1,0,0:0:0:0:
109,192,174750,1,0,0:0:0:0:
329,192,174750,1,0,0:0:0:0:
475,192,174750,1,0,0:0:0:0:
402,192,174875,1,0,0:0:0:0:
182,192,175000,1,0,0:0:0:0:
329,192,175000,1,0,0:0:0:0:
402,192,175000,1,0,0:0:0:0:
475,192,175125,1,0,0:0:0:0:
109,192,175250,1,0,0:0:0:0:
182,192,175250,1,0,0:0:0:0:
475,192,175250,1,0,0:0:0:0:
329,192,175375,1,0,0:0:0:0:
109,192,175500,128,0,176000:0:0:0:0:
182,192,175500,128,0,176000:0:0:0:0:
402,192,175500,1,0,0:0:0:0:
329,192,175500,1,0,0:0:0:0:
36,192,175500,1,0,0:0:0:0:
475,192,175625,1,0,0:0:0:0:
256,192,175750,1,0,0:0:0:0:
402,192,175750,1,0,0:0:0:0:
329,192,175750,1,0,0:0:0:0:
36,192,175875,1,0,0:0:0:0:
36,192,176000,128,0,176500:0:0:0:0:
329,192,176000,128,0,176500:0:0:0:0:
475,192,176000,1,0,0:0:0:0:
402,192,176000,1,0,0:0:0:0:
256,192,176000,1,0,0:0:0:0:
182,192,176125,1,0,0:0:0:0:
109,192,176250,1,0,0:0:0:0:
256,192,176250,1,0,0:0:0:0:
475,192,176250,1,0,0:0:0:0:
182,192,176375,1,0,0:0:0:0:
256,192,176500,128,0,177000:0:0:0:0:
402,192,176500,128,0,177500:0:0:0:0:
109,192,176500,1,0,0:0:0:0:
182,192,176500,1,0,0:0:0:0:
475,192,176500,1,0,0:0:0:0:
36,192,176750,1,0,0:0:0:0:
182,192,176750,1,0,0:0:0:0:
329,192,176750,1,0,0:0:0:0:
109,192,177000,128,0,177500:0:0:0:0:
36,192,177000,1,0,0:0:0:0:
329,192,177000,1,0,0:0:0:0:
475,192,177000,1,0,0:0:0:0:
182,192,177250,1,0,0:0:0:0:
256,192,177250,1,0,0:0:0:0:
36,192,177250,1,0,0:0:0:0:
182,192,177500,128,0,178000:0:0:0:0:
256,192,177500,1,0,0:0:0:0:
329,192,177500,1,0,0:0:0:0:
402,192,177625,1,0,0:0:0:0:
475,192,177625,1,0,0:0:0:0:
109,192,177750,1,0,0:0:0:0:
36,192,177750,1,0,0:0:0:0:
329,192,177875,1,0,0:0:0:0:
402,192,177875,1,0,0:0:0:0:
475,192,178000,128,0,178500:0:0:0:0:
256,192,178000,128,0,178500:0:0:0:0:
109,192,178000,1,0,0:0:0:0:
36,192,178000,1,0,0:0:0:0:
182,192,178125,1,0,0:0:0:0:
329,192,178125,1,0,0:0:0:0:
109,192,178250,1,0,0:0:0:0:
36,192,178250,1,0,0:0:0:0:
182,192,178375,1,0,0:0:0:0:
402,192,178375,1,0,0:0:0:0:
109,192,178500,128,0,179500:0:0:0:0:
329,192,178500,128,0,179250:0:0:0:0:
36,192,178500,1,0,0:0:0:0:
182,192,178500,1,0,0:0:0:0:
402,192,178500,1,0,0:0:0:0:
402,192,178625,1,0,0:0:0:0:
182,192,178750,1,0,0:0:0:0:
256,192,178750,1,0,0:0:0:0:
475,192,178750,1,0,0:0:0:0:
36,192,178875,1,0,0:0:0:0:
36,192,179000,1,0,0:0:0:0:
182,192,179000,1,0,0:0:0:0:
256,192,179000,1,0,0:0:0:0:
256,192,179125,1,0,0:0:0:0:
475,192,179250,1,0,0:0:0:0:
402,192,179250,1,0,0:0:0:0:
36,192,179250,1,0,0:0:0:0:
329,192,179375,1,0,0:0:0:0:
182,192,179500,128,0,180000:0:0:0:0:
36,192,179500,128,0,180000:0:0:0:0:
256,192,179500,1,0,0:0:0:0:
329,192,179500,1,0,0:0:0:0:
402,192,179500,1,0,0:0:0:0:
402,192,179625,1,0,0:0:0:0:
109,192,179750,1,0,0:0:0:0:
256,192,179750,1,0,0:0:0:0:
475,192,179750,1,0,0:0:0:0:
329,192,179875,1,0,0:0:0:0:
475,192,180000,128,0,180500:0:0:0:0:
402,192,180000,128,0,180500:0:0:0:0:
329,192,180000,1,0,0:0:0:0:
256,192,180000,1,0,0:0:0:0:
109,192,180000,1,0,0:0:0:0:
182,192,180125,1,0,0:0:0:0:
36,192,180250,1,0,0:0:0:0:
109,192,180250,1,0,0:0:0:0:
329,192,180250,1,0,0:0:0:0:
182,192,180375,1,0,0:0:0:0:
329,192,180500,128,0,181250:0:0:0:0:
256,192,180500,128,0,181500:0:0:0:0:
182,192,180500,1,0,0:0:0:0:
109,192,180500,1,0,0:0:0:0:
36,192,180500,1,0,0:0:0:0:
402,192,180625,1,0,0:0:0:0:
109,192,180750,1,0,0:0:0:0:
182,192,180750,1,0,0:0:0:0:
475,192,180750,1,0,0:0:0:0:
36,192,180875,1,0,0:0:0:0:
402,192,181000,1,0,0:0:0:0:
182,192,181000,1,0,0:0:0:0:
36,192,181000,1,0,0:0:0:0:
475,192,181125,1,0,0:0:0:0:
109,192,181250,1,0,0:0:0:0:
182,192,181250,1,0,0:0:0:0:
402,192,181250,1,0,0:0:0:0:
402,192,181375,1,0,0:0:0:0:
475,192,181500,128,0,182000:0:0:0:0:
109,192,181500,128,0,182000:0:0:0:0:
36,192,181500,1,0,0:0:0:0:
182,192,181500,1,0,0:0:0:0:
329,192,181500,1,0,0:0:0:0:
256,192,181625,1,0,0:0:0:0:
182,192,181750,1,0,0:0:0:0:
256,192,181750,1,0,0:0:0:0:
402,192,181750,1,0,0:0:0:0:
36,192,181875,1,0,0:0:0:0:
402,192,182000,128,0,182500:0:0:0:0:
329,192,182000,128,0,182500:0:0:0:0:
36,192,182000,1,0,0:0:0:0:
182,192,182000,1,0,0:0:0:0:
256,192,182000,1,0,0:0:0:0:
256,192,182125,1,0,0:0:0:0:
109,192,182250,1,0,0:0:0:0:
36,192,182250,1,0,0:0:0:0:
475,192,182250,1,0,0:0:0:0:
182,192,182375,1,0,0:0:0:0:
36,192,182375,1,0,0:0:0:0:
256,192,182500,128,0,183000:0:0:0:0:
182,192,182500,1,0,0:0:0:0:
109,192,182500,1,0,0:0:0:0:
475,192,182500,1,0,0:0:0:0:
402,192,182625,1,0,0:0:0:0:
109,192,182750,128,0,183500:0:0:0:0:
182,192,182750,1,0,0:0:0:0:
329,192,182750,1,0,0:0:0:0:
475,192,182750,1,0,0:0:0:0:
182,192,182875,1,0,0:0:0:0:
36,192,183000,128,0,183500:0:0:0:0:
402,192,183000,1,0,0:0:0:0:
329,192,183000,1,0,0:0:0:0:
475,192,183000,1,0,0:0:0:0:
475,192,183125,1,0,0:0:0:0:
182,192,183250,1,0,0:0:0:0:
256,192,183250,1,0,0:0:0:0:
329,192,183250,1,0,0:0:0:0:
329,192,183375,1,0,0:0:0:0:
182,192,183500,128,0,184000:0:0:0:0:
256,192,183500,1,0,0:0:0:0:
402,192,183500,1,0,0:0:0:0:
475,192,183500,1,0,0:0:0:0:
402,192,183625,1,0,0:0:0:0:
36,192,183750,1,0,0:0:0:0:
109,192,183750,1,0,0:0:0:0:
329,192,183750,1,0,0:0:0:0:
475,192,183875,1,0,0:0:0:0:
329,192,184000,128,0,184500:0:0:0:0:
109,192,184000,1,0,0:0:0:0:
256,192,184000,1,0,0:0:0:0:
402,192,184000,1,0,0:0:0:0:
36,192,184000,1,0,0:0:0:0:
182,192,184125,1,0,0:0:0:0:
256,192,184125,1,0,0:0:0:0:
36,192,184250,1,0,0:0:0:0:
109,192,184250,1,0,0:0:0:0:
402,192,184250,1,0,0:0:0:0:
475,192,184250,1,0,0:0:0:0:
182,192,184375,1,0,0:0:0:0:
475,192,184500,128,0,185500:0:0:0:0:
109,192,184500,128,0,185500:0:0:0:0:
36,192,184500,1,0,0:0:0:0:
182,192,184500,1,0,0:0:0:0:
256,192,184500,1,0,0:0:0:0:
402,192,184500,1,0,0:0:0:0:
329,192,184625,1,0,0:0:0:0:
182,192,184750,1,0,0:0:0:0:
256,192,184750,1,0,0:0:0:0:
36,192,184750,1,0,0:0:0:0:
402,192,184875,1,0,0:0:0:0:
329,192,184875,1,0,0:0:0:0:
36,192,185000,1,0,0:0:0:0:
182,192,185000,1,0,0:0:0:0:
402,192,185125,1,0,0:0:0:0:
256,192,185125,1,0,0:0:0:0:
36,192,185250,1,0,0:0:0:0:
182,192,185250,1,0,0:0:0:0:
329,192,185250,1,0,0:0:0:0:
329,192,185375,1,0,0:0:0:0:
402,192,185375,1,0,0:0:0:0:
182,192,185500,128,0,186500:0:0:0:0:
36,192,185500,128,0,185750:0:0:0:0:
256,192,185500,1,0,0:0:0:0:
402,192,185500,1,0,0:0:0:0:
329,192,185625,1,0,0:0:0:0:
109,192,185750,128,0,186000:0:0:0:0:
475,192,185750,1,0,0:0:0:0:
402,192,185750,1,0,0:0:0:0:
256,192,185750,1,0,0:0:0:0:
475,192,186000,128,0,186500:0:0:0:0:
256,192,186000,128,0,186250:0:0:0:0:
402,192,186000,1,0,0:0:0:0:
36,192,186000,1,0,0:0:0:0:
402,192,186250,128,0,186500:0:0:0:0:
36,192,186250,1,0,0:0:0:0:
109,192,186250,1,0,0:0:0:0:
329,192,186250,1,0,0:0:0:0:
329,192,186500,128,0,187250:0:0:0:0:
256,192,186500,1,0,0:0:0:0:
36,192,186500,1,0,0:0:0:0:
109,192,186500,128,0,187500:0:0:0:0:
402,192,186625,1,0,0:0:0:0:
182,192,186750,1,0,0:0:0:0:
256,192,186750,1,0,0:0:0:0:
475,192,186750,1,0,0:0:0:0:
402,192,186875,1,0,0:0:0:0:
182,192,187000,1,0,0:0:0:0:
36,192,187000,1,0,0:0:0:0:
256,192,187000,1,0,0:0:0:0:
36,192,187125,1,0,0:0:0:0:
182,192,187250,1,0,0:0:0:0:
402,192,187250,1,0,0:0:0:0:
475,192,187250,1,0,0:0:0:0:
329,192,187375,1,0,0:0:0:0:
36,192,187500,128,0,188500:0:0:0:0:
182,192,187500,128,0,188000:0:0:0:0:
256,192,187500,1,0,0:0:0:0:
329,192,187500,1,0,0:0:0:0:
402,192,187500,1,0,0:0:0:0:
475,192,187625,1,0,0:0:0:0:
109,192,187750,1,0,0:0:0:0:
256,192,187750,1,0,0:0:0:0:
402,192,187750,1,0,0:0:0:0:
256,192,187875,1,0,0:0:0:0:
402,192,188000,128,0,188500:0:0:0:0:
475,192,188000,1,0,0:0:0:0:
329,192,188000,1,0,0:0:0:0:
109,192,188000,1,0,0:0:0:0:
109,192,188125,1,0,0:0:0:0:
182,192,188250,1,0,0:0:0:0:
256,192,188250,1,0,0:0:0:0:
329,192,188250,1,0,0:0:0:0:
475,192,188375,1,0,0:0:0:0:
475,192,188500,128,0,189500:0:0:0:0:
329,192,188500,128,0,189250:0:0:0:0:
109,192,188500,1,0,0:0:0:0:
182,192,188500,1,0,0:0:0:0:
256,192,188500,1,0,0:0:0:0:
109,192,188625,1,0,0:0:0:0:
36,192,188750,1,0,0:0:0:0:
256,192,188750,1,0,0:0:0:0:
402,192,188750,1,0,0:0:0:0:
182,192,188875,1,0,0:0:0:0:
109,192,189000,1,0,0:0:0:0:
182,192,189000,1,0,0:0:0:0:
36,192,189000,1,0,0:0:0:0:
36,192,189125,1,0,0:0:0:0:
402,192,189250,1,0,0:0:0:0:
182,192,189250,1,0,0:0:0:0:
256,192,189250,1,0,0:0:0:0:
329,192,189375,1,0,0:0:0:0:
402,192,189500,128,0,190000:0:0:0:0:
109,192,189500,128,0,190000:0:0:0:0:
36,192,189500,1,0,0:0:0:0:
256,192,189500,1,0,0:0:0:0:
329,192,189500,1,0,0:0:0:0:
182,192,189625,1,0,0:0:0:0:
182,192,189750,1,0,0:0:0:0:
36,192,189750,1,0,0:0:0:0:
475,192,189750,1,0,0:0:0:0:
329,192,189875,1,0,0:0:0:0:
475,192,190000,128,0,190500:0:0:0:0:
329,192,190000,128,0,190500:0:0:0:0:
182,192,190000,1,0,0:0:0:0:
36,192,190000,1,0,0:0:0:0:
256,192,190000,1,0,0:0:0:0:
109,192,190125,1,0,0:0:0:0:
36,192,190250,1,0,0:0:0:0:
109,192,190250,1,0,0:0:0:0:
182,192,190250,1,0,0:0:0:0:
402,192,190375,1,0,0:0:0:0:
182,192,190500,128,0,191500:0:0:0:0:
256,192,190500,128,0,191250:0:0:0:0:
402,192,190500,1,0,0:0:0:0:
109,192,190500,1,0,0:0:0:0:
36,192,190500,1,0,0:0:0:0:
475,192,190625,1,0,0:0:0:0:
329,192,190750,1,0,0:0:0:0:
402,192,190750,1,0,0:0:0:0:
109,192,190750,1,0,0:0:0:0:
329,192,190875,1,0,0:0:0:0:
402,192,191000,1,0,0:0:0:0:
475,192,191000,1,0,0:0:0:0:
36,192,191000,1,0,0:0:0:0:
109,192,191125,1,0,0:0:0:0:
109,192,191250,1,0,0:0:0:0:
329,192,191250,1,0,0:0:0:0:
475,192,191250,1,0,0:0:0:0:
36,192,191375,1,0,0:0:0:0:
109,192,191500,128,0,192000:0:0:0:0:
329,192,191500,128,0,192000:0:0:0:0:
36,192,191500,1,0,0:0:0:0:
256,192,191500,1,0,0:0:0:0:
475,192,191500,1,0,0:0:0:0:
182,192,191625,1,0,0:0:0:0:
256,192,191750,1,0,0:0:0:0:
36,192,191750,1,0,0:0:0:0:
402,192,191750,1,0,0:0:0:0:
475,192,191875,1,0,0:0:0:0:
36,192,192000,128,0,192500:0:0:0:0:
402,192,192000,128,0,192500:0:0:0:0:
256,192,192000,1,0,0:0:0:0:
182,192,192000,1,0,0:0:0:0:
475,192,192000,1,0,0:0:0:0:
329,192,192125,1,0,0:0:0:0:
256,192,192250,1,0,0:0:0:0:
475,192,192250,1,0,0:0:0:0:
109,192,192250,1,0,0:0:0:0:
182,192,192375,1,0,0:0:0:0:
109,192,192500,128,0,193500:0:0:0:0:
329,192,192500,128,0,193000:0:0:0:0:
182,192,192500,1,0,0:0:0:0:
256,192,192500,1,0,0:0:0:0:
475,192,192500,1,0,0:0:0:0:
402,192,192750,1,0,0:0:0:0:
256,192,192750,1,0,0:0:0:0:
36,192,192750,1,0,0:0:0:0:
182,192,193000,128,0,193500:0:0:0:0:
36,192,193000,1,0,0:0:0:0:
402,192,193000,1,0,0:0:0:0:
475,192,193000,1,0,0:0:0:0:
329,192,193250,1,0,0:0:0:0:
402,192,193250,1,0,0:0:0:0:
256,192,193250,1,0,0:0:0:0:
256,192,193500,128,0,194000:0:0:0:0:
36,192,193500,1,0,0:0:0:0:
329,192,193500,1,0,0:0:0:0:
475,192,193500,1,0,0:0:0:0:
36,192,193750,1,0,0:0:0:0:
109,192,193750,1,0,0:0:0:0:
329,192,193750,1,0,0:0:0:0:
182,192,194000,128,0,194500:0:0:0:0:
475,192,194000,128,0,194500:0:0:0:0:
402,192,194000,1,0,0:0:0:0:
109,192,194000,1,0,0:0:0:0:
36,192,194000,1,0,0:0:0:0:
256,192,194250,1,0,0:0:0:0:
402,192,194250,1,0,0:0:0:0:
109,192,194250,1,0,0:0:0:0:
256,192,194500,128,0,195500:0:0:0:0:
329,192,194500,128,0,195250:0:0:0:0:
36,192,194500,1,0,0:0:0:0:
109,192,194500,1,0,0:0:0:0:
402,192,194500,1,0,0:0:0:0:
36,192,194625,1,0,0:0:0:0:
109,192,194750,1,0,0:0:0:0:
182,192,194750,1,0,0:0:0:0:
475,192,194750,1,0,0:0:0:0:
402,192,194875,1,0,0:0:0:0:
402,192,195000,1,0,0:0:0:0:
182,192,195000,1,0,0:0:0:0:
36,192,195000,1,0,0:0:0:0:
182,192,195125,1,0,0:0:0:0:
109,192,195250,1,0,0:0:0:0:
402,192,195250,1,0,0:0:0:0:
475,192,195250,1,0,0:0:0:0:
329,192,195375,1,0,0:0:0:0:
36,192,195500,128,0,196000:0:0:0:0:
109,192,195500,128,0,196000:0:0:0:0:
182,192,195500,1,0,0:0:0:0:
329,192,195500,1,0,0:0:0:0:
475,192,195500,1,0,0:0:0:0:
402,192,195625,1,0,0:0:0:0:
402,192,195750,1,0,0:0:0:0:
256,192,195750,1,0,0:0:0:0:
182,192,195750,1,0,0:0:0:0:
475,192,195875,1,0,0:0:0:0:
182,192,196000,128,0,196500:0:0:0:0:
475,192,196000,128,0,196500:0:0:0:0:
256,192,196000,1,0,0:0:0:0:
329,192,196000,1,0,0:0:0:0:
402,192,196000,1,0,0:0:0:0:
256,192,196125,1,0,0:0:0:0:
36,192,196250,1,0,0:0:0:0:
109,192,196250,1,0,0:0:0:0:
402,192,196250,1,0,0:0:0:0:
329,192,196375,1,0,0:0:0:0:
36,192,196500,128,0,197500:0:0:0:0:
329,192,196500,128,0,197250:0:0:0:0:
256,192,196500,1,0,0:0:0:0:
109,192,196500,1,0,0:0:0:0:
402,192,196500,1,0,0:0:0:0:
182,192,196625,1,0,0:0:0:0:
182,192,196750,1,0,0:0:0:0:
256,192,196750,1,0,0:0:0:0:
109,192,196750,1,0,0:0:0:0:
109,192,196875,1,0,0:0:0:0:
475,192,197000,1,0,0:0:0:0:
402,192,197000,1,0,0:0:0:0:
256,192,197000,1,0,0:0:0:0:
256,192,197125,1,0,0:0:0:0:
109,192,197250,1,0,0:0:0:0:
182,192,197250,1,0,0:0:0:0:
475,192,197250,1,0,0:0:0:0:
402,192,197375,1,0,0:0:0:0:
182,192,197500,128,0,198000:0:0:0:0:
256,192,197500,128,0,198000:0:0:0:0:
329,192,197500,1,0,0:0:0:0:
402,192,197500,1,0,0:0:0:0:
109,192,197500,1,0,0:0:0:0:
109,192,197625,1,0,0:0:0:0:
475,192,197750,1,0,0:0:0:0:
402,192,197750,1,0,0:0:0:0:
36,192,197750,1,0,0:0:0:0:
329,192,197875,1,0,0:0:0:0:
109,192,198000,128,0,198500:0:0:0:0:
475,192,198000,128,0,198500:0:0:0:0:
402,192,198000,1,0,0:0:0:0:
329,192,198000,1,0,0:0:0:0:
36,192,198000,1,0,0:0:0:0:
402,192,198125,1,0,0:0:0:0:
182,192,198250,1,0,0:0:0:0:
256,192,198250,1,0,0:0:0:0:
329,192,198250,1,0,0:0:0:0:
36,192,198375,1,0,0:0:0:0:
182,192,198500,128,0,199500:0:0:0:0:
329,192,198500,128,0,199000:0:0:0:0:
36,192,198500,1,0,0:0:0:0:
256,192,198500,1,0,0:0:0:0:
402,192,198500,1,0,0:0:0:0:
402,192,198625,1,0,0:0:0:0:
36,192,198750,1,0,0:0:0:0:
256,192,198750,1,0,0:0:0:0:
475,192,198750,1,0,0:0:0:0:
109,192,198875,1,0,0:0:0:0:
109,192,199000,128,0,199500:0:0:0:0:
475,192,199000,1,0,0:0:0:0:
402,192,199000,1,0,0:0:0:0:
256,192,199000,1,0,0:0:0:0:
256,192,199125,1,0,0:0:0:0:
36,192,199250,1,0,0:0:0:0:
329,192,199250,1,0,0:0:0:0:
475,192,199250,1,0,0:0:0:0:
402,192,199375,1,0,0:0:0:0:
36,192,199500,128,0,199750:0:0:0:0:
256,192,199500,128,0,200000:0:0:0:0:
329,192,199500,1,0,0:0:0:0:
402,192,199500,1,0,0:0:0:0:
475,192,199500,1,0,0:0:0:0:
182,192,199750,128,0,200000:0:0:0:0:
402,192,199750,1,0,0:0:0:0:
109,192,199750,1,0,0:0:0:0:
475,192,199750,1,0,0:0:0:0:
475,192,200000,128,0,200250:0:0:0:0:
329,192,200000,128,0,200500:0:0:0:0:
36,192,200000,1,0,0:0:0:0:
109,192,200000,1,0,0:0:0:0:
402,192,200000,1,0,0:0:0:0:
402,192,200250,128,0,200500:0:0:0:0:
256,192,200250,1,0,0:0:0:0:
36,192,200250,1,0,0:0:0:0:
182,192,200250,1,0,0:0:0:0:
109,192,200375,1,0,0:0:0:0:
475,192,200500,128,0,202500:0:0:0:0:
36,192,200500,128,0,201500:0:0:0:0:
109,192,200500,1,0,0:0:0:0:
182,192,200500,1,0,0:0:0:0:
256,192,200500,1,0,0:0:0:0:
329,192,200625,1,0,0:0:0:0:
402,192,200625,1,0,0:0:0:0:
109,192,200750,1,0,0:0:0:0:
182,192,200750,1,0,0:0:0:0:
256,192,200750,1,0,0:0:0:0:
402,192,201000,1,0,0:0:0:0:
256,192,201000,1,0,0:0:0:0:
109,192,201000,1,0,0:0:0:0:
329,192,201125,1,0,0:0:0:0:
182,192,201125,1,0,0:0:0:0:
109,192,201250,1,0,0:0:0:0:
402,192,201250,1,0,0:0:0:0:
256,192,201250,1,0,0:0:0:0:
109,192,201500,1,0,0:0:0:0:
182,192,201500,1,0,0:0:0:0:
329,192,201500,1,0,0:0:0:0:
36,192,201625,1,0,0:0:0:0:
256,192,201625,1,0,0:0:0:0:
109,192,201750,1,0,0:0:0:0:
329,192,201750,1,0,0:0:0:0:
402,192,201750,1,0,0:0:0:0:
256,192,202000,128,0,202500:0:0:0:0:
109,192,202000,1,0,0:0:0:0:
182,192,202000,1,0,0:0:0:0:
402,192,202000,1,0,0:0:0:0:
329,192,202125,1,0,0:0:0:0:
36,192,202125,1,0,0:0:0:0:
36,192,202250,1,0,0:0:0:0:
109,192,202250,1,0,0:0:0:0:
182,192,202250,1,0,0:0:0:0:
329,192,202250,1,0,0:0:0:0:
402,192,202500,1,0,0:0:0:0:
329,192,202500,1,0,0:0:0:0:
182,192,202500,1,0,0:0:0:0:
36,192,202500,128,0,202750:0:0:0:0:
109,192,202750,128,0,203000:0:0:0:0:
256,192,202750,1,0,0:0:0:0:
402,192,202750,1,0,0:0:0:0:
329,192,202750,1,0,0:0:0:0:
182,192,202875,128,0,203125:0:0:0:0:
256,192,203000,128,0,203250:0:0:0:0:
36,192,203000,1,0,0:0:0:0:
475,192,203000,1,0,0:0:0:0:
402,192,203000,1,0,0:0:0:0:
329,192,203125,128,0,203375:0:0:0:0:
402,192,203250,128,0,203500:0:0:0:0:
36,192,203250,1,0,0:0:0:0:
109,192,203250,1,0,0:0:0:0:
475,192,203250,1,0,0:0:0:0:
182,192,203375,128,0,203625:0:0:0:0:
475,192,203500,128,0,203750:0:0:0:0:
256,192,203500,1,0,0:0:0:0:
109,192,203500,1,0,0:0:0:0:
36,192,203500,1,0,0:0:0:0:
329,192,203625,128,0,203875:0:0:0:0:
182,192,203750,128,0,204000:0:0:0:0:
109,192,203750,1,0,0:0:0:0:
256,192,203750,1,0,0:0:0:0:
402,192,203750,1,0,0:0:0:0:
36,192,203875,128,0,204125:0:0:0:0:
402,192,204000,128,0,204250:0:0:0:0:
109,192,204000,1,0,0:0:0:0:
329,192,204000,1,0,0:0:0:0:
475,192,204000,1,0,0:0:0:0:
256,192,204125,128,0,204375:0:0:0:0:
109,192,204250,128,0,204500:0:0:0:0:
182,192,204250,1,0,0:0:0:0:
329,192,204250,1,0,0:0:0:0:
475,192,204250,1,0,0:0:0:0:
36,192,204375,128,0,204625:0:0:0:0:
182,192,204500,128,0,204750:0:0:0:0:
329,192,204500,1,0,0:0:0:0:
402,192,204500,1,0,0:0:0:0:
256,192,204500,1,0,0:0:0:0:
109,192,204625,128,0,204875:0:0:0:0:
256,192,204750,128,0,205000:0:0:0:0:
329,192,204750,1,0,0:0:0:0:
402,192,204750,1,0,0:0:0:0:
475,192,204750,1,0,0:0:0:0:
36,192,204875,128,0,205125:0:0:0:0:
109,192,205000,128,0,205250:0:0:0:0:
475,192,205000,1,0,0:0:0:0:
329,192,205000,1,0,0:0:0:0:
182,192,205125,128,0,205375:0:0:0:0:
402,192,205125,1,0,0:0:0:0:
36,192,205250,128,0,205500:0:0:0:0:
329,192,205250,1,0,0:0:0:0:
402,192,205250,1,0,0:0:0:0:
475,192,205250,1,0,0:0:0:0:
256,192,205375,128,0,205625:0:0:0:0:
109,192,205500,128,0,205750:0:0:0:0:
329,192,205500,128,0,205750:0:0:0:0:
475,192,205500,1,0,0:0:0:0:
182,192,205625,128,0,205875:0:0:0:0:
402,192,205625,128,0,205875:0:0:0:0:
256,192,205750,128,0,206000:0:0:0:0:
475,192,205750,128,0,206000:0:0:0:0:
36,192,205750,1,0,0:0:0:0:
329,192,205875,128,0,206125:0:0:0:0:
36,192,205875,128,0,206125:0:0:0:0:
402,192,206000,128,0,206250:0:0:0:0:
109,192,206000,128,0,206250:0:0:0:0:
182,192,206000,1,0,0:0:0:0:
256,192,206125,128,0,206375:0:0:0:0:
182,192,206250,128,0,206500:0:0:0:0:
475,192,206250,1,0,0:0:0:0:
329,192,206250,1,0,0:0:0:0:
36,192,206250,1,0,0:0:0:0:
109,192,206375,128,0,206625:0:0:0:0:
402,192,206375,1,0,0:0:0:0:
36,192,206500,128,0,206750:0:0:0:0:
329,192,206500,1,0,0:0:0:0:
256,192,206500,1,0,0:0:0:0:
182,192,206625,128,0,206875:0:0:0:0:
256,192,206750,128,0,207000:0:0:0:0:
475,192,206750,1,0,0:0:0:0:
402,192,206750,1,0,0:0:0:0:
109,192,206750,1,0,0:0:0:0:
329,192,206875,128,0,207125:0:0:0:0:
402,192,207000,128,0,207250:0:0:0:0:
475,192,207000,1,0,0:0:0:0:
36,192,207000,1,0,0:0:0:0:
109,192,207000,1,0,0:0:0:0:
182,192,207125,128,0,207375:0:0:0:0:
256,192,207250,128,0,207500:0:0:0:0:
36,192,207250,1,0,0:0:0:0:
475,192,207250,1,0,0:0:0:0:
109,192,207250,1,0,0:0:0:0:
329,192,207375,128,0,207625:0:0:0:0:
402,192,207500,128,0,207750:0:0:0:0:
109,192,207500,1,0,0:0:0:0:
182,192,207500,1,0,0:0:0:0:
36,192,207500,1,0,0:0:0:0:
475,192,207625,128,0,207875:0:0:0:0:
329,192,207750,128,0,208000:0:0:0:0:
109,192,207750,1,0,0:0:0:0:
182,192,207750,1,0,0:0:0:0:
36,192,207750,1,0,0:0:0:0:
256,192,207875,128,0,208125:0:0:0:0:
182,192,208000,128,0,208250:0:0:0:0:
36,192,208000,1,0,0:0:0:0:
109,192,208000,1,0,0:0:0:0:
402,192,208000,1,0,0:0:0:0:
329,192,208125,128,0,208375:0:0:0:0:
36,192,208250,128,0,208500:0:0:0:0:
475,192,208250,1,0,0:0:0:0:
402,192,208250,1,0,0:0:0:0:
256,192,208250,1,0,0:0:0:0:
182,192,208375,128,0,208625:0:0:0:0:
109,192,208500,128,0,208750:0:0:0:0:
256,192,208500,1,0,0:0:0:0:
329,192,208500,1,0,0:0:0:0:
475,192,208500,1,0,0:0:0:0:
402,192,208625,128,0,208875:0:0:0:0:
475,192,208750,128,0,209000:0:0:0:0:
256,192,208750,1,0,0:0:0:0:
182,192,208750,1,0,0:0:0:0:
36,192,208750,1,0,0:0:0:0:
329,192,208875,128,0,209125:0:0:0:0:
182,192,209000,128,0,209250:0:0:0:0:
36,192,209000,1,0,0:0:0:0:
109,192,209000,1,0,0:0:0:0:
402,192,209000,1,0,0:0:0:0:
256,192,209125,1,0,0:0:0:0:
475,192,209125,1,0,0:0:0:0:
402,192,209250,1,0,0:0:0:0:
329,192,209250,1,0,0:0:0:0:
36,192,209250,1,0,0:0:0:0:
182,192,209375,128,0,209625:0:0:0:0:
109,192,209500,128,0,209750:0:0:0:0:
402,192,209500,1,0,0:0:0:0:
475,192,209500,1,0,0:0:0:0:
256,192,209500,1,0,0:0:0:0:
36,192,209625,128,0,209875:0:0:0:0:
182,192,209750,128,0,210000:0:0:0:0:
329,192,209750,1,0,0:0:0:0:
402,192,209750,1,0,0:0:0:0:
475,192,209750,1,0,0:0:0:0:
256,192,209875,128,0,210125:0:0:0:0:
329,192,210000,128,0,210250:0:0:0:0:
36,192,210000,1,0,0:0:0:0:
475,192,210000,1,0,0:0:0:0:
109,192,210000,1,0,0:0:0:0:
402,192,210125,128,0,210375:0:0:0:0:
182,192,210125,128,0,210375:0:0:0:0:
36,192,210125,1,0,0:0:0:0:
109,192,210125,1,0,0:0:0:0:
256,192,210250,1,0,0:0:0:0:
109,192,210250,1,0,0:0:0:0:
36,192,210250,1,0,0:0:0:0:
256,192,210375,1,0,0:0:0:0:
329,192,210375,1,0,0:0:0:0:
475,192,210375,1,0,0:0:0:0:
36,192,210500,128,0,211000:0:0:0:0:
329,192,210500,1,0,0:0:0:0:
402,192,210500,1,0,0:0:0:0:
109,192,210500,1,0,0:0:0:0:
109,192,210750,128,0,211000:0:0:0:0:
256,192,210750,1,0,0:0:0:0:
475,192,210750,1,0,0:0:0:0:
402,192,210750,1,0,0:0:0:0:
182,192,210875,128,0,211125:0:0:0:0:
256,192,211000,128,0,211250:0:0:0:0:
475,192,211000,1,0,0:0:0:0:
402,192,211000,1,0,0:0:0:0:
329,192,211000,1,0,0:0:0:0:
329,192,211125,128,0,211375:0:0:0:0:
402,192,211250,128,0,211500:0:0:0:0:
109,192,211250,1,0,0:0:0:0:
182,192,211250,1,0,0:0:0:0:
36,192,211250,1,0,0:0:0:0:
36,192,211375,128,0,211625:0:0:0:0:
475,192,211500,128,0,211750:0:0:0:0:
109,192,211500,1,0,0:0:0:0:
182,192,211500,1,0,0:0:0:0:
256,192,211500,1,0,0:0:0:0:
402,192,211625,128,0,211875:0:0:0:0:
329,192,211750,128,0,212000:0:0:0:0:
36,192,211750,1,0,0:0:0:0:
109,192,211750,1,0,0:0:0:0:
182,192,211750,1,0,0:0:0:0:
256,192,211875,128,0,212125:0:0:0:0:
182,192,212000,128,0,212250:0:0:0:0:
36,192,212000,1,0,0:0:0:0:
402,192,212000,1,0,0:0:0:0:
475,192,212000,1,0,0:0:0:0:
109,192,212125,128,0,212375:0:0:0:0:
329,192,212125,1,0,0:0:0:0:
36,192,212250,128,0,212500:0:0:0:0:
475,192,212250,1,0,0:0:0:0:
402,192,212250,1,0,0:0:0:0:
256,192,212250,1,0,0:0:0:0:
182,192,212375,128,0,212625:0:0:0:0:
109,192,212500,128,0,212750:0:0:0:0:
256,192,212500,1,0,0:0:0:0:
329,192,212500,1,0,0:0:0:0:
475,192,212500,1,0,0:0:0:0:
36,192,212625,128,0,212875:0:0:0:0:
182,192,212750,128,0,213000:0:0:0:0:
256,192,212750,1,0,0:0:0:0:
329,192,212750,1,0,0:0:0:0:
402,192,212750,1,0,0:0:0:0:
109,192,212875,128,0,213125:0:0:0:0:
256,192,213000,128,0,213250:0:0:0:0:
329,192,213000,1,0,0:0:0:0:
402,192,213000,1,0,0:0:0:0:
475,192,213000,1,0,0:0:0:0:
36,192,213125,128,0,213375:0:0:0:0:
182,192,213250,128,0,213500:0:0:0:0:
402,192,213250,1,0,0:0:0:0:
329,192,213250,1,0,0:0:0:0:
475,192,213250,1,0,0:0:0:0:
109,192,213375,128,0,213625:0:0:0:0:
36,192,213500,128,0,213750:0:0:0:0:
256,192,213500,128,0,213750:0:0:0:0:
329,192,213500,1,0,0:0:0:0:
475,192,213500,1,0,0:0:0:0:
182,192,213625,128,0,213875:0:0:0:0:
402,192,213625,128,0,213875:0:0:0:0:
329,192,213625,1,0,0:0:0:0:
109,192,213750,128,0,214000:0:0:0:0:
329,192,213750,128,0,214000:0:0:0:0:
475,192,213750,1,0,0:0:0:0:
256,192,213875,128,0,214125:0:0:0:0:
36,192,213875,128,0,214125:0:0:0:0:
182,192,214000,128,0,214250:0:0:0:0:
402,192,214000,1,0,0:0:0:0:
475,192,214000,1,0,0:0:0:0:
329,192,214250,128,0,214500:0:0:0:0:
109,192,214250,128,0,214375:0:0:0:0:
36,192,214250,1,0,0:0:0:0:
256,192,214250,1,0,0:0:0:0:
475,192,214250,1,0,0:0:0:0:
402,192,214375,128,0,214625:0:0:0:0:
36,192,214500,128,0,214875:0:0:0:0:
109,192,214500,1,0,0:0:0:0:
182,192,214500,1,0,0:0:0:0:
256,192,214500,1,0,0:0:0:0:
109,192,214750,128,0,215000:0:0:0:0:
256,192,214750,1,0,0:0:0:0:
329,192,214750,1,0,0:0:0:0:
475,192,214750,1,0,0:0:0:0:
182,192,214875,128,0,215125:0:0:0:0:
256,192,215000,128,0,215250:0:0:0:0:
402,192,215000,1,0,0:0:0:0:
475,192,215000,1,0,0:0:0:0:
36,192,215000,1,0,0:0:0:0:
329,192,215125,128,0,215375:0:0:0:0:
402,192,215250,128,0,215500:0:0:0:0:
36,192,215250,1,0,0:0:0:0:
109,192,215250,1,0,0:0:0:0:
182,192,215250,1,0,0:0:0:0:
475,192,215375,128,0,215625:0:0:0:0:
182,192,215500,128,0,215750:0:0:0:0:
329,192,215500,1,0,0:0:0:0:
256,192,215500,1,0,0:0:0:0:
36,192,215500,1,0,0:0:0:0:
109,192,215625,128,0,215875:0:0:0:0:
402,192,215625,1,0,0:0:0:0:
329,192,215750,128,0,216000:0:0:0:0:
475,192,215750,1,0,0:0:0:0:
36,192,215750,1,0,0:0:0:0:
402,192,215750,1,0,0:0:0:0:
256,192,215875,128,0,216125:0:0:0:0:
109,192,216000,128,0,216250:0:0:0:0:
182,192,216000,1,0,0:0:0:0:
402,192,216000,1,0,0:0:0:0:
475,192,216000,1,0,0:0:0:0:
36,192,216125,128,0,216375:0:0:0:0:
182,192,216250,128,0,216500:0:0:0:0:
256,192,216250,1,0,0:0:0:0:
402,192,216250,1,0,0:0:0:0:
475,192,216250,1,0,0:0:0:0:
329,192,216375,128,0,216625:0:0:0:0:
475,192,216500,128,0,216750:0:0:0:0:
36,192,216500,1,0,0:0:0:0:
109,192,216500,1,0,0:0:0:0:
256,192,216500,1,0,0:0:0:0:
402,192,216625,128,0,216875:0:0:0:0:
256,192,216750,128,0,217000:0:0:0:0:
182,192,216750,1,0,0:0:0:0:
36,192,216750,1,0,0:0:0:0:
329,192,216875,128,0,217125:0:0:0:0:
36,192,216875,1,0,0:0:0:0:
109,192,216875,1,0,0:0:0:0:
475,192,216875,1,0,0:0:0:0:
182,192,217000,128,0,217250:0:0:0:0:
402,192,217000,1,0,0:0:0:0:
475,192,217000,1,0,0:0:0:0:
109,192,217125,128,0,217375:0:0:0:0:
256,192,217250,128,0,217500:0:0:0:0:
36,192,217250,1,0,0:0:0:0:
329,192,217250,1,0,0:0:0:0:
475,192,217250,1,0,0:0:0:0:
182,192,217375,128,0,217625:0:0:0:0:
36,192,217500,128,0,217750:0:0:0:0:
109,192,217500,1,0,0:0:0:0:
329,192,217500,1,0,0:0:0:0:
402,192,217500,1,0,0:0:0:0:
475,192,217500,1,0,0:0:0:0:
329,192,217625,128,0,217875:0:0:0:0:
256,192,217750,128,0,218000:0:0:0:0:
475,192,217750,1,0,0:0:0:0:
402,192,217750,1,0,0:0:0:0:
109,192,217750,1,0,0:0:0:0:
182,192,217875,128,0,218125:0:0:0:0:
36,192,217875,1,0,0:0:0:0:
109,192,218000,128,0,218250:0:0:0:0:
475,192,218000,1,0,0:0:0:0:
402,192,218000,1,0,0:0:0:0:
329,192,218000,1,0,0:0:0:0:
36,192,218125,128,0,218375:0:0:0:0:
329,192,218250,128,0,218500:0:0:0:0:
182,192,218250,1,0,0:0:0:0:
256,192,218250,1,0,0:0:0:0:
475,192,218250,1,0,0:0:0:0:
402,192,218375,128,0,218625:0:0:0:0:
475,192,218500,128,0,218625:0:0:0:0:
36,192,218500,1,0,0:0:0:0:
109,192,218500,1,0,0:0:0:0:
182,192,218500,1,0,0:0:0:0:
256,192,218500,1,0,0:0:0:0:
109,192,218750,1,0,0:0:0:0:
182,192,218750,1,0,0:0:0:0:
329,192,218750,1,0,0:0:0:0:
402,192,218750,1,0,0:0:0:0:
36,192,219000,1,0,0:0:0:0:
109,192,219000,1,0,0:0:0:0:
256,192,219000,1,0,0:0:0:0:
475,192,219000,1,0,0:0:0:0:
475,192,219250,1,0,0:0:0:0:
329,192,219250,1,0,0:0:0:0:
182,192,219250,1,0,0:0:0:0:
36,192,219250,1,0,0:0:0:0:
109,192,219500,1,0,0:0:0:0:
256,192,219500,1,0,0:0:0:0:
329,192,219500,1,0,0:0:0:0:
402,192,219500,1,0,0:0:0:0:
36,192,219750,1,0,0:0:0:0:
109,192,219750,1,0,0:0:0:0:
329,192,219750,1,0,0:0:0:0:
475,192,219750,1,0,0:0:0:0:
109,192,220000,1,0,0:0:0:0:
182,192,220000,1,0,0:0:0:0:
329,192,220000,1,0,0:0:0:0:
256,192,220000,1,0,0:0:0:0:
36,192,220250,1,0,0:0:0:0:
256,192,220250,1,0,0:0:0:0:
475,192,220250,1,0,0:0:0:0:
402,192,220250,1,0,0:0:0:0:
475,192,220500,1,0,0:0:0:0:
402,192,220500,1,0,0:0:0:0:
329,192,220500,1,0,0:0:0:0:
109,192,220500,1,0,0:0:0:0:
256,192,220625,1,0,0:0:0:0:
182,192,220625,1,0,0:0:0:0:
109,192,220750,1,0,0:0:0:0:
36,192,220750,1,0,0:0:0:0:
182,192,220875,1,0,0:0:0:0:
256,192,220875,1,0,0:0:0:0:
329,192,220875,1,0,0:0:0:0:
475,192,220875,1,0,0:0:0:0:
36,192,221000,1,0,0:0:0:0:
402,192,221000,1,0,0:0:0:0:
109,192,221125,1,0,0:0:0:0:
329,192,221125,1,0,0:0:0:0:
182,192,221250,1,0,0:0:0:0:
36,192,221250,1,0,0:0:0:0:
256,192,221250,1,0,0:0:0:0:
402,192,221250,1,0,0:0:0:0:
475,192,221250,1,0,0:0:0:0:
329,192,221375,1,0,0:0:0:0:
109,192,221375,1,0,0:0:0:0:
402,192,221500,1,0,0:0:0:0:
475,192,221500,1,0,0:0:0:0:
182,192,221500,1,0,0:0:0:0:
36,192,221500,1,0,0:0:0:0:
109,192,221750,1,0,0:0:0:0:
182,192,221750,1,0,0:0:0:0:
329,192,221750,1,0,0:0:0:0:
402,192,221750,1,0,0:0:0:0:
36,192,222000,1,0,0:0:0:0:
109,192,222000,1,0,0:0:0:0:
256,192,222000,1,0,0:0:0:0:
402,192,222000,1,0,0:0:0:0:
475,192,222000,1,0,0:0:0:0:
36,192,222125,1,0,0:0:0:0:
109,192,222125,1,0,0:0:0:0:
256,192,222125,1,0,0:0:0:0:
402,192,222125,1,0,0:0:0:0:
475,192,222125,1,0,0:0:0:0:
475,192,222250,1,0,0:0:0:0:
36,192,222250,1,0,0:0:0:0:
402,192,222312,1,0,0:0:0:0:
109,192,222312,1,0,0:0:0:0:
329,192,222375,1,0,0:0:0:0:
182,192,222375,1,0,0:0:0:0:
36,192,222500,1,0,0:0:0:0:
256,192,222500,1,0,0:0:0:0:
475,192,222500,1,0,0:0:0:0:
109,192,222500,128,0,223500:0:0:0:0:
402,192,222500,128,0,223500:0:0:0:0:
