osu file format v14

[General]
AudioFilename: audio.mp3
AudioLeadIn: 0
PreviewTime: 2224
Countdown: 0
SampleSet: Soft
StackLeniency: 0.5
Mode: 0
LetterboxInBreaks: 0
WidescreenStoryboard: 0

[Editor]
DistanceSpacing: 1
BeatDivisor: 4
GridSize: 8
TimelineZoom: 1.4

[Metadata]
Title:Happy Naru Song
TitleUnicode:해피나루송
Artist:Han Naru
ArtistUnicode:한나루
Creator:Beomsan
Version:Happy ni Naru
Source:꿈의 라이브 프리즘스톤
Tags:SBS 김현지 프리티 리듬 시리즈 퓨어 퓨어 큐피드 신비 온유 세찬 최강 아이돌 신도하 양자택일 극단적이야 넌 너무 긴장 하지마라 プリティーリズム・レインボーライブ
BeatmapID:1138604
BeatmapSetID:537301

[Difficulty]
HPDrainRate:6
CircleSize:4
OverallDifficulty:7.5
ApproachRate:8
SliderMultiplier:1.6
SliderTickRate:1

[Events]
//Background and Video events
0,0,"maxresdefault.jpg",0,0
//Break Periods
//Storyboard Layer 0 (Background)
//Storyboard Layer 1 (Fail)
//Storyboard Layer 2 (Pass)
//Storyboard Layer 3 (Foreground)
//Storyboard Sound Samples

[TimingPoints]
510,428.571428571429,4,2,1,60,1,0
1367,-100,4,2,1,80,0,1
2224,-80,4,2,1,80,0,1
15081,-80,4,2,1,60,0,0
28795,-100,4,2,1,50,0,0
57081,-142.857142857143,4,2,1,40,0,0
67367,-142.857142857143,4,2,1,80,0,1
67581,-142.857142857143,4,2,1,80,0,0
68652,-142.857142857143,4,2,1,80,0,1
68867,-142.857142857143,4,2,1,80,0,0
69938,-142.857142857143,4,2,1,60,0,0
70367,-142.857142857143,4,2,1,80,0,0
70688,-142.857142857143,4,2,1,5,0,0
70795,-80,4,2,1,80,0,1
83652,-80,4,2,1,80,0,0
84510,-80,4,2,1,80,0,1
97367,-80,4,2,1,80,0,0
98224,-80,4,2,1,80,0,1
101652,-80,4,2,1,80,0,0
111831,-80,4,2,1,5,0,0
111938,-80,4,2,1,80,0,0

[Colours]
Combo1 : 255,36,146
Combo2 : 255,151,203

[HitObjects]
278,126,1367,5,0,3:0:0:0:
269,135,1474,1,0,3:0:0:0:
261,145,1581,1,2,0:3:0:0:
253,155,1688,1,0,3:0:0:0:
245,165,1795,2,0,L|255:246,1,80,8|0,0:3|0:0,0:0:0:0:
130,345,2224,6,0,P|80:264|121:176,1,200,6|8,0:0|0:0,0:0:0:0:
382,39,3081,2,0,P|432:120|391:208,1,200,2|8,0:0|0:0,0:0:0:0:
88,104,3938,5,2,0:0:0:0:
152,34,4152,1,2,0:0:0:0:
179,123,4367,1,0,0:0:0:0:
119,195,4581,1,2,0:0:0:0:
88,104,4795,2,0,P|180:123|243:50,1,200,2|8,0:0|0:0,0:0:0:0:
152,34,5438,1,0,0:0:0:0:
62,18,5652,6,0,P|0:88|31:179,1,200,2|8,0:0|0:0,0:0:0:0:
297,308,6509,2,0,L|323:109,1,200,2|8,0:0|0:0,0:0:0:0:
256,39,7152,1,0,0:0:0:0:
235,132,7367,6,0,P|305:199|392:166,1,200,2|8,0:0|0:0,0:0:0:0:
322,109,8009,1,0,0:0:0:0:
322,109,8117,1,0,0:0:0:0:
322,109,8224,5,2,0:0:0:0:
406,274,8438,1,8,0:0:0:0:
490,109,8652,1,8,0:0:0:0:
405,28,8867,1,2,0:0:0:0:
321,193,9081,5,6,0:0:0:0:
248,139,9295,1,0,0:0:0:0:
248,139,9402,2,0,P|183:167|112:138,1,150,2|0,0:0|0:0,0:0:0:0:
181,79,9938,2,0,L|185:297,1,200,2|8,0:0|0:0,0:0:0:0:
117,339,10581,1,0,0:0:0:0:
265,323,10795,6,0,P|324:283|393:306,2,150,2|2|2,0:0|0:0|0:0,0:0:0:0:
441,374,11652,2,0,L|406:172,1,200,2|8,0:0|0:0,0:0:0:0:
433,90,12295,1,0,0:0:0:0:
360,37,12509,6,0,P|287:18|228:56,2,150,6|2|2,0:0|0:0|0:0,0:0:0:0:
303,108,13367,2,0,L|100:102,1,200,6|8,0:0|0:0,0:0:0:0:
42,168,14009,1,0,0:0:0:0:
103,102,14224,5,6,0:0:0:0:
45,33,14438,1,0,0:0:0:0:
129,184,14652,1,8,0:0:0:0:
177,56,14867,1,0,0:0:0:0:
177,56,14974,1,0,0:0:0:0:
177,56,15081,5,2,0:0:0:0:
103,102,15295,1,0,0:0:0:0:
129,184,15509,1,2,0:0:0:0:
216,186,15724,1,2,0:0:0:0:
216,186,15831,1,0,0:0:0:0:
216,186,15938,6,0,B|304:137|304:137|393:183,1,200,12|8,0:3|0:0,0:0:0:0:
271,316,16795,2,0,B|183:365|183:365|94:319,1,200,2|8,0:0|0:0,0:0:0:0:
72,140,17652,5,2,0:0:0:0:
127,69,17867,1,2,0:0:0:0:
162,151,18081,1,0,0:0:0:0:
43,57,18295,1,2,0:0:0:0:
209,78,18509,1,2,0:0:0:0:
109,221,18724,5,0,0:0:0:0:
109,221,18831,1,0,0:0:0:0:
109,221,18938,1,8,0:0:0:0:
127,69,19152,5,0,0:0:0:0:
127,69,19259,1,0,0:0:0:0:
127,69,19367,6,0,P|210:117|290:64,1,200,2|8,0:0|0:0,0:0:0:0:
385,315,20224,2,0,P|302:267|222:320,1,200,2|8,0:0|0:0,0:0:0:0:
305,360,20866,1,0,0:0:0:0:
411,218,21081,6,0,L|377:19,1,200,2|8,0:0|0:0,0:0:0:0:
272,94,21724,5,2,0:0:0:0:
253,92,21831,1,2,0:0:0:0:
234,89,21938,1,2,0:1:0:0:
127,179,22152,5,2,0:0:0:0:
146,177,22259,1,2,0:0:0:0:
165,174,22366,1,2,0:1:0:0:
265,273,22581,5,2,0:0:0:0:
246,271,22688,1,2,0:0:0:0:
227,268,22795,6,0,P|294:240|390:309,1,200,12|8,0:3|0:0,0:0:0:0:
285,116,23652,2,0,P|218:144|122:75,1,200,2|8,0:0|0:0,0:0:0:0:
402,78,24509,5,2,0:0:0:0:
396,168,24724,1,2,0:0:0:0:
477,129,24938,1,0,0:0:0:0:
383,257,25152,1,2,0:0:0:0:
402,78,25367,1,2,0:0:0:0:
510,220,25581,5,0,0:0:0:0:
508,237,25688,1,0,0:0:0:0:
506,254,25795,1,8,0:0:0:0:
446,320,26009,1,0,0:0:0:0:
383,257,26224,6,0,L|274:265,1,100,6|0,0:0|0:0,0:0:0:0:
168,288,26652,2,0,L|277:296,1,100,8|0,0:0|0:0,0:0:0:0:
226,138,27081,2,0,P|134:106|53:158,1,200,6|8,0:0|0:0,0:0:0:0:
134,196,27724,1,0,0:0:0:0:
290,195,27938,6,0,B|314:150|314:150|301:103,1,100,6|0,0:0|0:0,0:0:0:0:
169,14,28367,2,0,B|145:59|145:59|158:106,1,100,8|0,0:0|0:0,0:0:0:0:
261,19,28795,5,2,0:0:0:0:
74,108,29009,1,8,0:0:0:0:
238,236,29224,1,8,0:0:0:0:
200,118,29438,1,2,0:0:0:0:
92,250,29652,6,0,P|168:271|238:237,1,160,6|8,0:0|0:0,0:0:0:0:
275,157,30295,1,2,0:0:0:0:
351,113,30509,2,0,L|434:120,2,80,0|2|8,0:0|0:0|0:0,0:0:0:0:
275,157,31152,1,2,0:0:0:0:
188,137,31367,6,0,L|195:54,1,80,0|2,0:0|0:0,0:0:0:0:
275,157,31795,2,0,L|268:240,1,80,8|2,0:0|0:0,0:0:0:0:
165,334,32224,1,2,0:0:0:0:
278,252,32438,5,2,0:0:0:0:
296,251,32545,1,2,0:0:0:0:
314,249,32652,1,2,0:0:0:0:
165,334,32867,5,2,0:0:0:0:
147,333,32974,1,2,0:0:0:0:
129,331,33081,6,0,P|95:263|121:187,1,160,2|8,0:0|0:0,0:0:0:0:
205,211,33724,1,2,0:0:0:0:
263,145,33938,2,0,L|245:63,2,80,0|2|8,0:0|0:0|0:0,0:0:0:0:
205,211,34581,1,2,0:0:0:0:
341,180,34795,6,0,P|382:177|419:191,1,80,0|2,0:0|0:0,0:0:0:0:
512,235,35224,2,0,P|471:238|434:224,1,80,8|2,0:0|0:0,0:0:0:0:
416,86,35652,5,2,0:0:0:0:
368,262,35867,1,0,0:0:0:0:
370,278,35974,1,0,0:0:0:0:
373,294,36081,5,2,0:0:0:0:
375,311,36188,1,0,0:0:0:0:
378,327,36295,1,2,0:0:0:0:
381,344,36402,1,0,0:0:0:0:
383,360,36509,6,0,B|308:324|299:372|226:342,1,160,6|8,0:0|0:0,0:0:0:0:
170,274,37152,1,2,0:0:0:0:
220,201,37367,2,0,P|230:165|225:121,2,80,0|2|8,0:0|0:0|0:0,0:0:0:0:
170,274,38009,1,2,0:0:0:0:
60,197,38224,6,0,L|142:198,1,80,0|2,0:0|0:0,0:0:0:0:
249,274,38652,2,0,L|167:273,1,80,8|2,0:0|0:0,0:0:0:0:
201,137,39081,2,0,P|272:105|288:30,1,160,2|2,0:0|0:0,0:0:0:0:
356,153,39724,1,8,0:0:0:0:
455,54,39938,6,0,B|486:214,1,160,2|8,0:0|0:0,0:0:0:0:
500,298,40581,2,0,P|424:284|365:335,1,160,2|2,0:0|0:0,0:0:0:0:
279,357,41224,2,0,L|195:352,1,80,8|0,0:0|0:0,0:0:0:0:
150,278,41652,5,2,0:0:0:0:
209,212,41867,1,8,0:0:0:0:
160,138,42081,1,2,0:0:0:0:
160,138,42509,5,8,0:0:0:0:
150,278,42724,1,2,0:0:0:0:
209,212,42938,1,8,0:0:0:0:
64,268,43152,1,8,0:0:0:0:
64,268,43259,1,8,0:0:0:0:
64,268,43367,6,0,P|91:341|165:363,1,160,6|8,0:0|0:0,0:0:0:0:
231,306,44009,1,2,0:0:0:0:
296,249,44224,2,0,L|289:169,2,80,0|2|8,0:0|0:0|0:0,0:0:0:0:
231,306,44867,1,2,0:0:0:0:
314,331,45081,6,0,B|350:313|350:313|394:317,1,80,0|2,0:0|0:0,0:0:0:0:
437,242,45509,2,0,B|476:245|476:245|512:227,1,80,8|2,0:0|0:0,0:0:0:0:
458,101,45938,1,2,0:0:0:0:
338,170,46152,5,2,0:0:0:0:
321,167,46259,1,2,0:0:0:0:
303,163,46367,1,2,0:0:0:0:
187,90,46581,5,2,0:0:0:0:
204,93,46688,1,2,0:0:0:0:
222,97,46795,6,0,L|66:141,1,160,2|8,0:0|0:0,0:0:0:0:
35,222,47438,1,2,0:0:0:0:
96,284,47652,2,0,B|96:326|96:326|77:365,2,80,0|2|8,0:0|0:0|0:0,0:0:0:0:
35,222,48295,1,2,0:0:0:0:
119,198,48509,6,0,B|161:198|161:198|200:217,1,80,0|2,0:0|0:0,0:0:0:0:
280,236,48938,2,0,B|238:236|238:236|203:219,1,80,8|2,0:0|0:0,0:0:0:0:
267,97,49367,5,2,0:0:0:0:
379,241,49581,1,0,0:0:0:0:
377,257,49688,1,0,0:0:0:0:
376,274,49795,1,2,0:0:0:0:
374,290,49902,1,0,0:0:0:0:
373,307,50009,1,2,0:0:0:0:
372,324,50116,1,0,0:0:0:0:
370,340,50224,6,0,P|446:330|485:261,1,160,6|8,0:0|0:0,0:0:0:0:
445,183,50867,1,2,0:0:0:0:
409,102,51081,2,0,L|421:21,2,80,0|2|8,0:0|0:0|0:0,0:0:0:0:
445,183,51724,1,2,0:0:0:0:
358,167,51939,5,0,0:0:0:0:
301,233,52152,1,2,0:0:0:0:
214,217,52367,1,8,0:0:0:0:
268,148,52581,1,2,0:0:0:0:
386,249,52795,2,0,L|383:333,2,80,0|8|0,0:0|0:0|0:0,0:0:0:0:
268,148,53438,1,8,0:0:0:0:
174,271,53652,6,0,P|99:294|38:246,1,160,2|8,0:0|0:0,0:0:0:0:
54,161,54295,2,0,P|129:138|190:186,1,160,2|2,0:0|0:0,0:0:0:0:
174,271,54938,2,0,L|154:352,1,80,8|0,0:0|0:0,0:0:0:0:
115,216,55367,5,2,0:0:0:0:
300,162,55581,1,8,0:0:0:0:
224,75,55795,1,2,0:0:0:0:
188,184,56009,1,0,0:0:0:0:
360,271,56224,5,2,3:0:0:0:
379,267,56331,1,2,3:0:0:0:
399,263,56438,1,2,3:0:0:0:
418,259,56545,1,2,3:0:0:0:
438,255,56652,2,0,L|481:246,3,40,8|8|8|8,3:0|3:0|3:0|3:0,3:0:0:0:
498,208,57081,6,0,P|500:153|472:104,1,111.999996582031,6|0,0:0|0:0,0:0:0:0:
293,35,57938,2,0,L|263:200,1,167.999994873047,0|2,0:0|0:0,0:0:0:0:
185,256,58795,2,0,P|131:248|81:273,2,111.999996582031,2|2|2,0:0|0:0|0:0,0:0:0:0:
143,337,60081,1,8,0:0:0:0:
60,129,60510,1,2,0:0:0:0:
224,29,60938,5,0,0:0:0:0:
377,149,61367,2,0,B|417:223|417:223|390:302,1,167.999994873047,2|0,0:0|0:0,0:0:0:0:
299,337,62224,2,0,L|243:238,2,111.999996582031,2|2|2,0:0|0:0|0:0,0:0:0:0:
328,227,63295,1,8,0:0:0:0:
189,304,63510,1,2,0:0:0:0:
379,301,63724,1,8,0:0:0:0:
393,296,63831,1,8,0:0:0:0:
407,291,63938,6,0,P|429:240|422:186,1,111.999996582031,6|0,0:0|0:0,0:0:0:0:
262,77,64795,2,0,B|182:57|179:112|97:93,1,167.999994873047,0|2,0:0|0:0,0:0:0:0:
17,41,65652,2,0,L|4:155,2,111.999996582031,2|2|2,0:0|0:0|0:0,0:0:0:0:
98,93,66724,2,0,L|94:134,2,27.9999991455078,2|2|8,0:3|0:3|0:3,0:0:0:0:
182,46,67152,1,0,0:0:0:0:
155,304,67367,5,8,0:0:0:0:
199,77,67581,1,8,0:0:0:0:
296,286,67795,1,8,0:0:0:0:
94,174,68010,1,8,0:0:0:0:
94,174,68652,5,8,0:0:0:0:
323,146,68867,1,8,0:0:0:0:
155,304,69081,1,8,0:0:0:0:
199,77,69295,1,8,0:0:0:0:
199,77,69938,5,8,0:0:0:0:
206,90,70045,1,8,0:0:0:0:
213,103,70152,1,8,0:0:0:0:
220,116,70260,1,8,0:0:0:0:
227,129,70367,2,0,L|212:219,1,83.9999974365235,12|0,0:3|0:0,0:0:0:0:
231,311,70795,6,0,B|326:267|335:330|427:288,1,200,6|8,0:0|0:0,0:0:0:0:
236,67,71652,2,0,B|141:111|132:48|40:90,1,200,2|8,0:0|0:0,0:0:0:0:
315,227,72510,5,2,0:0:0:0:
256,146,72724,1,2,0:0:0:0:
215,237,72938,1,0,0:0:0:0:
356,136,73152,1,2,0:0:0:0:
215,237,73367,2,0,P|125:202|39:248,1,200,2|8,0:0|0:0,0:0:0:0:
100,327,74010,1,0,0:0:0:0:
87,156,74224,6,0,P|88:59|169:9,1,200,2|10,0:0|0:0,0:0:0:0:
425,228,75081,2,0,P|424:325|343:375,1,200,2|8,0:0|0:0,0:0:0:0:
253,330,75724,1,0,0:0:0:0:
337,276,75938,6,0,L|511:378,1,200,2|8,0:0|0:0,0:0:0:0:
452,219,76581,1,0,0:0:0:0:
447,199,76688,1,0,0:0:0:0:
442,179,76795,1,2,0:0:0:0:
254,226,77010,1,8,0:0:0:0:
437,159,77224,1,8,0:0:0:0:
284,40,77438,1,2,0:0:0:0:
254,226,77652,5,6,0:0:0:0:
175,163,77867,1,0,0:0:0:0:
175,163,77974,2,0,P|101:142|41:175,1,150,2|0,0:0|0:0,0:0:0:0:
115,241,78510,2,0,P|134:147|64:79,1,200,2|8,0:0|0:0,0:0:0:0:
40,175,79152,1,0,0:0:0:0:
210,249,79367,6,0,L|365:231,2,150,2|2|2,0:0|0:0|0:0,0:0:0:0:
337,145,80224,2,0,P|426:174|438:269,1,200,2|8,0:0|0:0,0:0:0:0:
358,231,80867,1,0,0:0:0:0:
168,127,81081,6,0,B|247:121|247:121|291:66,1,150,6|2,0:0|0:0,0:0:0:0:
80,60,81724,1,2,0:0:0:0:
80,60,81938,2,0,L|64:265,1,200,6|8,0:0|0:0,0:0:0:0:
129,336,82581,1,0,0:0:0:0:
311,316,82795,5,6,0:0:0:0:
218,300,83010,1,0,0:0:0:0:
279,227,83224,1,8,0:0:0:0:
372,243,83438,1,0,0:0:0:0:
372,243,83545,1,0,0:0:0:0:
372,243,83652,5,2,3:2:0:0:
378,255,83760,1,0,3:0:0:0:
384,267,83867,1,0,3:0:0:0:
391,279,83974,1,0,3:0:0:0:
416,254,84081,1,8,3:0:0:0:
423,220,84188,1,0,3:0:0:0:
417,185,84295,1,0,3:0:0:0:
397,156,84402,1,0,3:0:0:0:
366,138,84510,6,0,B|274:174|263:113|169:151,1,200,6|8,0:0|0:0,0:0:0:0:
398,338,85367,2,0,P|469:282|400:245,1,200,2|8,0:0|0:0,0:0:0:0:
112,266,86224,6,0,B|149:232|149:232|168:245|168:245|190:230|190:230|227:270,1,150,2|2,0:0|0:0,0:0:0:0:
164,342,86652,2,0,B|110:359|110:359|62:343,1,100,0|2,0:0|0:0,0:0:0:0:
77,159,87081,2,0,P|166:118|254:155,1,200,2|8,0:0|0:0,0:0:0:0:
320,231,87724,1,0,0:0:0:0:
342,69,87938,6,0,P|253:28|165:65,1,200,2|8,0:0|0:0,0:0:0:0:
170,315,88795,2,0,P|259:356|347:319,1,200,2|8,0:0|0:0,0:0:0:0:
298,230,89438,1,0,0:0:0:0:
348,144,89652,6,0,B|391:118|440:118|487:151|487:151|458:146|428:156,1,200,2|8,0:0|0:0,0:0:0:0:
338,52,90295,1,0,0:0:0:0:
333,31,90402,1,0,0:0:0:0:
329,10,90510,1,2,0:0:0:0:
200,152,90724,1,8,0:0:0:0:
45,39,90938,1,8,0:0:0:0:
200,152,91152,1,2,0:0:0:0:
110,321,91367,6,0,P|177:293|243:323,2,150,6|2|2,0:0|0:0|0:0,0:0:0:0:
243,323,92224,2,0,P|337:353|409:291,1,200,2|8,0:0|0:0,0:0:0:0:
427,193,92867,1,0,0:0:0:0:
364,115,93081,6,0,P|297:87|231:117,2,150,2|2|2,0:0|0:0|0:0,0:0:0:0:
231,118,93938,2,0,P|137:147|65:85,1,200,2|8,0:0|0:0,0:0:0:0:
159,48,94581,1,0,0:0:0:0:
299,174,94795,6,0,L|309:323,1,150,6|2,0:0|0:0,0:0:0:0:
58,257,95438,1,0,0:0:0:0:
58,257,95652,2,0,B|100:249|121:214|121:214|162:193|205:200|236:237,1,200,6|8,0:0|0:0,0:0:0:0:
167,289,96295,1,0,0:0:0:0:
37,152,96510,6,0,B|56:12|56:12|92:58,1,200,6|8,0:0|0:0,0:0:0:0:
269,67,97152,1,0,0:0:0:0:
247,69,97260,1,0,0:0:0:0:
225,71,97367,1,2,0:0:0:0:
309,172,97581,1,8,0:0:0:0:
350,6,97795,1,8,0:0:0:0:
203,73,98010,1,2,0:0:0:0:
313,275,98224,6,0,P|381:245|410:176,2,150,6|2|2,0:0|0:0|0:0,0:0:0:0:
181,109,99081,2,0,L|166:309,1,200,6|8,0:0|0:0,0:0:0:0:
191,15,99938,5,6,0:0:0:0:
98,52,100152,1,0,0:0:0:0:
181,109,100367,1,8,0:0:0:0:
272,69,100581,1,0,0:0:0:0:
282,50,100688,1,2,0:0:0:0:
292,31,100795,5,2,0:1:0:0:
98,52,101010,1,0,0:0:0:0:
260,157,101224,1,8,0:0:0:0:
128,298,101438,1,2,0:0:0:0:
128,298,101545,1,2,0:0:0:0:
128,298,101652,6,0,P|175:212|139:121,1,200,12|8,0:3|0:0,0:0:0:0:
384,86,102510,2,0,P|337:172|373:263,1,200,2|8,0:0|0:0,0:0:0:0:
255,98,103367,5,2,0:0:0:0:
176,160,103581,1,2,0:0:0:0:
256,224,103795,1,0,0:0:0:0:
328,32,104010,1,2,0:0:0:0:
168,64,104224,1,2,0:0:0:0:
336,160,104438,5,0,0:0:0:0:
357,156,104545,1,0,0:0:0:0:
378,151,104652,1,8,0:0:0:0:
255,98,104867,5,0,0:0:0:0:
255,98,104974,1,0,0:0:0:0:
255,98,105081,6,0,L|242:315,1,200,2|8,0:0|0:0,0:0:0:0:
57,55,105938,2,0,P|120:128|215:119,1,200,2|8,0:0|0:0,0:0:0:0:
294,56,106581,1,0,0:0:0:0:
379,108,106795,6,0,L|369:309,1,200,2|8,0:0|0:0,0:0:0:0:
248,263,107438,5,2,0:0:0:0:
228,262,107545,1,2,0:0:0:0:
208,260,107652,1,2,0:1:0:0:
113,156,107867,5,2,0:0:0:0:
133,155,107974,1,2,0:0:0:0:
153,153,108081,1,2,0:1:0:0:
249,51,108295,5,2,0:0:0:0:
229,50,108402,1,2,0:0:0:0:
209,49,108510,6,0,P|298:10|377:63,1,200,12|8,0:3|0:0,0:0:0:0:
303,335,109367,2,0,P|214:374|135:321,1,200,2|8,0:0|0:0,0:0:0:0:
256,192,110224,5,2,0:0:0:0:
312,112,110438,1,2,0:0:0:0:
216,104,110652,1,0,0:0:0:0:
352,200,110867,1,2,0:0:0:0:
272,32,111081,1,2,0:0:0:0:
160,184,111295,5,2,0:0:0:0:
160,184,111402,1,2,0:0:0:0:
160,184,111510,2,0,L|169:336,1,150,2|0,0:0|0:0,0:0:0:0:
262,291,111938,6,0,L|255:184,2,100,6|0|2,0:0|0:0|0:0,0:0:0:0:
350,338,112581,1,2,0:0:0:0:
421,165,112795,2,0,P|332:132|254:193,1,200,6|2,0:0|0:0,0:0:0:0:
346,231,113438,1,2,0:0:0:0:
455,72,113652,5,6,0:0:0:0:
421,165,113867,1,0,0:0:0:0:
337,5,114081,1,2,0:0:0:0:
378,94,114296,1,2,0:0:0:0:
322,177,114510,5,2,0:0:0:0:
281,88,114725,1,0,0:0:0:0:
144,130,114938,1,2,0:0:0:0:
236,164,115152,1,2,0:0:0:0:
236,164,115260,1,2,0:0:0:0:
236,164,115367,5,2,0:0:0:0:
162,25,115581,1,2,0:0:0:0:
59,144,115795,2,0,L|69:250,1,100,2|2,0:0|0:0,0:0:0:0:
167,345,116224,6,0,B|225:263|225:263|235:164,1,200,6|12,0:0|0:0,0:0:0:0:
240,27,116867,5,12,0:0:0:0:
256,192,116974,12,0,120510,0:0:0:0:
