osu file format v14

[General]
AudioFilename: audio.mp3
AudioLeadIn: 0
PreviewTime: 61071
Countdown: 0
SampleSet: None
StackLeniency: 0.4
Mode: 0
LetterboxInBreaks: 0
WidescreenStoryboard: 0

[Editor]
DistanceSpacing: 1
BeatDivisor: 4
GridSize: 8
TimelineZoom: 1

[Metadata]
Title:Mysterious Messenger ver. Korean
TitleUnicode:Mysterious Messenger ver. Korean
Artist:Han
ArtistUnicode:Han
Creator:Yahuri
Version:Normal
Source:Mystic Messenger
Tags:Modem DoubleTO Zen Yoosung Jaehee Jumin Luciel Saeyoung Saeran Unknown Rika Cheritz 수상한 메신저 visual novel
BeatmapID:1490264
BeatmapSetID:670478

[Difficulty]
HPDrainRate:4
CircleSize:3
OverallDifficulty:4
ApproachRate:5
SliderMultiplier:1.1
SliderTickRate:1

[Events]
//Background and Video events
Video,0,"Mysterious Messenger.avi"
0,0,"707.jpg",0,0
//Break Periods
//Storyboard Layer 0 (Background)
//Storyboard Layer 1 (Fail)
//Storyboard Layer 2 (Pass)
//Storyboard Layer 3 (Foreground)
//Storyboard Sound Samples

[TimingPoints]
1189,468.75,4,3,1,60,1,0
15485,-100,4,3,1,50,0,0
31189,-100,4,3,1,55,0,0
46189,-100,4,3,1,40,0,0
53689,-100,4,3,1,60,0,0
61189,-100,4,3,1,70,0,1
76071,-100,4,3,1,70,0,0
76189,-100,4,3,1,70,0,1
85329,-100,4,3,1,50,0,0

[Colours]
Combo1 : 255,0,0
Combo2 : 198,198,198
Combo3 : 56,247,47
Combo4 : 210,213,108
Combo5 : 173,124,222

[HitObjects]
140,104,1189,6,0,B|248:123|248:123|302:103,1,165,4|0,0:0|0:0,0:0:0:0:
338,65,2126,1,4,0:0:0:0:
440,104,2595,1,4,0:0:0:0:
401,206,3064,2,0,P|394:245|408:304,1,82.5,4|8,0:0|0:0,0:0:0:0:
283,358,4001,1,4,0:0:0:0:
198,287,4470,2,0,P|173:283|134:289,1,55,4|8,0:0|0:0,0:0:0:0:
100,320,4939,6,0,L|90:208,1,110,0|0,0:0|0:0,0:0:0:0:
125,106,5876,2,0,L|236:96,1,110,0|0,0:0|0:0,0:0:0:0:
340,63,6814,1,4,0:0:0:0:
404,152,7282,1,4,0:0:0:0:
340,241,7751,1,4,0:0:0:0:
235,207,8220,2,0,P|209:205|171:214,1,55,12|8,0:0|0:0,0:0:0:0:
138,246,8689,6,0,P|139:301|115:356,1,110,4|8,0:0|0:0,0:0:0:0:
11,330,9626,2,0,P|9:274|33:219,1,110,0|8,0:0|0:0,0:0:0:0:
103,142,10564,2,0,B|117:58|117:58|110:27,1,110,4|8,0:0|0:0,0:0:0:0:
167,34,11267,2,0,B|270:71|270:71|326:61,1,165,4|8,0:0|0:0,0:0:0:0:
304,112,12204,1,0,1:0:0:0:
289,165,12439,6,0,P|288:220|312:275,1,110,4|8,0:0|0:0,0:0:0:0:
416,249,13376,2,0,P|418:193|394:138,1,110,0|8,0:0|0:0,0:0:0:0:
360,104,14079,2,0,B|226:150|226:44|95:104,1,275,4|0,0:0|0:0,0:0:0:0:
34,198,15720,1,0,0:0:0:0:
111,276,16189,6,0,P|166:282|223:263,1,110,4|8,1:3|0:0,0:0:0:0:
261,233,16892,2,0,L|322:238,1,55,0|0,1:0|1:0,0:0:0:0:
423,260,17595,2,0,L|484:255,1,55,8|0,0:0|1:0,0:0:0:0:
493,203,18064,6,0,P|508:150|501:96,1,110,0|8,1:0|0:0,0:0:0:0:
467,53,18767,1,0,1:0:0:0:
357,44,19235,1,0,1:0:0:0:
313,77,19470,2,0,L|251:82,1,55,8|0,0:0|1:0,0:0:0:0:
215,116,19939,6,0,P|230:169|223:223,1,110,0|8,1:0|0:0,0:0:0:0:
181,259,20642,2,0,L|120:264,1,55,0|0,1:0|1:0,0:0:0:0:
22,299,21345,2,0,L|17:238,1,55,8|0,0:0|1:0,0:0:0:0:
45,196,21814,6,0,P|30:143|37:89,1,110,0|8,1:0|0:0,0:0:0:0:
72,47,22517,1,0,1:0:0:0:
181,55,22985,1,0,1:0:0:0:
226,23,23220,2,0,L|287:18,1,55,8|0,0:0|1:0,0:0:0:0:
325,51,23689,6,0,P|340:104|333:158,1,110,4|8,0:0|0:0,0:0:0:0:
289,191,24392,2,0,L|234:195,1,55,0|0,1:0|1:0,0:0:0:0:
194,298,25095,2,0,L|248:302,1,55,8|0,0:0|1:0,0:0:0:0:
288,340,25564,6,0,P|341:325|395:332,1,110,0|8,1:0|0:0,0:0:0:0:
440,300,26267,1,0,1:0:0:0:
449,190,26735,1,0,1:0:0:0:
420,143,26970,2,0,L|365:138,1,55,8|0,0:0|1:0,0:0:0:0:
322,103,27439,6,0,P|269:88|215:95,1,110,0|8,1:0|0:0,0:0:0:0:
171,128,28142,2,0,L|166:182,1,55,0|0,1:0|1:0,0:0:0:0:
104,273,28845,2,0,L|108:327,1,55,8|0,0:0|1:0,0:0:0:0:
149,365,29314,6,0,B|204:365|256:343|256:343|308:365|363:365,1,220,4|0,0:0|0:0,0:0:0:0:
445,292,30720,1,2,0:0:0:0:
393,194,31189,6,0,B|378:140|378:140|383:86,1,110,4|8,3:3|3:0,3:0:0:0:
352,40,31892,2,0,L|298:36,1,55,0|0,1:0|1:0,0:0:0:0:
192,70,32595,1,8,0:0:0:0:
275,142,33064,6,0,B|289:195|289:195|284:249,1,110,0|8,1:0|3:0,3:0:0:0:
250,293,33767,1,0,1:0:0:0:
141,306,34235,1,0,1:0:0:0:
99,270,34470,2,0,L|45:266,1,55,8|0,0:0|1:0,0:0:0:0:
12,220,34939,6,0,B|26:166|26:166|21:112,1,110,0|8,1:0|3:0,3:0:0:0:
53,67,35642,2,0,L|107:71,1,55,0|0,1:0|1:0,0:0:0:0:
213,41,36345,1,8,0:0:0:0:
312,86,36814,6,0,B|297:139|297:139|302:193,1,110,0|8,1:0|3:0,3:0:0:0:
337,236,37517,1,0,1:0:0:0:
446,244,37985,1,0,1:0:0:0:
482,286,38220,2,0,L|478:340,1,55,8|0,0:0|1:0,0:0:0:0:
433,373,38689,6,0,B|378:377|378:377|325:363,1,110,0|8,1:0|3:0,3:0:0:0:
282,327,39392,2,0,L|228:323,1,55,0|0,1:0|1:0,0:0:0:0:
122,357,40095,1,8,0:0:0:0:
17,323,40564,6,0,B|3:269|3:269|8:214,1,110,0|8,1:0|3:0,3:0:0:0:
45,174,41267,1,0,1:0:0:0:
154,187,41735,1,0,1:0:0:0:
188,143,41970,2,0,L|192:89,1,55,8|0,0:0|1:0,0:0:0:0:
227,46,42439,6,0,B|282:42|282:42|335:56,1,110,0|8,1:0|3:0,3:0:0:0:
367,100,43142,2,0,L|363:154,1,55,0|0,1:0|1:0,0:0:0:0:
322,257,43845,2,0,L|268:253,1,55,8|0,0:0|1:0,0:0:0:0:
225,288,44314,5,4,3:3:0:0:
136,355,44783,1,4,3:3:0:0:
47,291,45251,1,4,3:3:0:0:
80,184,45720,1,12,3:3:0:0:
193,184,46189,6,0,L|305:184,1,110,4|0,1:3|1:0,0:0:0:0:
359,89,47126,2,0,L|249:89,1,110,0|0,1:3|1:0,0:0:0:0:
193,184,48064,2,0,P|200:238|193:294,1,110,0|0,1:3|1:0,0:0:0:0:
97,239,49001,2,0,P|90:185|97:129,1,110,0|0,1:3|1:0,0:0:0:0:
138,28,49939,6,0,L|248:28,1,110,0|0,1:3|1:0,0:0:0:0:
351,65,50876,2,0,L|461:65,1,110,0|0,1:3|1:0,0:0:0:0:
508,164,51814,2,0,P|515:218|508:274,1,110,0|0,1:3|1:0,0:0:0:0:
404,309,52751,2,0,L|404:364,2,55,0|8|0,1:0|3:0|0:0,3:0:0:0:
369,265,53454,1,8,0:0:0:0:
334,221,53689,6,0,P|281:206|227:213,1,110,4|8,1:3|0:0,0:0:0:0:
147,289,54626,2,0,P|92:295|40:280,1,110,0|8,1:3|0:0,0:0:0:0:
101,189,55564,2,0,P|107:134|92:82,1,110,0|8,1:3|0:0,0:0:0:0:
183,21,56501,2,0,P|237:15|289:31,1,110,0|8,1:0|3:0,3:0:0:0:
328,134,57439,6,0,B|314:188|314:188|319:242,1,110,4|8,1:3|3:0,3:0:0:0:
428,255,58376,2,0,B|442:201|442:201|437:147,1,110,0|8,1:3|3:0,3:0:0:0:
428,92,59079,1,8,0:0:0:0:
329,41,59548,2,0,P|331:15|322:-23,2,55,12|12|4,0:3|0:3|1:0,0:3:0:0:
295,84,60251,2,0,P|293:110|302:148,1,55,4|8,1:3|0:0,0:3:0:0:
330,183,60720,2,0,P|332:209|323:247,1,55,8|8,0:0|0:0,0:3:0:0:
293,281,61189,6,0,B|244:288|244:288|236:293|236:293|181:303,1,110,4|8,1:3|0:3,0:3:0:0:
134,283,61892,2,0,B|115:230|115:230|115:174,1,110
90,127,62595,1,8,0:0:0:0:
161,44,63064,2,0,B|240:68|240:68|276:61,1,110,0|8,1:0|3:0,3:0:0:0:
309,28,63767,2,0,P|363:22|415:38,1,110,0|0,1:0|1:0,0:0:0:0:
458,73,64470,1,8,0:0:0:0:
477,124,64704,6,0,B|477:165|461:204|461:204|467:232|467:232|458:294,1,165,0|8,1:0|3:0,3:0:0:0:
418,323,65642,2,0,B|377:323|338:339|338:339|310:333|310:333|248:342,1,165,0|8,1:0|3:0,3:0:0:0:
211,308,66579,2,0,P|157:302|105:318,1,110,0|0,1:0|0:0,0:0:0:0:
57,346,67282,1,8,0:0:0:0:
13,312,67517,2,0,B|8:255|8:255|22:201,1,110,0|0,1:3|1:0,0:0:0:0:
60,164,68220,1,8,0:0:0:0:
113,66,68689,6,0,B|162:73|162:73|170:78|170:78|225:88,1,110,4|8,1:3|0:3,0:3:0:0:
266,56,69392,2,0,B|319:37|319:37|375:37,1,110
417,68,70095,1,8,0:0:0:0:
373,169,70564,2,0,B|349:248|349:248|356:284,1,110,0|8,1:0|3:0,3:0:0:0:
320,318,71267,2,0,P|266:312|214:328,1,110,0|0,1:0|1:0,0:0:0:0:
167,358,71970,1,8,0:0:0:0:
119,329,72204,6,0,B|98:294|98:250|98:250|119:215|119:171,1,165,0|8,1:0|3:0,3:0:0:0:
149,66,73376,2,0,P|203:72|255:56,1,110,0|8,1:0|0:0,0:0:0:0:
307,75,74079,1,0,0:0:0:0:
357,98,74314,2,0,P|409:81|463:87,1,110,0|8,1:0|0:0,0:0:0:0:
498,192,75251,2,0,B|494:275|494:275|475:306,1,110,0|8,0:0|3:0,3:0:0:0:
434,329,75954,1,0,0:0:0:0:
385,354,76189,6,0,B|336:347|336:347|328:342|328:342|273:332,1,110,4|8,0:3|0:3,0:3:0:0:
238,294,76892,2,0,B|257:241|257:241|257:185,1,110,0|0,0:3|0:3,3:3:0:0:
291,143,77595,1,8,0:0:0:0:
365,62,78064,2,0,B|392:56|392:56|471:80,1,110,0|8,1:0|3:0,3:0:0:0:
505,124,78767,2,0,P|511:178|495:230,1,110,0|0,1:0|1:0,0:0:0:0:
462,274,79470,1,8,0:0:0:0:
408,275,79704,6,0,B|367:275|328:291|328:291|300:285|300:285|238:294,1,165,0|8,1:0|3:0,3:0:0:0:
198,266,80642,2,0,B|198:225|182:186|182:186|188:158|188:158|179:96,1,165,0|8,1:0|3:0,3:0:0:0:
147,61,81579,2,0,P|93:55|41:71,1,110,0|0,1:0|0:0,0:0:0:0:
11,117,82282,1,8,0:0:0:0:
44,161,82517,2,0,P|98:167|150:151,1,110,0|0,1:0|1:0,0:0:0:0:
180,104,83220,1,8,0:0:0:0:
289,91,83689,6,0,B|338:84|338:84|346:79|346:79|401:69,2,110,4|8|0,0:3|0:3|0:3,0:3:0:0:
256,134,84860,2,0,P|230:132|192:141,2,55,0|4|8,0:3|0:1|0:3,0:3:0:0:
325,220,85798,2,0,P|351:218|389:227,1,55,12|12,0:3|0:3,0:3:0:0:
70,336,87439,6,0,B|56:281|56:281|61:225,1,110,4|0,1:3|1:0,0:0:0:0:
96,123,88376,2,0,B|151:127|151:127|204:111|204:111|261:116,1,165,0|0,1:0|3:0,3:0:0:0:
300,152,89314,2,0,B|296:208|296:208|310:262,1,110,0|0,1:0|1:0,3:0:0:0:
411,303,90251,2,0,B|416:248|416:248|400:195|400:195|405:138,1,165,0|0,1:0|3:0,3:0:0:0:
419,87,91189,6,0,B|363:91|363:91|312:77,1,110,4|0,1:3|1:0,3:0:0:0:
201,78,92126,2,0,B|150:91|150:91|94:87,1,110,0|2,1:3|1:3,3:0:0:0:
16,165,93064,1,12,0:0:0:0:
